  0
SECTION
  2
HEADER
  9
$ACADVER
  1
AC1015
  9
$ACADMAINTVER
 70
     6
  9
$DWGCODEPAGE
  3
ANSI_1252
  9
$INSBASE
 10
0.0
 20
0.0
 30
0.0
  9
$EXTMIN
 10
0.0
 20
0.0
 30
0.0
  9
$EXTMAX
 10
420.0
 20
297.0
 30
0.0
  9
$LIMMIN
 10
0.0
 20
0.0
  9
$LIMMAX
 10
420.0
 20
297.0
  9
$ORTHOMODE
 70
     0
  9
$REGENMODE
 70
     1
  9
$FILLMODE
 70
     1
  9
$QTEXTMODE
 70
     0
  9
$MIRRTEXT
 70
     1
  9
$LTSCALE
 40
1.0
  9
$ATTMODE
 70
     1
  9
$TEXTSIZE
 40
3.5
  9
$TRACEWID
 40
1.0
  9
$TEXTSTYLE
  7
Standard
  9
$CLAYER
  8
0
  9
$CELTYPE
  6
ByLayer
  9
$CECOLOR
 62
   256
  9
$CELTSCALE
 40
1.0
  9
$DISPSILH
 70
     0
  9
$DIMSCALE
 40
1.0
  9
$DIMASZ
 40
3.5
  9
$DIMEXO
 40
1.0
  9
$DIMDLI
 40
3.75
  9
$DIMRND
 40
0.0
  9
$DIMDLE
 40
0.0
  9
$DIMEXE
 40
1.0
  9
$DIMTP
 40
0.0
  9
$DIMTM
 40
0.0
  9
$DIMTXT
 40
3.5
  9
$DIMCEN
 40
2.5
  9
$DIMTSZ
 40
0.0
  9
$DIMTOL
 70
     0
  9
$DIMLIM
 70
     0
  9
$DIMTIH
 70
     1
  9
$DIMTOH
 70
     1
  9
$DIMSE1
 70
     0
  9
$DIMSE2
 70
     0
  9
$DIMTAD
 70
     1
  9
$DIMZIN
 70
     0
  9
$DIMBLK
  1

  9
$DIMASO
 70
     1
  9
$DIMSHO
 70
     1
  9
$DIMPOST
  1

  9
$DIMAPOST
  1

  9
$DIMALT
 70
     0
  9
$DIMALTD
 70
     3
  9
$DIMALTF
 40
0.0393700787
  9
$DIMLFAC
 40
1.0
  9
$DIMTOFL
 70
     1
  9
$DIMTVP
 40
0.0
  9
$DIMTIX
 70
     0
  9
$DIMSOXD
 70
     0
  9
$DIMSAH
 70
     0
  9
$DIMBLK1
  1

  9
$DIMBLK2
  1

  9
$DIMSTYLE
  2
ISO-25
  9
$DIMCLRD
 70
     0
  9
$DIMCLRE
 70
     0
  9
$DIMCLRT
 70
     0
  9
$DIMTFAC
 40
1.0
  9
$DIMGAP
 40
4.0
  9
$DIMJUST
 70
     0
  9
$DIMSD1
 70
     0
  9
$DIMSD2
 70
     0
  9
$DIMTOLJ
 70
     0
  9
$DIMTZIN
 70
     0
  9
$DIMALTZ
 70
     0
  9
$DIMALTTZ
 70
     0
  9
$DIMUPT
 70
     0
  9
$DIMDEC
 70
     1
  9
$DIMTDEC
 70
     2
  9
$DIMALTU
 70
     2
  9
$DIMALTTD
 70
     3
  9
$DIMTXSTY
  7
Standard
  9
$DIMAUNIT
 70
     0
  9
$DIMADEC
 70
     1
  9
$DIMALTRND
 40
0.0
  9
$DIMAZIN
 70
     0
  9
$DIMDSEP
 70
    44
  9
$DIMATFIT
 70
     3
  9
$DIMFRAC
 70
     0
  9
$DIMLDRBLK
  1

  9
$DIMLUNIT
 70
     2
  9
$DIMLWD
 70
    -2
  9
$DIMLWE
 70
    -2
  9
$DIMTMOVE
 70
     0
  9
$LUNITS
 70
     2
  9
$LUPREC
 70
     1
  9
$SKETCHINC
 40
1.0
  9
$FILLETRAD
 40
10.0
  9
$AUNITS
 70
     0
  9
$AUPREC
 70
     1
  9
$MENU
  1
.
  9
$ELEVATION
 40
0.0
  9
$PELEVATION
 40
0.0
  9
$THICKNESS
 40
0.0
  9
$LIMCHECK
 70
     0
  9
$CHAMFERA
 40
10.0
  9
$CHAMFERB
 40
10.0
  9
$CHAMFERC
 40
20.0
  9
$CHAMFERD
 40
0.0
  9
$SKPOLY
 70
     0
  9
$TDCREATE
 40
2456156.46478066
  9
$TDUCREATE
 40
2456156.381447326
  9
$TDUPDATE
 40
2456156.464780672
  9
$TDUUPDATE
 40
2456156.381447338
  9
$TDINDWG
 40
0.0000000116
  9
$TDUSRTIMER
 40
0.0000000116
  9
$USRTIMER
 70
     1
  9
$ANGBASE
 50
0.0
  9
$ANGDIR
 70
     0
  9
$PDMODE
 70
     0
  9
$PDSIZE
 40
-1.0
  9
$PLINEWID
 40
0.0
  9
$SPLFRAME
 70
     0
  9
$SPLINETYPE
 70
     6
  9
$SPLINESEGS
 70
     8
  9
$HANDSEED
  5
2E2
  9
$SURFTAB1
 70
     6
  9
$SURFTAB2
 70
     6
  9
$SURFTYPE
 70
     6
  9
$SURFU
 70
     6
  9
$SURFV
 70
     6
  9
$UCSBASE
  2

  9
$UCSNAME
  2

  9
$UCSORG
 10
0.0
 20
0.0
 30
0.0
  9
$UCSXDIR
 10
1.0
 20
0.0
 30
0.0
  9
$UCSYDIR
 10
0.0
 20
1.0
 30
0.0
  9
$UCSORTHOREF
  2

  9
$UCSORTHOVIEW
 70
     0
  9
$UCSORGTOP
 10
0.0
 20
0.0
 30
0.0
  9
$UCSORGBOTTOM
 10
0.0
 20
0.0
 30
0.0
  9
$UCSORGLEFT
 10
0.0
 20
0.0
 30
0.0
  9
$UCSORGRIGHT
 10
0.0
 20
0.0
 30
0.0
  9
$UCSORGFRONT
 10
0.0
 20
0.0
 30
0.0
  9
$UCSORGBACK
 10
0.0
 20
0.0
 30
0.0
  9
$PUCSBASE
  2

  9
$PUCSNAME
  2

  9
$PUCSORG
 10
0.0
 20
0.0
 30
0.0
  9
$PUCSXDIR
 10
1.0
 20
0.0
 30
0.0
  9
$PUCSYDIR
 10
0.0
 20
1.0
 30
0.0
  9
$PUCSORTHOREF
  2

  9
$PUCSORTHOVIEW
 70
     0
  9
$PUCSORGTOP
 10
0.0
 20
0.0
 30
0.0
  9
$PUCSORGBOTTOM
 10
0.0
 20
0.0
 30
0.0
  9
$PUCSORGLEFT
 10
0.0
 20
0.0
 30
0.0
  9
$PUCSORGRIGHT
 10
0.0
 20
0.0
 30
0.0
  9
$PUCSORGFRONT
 10
0.0
 20
0.0
 30
0.0
  9
$PUCSORGBACK
 10
0.0
 20
0.0
 30
0.0
  9
$USERI1
 70
     0
  9
$USERI2
 70
     0
  9
$USERI3
 70
     0
  9
$USERI4
 70
     0
  9
$USERI5
 70
     0
  9
$USERR1
 40
0.0
  9
$USERR2
 40
0.0
  9
$USERR3
 40
0.0
  9
$USERR4
 40
0.0
  9
$USERR5
 40
0.0
  9
$WORLDVIEW
 70
     1
  9
$SHADEDGE
 70
     3
  9
$SHADEDIF
 70
    70
  9
$TILEMODE
 70
     1
  9
$MAXACTVP
 70
    64
  9
$PINSBASE
 10
0.0
 20
0.0
 30
0.0
  9
$PLIMCHECK
 70
     0
  9
$PEXTMIN
 10
1.0000000000E+20
 20
1.0000000000E+20
 30
1.0000000000E+20
  9
$PEXTMAX
 10
-1.0000000000E+20
 20
-1.0000000000E+20
 30
-1.0000000000E+20
  9
$PLIMMIN
 10
0.0
 20
0.0
  9
$PLIMMAX
 10
420.0
 20
297.0
  9
$UNITMODE
 70
     0
  9
$VISRETAIN
 70
     1
  9
$PLINEGEN
 70
     0
  9
$PSLTSCALE
 70
     1
  9
$TREEDEPTH
 70
  3020
  9
$CMLSTYLE
  2
Standard
  9
$CMLJUST
 70
     0
  9
$CMLSCALE
 40
20.0
  9
$PROXYGRAPHICS
 70
     1
  9
$MEASUREMENT
 70
     1
  9
$CELWEIGHT
370
    -1
  9
$ENDCAPS
280
     0
  9
$JOINSTYLE
280
     0
  9
$LWDISPLAY
290
     1
  9
$INSUNITS
 70
     4
  9
$HYPERLINKBASE
  1

  9
$STYLESHEET
  1

  9
$XEDIT
290
     1
  9
$CEPSNTYPE
380
     0
  9
$PSTYLEMODE
290
     1
  9
$FINGERPRINTGUID
  2
{A716219B-C50E-4A71-B2B2-9835289B5BAC}
  9
$VERSIONGUID
  2
{FAEB1C32-E019-11D5-929B-00C0DF256EC4}
  9
$EXTNAMES
290
     1
  9
$PSVPSCALE
 40
0.0
  9
$OLESTARTUP
290
     0
  0
ENDSEC
  0
SECTION
  2
CLASSES
  0
CLASS
  1
ACDBDICTIONARYWDFLT
  2
AcDbDictionaryWithDefault
  3
ObjectDBX Classes
 90
        0
280
     0
281
     0
  0
CLASS
  1
VISUALSTYLE
  2
AcDbVisualStyle
  3
ObjectDBX Classes
 90
     4095
280
     0
281
     0
  0
CLASS
  1
MATERIAL
  2
AcDbMaterial
  3
ObjectDBX Classes
 90
     1153
280
     0
281
     0
  0
CLASS
  1
ACDBPLACEHOLDER
  2
AcDbPlaceHolder
  3
ObjectDBX Classes
 90
        0
280
     0
281
     0
  0
CLASS
  1
LAYOUT
  2
AcDbLayout
  3
ObjectDBX Classes
 90
        0
280
     0
281
     0
  0
ENDSEC
  0
SECTION
  2
TABLES
  0
TABLE
  2
VPORT
  5
8
330
0
100
AcDbSymbolTable
 70
     1
  0
VPORT
  5
29
330
8
100
AcDbSymbolTableRecord
100
AcDbViewportTableRecord
  2
*Active
 70
     0
 10
0.0
 20
0.0
 11
1.0
 21
1.0
 12
210.0
 22
148.5
 13
0.0
 23
0.0
 14
10.0
 24
10.0
 15
10.0
 25
10.0
 16
0.0
 26
0.0
 36
1.0
 17
0.0
 27
0.0
 37
0.0
 40
297.0
 41
1.4141414141
 42
50.0
 43
0.0
 44
0.0
 50
0.0
 51
0.0
 71
     0
 72
  2000
 73
     1
 74
     3
 75
     0
 76
     0
 77
     0
 78
     0
281
     0
 65
     1
110
0.0
120
0.0
130
0.0
111
1.0
121
0.0
131
0.0
112
0.0
122
1.0
132
0.0
 79
     0
146
0.0
  0
ENDTAB
  0
TABLE
  2
LTYPE
  5
5
330
0
100
AcDbSymbolTable
 70
     6
  0
LTYPE
  5
14
330
5
100
AcDbSymbolTableRecord
100
AcDbLinetypeTableRecord
  2
ByBlock
 70
     0
  3

 72
    65
 73
     0
 40
0.0
  0
LTYPE
  5
15
330
5
100
AcDbSymbolTableRecord
100
AcDbLinetypeTableRecord
  2
ByLayer
 70
     0
  3

 72
    65
 73
     0
 40
0.0
  0
LTYPE
  5
16
330
5
100
AcDbSymbolTableRecord
100
AcDbLinetypeTableRecord
  2
Continuous
 70
     0
  3
Solid line
 72
    65
 73
     0
 40
0.0
  0
LTYPE
  5
3F
330
5
100
AcDbSymbolTableRecord
100
AcDbLinetypeTableRecord
  2
HIDDEN
 70
     0
  3
Hidden __ __ __ __ __ __ __ __ __ __ __ __ __ __
 72
    65
 73
     2
 40
1.905
 49
1.27
 74
     0
 49
-0.635
 74
     0
  0
LTYPE
  5
40
330
5
100
AcDbSymbolTableRecord
100
AcDbLinetypeTableRecord
  2
PHANTOM
 70
     0
  3
Phantom ______  __  __  ______  __  __  ______
 72
    65
 73
     6
 40
12.7
 49
6.35
 74
     0
 49
-1.27
 74
     0
 49
1.27
 74
     0
 49
-1.27
 74
     0
 49
1.27
 74
     0
 49
-1.27
 74
     0
  0
LTYPE
  5
41
330
5
100
AcDbSymbolTableRecord
100
AcDbLinetypeTableRecord
  2
CENTER
 70
     0
  3
Center ____ _ ____ _ ____ _ ____ _ ____ _ ____
 72
    65
 73
     4
 40
10.16
 49
6.35
 74
     0
 49
-1.27
 74
     0
 49
1.27
 74
     0
 49
-1.27
 74
     0
  0
LTYPE
  5
42
330
5
100
AcDbSymbolTableRecord
100
AcDbLinetypeTableRecord
  2
CENTERX2
 70
     0
  3
Center (2x) ________  __  ________  __  _____
 72
    65
 73
     4
 40
20.32
 49
12.7
 74
     0
 49
-2.54
 74
     0
 49
2.54
 74
     0
 49
-2.54
 74
     0
  0
LTYPE
  5
43
330
5
100
AcDbSymbolTableRecord
100
AcDbLinetypeTableRecord
  2
DOT2
 70
     0
  3
Dot (.5x) ........................................
 72
    65
 73
     2
 40
0.635
 49
0.0
 74
     0
 49
-0.635
 74
     0
  0
ENDTAB
  0
TABLE
  2
LAYER
  5
2
330
0
100
AcDbSymbolTable
 70
     5
  0
LAYER
  5
10
330
2
100
AcDbSymbolTableRecord
100
AcDbLayerTableRecord
  2
0
 70
     0
 62
     7
  6
Continuous
370
    -3
390
F
  0
LAYER
  5
44
330
2
100
AcDbSymbolTableRecord
100
AcDbLayerTableRecord
  2
VORLAGE
 70
     0
 62
    -1
  6
Continuous
370
    -3
390
F
  0
LAYER
  5
45
330
2
100
AcDbSymbolTableRecord
100
AcDbLayerTableRecord
  2
RAHMEN
 70
     0
 62
   179
  6
Continuous
370
    -3
390
F
  0
LAYER
  5
46
330
2
100
AcDbSymbolTableRecord
100
AcDbLayerTableRecord
  2
KOPF
 70
     0
 62
     7
  6
Continuous
370
    -3
390
F
  0
LAYER
  5
47
330
2
100
AcDbSymbolTableRecord
100
AcDbLayerTableRecord
  2
TEMP
 70
     0
 62
     7
  6
Continuous
370
    -3
390
F
  0
ENDTAB
  0
TABLE
  2
STYLE
  5
3
330
0
100
AcDbSymbolTable
 70
     2
  0
STYLE
  5
11
330
3
100
AcDbSymbolTableRecord
100
AcDbTextStyleTableRecord
  2
Standard
 70
     0
 40
0.0
 41
1.0
 50
0.0
 71
     0
 42
2.5
  3
txt
  4

  0
STYLE
  5
D5
330
3
100
AcDbSymbolTableRecord
100
AcDbTextStyleTableRecord
  2
SLDTEXTSTYLE0
 70
     0
 40
0.0
 41
0.605
 50
0.0
 71
     0
 42
0.2
  3
TXT
  4

  0
ENDTAB
  0
TABLE
  2
VIEW
  5
6
330
0
100
AcDbSymbolTable
 70
     0
  0
ENDTAB
  0
TABLE
  2
UCS
  5
7
330
0
100
AcDbSymbolTable
 70
     0
  0
ENDTAB
  0
TABLE
  2
APPID
  5
9
330
0
100
AcDbSymbolTable
 70
     1
  0
APPID
  5
12
330
9
100
AcDbSymbolTableRecord
100
AcDbRegAppTableRecord
  2
ACAD
 70
     0
  0
ENDTAB
  0
TABLE
  2
DIMSTYLE
  5
A
330
0
100
AcDbSymbolTable
 70
     3
100
AcDbDimStyleTable
  0
DIMSTYLE
105
27
330
A
100
AcDbSymbolTableRecord
100
AcDbDimStyleTableRecord
  2
ISO-25
 70
     0
 41
2.5
 42
0.625
 43
3.75
 44
1.25
 73
     0
 74
     0
 77
     1
 78
     8
140
2.5
141
2.5
143
0.0393700787
147
0.625
171
     3
172
     1
178
     0
271
     2
272
     2
274
     3
278
    44
283
     0
284
     8
340
11
  0
DIMSTYLE
105
D6
102
{ACAD_REACTORS
330
D4
102
}
330
A
100
AcDbSymbolTableRecord
100
AcDbDimStyleTableRecord
  2
SLDDIMSTYLE0
 70
     0
 41
3.5
 44
0.0
 45
0.000000001
 73
     0
 74
     0
 77
     1
 78
    12
 79
     3
140
3.5
147
0.875
173
     1
178
     0
271
     0
272
     2
276
     2
284
    12
340
D5
  0
DIMSTYLE
105
137
102
{ACAD_REACTORS
330
136
330
143
102
}
330
A
100
AcDbSymbolTableRecord
100
AcDbDimStyleTableRecord
  2
SLDDIMSTYLE1
 70
     0
 41
3.5
 44
0.0
 45
0.000000001
 73
     0
 74
     0
 77
     1
 78
    12
 79
     3
140
3.5
147
0.875
173
     1
178
     0
271
     1
272
     2
276
     2
284
    12
340
D5
  0
ENDTAB
  0
TABLE
  2
BLOCK_RECORD
  5
1
330
0
100
AcDbSymbolTable
 70
     4
  0
BLOCK_RECORD
  5
1F
330
1
100
AcDbSymbolTableRecord
100
AcDbBlockTableRecord
  2
*Model_Space
340
22
  0
BLOCK_RECORD
  5
1B
330
1
100
AcDbSymbolTableRecord
100
AcDbBlockTableRecord
  2
*Paper_Space
340
1E
  0
BLOCK_RECORD
  5
23
330
1
100
AcDbSymbolTableRecord
100
AcDbBlockTableRecord
  2
*Paper_Space0
340
26
  0
BLOCK_RECORD
  5
D7
330
1
100
AcDbSymbolTableRecord
100
AcDbBlockTableRecord
  2
*D1
340
0
  0
BLOCK_RECORD
  5
138
330
1
100
AcDbSymbolTableRecord
100
AcDbBlockTableRecord
  2
*D2
340
0
  0
BLOCK_RECORD
  5
144
330
1
100
AcDbSymbolTableRecord
100
AcDbBlockTableRecord
  2
*D3
340
0
  0
ENDTAB
  0
ENDSEC
  0
SECTION
  2
BLOCKS
  0
BLOCK
  5
20
330
1F
100
AcDbEntity
  8
0
100
AcDbBlockBegin
  2
*Model_Space
 70
     0
 10
0.0
 20
0.0
 30
0.0
  3
*Model_Space
  1

  0
ENDBLK
  5
21
330
1F
100
AcDbEntity
  8
0
100
AcDbBlockEnd
  0
BLOCK
  5
1C
330
1B
100
AcDbEntity
 67
     1
  8
0
100
AcDbBlockBegin
  2
*Paper_Space
 70
     0
 10
0.0
 20
0.0
 30
0.0
  3
*Paper_Space
  1

  0
ENDBLK
  5
1D
330
1B
100
AcDbEntity
 67
     1
  8
0
100
AcDbBlockEnd
  0
BLOCK
  5
24
330
23
100
AcDbEntity
  8
0
100
AcDbBlockBegin
  2
*Paper_Space0
 70
     0
 10
0.0
 20
0.0
 30
0.0
  3
*Paper_Space0
  1

  0
ENDBLK
  5
25
330
23
100
AcDbEntity
  8
0
100
AcDbBlockEnd
  0
BLOCK
  5
D8
330
D7
100
AcDbEntity
  8
0
100
AcDbBlockBegin
  2
*D1
 70
     1
 10
0.0
 20
0.0
 30
0.0
  3
*D1
  1

  0
ARC
  5
DA
330
D7
100
AcDbEntity
  8
0
  6
Continuous
 62
     7
370
     0
100
AcDbCircle
 10
29.2810972572
 20
206.1490226323
 30
0.0
 40
6.00537012868
100
AcDbArc
 50
243.4349488229
 51
296.5650511771
  0
ARC
  5
DB
330
D7
100
AcDbEntity
  8
0
  6
Continuous
 62
     7
370
     0
100
AcDbCircle
 10
29.2810972572
 20
206.6015880109
 30
0.0
 40
6.005370128679981
100
AcDbArc
 50
63.4349488229
 51
116.5650511771
  0
SOLID
  5
DC
330
D7
100
AcDbEntity
  8
0
  6
Continuous
 62
     7
370
     0
100
AcDbTrace
 10
31.9667804247
 20
263.2274172185
 30
0.0
 11
31.0667804247
 21
259.7274172185
 31
0.0
 12
32.8667804247
 22
259.7274172185
 32
0.0
 13
32.8667804247
 23
259.7274172185
 33
0.0
  0
SOLID
  5
DD
330
D7
100
AcDbEntity
  8
0
  6
Continuous
 62
     7
370
     0
100
AcDbTrace
 10
31.9667804247
 20
144.4274010199
 30
0.0
 11
32.8667804247
 21
147.9274010199
 31
0.0
 12
31.0667804247
 22
147.9274010199
 32
0.0
 13
31.0667804247
 23
147.9274010199
 33
0.0
  0
LINE
  5
DE
330
D7
100
AcDbEntity
  8
0
  6
Continuous
 62
     7
370
     0
100
AcDbLine
 10
60.3834533349
 20
263.2274172185
 30
0.0
 11
30.9667804247
 21
263.2274172185
 31
0.0
  0
LINE
  5
DF
330
D7
100
AcDbEntity
  8
0
  6
Continuous
 62
     7
370
     0
100
AcDbLine
 10
49.0834533349
 20
144.4274010199
 30
0.0
 11
30.9667804247
 21
144.4274010199
 31
0.0
  0
LINE
  5
E0
330
D7
100
AcDbEntity
  8
0
  6
Continuous
 62
     7
370
     0
100
AcDbLine
 10
31.9667804247
 20
263.2274172185
 30
0.0
 11
31.9667804247
 21
144.4274010199
 31
0.0
  0
MTEXT
  5
E1
330
D7
100
AcDbEntity
  8
0
  6
Continuous
 62
     7
370
     0
100
AcDbMText
 10
27.4550431027
 20
202.3651562972
 30
0.0
 40
3.5
 41
0.0
 71
     1
 72
     1
  1
119
  7
SLDTEXTSTYLE0
 11
-7.044195017643634E-15
 21
1.0
 31
0.0
 73
     1
 44
1.0
  0
ENDBLK
  5
D9
330
D7
100
AcDbEntity
  8
0
100
AcDbBlockEnd
  0
BLOCK
  5
139
330
138
100
AcDbEntity
  8
0
100
AcDbBlockBegin
  2
*D2
 70
     1
 10
0.0
 20
0.0
 30
0.0
  3
*D2
  1

  0
ARC
  5
13B
330
138
100
AcDbEntity
  8
0
  6
Continuous
 62
     7
370
     0
100
AcDbCircle
 10
81.7426705648
 20
121.4909093323
 30
0.0
 40
6.005370128679965
100
AcDbArc
 50
153.4349488229
 51
206.5650511771
  0
ARC
  5
13C
330
138
100
AcDbEntity
  8
0
  6
Continuous
 62
     7
370
     0
100
AcDbCircle
 10
79.5208609155
 20
121.4909093323
 30
0.0
 40
6.005370128679965
100
AcDbArc
 50
333.4349488229
 51
26.5650511771
  0
SOLID
  5
13D
330
138
100
AcDbEntity
  8
0
  6
Continuous
 62
     7
370
     0
100
AcDbTrace
 10
47.5834533349
 20
118.8052261648
 30
0.0
 11
51.0834533349
 21
117.9052261648
 31
0.0
 12
51.0834533349
 22
119.7052261648
 32
0.0
 13
51.0834533349
 23
119.7052261648
 33
0.0
  0
SOLID
  5
13E
330
138
100
AcDbEntity
  8
0
  6
Continuous
 62
     7
370
     0
100
AcDbTrace
 10
114.5834533349
 20
118.8052261648
 30
0.0
 11
111.0834533349
 21
119.7052261648
 31
0.0
 12
111.0834533349
 22
117.9052261648
 32
0.0
 13
111.0834533349
 23
117.9052261648
 33
0.0
  0
LINE
  5
13F
330
138
100
AcDbEntity
  8
0
  6
Continuous
 62
     7
370
     0
100
AcDbLine
 10
47.5834533349
 20
103.9409165296
 30
0.0
 11
47.5834533349
 21
119.8052261648
 31
0.0
  0
LINE
  5
140
330
138
100
AcDbEntity
  8
0
  6
Continuous
 62
     7
370
     0
100
AcDbLine
 10
114.5834533349
 20
103.9409165296
 30
0.0
 11
114.5834533349
 21
119.8052261648
 31
0.0
  0
LINE
  5
141
330
138
100
AcDbEntity
  8
0
  6
Continuous
 62
     7
370
     0
100
AcDbLine
 10
47.5834533349
 20
118.8052261648
 30
0.0
 11
114.5834533349
 21
118.8052261648
 31
0.0
  0
MTEXT
  5
142
330
138
100
AcDbEntity
  8
0
  6
Continuous
 62
     7
370
     0
100
AcDbMText
 10
77.9588042297
 20
123.3169634868
 30
0.0
 40
3.5
 41
0.0
 71
     1
 72
     1
  1
67
  7
SLDTEXTSTYLE0
 73
     1
 44
1.0
  0
ENDBLK
  5
13A
330
138
100
AcDbEntity
  8
0
100
AcDbBlockEnd
  0
BLOCK
  5
145
330
144
100
AcDbEntity
  8
0
100
AcDbBlockBegin
  2
*D3
 70
     1
 10
0.0
 20
0.0
 30
0.0
  3
*D3
  1

  0
ARC
  5
147
330
144
100
AcDbEntity
  8
0
  6
Continuous
 62
     7
370
     0
100
AcDbCircle
 10
36.1471205808
 20
71.5361155767
 30
0.0
 40
6.005370128679975
100
AcDbArc
 50
243.4349488229
 51
296.5650511771
  0
ARC
  5
148
330
144
100
AcDbEntity
  8
0
  6
Continuous
 62
     7
370
     0
100
AcDbCircle
 10
36.1471205808
 20
71.9886809552
 30
0.0
 40
6.005370128679975
100
AcDbArc
 50
63.4349488229
 51
116.5650511771
  0
SOLID
  5
149
330
144
100
AcDbEntity
  8
0
  6
Continuous
 62
     7
370
     0
100
AcDbTrace
 10
38.8328037483
 20
110.4409165296
 30
0.0
 11
37.9328037483
 21
106.9409165296
 31
0.0
 12
39.7328037483
 22
106.9409165296
 32
0.0
 13
39.7328037483
 23
106.9409165296
 33
0.0
  0
SOLID
  5
14A
330
144
100
AcDbEntity
  8
0
  6
Continuous
 62
     7
370
     0
100
AcDbTrace
 10
38.8328037483
 20
10.4409165296
 30
0.0
 11
39.7328037483
 21
13.9409165296
 31
0.0
 12
37.9328037483
 22
13.9409165296
 32
0.0
 13
37.9328037483
 23
13.9409165296
 33
0.0
  0
LINE
  5
14B
330
144
100
AcDbEntity
  8
0
  6
Continuous
 62
     7
370
     0
100
AcDbLine
 10
53.5834533349
 20
110.4409165296
 30
0.0
 11
37.8328037483
 21
110.4409165296
 31
0.0
  0
LINE
  5
14C
330
144
100
AcDbEntity
  8
0
  6
Continuous
 62
     7
370
     0
100
AcDbLine
 10
77.0834533349
 20
10.4409165296
 30
0.0
 11
37.8328037483
 21
10.4409165296
 31
0.0
  0
LINE
  5
14D
330
144
100
AcDbEntity
  8
0
  6
Continuous
 62
     7
370
     0
100
AcDbLine
 10
38.8328037483
 20
110.4409165296
 30
0.0
 11
38.8328037483
 21
10.4409165296
 31
0.0
  0
MTEXT
  5
14E
330
144
100
AcDbEntity
  8
0
  6
Continuous
 62
     7
370
     0
100
AcDbMText
 10
34.3210664263
 20
67.7522492416
 30
0.0
 40
3.5
 41
0.0
 71
     1
 72
     1
  1
100
  7
SLDTEXTSTYLE0
 11
-7.044195017643634E-15
 21
1.0
 31
0.0
 73
     1
 44
1.0
  0
ENDBLK
  5
146
330
144
100
AcDbEntity
  8
0
100
AcDbBlockEnd
  0
ENDSEC
  0
SECTION
  2
ENTITIES
  0
LINE
  5
48
330
1F
100
AcDbEntity
  8
0
  6
Continuous
 62
     7
370
    30
100
AcDbLine
 10
72.0834537223
 20
255.2274196743
 30
0.0
 11
72.0834537223
 21
244.4274156688
 31
0.0
  0
LINE
  5
49
330
1F
100
AcDbEntity
  8
0
  6
Continuous
 62
     7
370
    30
100
AcDbLine
 10
90.0834529475
 20
244.4274156688
 30
0.0
 11
90.0834529475
 21
255.2274196743
 31
0.0
  0
LINE
  5
4A
330
1F
100
AcDbEntity
  8
0
  6
Continuous
 62
     7
370
    30
100
AcDbLine
 10
68.0834530667
 20
244.4274156688
 30
0.0
 11
68.0834530667
 21
243.4274136423
 31
0.0
  0
LINE
  5
4B
330
1F
100
AcDbEntity
  8
0
  6
Continuous
 62
     7
370
    30
100
AcDbLine
 10
94.0834536031
 20
243.4274136423
 30
0.0
 11
94.0834536031
 21
244.4274156688
 31
0.0
  0
LINE
  5
4C
330
1F
100
AcDbEntity
  8
0
  6
Continuous
 62
     7
370
    30
100
AcDbLine
 10
107.583453022
 20
145.4274010131
 30
0.0
 11
54.5834536478
 21
145.4274010131
 31
0.0
  0
LINE
  5
4D
330
1F
100
AcDbEntity
  8
0
  6
Continuous
 62
     7
370
    30
100
AcDbLine
 10
107.583453022
 20
167.4274011849
 30
0.0
 11
54.5834536478
 21
167.4274011849
 31
0.0
  0
LINE
  5
4E
330
1F
100
AcDbEntity
  8
0
  6
Continuous
 62
     7
370
    30
100
AcDbLine
 10
48.583454527
 20
145.4274010131
 30
0.0
 11
48.583454527
 21
167.4274011849
 31
0.0
  0
LINE
  5
4F
330
1F
100
AcDbEntity
  8
0
  6
Continuous
 62
     7
370
    30
100
AcDbLine
 10
54.5834536478
 20
145.4274010131
 30
0.0
 11
48.583454527
 21
145.4274010131
 31
0.0
  0
LINE
  5
50
330
1F
100
AcDbEntity
  8
0
  6
Continuous
 62
     7
370
    30
100
AcDbLine
 10
54.5834536478
 20
167.4274011849
 30
0.0
 11
48.583454527
 21
167.4274011849
 31
0.0
  0
LINE
  5
51
330
1F
100
AcDbEntity
  8
0
  6
Continuous
 62
     7
370
    30
100
AcDbLine
 10
113.5834521428
 20
145.4274010131
 30
0.0
 11
113.5834521428
 21
167.4274011849
 31
0.0
  0
LINE
  5
52
330
1F
100
AcDbEntity
  8
0
  6
Continuous
 62
     7
370
    30
100
AcDbLine
 10
113.5834521428
 20
145.4274010131
 30
0.0
 11
107.583453022
 21
145.4274010131
 31
0.0
  0
LINE
  5
53
330
1F
100
AcDbEntity
  8
0
  6
Continuous
 62
     7
370
    30
100
AcDbLine
 10
113.5834521428
 20
167.4274011849
 30
0.0
 11
107.583453022
 21
167.4274011849
 31
0.0
  0
LINE
  5
54
330
1F
100
AcDbEntity
  8
0
  6
Continuous
 62
     7
370
    30
100
AcDbLine
 10
54.5834536478
 20
144.4274010238
 30
0.0
 11
107.583453022
 21
144.4274010238
 31
0.0
  0
LINE
  5
55
330
1F
100
AcDbEntity
  8
0
  6
Continuous
 62
     7
370
    30
100
AcDbLine
 10
50.0834538415
 20
145.4274010131
 30
0.0
 11
50.0834538415
 21
144.4274010238
 31
0.0
  0
LINE
  5
56
330
1F
100
AcDbEntity
  8
0
  6
Continuous
 62
     7
370
    30
100
AcDbLine
 10
50.0834538415
 20
144.4274010238
 30
0.0
 11
54.5834536478
 21
144.4274010238
 31
0.0
  0
LINE
  5
57
330
1F
100
AcDbEntity
  8
0
  6
Continuous
 62
     7
370
    30
100
AcDbLine
 10
112.0834528283
 20
145.4274010131
 30
0.0
 11
112.0834528283
 21
144.4274010238
 31
0.0
  0
LINE
  5
58
330
1F
100
AcDbEntity
  8
0
  6
Continuous
 62
     7
370
    30
100
AcDbLine
 10
107.583453022
 20
144.4274010238
 30
0.0
 11
112.0834528283
 21
144.4274010238
 31
0.0
  0
ARC
  5
59
330
1F
100
AcDbEntity
  8
0
  6
Continuous
 62
     7
370
    30
100
AcDbCircle
 10
69.1458917129
 20
165.6478075605
 30
0.0
 40
1.798127273500139
100
AcDbArc
 50
84.0126060589
 51
91.9899485916
  0
LINE
  5
5A
330
1F
100
AcDbEntity
  8
0
  6
Continuous
 62
     7
370
    30
100
AcDbLine
 10
69.3334537372
 20
167.4361258148
 30
0.0
 11
69.3334537372
 21
167.4274011849
 31
0.0
  0
LINE
  5
5B
330
1F
100
AcDbEntity
  8
0
  6
Continuous
 62
     7
370
    30
100
AcDbLine
 10
66.3334532455
 20
167.4361258148
 30
0.0
 11
66.3334532455
 21
167.4274011849
 31
0.0
  0
ARC
  5
5C
330
1F
100
AcDbEntity
  8
0
  6
Continuous
 62
     7
370
    30
100
AcDbCircle
 10
66.5210152699
 20
165.6478075605
 30
0.0
 40
1.798127273500139
100
AcDbArc
 50
88.0100514084
 51
95.9873939411
  0
LINE
  5
5D
330
1F
100
AcDbEntity
  8
0
  6
Continuous
 62
     7
370
    30
100
AcDbLine
 10
69.0834532306
 20
167.4448504447
 30
0.0
 11
66.5834537521
 21
167.4448504447
 31
0.0
  0
ARC
  5
5E
330
1F
100
AcDbEntity
  8
0
  6
Continuous
 62
     7
370
    30
100
AcDbCircle
 10
95.6458913999
 20
165.6478075605
 30
0.0
 40
1.798127273500139
100
AcDbArc
 50
84.0126060589
 51
91.9899485916
  0
LINE
  5
5F
330
1F
100
AcDbEntity
  8
0
  6
Continuous
 62
     7
370
    30
100
AcDbLine
 10
95.8334534243
 20
167.4361258148
 30
0.0
 11
95.8334534243
 21
167.4274011849
 31
0.0
  0
ARC
  5
60
330
1F
100
AcDbEntity
  8
0
  6
Continuous
 62
     7
370
    30
100
AcDbCircle
 10
93.0210149569
 20
165.6478075605
 30
0.0
 40
1.798127273500139
100
AcDbArc
 50
88.0100514084
 51
95.9873939411
  0
LINE
  5
61
330
1F
100
AcDbEntity
  8
0
  6
Continuous
 62
     7
370
    30
100
AcDbLine
 10
95.5834529177
 20
167.4448504447
 30
0.0
 11
93.0834534392
 21
167.4448504447
 31
0.0
  0
LINE
  5
62
330
1F
100
AcDbEntity
  8
0
  6
Continuous
 62
     7
370
    30
100
AcDbLine
 10
92.8334529326
 20
167.4361258148
 30
0.0
 11
92.8334529326
 21
167.4274011849
 31
0.0
  0
LINE
  5
63
330
1F
100
AcDbEntity
  8
0
  6
Continuous
 62
     7
370
    30
100
AcDbLine
 10
53.3331493661
 20
167.4448504447
 30
0.0
 11
53.3337584511
 21
167.4274011849
 31
0.0
  0
LWPOLYLINE
  5
64
330
1F
100
AcDbEntity
  8
0
  6
Continuous
 62
     7
370
    30
100
AcDbPolyline
 90
        9
 70
   128
 43
0.0
 10
53.0833015964
 20
167.4361258148
 10
53.1320432946
 20
167.4378282724
 10
53.1789130345
 20
167.4394655375
 10
53.2221096382
 20
167.4409724175
 10
53.2599697635
 20
167.4422948955
 10
53.2910424099
 20
167.4433808176
 10
53.3141298965
 20
167.444187343
 10
53.3283474669
 20
167.4446828066
 10
53.3331493661
 20
167.4448504447
  0
LINE
  5
65
330
1F
100
AcDbEntity
  8
0
  6
Continuous
 62
     7
370
    30
100
AcDbLine
 10
108.8331482187
 20
167.4274011849
 30
0.0
 11
108.8337573037
 21
167.4448504447
 31
0.0
  0
LWPOLYLINE
  5
66
330
1F
100
AcDbEntity
  8
0
  6
Continuous
 62
     7
370
    30
100
AcDbPolyline
 90
        9
 70
   128
 43
0.0
 10
108.8337573037
 20
167.4448504447
 10
108.8385592029
 20
167.4446828066
 10
108.8527767733
 20
167.444187343
 10
108.8758642599
 20
167.4433808176
 10
108.9069369063
 20
167.4422948955
 10
108.9447970316
 20
167.4409724175
 10
108.9879936353
 20
167.4394655375
 10
109.0348633752
 20
167.4378282724
 10
109.0836050734
 20
167.4361258148
  0
LINE
  5
67
330
1F
100
AcDbEntity
  8
0
  6
Continuous
 62
     7
370
    30
100
AcDbLine
 10
53.0833015964
 20
167.4361258148
 30
0.0
 11
52.8334538266
 21
167.4274011849
 31
0.0
  0
LINE
  5
68
330
1F
100
AcDbEntity
  8
0
  6
Continuous
 62
     7
370
    30
100
AcDbLine
 10
109.0836050734
 20
167.4361258148
 30
0.0
 11
109.3334528432
 21
167.4274011849
 31
0.0
  0
LINE
  5
69
330
1F
100
AcDbEntity
  8
0
  6
Continuous
 62
     7
370
    30
100
AcDbLine
 10
78.0834533088
 20
255.2274196743
 30
0.0
 11
75.3834532388
 21
255.2274196743
 31
0.0
  0
ARC
  5
6A
330
1F
100
AcDbEntity
  8
0
  6
Continuous
 62
     7
370
    30
100
AcDbCircle
 10
75.3834533349
 20
255.5274172185
 30
0.0
 40
0.3000000000000114
100
AcDbArc
 50
180.0
 51
270.0
  0
ELLIPSE
  5
6B
330
1F
100
AcDbEntity
  8
0
  6
Continuous
 62
     7
370
    30
100
AcDbEllipse
 10
81.0834533349
 20
255.2274172185
 30
0.0
 11
0.0
 21
-2.121320343559603
 31
0.0
210
0.0
220
0.0
230
1.0
 40
0.7071067812
 41
1.71269338139907
 42
4.570491925780529
  0
LINE
  5
6C
330
1F
100
AcDbEntity
  8
0
  6
Continuous
 62
     7
370
    30
100
AcDbLine
 10
78.0834533088
 20
263.227413535
 30
0.0
 11
84.083453361
 21
263.227413535
 31
0.0
  0
LINE
  5
6D
330
1F
100
AcDbEntity
  8
0
  6
Continuous
 62
     7
370
    30
100
AcDbLine
 10
75.3834532388
 20
263.227413535
 30
0.0
 11
78.0834533088
 21
263.227413535
 31
0.0
  0
ARC
  5
6E
330
1F
100
AcDbEntity
  8
0
  6
Continuous
 62
     7
370
    30
100
AcDbCircle
 10
75.3834533349
 20
262.9274172185
 30
0.0
 40
0.2999999999999972
100
AcDbArc
 50
90.0
 51
180.0
  0
LINE
  5
6F
330
1F
100
AcDbEntity
  8
0
  6
Continuous
 62
     7
370
    30
100
AcDbLine
 10
86.783453431
 20
255.2274196743
 30
0.0
 11
84.083453361
 21
255.2274196743
 31
0.0
  0
ARC
  5
70
330
1F
100
AcDbEntity
  8
0
  6
Continuous
 62
     7
370
    30
100
AcDbCircle
 10
86.7834533349
 20
255.5274172185
 30
0.0
 40
0.3000000000000114
100
AcDbArc
 50
270.0
 51
0.0
  0
LINE
  5
71
330
1F
100
AcDbEntity
  8
0
  6
Continuous
 62
     7
370
    30
100
AcDbLine
 10
84.083453361
 20
263.227413535
 30
0.0
 11
86.783453431
 21
263.227413535
 31
0.0
  0
ARC
  5
72
330
1F
100
AcDbEntity
  8
0
  6
Continuous
 62
     7
370
    30
100
AcDbCircle
 10
86.7834533349
 20
262.9274172185
 30
0.0
 40
0.2999999999999972
100
AcDbArc
 50
0.0
 51
90.0
  0
LINE
  5
73
330
1F
100
AcDbEntity
  8
0
  6
Continuous
 62
     7
370
    30
100
AcDbLine
 10
87.083453387
 20
262.9274159072
 30
0.0
 11
87.083453387
 21
255.527417302
 31
0.0
  0
SPLINE
  5
74
330
1F
100
AcDbEntity
  8
0
  6
Continuous
 62
     7
370
    30
100
AcDbSpline
210
0.0
220
0.0
230
1.0
 70
     8
 71
     3
 72
    12
 73
     8
 74
     0
 42
0.00000001
 43
0.00000001
 40
0.0
 40
0.0
 40
0.0
 40
0.0
 40
0.2145459050338236
 40
0.429195137910219
 40
0.6411055608089316
 40
0.8513371304975054
 40
1.0
 40
1.0
 40
1.0
 40
1.0
 10
79.59852910603277
 20
255.5274173019895
 30
0.0
 10
79.59514327619661
 20
255.493798823795
 30
0.0
 10
79.58836998586865
 20
255.4265456763497
 30
0.0
 10
79.58269040360663
 20
255.3368469160524
 30
0.0
 10
79.5838689185173
 20
255.2694222592952
 30
0.0
 10
79.59052571869653
 20
255.2328664872037
 30
0.0
 10
79.59618492438713
 20
255.2290150386178
 30
0.0
 10
79.59852910603277
 20
255.2274196742544
 30
0.0
  0
SPLINE
  5
75
330
1F
100
AcDbEntity
  8
0
  6
Continuous
 62
     7
370
    30
100
AcDbSpline
210
0.0
220
0.0
230
1.0
 70
     8
 71
     3
 72
    12
 73
     8
 74
     0
 42
0.00000001
 43
0.00000001
 40
0.0
 40
0.0
 40
0.0
 40
0.0
 40
0.2145459050338236
 40
0.429195137910219
 40
0.6411055608089316
 40
0.8513371304975054
 40
1.0
 40
1.0
 40
1.0
 40
1.0
 10
82.56837756375663
 20
255.2274196742544
 30
0.0
 10
82.57176339359278
 20
255.2307073481383
 30
0.0
 10
82.57853668392073
 20
255.2372842792886
 30
0.0
 10
82.58421626618276
 20
255.2887165531549
 30
0.0
 10
82.5830377512721
 20
255.3640658952473
 30
0.0
 10
82.57638095109286
 20
255.4481182907063
 30
0.0
 10
82.57072174540225
 20
255.5041907256717
 30
0.0
 10
82.56837756375663
 20
255.5274173019895
 30
0.0
  0
LINE
  5
76
330
1F
100
AcDbEntity
  8
0
  6
Continuous
 62
     7
370
    30
100
AcDbLine
 10
82.5683775638
 20
255.2274196743
 30
0.0
 11
79.598529106
 21
255.2274196743
 31
0.0
  0
LINE
  5
77
330
1F
100
AcDbEntity
  8
0
  6
Continuous
 62
     7
370
    30
100
AcDbLine
 10
79.598529106
 20
255.2274196743
 30
0.0
 11
78.0834533088
 21
255.2274196743
 31
0.0
  0
LINE
  5
78
330
1F
100
AcDbEntity
  8
0
  6
Continuous
 62
     7
370
    30
100
AcDbLine
 10
84.083453361
 20
255.2274196743
 30
0.0
 11
82.5683775638
 21
255.2274196743
 31
0.0
  0
LINE
  5
79
330
1F
100
AcDbEntity
  8
0
  6
Continuous
 62
     7
370
    30
100
AcDbLine
 10
75.0834532827
 20
255.527417302
 30
0.0
 11
75.0834532827
 21
262.9274159072
 31
0.0
  0
LINE
  5
7A
330
1F
100
AcDbEntity
  8
0
  6
Continuous
 62
     7
370
    30
100
AcDbLine
 10
69.0834532306
 20
263.227413535
 30
0.0
 11
75.3834532388
 21
263.227413535
 31
0.0
  0
LINE
  5
7B
330
1F
100
AcDbEntity
  8
0
  6
Continuous
 62
     7
370
    30
100
AcDbLine
 10
93.0834534392
 20
255.2274196743
 30
0.0
 11
86.783453431
 21
255.2274196743
 31
0.0
  0
LINE
  5
7C
330
1F
100
AcDbEntity
  8
0
  6
Continuous
 62
     7
370
    30
100
AcDbLine
 10
86.783453431
 20
263.227413535
 30
0.0
 11
93.0834534392
 21
263.227413535
 31
0.0
  0
LINE
  5
7D
330
1F
100
AcDbEntity
  8
0
  6
Continuous
 62
     7
370
    30
100
AcDbLine
 10
75.3834532388
 20
255.2274196743
 30
0.0
 11
69.0834532306
 21
255.2274196743
 31
0.0
  0
LINE
  5
7E
330
1F
100
AcDbEntity
  8
0
  6
Continuous
 62
     7
370
    30
100
AcDbLine
 10
69.0834532306
 20
255.2274196743
 30
0.0
 11
67.0834529028
 21
255.2274196743
 31
0.0
  0
ARC
  5
7F
330
1F
100
AcDbEntity
  8
0
  6
Continuous
 62
     7
370
    30
100
AcDbCircle
 10
100.7834533349
 20
255.5274172185
 30
0.0
 40
0.3000000000000114
100
AcDbArc
 50
270.0
 51
0.0
  0
LINE
  5
80
330
1F
100
AcDbEntity
  8
0
  6
Continuous
 62
     7
370
    30
100
AcDbLine
 10
100.7834533975
 20
255.2274196743
 30
0.0
 11
95.083453767
 21
255.2274196743
 31
0.0
  0
ARC
  5
81
330
1F
100
AcDbEntity
  8
0
  6
Continuous
 62
     7
370
    30
100
AcDbCircle
 10
61.3834533349
 20
255.5274172185
 30
0.0
 40
0.3000000000000114
100
AcDbArc
 50
180.0
 51
270.0
  0
LINE
  5
82
330
1F
100
AcDbEntity
  8
0
  6
Continuous
 62
     7
370
    30
100
AcDbLine
 10
67.0834529028
 20
255.2274196743
 30
0.0
 11
61.3834532723
 21
255.2274196743
 31
0.0
  0
ARC
  5
83
330
1F
100
AcDbEntity
  8
0
  6
Continuous
 62
     7
370
    30
100
AcDbCircle
 10
61.3834533349
 20
262.9274172185
 30
0.0
 40
0.3000000000000043
100
AcDbArc
 50
90.0
 51
180.0
  0
LINE
  5
84
330
1F
100
AcDbEntity
  8
0
  6
Continuous
 62
     7
370
    30
100
AcDbLine
 10
61.3834532723
 20
263.227413535
 30
0.0
 11
67.0834529028
 21
263.227413535
 31
0.0
  0
LINE
  5
85
330
1F
100
AcDbEntity
  8
0
  6
Continuous
 62
     7
370
    30
100
AcDbLine
 10
67.0834529028
 20
263.227413535
 30
0.0
 11
69.0834532306
 21
263.227413535
 31
0.0
  0
ARC
  5
86
330
1F
100
AcDbEntity
  8
0
  6
Continuous
 62
     7
370
    30
100
AcDbCircle
 10
100.7834533349
 20
262.9274172185
 30
0.0
 40
0.2999999999999972
100
AcDbArc
 50
0.0
 51
90.0
  0
LINE
  5
87
330
1F
100
AcDbEntity
  8
0
  6
Continuous
 62
     7
370
    30
100
AcDbLine
 10
95.083453767
 20
263.227413535
 30
0.0
 11
100.7834533975
 21
263.227413535
 31
0.0
  0
LINE
  5
88
330
1F
100
AcDbEntity
  8
0
  6
Continuous
 62
     7
370
    30
100
AcDbLine
 10
95.083453767
 20
255.2274196743
 30
0.0
 11
93.0834534392
 21
255.2274196743
 31
0.0
  0
LINE
  5
89
330
1F
100
AcDbEntity
  8
0
  6
Continuous
 62
     7
370
    30
100
AcDbLine
 10
101.0834528879
 20
262.9274159072
 30
0.0
 11
101.0834528879
 21
255.527417302
 31
0.0
  0
LINE
  5
8A
330
1F
100
AcDbEntity
  8
0
  6
Continuous
 62
     7
370
    30
100
AcDbLine
 10
61.0834537819
 20
255.527417302
 30
0.0
 11
61.0834537819
 21
262.9274159072
 31
0.0
  0
LINE
  5
8B
330
1F
100
AcDbEntity
  8
0
  6
Continuous
 62
     7
370
    30
100
AcDbLine
 10
93.0834534392
 20
263.227413535
 30
0.0
 11
95.083453767
 21
263.227413535
 31
0.0
  0
LINE
  5
8C
330
1F
100
AcDbEntity
  8
0
  6
Continuous
 62
     7
370
    30
100
AcDbLine
 10
68.0834530667
 20
244.4274156688
 30
0.0
 11
94.0834536031
 21
244.4274156688
 31
0.0
  0
LINE
  5
8D
330
1F
100
AcDbEntity
  8
0
  6
Continuous
 62
     7
370
    30
100
AcDbLine
 10
47.8834538535
 20
243.4274136423
 30
0.0
 11
53.5834534839
 21
243.4274136423
 31
0.0
  0
ARC
  5
8E
330
1F
100
AcDbEntity
  8
0
  6
Continuous
 62
     7
370
    30
100
AcDbCircle
 10
47.8834533349
 20
243.1274172185
 30
0.0
 40
0.3000000000000114
100
AcDbArc
 50
90.0
 51
180.0
  0
LINE
  5
8F
330
1F
100
AcDbEntity
  8
0
  6
Continuous
 62
     7
370
    30
100
AcDbLine
 10
108.5834531859
 20
221.4274137615
 30
0.0
 11
53.5834534839
 21
221.4274137615
 31
0.0
  0
LINE
  5
90
330
1F
100
AcDbEntity
  8
0
  6
Continuous
 62
     7
370
    30
100
AcDbLine
 10
47.5834525004
 20
221.7274188398
 30
0.0
 11
47.5834525004
 21
243.1274160145
 31
0.0
  0
LINE
  5
91
330
1F
100
AcDbEntity
  8
0
  6
Continuous
 62
     7
370
    30
100
AcDbLine
 10
53.5834534839
 20
243.4274136423
 30
0.0
 11
108.5834531859
 21
243.4274136423
 31
0.0
  0
LINE
  5
92
330
1F
100
AcDbEntity
  8
0
  6
Continuous
 62
     7
370
    30
100
AcDbLine
 10
108.5834531859
 20
243.4274136423
 30
0.0
 11
114.2834528163
 21
243.4274136423
 31
0.0
  0
ARC
  5
93
330
1F
100
AcDbEntity
  8
0
  6
Continuous
 62
     7
370
    30
100
AcDbCircle
 10
114.2834533349
 20
243.1274172185
 30
0.0
 40
0.3000000000000114
100
AcDbArc
 50
0.0
 51
90.0
  0
LINE
  5
94
330
1F
100
AcDbEntity
  8
0
  6
Continuous
 62
     7
370
    30
100
AcDbLine
 10
53.5834534839
 20
221.4274137615
 30
0.0
 11
47.8834538535
 21
221.4274137615
 31
0.0
  0
ARC
  5
95
330
1F
100
AcDbEntity
  8
0
  6
Continuous
 62
     7
370
    30
100
AcDbCircle
 10
47.8834533349
 20
221.7274172185
 30
0.0
 40
0.3000000000000114
100
AcDbArc
 50
180.0
 51
270.0
  0
LINE
  5
96
330
1F
100
AcDbEntity
  8
0
  6
Continuous
 62
     7
370
    30
100
AcDbLine
 10
114.5834541694
 20
243.1274160145
 30
0.0
 11
114.5834541694
 21
221.7274188398
 31
0.0
  0
LINE
  5
97
330
1F
100
AcDbEntity
  8
0
  6
Continuous
 62
     7
370
    30
100
AcDbLine
 10
114.2834528163
 20
221.4274137615
 30
0.0
 11
108.5834531859
 21
221.4274137615
 31
0.0
  0
ARC
  5
98
330
1F
100
AcDbEntity
  8
0
  6
Continuous
 62
     7
370
    30
100
AcDbCircle
 10
114.2834533349
 20
221.7274172185
 30
0.0
 40
0.3000000000000114
100
AcDbArc
 50
270.0
 51
0.0
  0
LINE
  5
99
330
1F
100
AcDbEntity
  8
0
  6
Continuous
 62
     7
370
    30
100
AcDbLine
 10
53.4436824546
 20
167.4274011849
 30
0.0
 11
50.4246122018
 21
221.4274137615
 31
0.0
  0
LINE
  5
9A
330
1F
100
AcDbEntity
  8
0
  6
Continuous
 62
     7
370
    30
100
AcDbLine
 10
111.742294468
 20
221.4274137615
 30
0.0
 11
108.7232242152
 21
167.4274011849
 31
0.0
  0
LINE
  5
9B
330
1F
100
AcDbEntity
  8
0
  6
Continuous
 62
     8
370
     0
100
AcDbLine
 10
107.583453022
 20
145.4274010131
 30
0.0
 11
107.583453022
 21
167.4274011849
 31
0.0
  0
LINE
  5
9C
330
1F
100
AcDbEntity
  8
0
  6
Continuous
 62
     8
370
     0
100
AcDbLine
 10
54.5834536478
 20
145.4274010131
 30
0.0
 11
54.5834536478
 21
167.4274011849
 31
0.0
  0
LINE
  5
9D
330
1F
100
AcDbEntity
  8
0
  6
Continuous
 62
     8
370
     0
100
AcDbLine
 10
54.5834536478
 20
145.4274010131
 30
0.0
 11
54.5834536478
 21
144.4274010238
 31
0.0
  0
LINE
  5
9E
330
1F
100
AcDbEntity
  8
0
  6
Continuous
 62
     8
370
     0
100
AcDbLine
 10
107.583453022
 20
145.4274010131
 30
0.0
 11
107.583453022
 21
144.4274010238
 31
0.0
  0
LINE
  5
9F
330
1F
100
AcDbEntity
  8
0
  6
Continuous
 62
     8
370
     0
100
AcDbLine
 10
53.0836052075
 20
167.4274011849
 30
0.0
 11
53.0833015964
 21
167.4361258148
 31
0.0
  0
LINE
  5
A0
330
1F
100
AcDbEntity
  8
0
  6
Continuous
 62
     8
370
     0
100
AcDbLine
 10
109.0836050734
 20
167.4361258148
 30
0.0
 11
109.0833014623
 21
167.4274011849
 31
0.0
  0
LINE
  5
A1
330
1F
100
AcDbEntity
  8
0
  6
Continuous
 62
     8
370
     0
100
AcDbLine
 10
75.0834532827
 20
255.527417302
 30
0.0
 11
78.0834533088
 21
255.527417302
 31
0.0
  0
LINE
  5
A2
330
1F
100
AcDbEntity
  8
0
  6
Continuous
 62
     8
370
     0
100
AcDbLine
 10
78.0834533088
 20
255.2274196743
 30
0.0
 11
78.0834533088
 21
255.527417302
 31
0.0
  0
LINE
  5
A3
330
1F
100
AcDbEntity
  8
0
  6
Continuous
 62
     8
370
     0
100
AcDbLine
 10
78.0834533088
 20
255.527417302
 30
0.0
 11
79.598529106
 21
255.527417302
 31
0.0
  0
LINE
  5
A4
330
1F
100
AcDbEntity
  8
0
  6
Continuous
 62
     8
370
     0
100
AcDbLine
 10
78.0834533088
 20
262.9274159072
 30
0.0
 11
78.0834533088
 21
255.527417302
 31
0.0
  0
LINE
  5
A5
330
1F
100
AcDbEntity
  8
0
  6
Continuous
 62
     8
370
     0
100
AcDbLine
 10
84.083453361
 20
262.9274159072
 30
0.0
 11
78.0834533088
 21
262.9274159072
 31
0.0
  0
LINE
  5
A6
330
1F
100
AcDbEntity
  8
0
  6
Continuous
 62
     8
370
     0
100
AcDbLine
 10
84.083453361
 20
255.527417302
 30
0.0
 11
84.083453361
 21
262.9274159072
 31
0.0
  0
LINE
  5
A7
330
1F
100
AcDbEntity
  8
0
  6
Continuous
 62
     8
370
     0
100
AcDbLine
 10
82.5683775638
 20
255.527417302
 30
0.0
 11
84.083453361
 21
255.527417302
 31
0.0
  0
LINE
  5
A8
330
1F
100
AcDbEntity
  8
0
  6
Continuous
 62
     8
370
     0
100
AcDbLine
 10
78.0834533088
 20
262.9274159072
 30
0.0
 11
78.0834533088
 21
263.227413535
 31
0.0
  0
LINE
  5
A9
330
1F
100
AcDbEntity
  8
0
  6
Continuous
 62
     8
370
     0
100
AcDbLine
 10
84.083453361
 20
262.9274159072
 30
0.0
 11
84.083453361
 21
263.227413535
 31
0.0
  0
LINE
  5
AA
330
1F
100
AcDbEntity
  8
0
  6
Continuous
 62
     8
370
     0
100
AcDbLine
 10
78.0834533088
 20
262.9274159072
 30
0.0
 11
75.0834532827
 21
262.9274159072
 31
0.0
  0
LINE
  5
AB
330
1F
100
AcDbEntity
  8
0
  6
Continuous
 62
     8
370
     0
100
AcDbLine
 10
84.083453361
 20
255.2274196743
 30
0.0
 11
84.083453361
 21
255.527417302
 31
0.0
  0
LINE
  5
AC
330
1F
100
AcDbEntity
  8
0
  6
Continuous
 62
     8
370
     0
100
AcDbLine
 10
84.083453361
 20
255.527417302
 30
0.0
 11
87.083453387
 21
255.527417302
 31
0.0
  0
LINE
  5
AD
330
1F
100
AcDbEntity
  8
0
  6
Continuous
 62
     8
370
     0
100
AcDbLine
 10
87.083453387
 20
262.9274159072
 30
0.0
 11
84.083453361
 21
262.9274159072
 31
0.0
  0
LINE
  5
AE
330
1F
100
AcDbEntity
  8
0
  6
Continuous
 62
     8
370
     0
100
AcDbLine
 10
75.0834532827
 20
262.9274159072
 30
0.0
 11
69.0834532306
 21
262.9274159072
 31
0.0
  0
LINE
  5
AF
330
1F
100
AcDbEntity
  8
0
  6
Continuous
 62
     8
370
     0
100
AcDbLine
 10
69.0834532306
 20
255.527417302
 30
0.0
 11
75.0834532827
 21
255.527417302
 31
0.0
  0
LINE
  5
B0
330
1F
100
AcDbEntity
  8
0
  6
Continuous
 62
     8
370
     0
100
AcDbLine
 10
69.0834532306
 20
255.527417302
 30
0.0
 11
69.0834532306
 21
262.9274159072
 31
0.0
  0
LINE
  5
B1
330
1F
100
AcDbEntity
  8
0
  6
Continuous
 62
     8
370
     0
100
AcDbLine
 10
69.0834532306
 20
263.227413535
 30
0.0
 11
69.0834532306
 21
262.9274159072
 31
0.0
  0
LINE
  5
B2
330
1F
100
AcDbEntity
  8
0
  6
Continuous
 62
     8
370
     0
100
AcDbLine
 10
87.083453387
 20
255.527417302
 30
0.0
 11
93.0834534392
 21
255.527417302
 31
0.0
  0
LINE
  5
B3
330
1F
100
AcDbEntity
  8
0
  6
Continuous
 62
     8
370
     0
100
AcDbLine
 10
93.0834534392
 20
255.2274196743
 30
0.0
 11
93.0834534392
 21
255.527417302
 31
0.0
  0
LINE
  5
B4
330
1F
100
AcDbEntity
  8
0
  6
Continuous
 62
     8
370
     0
100
AcDbLine
 10
93.0834534392
 20
262.9274159072
 30
0.0
 11
87.083453387
 21
262.9274159072
 31
0.0
  0
LINE
  5
B5
330
1F
100
AcDbEntity
  8
0
  6
Continuous
 62
     8
370
     0
100
AcDbLine
 10
93.0834534392
 20
262.9274159072
 30
0.0
 11
93.0834534392
 21
263.227413535
 31
0.0
  0
LINE
  5
B6
330
1F
100
AcDbEntity
  8
0
  6
Continuous
 62
     8
370
     0
100
AcDbLine
 10
69.0834532306
 20
255.2274196743
 30
0.0
 11
69.0834532306
 21
255.527417302
 31
0.0
  0
LINE
  5
B7
330
1F
100
AcDbEntity
  8
0
  6
Continuous
 62
     8
370
     0
100
AcDbLine
 10
93.0834534392
 20
262.9274159072
 30
0.0
 11
93.0834534392
 21
255.527417302
 31
0.0
  0
LINE
  5
B8
330
1F
100
AcDbEntity
  8
0
  6
Continuous
 62
     8
370
     0
100
AcDbLine
 10
67.0834529028
 20
255.2274196743
 30
0.0
 11
67.0834529028
 21
255.527417302
 31
0.0
  0
LINE
  5
B9
330
1F
100
AcDbEntity
  8
0
  6
Continuous
 62
     8
370
     0
100
AcDbLine
 10
67.0834529028
 20
255.527417302
 30
0.0
 11
69.0834532306
 21
255.527417302
 31
0.0
  0
LINE
  5
BA
330
1F
100
AcDbEntity
  8
0
  6
Continuous
 62
     8
370
     0
100
AcDbLine
 10
95.083453767
 20
255.2274196743
 30
0.0
 11
95.083453767
 21
255.527417302
 31
0.0
  0
LINE
  5
BB
330
1F
100
AcDbEntity
  8
0
  6
Continuous
 62
     8
370
     0
100
AcDbLine
 10
95.083453767
 20
255.527417302
 30
0.0
 11
101.0834528879
 21
255.527417302
 31
0.0
  0
LINE
  5
BC
330
1F
100
AcDbEntity
  8
0
  6
Continuous
 62
     8
370
     0
100
AcDbLine
 10
61.0834537819
 20
255.527417302
 30
0.0
 11
67.0834529028
 21
255.527417302
 31
0.0
  0
LINE
  5
BD
330
1F
100
AcDbEntity
  8
0
  6
Continuous
 62
     8
370
     0
100
AcDbLine
 10
67.0834529028
 20
263.227413535
 30
0.0
 11
67.0834529028
 21
262.9274159072
 31
0.0
  0
LINE
  5
BE
330
1F
100
AcDbEntity
  8
0
  6
Continuous
 62
     8
370
     0
100
AcDbLine
 10
67.0834529028
 20
262.9274159072
 30
0.0
 11
61.0834537819
 21
262.9274159072
 31
0.0
  0
LINE
  5
BF
330
1F
100
AcDbEntity
  8
0
  6
Continuous
 62
     8
370
     0
100
AcDbLine
 10
69.0834532306
 20
262.9274159072
 30
0.0
 11
67.0834529028
 21
262.9274159072
 31
0.0
  0
LINE
  5
C0
330
1F
100
AcDbEntity
  8
0
  6
Continuous
 62
     8
370
     0
100
AcDbLine
 10
67.0834529028
 20
262.9274159072
 30
0.0
 11
67.0834529028
 21
255.527417302
 31
0.0
  0
LINE
  5
C1
330
1F
100
AcDbEntity
  8
0
  6
Continuous
 62
     8
370
     0
100
AcDbLine
 10
101.0834528879
 20
262.9274159072
 30
0.0
 11
95.083453767
 21
262.9274159072
 31
0.0
  0
LINE
  5
C2
330
1F
100
AcDbEntity
  8
0
  6
Continuous
 62
     8
370
     0
100
AcDbLine
 10
95.083453767
 20
262.9274159072
 30
0.0
 11
95.083453767
 21
263.227413535
 31
0.0
  0
LINE
  5
C3
330
1F
100
AcDbEntity
  8
0
  6
Continuous
 62
     8
370
     0
100
AcDbLine
 10
93.0834534392
 20
255.527417302
 30
0.0
 11
95.083453767
 21
255.527417302
 31
0.0
  0
LINE
  5
C4
330
1F
100
AcDbEntity
  8
0
  6
Continuous
 62
     8
370
     0
100
AcDbLine
 10
95.083453767
 20
255.527417302
 30
0.0
 11
95.083453767
 21
262.9274159072
 31
0.0
  0
LINE
  5
C5
330
1F
100
AcDbEntity
  8
0
  6
Continuous
 62
     8
370
     0
100
AcDbLine
 10
95.083453767
 20
262.9274159072
 30
0.0
 11
93.0834534392
 21
262.9274159072
 31
0.0
  0
LINE
  5
C6
330
1F
100
AcDbEntity
  8
0
  6
Continuous
 62
     8
370
     0
100
AcDbLine
 10
53.5834534839
 20
243.1274160145
 30
0.0
 11
53.5834534839
 21
243.4274136423
 31
0.0
  0
LINE
  5
C7
330
1F
100
AcDbEntity
  8
0
  6
Continuous
 62
     8
370
     0
100
AcDbLine
 10
53.5834534839
 20
243.1274160145
 30
0.0
 11
47.5834525004
 21
243.1274160145
 31
0.0
  0
LINE
  5
C8
330
1F
100
AcDbEntity
  8
0
  6
Continuous
 62
     8
370
     0
100
AcDbLine
 10
108.5834531859
 20
243.1274160145
 30
0.0
 11
53.5834534839
 21
243.1274160145
 31
0.0
  0
LINE
  5
C9
330
1F
100
AcDbEntity
  8
0
  6
Continuous
 62
     8
370
     0
100
AcDbLine
 10
108.5834531859
 20
221.7274188398
 30
0.0
 11
108.5834531859
 21
243.1274160145
 31
0.0
  0
LINE
  5
CA
330
1F
100
AcDbEntity
  8
0
  6
Continuous
 62
     8
370
     0
100
AcDbLine
 10
53.5834534839
 20
221.7274188398
 30
0.0
 11
108.5834531859
 21
221.7274188398
 31
0.0
  0
LINE
  5
CB
330
1F
100
AcDbEntity
  8
0
  6
Continuous
 62
     8
370
     0
100
AcDbLine
 10
53.5834534839
 20
243.1274160145
 30
0.0
 11
53.5834534839
 21
221.7274188398
 31
0.0
  0
LINE
  5
CC
330
1F
100
AcDbEntity
  8
0
  6
Continuous
 62
     8
370
     0
100
AcDbLine
 10
108.5834531859
 20
221.7274188398
 30
0.0
 11
108.5834531859
 21
221.4274137615
 31
0.0
  0
LINE
  5
CD
330
1F
100
AcDbEntity
  8
0
  6
Continuous
 62
     8
370
     0
100
AcDbLine
 10
53.5834534839
 20
221.7274188398
 30
0.0
 11
53.5834534839
 21
221.4274137615
 31
0.0
  0
LINE
  5
CE
330
1F
100
AcDbEntity
  8
0
  6
Continuous
 62
     8
370
     0
100
AcDbLine
 10
47.5834525004
 20
221.7274188398
 30
0.0
 11
53.5834534839
 21
221.7274188398
 31
0.0
  0
LINE
  5
CF
330
1F
100
AcDbEntity
  8
0
  6
Continuous
 62
     8
370
     0
100
AcDbLine
 10
108.5834531859
 20
243.1274160145
 30
0.0
 11
108.5834531859
 21
243.4274136423
 31
0.0
  0
LINE
  5
D0
330
1F
100
AcDbEntity
  8
0
  6
Continuous
 62
     8
370
     0
100
AcDbLine
 10
114.5834541694
 20
243.1274160145
 30
0.0
 11
108.5834531859
 21
243.1274160145
 31
0.0
  0
LINE
  5
D1
330
1F
100
AcDbEntity
  8
0
  6
Continuous
 62
     8
370
     0
100
AcDbLine
 10
108.5834531859
 20
221.7274188398
 30
0.0
 11
114.5834541694
 21
221.7274188398
 31
0.0
  0
LINE
  5
D2
330
1F
100
AcDbEntity
  8
0
  6
Continuous
 62
     8
370
     0
100
AcDbLine
 10
56.9144776836
 20
221.4274137615
 30
0.0
 11
59.9335479364
 21
167.4274011849
 31
0.0
  0
LINE
  5
D3
330
1F
100
AcDbEntity
  8
0
  6
Continuous
 62
     8
370
     0
100
AcDbLine
 10
102.2333587334
 20
167.4274011849
 30
0.0
 11
105.2524289862
 21
221.4274137615
 31
0.0
  0
DIMENSION
  5
D4
330
1F
100
AcDbEntity
  8
0
  6
Continuous
 62
     7
370
     0
100
AcDbDimension
  2
*D1
 10
31.9667804247
 20
144.4274010199
 30
0.0
 11
31.9667804247
 21
206.3753053216
 31
0.0
 70
   160
  1
(<>)
 71
     2
 42
-1.0
  3
SLDDIMSTYLE0
100
AcDbAlignedDimension
 13
61.3834533349
 23
263.2274172185
 33
0.0
 14
50.0834533349
 24
144.4274010199
 34
0.0
 50
90.0
100
AcDbRotatedDimension
  0
LINE
  5
E2
330
1F
100
AcDbEntity
  8
0
  6
CENTER
 62
     7
370
     0
100
AcDbLine
 10
81.0834533349
 20
281.6273699149
 30
0.0
 11
81.0834533349
 21
128.2944465468
 31
0.0
  0
LINE
  5
E3
330
1F
100
AcDbEntity
  8
0
  6
Continuous
 62
     7
370
     0
100
AcDbLine
 10
69.0834533349
 20
279.6273699149
 30
0.0
 11
81.0834533349
 21
279.6273699149
 31
0.0
  0
SOLID
  5
E4
330
1F
100
AcDbEntity
  8
0
  6
Continuous
 62
     7
370
     0
100
AcDbTrace
 10
81.0834533349
 20
279.6273699149
 30
0.0
 11
75.0834533349
 21
281.1273699149
 31
0.0
 12
75.0834533349
 22
278.1273699149
 32
0.0
 13
75.0834533349
 23
278.1273699149
 33
0.0
  0
LINE
  5
E5
330
1F
100
AcDbEntity
  8
0
  6
Continuous
 62
     7
370
     0
100
AcDbLine
 10
69.0834533349
 20
130.2944465468
 30
0.0
 11
81.0834533349
 21
130.2944465468
 31
0.0
  0
SOLID
  5
E6
330
1F
100
AcDbEntity
  8
0
  6
Continuous
 62
     7
370
     0
100
AcDbTrace
 10
81.0834533349
 20
130.2944465468
 30
0.0
 11
75.0834533349
 21
131.7944465468
 31
0.0
 12
75.0834533349
 22
128.7944465468
 32
0.0
 13
75.0834533349
 23
128.7944465468
 33
0.0
  0
MTEXT
  5
E7
330
1F
100
AcDbEntity
  8
0
  6
Continuous
 62
     7
100
AcDbMText
 10
63.5999338928
 20
282.5510602707
 30
0.0
 40
5.0
 41
0.0
 71
     1
 72
     1
  1
A
  7
SLDTEXTSTYLE0
 73
     1
 44
1.0
  0
MTEXT
  5
E8
330
1F
100
AcDbEntity
  8
0
  6
Continuous
 62
     7
100
AcDbMText
 10
63.9317310035
 20
132.8972668139
 30
0.0
 40
5.0
 41
0.0
 71
     1
 72
     1
  1
A
  7
SLDTEXTSTYLE0
 73
     1
 44
1.0
  0
ARC
  5
E9
330
1F
100
AcDbEntity
  8
0
  6
Continuous
 62
     7
370
    30
100
AcDbCircle
 10
54.5834533349
 20
104.4409165296
 30
0.0
 40
6.000000000000003
100
AcDbArc
 50
90.0
 51
154.9502636218
  0
ARC
  5
EA
330
1F
100
AcDbEntity
  8
0
  6
Continuous
 62
     7
370
    30
100
AcDbCircle
 10
107.5834533349
 20
104.4409165296
 30
0.0
 40
6.000000000000006
100
AcDbArc
 50
25.0497363781
 51
90.0
  0
LINE
  5
EB
330
1F
100
AcDbEntity
  8
0
  6
Continuous
 62
     7
370
    30
100
AcDbLine
 10
54.5834536478
 20
110.4409166786
 30
0.0
 11
107.583453022
 21
110.4409166786
 31
0.0
  0
ARC
  5
EC
330
1F
100
AcDbEntity
  8
0
  6
Continuous
 62
     7
370
    30
100
AcDbCircle
 10
67.0834533349
 20
89.4409165296
 30
0.0
 40
6.000000000000014
100
AcDbArc
 50
90.0
 51
180.0
  0
ARC
  5
ED
330
1F
100
AcDbEntity
  8
0
  6
Continuous
 62
     7
370
    30
100
AcDbCircle
 10
95.0834533349
 20
89.4409165296
 30
0.0
 40
6.0
100
AcDbArc
 50
0.0
 51
90.0
  0
LINE
  5
EE
330
1F
100
AcDbEntity
  8
0
  6
Continuous
 62
     7
370
    30
100
AcDbLine
 10
67.0834529028
 20
95.4409160826
 30
0.0
 11
95.083453767
 21
95.4409160826
 31
0.0
  0
LINE
  5
EF
330
1F
100
AcDbEntity
  8
0
  6
Continuous
 62
     7
370
    30
100
AcDbLine
 10
101.0834528879
 20
89.4409169617
 30
0.0
 11
101.0834528879
 21
61.4409160975
 31
0.0
  0
LINE
  5
F0
330
1F
100
AcDbEntity
  8
0
  6
Continuous
 62
     7
370
    30
100
AcDbLine
 10
61.0834537819
 20
61.4409160975
 30
0.0
 11
61.0834537819
 21
89.4409169617
 31
0.0
  0
ARC
  5
F1
330
1F
100
AcDbEntity
  8
0
  6
Continuous
 62
     7
370
    30
100
AcDbCircle
 10
95.0834533349
 20
61.4409165296
 30
0.0
 40
6.0
100
AcDbArc
 50
270.0
 51
0.0
  0
ARC
  5
F2
330
1F
100
AcDbEntity
  8
0
  6
Continuous
 62
     7
370
    30
100
AcDbCircle
 10
67.0834533349
 20
61.4409165296
 30
0.0
 40
6.000000000000014
100
AcDbArc
 50
180.0
 51
270.0
  0
LINE
  5
F3
330
1F
100
AcDbEntity
  8
0
  6
Continuous
 62
     7
370
    30
100
AcDbLine
 10
95.083453767
 20
55.4409169766
 30
0.0
 11
93.0834534392
 21
55.4409169766
 31
0.0
  0
ARC
  5
F4
330
1F
100
AcDbEntity
  8
0
  6
Continuous
 62
     7
370
    30
100
AcDbCircle
 10
93.0834533349
 20
49.4409165296
 30
0.0
 40
6.0
100
AcDbArc
 50
90.0
 51
180.0
  0
ARC
  5
F5
330
1F
100
AcDbEntity
  8
0
  6
Continuous
 62
     7
370
    30
100
AcDbCircle
 10
69.0834533349
 20
49.4409165296
 30
0.0
 40
6.0
100
AcDbArc
 50
0.0
 51
90.0
  0
LINE
  5
F6
330
1F
100
AcDbEntity
  8
0
  6
Continuous
 62
     7
370
    30
100
AcDbLine
 10
69.0834532306
 20
55.4409169766
 30
0.0
 11
67.0834529028
 21
55.4409169766
 31
0.0
  0
LINE
  5
F7
330
1F
100
AcDbEntity
  8
0
  6
Continuous
 62
     7
370
    30
100
AcDbLine
 10
87.083453387
 20
49.4409159932
 30
0.0
 11
87.083453387
 21
13.4409175429
 31
0.0
  0
LINE
  5
F8
330
1F
100
AcDbEntity
  8
0
  6
Continuous
 62
     7
370
    30
100
AcDbLine
 10
75.0834532827
 20
13.4409175429
 30
0.0
 11
75.0834532827
 21
49.4409159932
 31
0.0
  0
ARC
  5
F9
330
1F
100
AcDbEntity
  8
0
  6
Continuous
 62
     7
370
    30
100
AcDbCircle
 10
84.0834533349
 20
13.4409165296
 30
0.0
 40
3.000000000000002
100
AcDbArc
 50
270.0
 51
0.0
  0
LINE
  5
FA
330
1F
100
AcDbEntity
  8
0
  6
Continuous
 62
     7
370
    30
100
AcDbLine
 10
84.083453361
 20
10.4409189138
 30
0.0
 11
78.0834533088
 21
10.4409189138
 31
0.0
  0
ARC
  5
FB
330
1F
100
AcDbEntity
  8
0
  6
Continuous
 62
     7
370
    30
100
AcDbCircle
 10
78.0834533349
 20
13.4409165296
 30
0.0
 40
3.000000000000002
100
AcDbArc
 50
180.0
 51
270.0
  0
ARC
  5
FC
330
1F
100
AcDbEntity
  8
0
  6
Continuous
 62
     7
370
    30
100
AcDbCircle
 10
53.5834533349
 20
102.9409165296
 30
0.0
 40
6.0
100
AcDbArc
 50
90.0
 51
180.0
  0
ARC
  5
FD
330
1F
100
AcDbEntity
  8
0
  6
Continuous
 62
     7
370
    30
100
AcDbCircle
 10
108.5834533349
 20
102.9409165296
 30
0.0
 40
6.000000000000014
100
AcDbArc
 50
0.0
 51
90.0
  0
LINE
  5
FE
330
1F
100
AcDbEntity
  8
0
  6
Continuous
 62
     7
370
    30
100
AcDbLine
 10
53.5834534839
 20
108.9409173641
 30
0.0
 11
108.5834531859
 21
108.9409173641
 31
0.0
  0
LINE
  5
FF
330
1F
100
AcDbEntity
  8
0
  6
Continuous
 62
     7
370
    30
100
AcDbLine
 10
47.5834525004
 20
47.9409166786
 30
0.0
 11
47.5834525004
 21
102.9409163806
 31
0.0
  0
LINE
  5
100
330
1F
100
AcDbEntity
  8
0
  6
Continuous
 62
     7
370
    30
100
AcDbLine
 10
114.5834541694
 20
102.9409163806
 30
0.0
 11
114.5834541694
 21
47.9409166786
 31
0.0
  0
ARC
  5
101
330
1F
100
AcDbEntity
  8
0
  6
Continuous
 62
     7
370
    30
100
AcDbCircle
 10
108.5834533349
 20
47.9409165296
 30
0.0
 40
6.000000000000014
100
AcDbArc
 50
270.0
 51
0.0
  0
ARC
  5
102
330
1F
100
AcDbEntity
  8
0
  6
Continuous
 62
     7
370
    30
100
AcDbCircle
 10
53.5834533349
 20
47.9409165296
 30
0.0
 40
5.999999999999993
100
AcDbArc
 50
180.0
 51
270.0
  0
LINE
  5
103
330
1F
100
AcDbEntity
  8
0
  6
Continuous
 62
     7
370
    30
100
AcDbLine
 10
108.5834531859
 20
41.9409156951
 30
0.0
 11
87.083453387
 21
41.9409156951
 31
0.0
  0
LINE
  5
104
330
1F
100
AcDbEntity
  8
0
  6
Continuous
 62
     7
370
    30
100
AcDbLine
 10
75.0834532827
 20
41.9409156951
 30
0.0
 11
53.5834534839
 21
41.9409156951
 31
0.0
  0
ARC
  5
105
330
1F
100
AcDbEntity
  8
0
  6
Continuous
 62
     8
370
     0
100
AcDbCircle
 10
67.0834533349
 20
89.4409165296
 30
0.0
 40
5.70000000000001
100
AcDbArc
 50
90.0
 51
180.0
  0
LINE
  5
106
330
1F
100
AcDbEntity
  8
0
  6
Continuous
 62
     8
370
     0
100
AcDbLine
 10
61.3834532723
 20
89.4409169617
 30
0.0
 11
61.0834537819
 21
89.4409169617
 31
0.0
  0
LINE
  5
107
330
1F
100
AcDbEntity
  8
0
  6
Continuous
 62
     8
370
     0
100
AcDbLine
 10
67.0834529028
 20
95.1409165922
 30
0.0
 11
67.0834529028
 21
95.4409160826
 31
0.0
  0
ARC
  5
108
330
1F
100
AcDbEntity
  8
0
  6
Continuous
 62
     8
370
     0
100
AcDbCircle
 10
69.0834533349
 20
49.4409165296
 30
0.0
 40
6.300000000000004
100
AcDbArc
 50
0.0
 51
90.0
  0
LINE
  5
109
330
1F
100
AcDbEntity
  8
0
  6
Continuous
 62
     8
370
     0
100
AcDbLine
 10
67.0834529028
 20
55.740916467
 30
0.0
 11
69.0834532306
 21
55.740916467
 31
0.0
  0
ARC
  5
10A
330
1F
100
AcDbEntity
  8
0
  6
Continuous
 62
     8
370
     0
100
AcDbCircle
 10
67.0834533349
 20
61.4409165296
 30
0.0
 40
5.70000000000001
100
AcDbArc
 50
180.0
 51
270.0
  0
LINE
  5
10B
330
1F
100
AcDbEntity
  8
0
  6
Continuous
 62
     8
370
     0
100
AcDbLine
 10
61.3834532723
 20
89.4409169617
 30
0.0
 11
61.3834532723
 21
61.4409160975
 31
0.0
  0
LINE
  5
10C
330
1F
100
AcDbEntity
  8
0
  6
Continuous
 62
     8
370
     0
100
AcDbLine
 10
95.083453767
 20
95.1409165922
 30
0.0
 11
67.0834529028
 21
95.1409165922
 31
0.0
  0
ARC
  5
10D
330
1F
100
AcDbEntity
  8
0
  6
Continuous
 62
     8
370
     0
100
AcDbCircle
 10
95.0834533349
 20
89.4409165296
 30
0.0
 40
5.700000000000003
100
AcDbArc
 50
0.0
 51
90.0
  0
LINE
  5
10E
330
1F
100
AcDbEntity
  8
0
  6
Continuous
 62
     8
370
     0
100
AcDbLine
 10
100.7834533975
 20
61.4409160975
 30
0.0
 11
100.7834533975
 21
89.4409169617
 31
0.0
  0
ARC
  5
10F
330
1F
100
AcDbEntity
  8
0
  6
Continuous
 62
     8
370
     0
100
AcDbCircle
 10
95.0834533349
 20
61.4409165296
 30
0.0
 40
5.700000000000003
100
AcDbArc
 50
270.0
 51
0.0
  0
LINE
  5
110
330
1F
100
AcDbEntity
  8
0
  6
Continuous
 62
     8
370
     0
100
AcDbLine
 10
93.0834534392
 20
55.740916467
 30
0.0
 11
95.083453767
 21
55.740916467
 31
0.0
  0
ARC
  5
111
330
1F
100
AcDbEntity
  8
0
  6
Continuous
 62
     8
370
     0
100
AcDbCircle
 10
93.0834533349
 20
49.4409165296
 30
0.0
 40
6.299999999999997
100
AcDbArc
 50
90.0
 51
180.0
  0
LINE
  5
112
330
1F
100
AcDbEntity
  8
0
  6
Continuous
 62
     8
370
     0
100
AcDbLine
 10
86.783453431
 20
13.4409175429
 30
0.0
 11
86.783453431
 21
49.4409159932
 31
0.0
  0
ARC
  5
113
330
1F
100
AcDbEntity
  8
0
  6
Continuous
 62
     8
370
     0
100
AcDbCircle
 10
84.0834533349
 20
13.4409165296
 30
0.0
 40
2.700000000000008
100
AcDbArc
 50
270.0
 51
0.0
  0
LINE
  5
114
330
1F
100
AcDbEntity
  8
0
  6
Continuous
 62
     8
370
     0
100
AcDbLine
 10
78.0834533088
 20
10.7409165415
 30
0.0
 11
84.083453361
 21
10.7409165415
 31
0.0
  0
ARC
  5
115
330
1F
100
AcDbEntity
  8
0
  6
Continuous
 62
     8
370
     0
100
AcDbCircle
 10
78.0834533349
 20
13.4409165296
 30
0.0
 40
2.700000000000008
100
AcDbArc
 50
180.0
 51
270.0
  0
LINE
  5
116
330
1F
100
AcDbEntity
  8
0
  6
Continuous
 62
     8
370
     0
100
AcDbLine
 10
75.3834532388
 20
49.4409159932
 30
0.0
 11
75.3834532388
 21
13.4409175429
 31
0.0
  0
LINE
  5
117
330
1F
100
AcDbEntity
  8
0
  6
Continuous
 62
     8
370
     0
100
AcDbLine
 10
95.083453767
 20
95.1409165922
 30
0.0
 11
95.083453767
 21
95.4409160826
 31
0.0
  0
LINE
  5
118
330
1F
100
AcDbEntity
  8
0
  6
Continuous
 62
     8
370
     0
100
AcDbLine
 10
101.0834528879
 20
89.4409169617
 30
0.0
 11
100.7834533975
 21
89.4409169617
 31
0.0
  0
LINE
  5
119
330
1F
100
AcDbEntity
  8
0
  6
Continuous
 62
     8
370
     0
100
AcDbLine
 10
101.0834528879
 20
61.4409160975
 30
0.0
 11
100.7834533975
 21
61.4409160975
 31
0.0
  0
LINE
  5
11A
330
1F
100
AcDbEntity
  8
0
  6
Continuous
 62
     8
370
     0
100
AcDbLine
 10
61.3834532723
 20
61.4409160975
 30
0.0
 11
61.0834537819
 21
61.4409160975
 31
0.0
  0
LINE
  5
11B
330
1F
100
AcDbEntity
  8
0
  6
Continuous
 62
     8
370
     0
100
AcDbLine
 10
95.083453767
 20
55.4409169766
 30
0.0
 11
95.083453767
 21
55.740916467
 31
0.0
  0
LINE
  5
11C
330
1F
100
AcDbEntity
  8
0
  6
Continuous
 62
     8
370
     0
100
AcDbLine
 10
67.0834529028
 20
55.740916467
 30
0.0
 11
67.0834529028
 21
55.4409169766
 31
0.0
  0
LINE
  5
11D
330
1F
100
AcDbEntity
  8
0
  6
Continuous
 62
     8
370
     0
100
AcDbLine
 10
93.0834534392
 20
55.4409169766
 30
0.0
 11
93.0834534392
 21
55.740916467
 31
0.0
  0
LINE
  5
11E
330
1F
100
AcDbEntity
  8
0
  6
Continuous
 62
     8
370
     0
100
AcDbLine
 10
87.083453387
 20
49.4409159932
 30
0.0
 11
86.783453431
 21
49.4409159932
 31
0.0
  0
LINE
  5
11F
330
1F
100
AcDbEntity
  8
0
  6
Continuous
 62
     8
370
     0
100
AcDbLine
 10
75.3834532388
 20
49.4409159932
 30
0.0
 11
75.0834532827
 21
49.4409159932
 31
0.0
  0
LINE
  5
120
330
1F
100
AcDbEntity
  8
0
  6
Continuous
 62
     8
370
     0
100
AcDbLine
 10
69.0834532306
 20
55.740916467
 30
0.0
 11
69.0834532306
 21
55.4409169766
 31
0.0
  0
LINE
  5
121
330
1F
100
AcDbEntity
  8
0
  6
Continuous
 62
     8
370
     0
100
AcDbLine
 10
87.083453387
 20
13.4409175429
 30
0.0
 11
86.783453431
 21
13.4409175429
 31
0.0
  0
LINE
  5
122
330
1F
100
AcDbEntity
  8
0
  6
Continuous
 62
     8
370
     0
100
AcDbLine
 10
75.3834532388
 20
13.4409175429
 30
0.0
 11
75.0834532827
 21
13.4409175429
 31
0.0
  0
LINE
  5
123
330
1F
100
AcDbEntity
  8
0
  6
Continuous
 62
     8
370
     0
100
AcDbLine
 10
84.083453361
 20
10.4409189138
 30
0.0
 11
84.083453361
 21
10.7409165415
 31
0.0
  0
LINE
  5
124
330
1F
100
AcDbEntity
  8
0
  6
Continuous
 62
     8
370
     0
100
AcDbLine
 10
78.0834533088
 20
10.4409189138
 30
0.0
 11
78.0834533088
 21
10.7409165415
 31
0.0
  0
ARC
  5
125
330
1F
100
AcDbEntity
  8
0
  6
Continuous
 62
     8
370
     0
100
AcDbCircle
 10
53.5834533349
 20
102.9409165296
 30
0.0
 40
5.699999999999996
100
AcDbArc
 50
90.0
 51
180.0
  0
LINE
  5
126
330
1F
100
AcDbEntity
  8
0
  6
Continuous
 62
     8
370
     0
100
AcDbLine
 10
47.8834538535
 20
102.9409163806
 30
0.0
 11
47.5834525004
 21
102.9409163806
 31
0.0
  0
LINE
  5
127
330
1F
100
AcDbEntity
  8
0
  6
Continuous
 62
     8
370
     0
100
AcDbLine
 10
53.5834534839
 20
108.640916011
 30
0.0
 11
53.5834534839
 21
108.9409173641
 31
0.0
  0
LINE
  5
128
330
1F
100
AcDbEntity
  8
0
  6
Continuous
 62
     8
370
     0
100
AcDbLine
 10
108.5834531859
 20
108.640916011
 30
0.0
 11
53.5834534839
 21
108.640916011
 31
0.0
  0
ARC
  5
129
330
1F
100
AcDbEntity
  8
0
  6
Continuous
 62
     8
370
     0
100
AcDbCircle
 10
108.5834533349
 20
102.9409165296
 30
0.0
 40
5.700000000000017
100
AcDbArc
 50
0.0
 51
90.0
  0
LINE
  5
12A
330
1F
100
AcDbEntity
  8
0
  6
Continuous
 62
     8
370
     0
100
AcDbLine
 10
114.2834528163
 20
47.9409166786
 30
0.0
 11
114.2834528163
 21
102.9409163806
 31
0.0
  0
ARC
  5
12B
330
1F
100
AcDbEntity
  8
0
  6
Continuous
 62
     8
370
     0
100
AcDbCircle
 10
108.5834533349
 20
47.9409165296
 30
0.0
 40
5.700000000000017
100
AcDbArc
 50
270.0
 51
0.0
  0
LINE
  5
12C
330
1F
100
AcDbEntity
  8
0
  6
Continuous
 62
     8
370
     0
100
AcDbLine
 10
53.5834534839
 20
42.2409170482
 30
0.0
 11
75.0834532827
 21
42.2409170482
 31
0.0
  0
LINE
  5
12D
330
1F
100
AcDbEntity
  8
0
  6
Continuous
 62
     8
370
     0
100
AcDbLine
 10
87.083453387
 20
42.2409170482
 30
0.0
 11
108.5834531859
 21
42.2409170482
 31
0.0
  0
ARC
  5
12E
330
1F
100
AcDbEntity
  8
0
  6
Continuous
 62
     8
370
     0
100
AcDbCircle
 10
53.5834533349
 20
47.9409165296
 30
0.0
 40
5.699999999999996
100
AcDbArc
 50
180.0
 51
270.0
  0
LINE
  5
12F
330
1F
100
AcDbEntity
  8
0
  6
Continuous
 62
     8
370
     0
100
AcDbLine
 10
47.8834538535
 20
102.9409163806
 30
0.0
 11
47.8834538535
 21
47.9409166786
 31
0.0
  0
LINE
  5
130
330
1F
100
AcDbEntity
  8
0
  6
Continuous
 62
     8
370
     0
100
AcDbLine
 10
108.5834531859
 20
108.640916011
 30
0.0
 11
108.5834531859
 21
108.9409173641
 31
0.0
  0
LINE
  5
131
330
1F
100
AcDbEntity
  8
0
  6
Continuous
 62
     8
370
     0
100
AcDbLine
 10
114.5834541694
 20
102.9409163806
 30
0.0
 11
114.2834528163
 21
102.9409163806
 31
0.0
  0
LINE
  5
132
330
1F
100
AcDbEntity
  8
0
  6
Continuous
 62
     8
370
     0
100
AcDbLine
 10
47.8834538535
 20
47.9409166786
 30
0.0
 11
47.5834525004
 21
47.9409166786
 31
0.0
  0
LINE
  5
133
330
1F
100
AcDbEntity
  8
0
  6
Continuous
 62
     8
370
     0
100
AcDbLine
 10
114.5834541694
 20
47.9409166786
 30
0.0
 11
114.2834528163
 21
47.9409166786
 31
0.0
  0
LINE
  5
134
330
1F
100
AcDbEntity
  8
0
  6
Continuous
 62
     8
370
     0
100
AcDbLine
 10
108.5834531859
 20
41.9409156951
 30
0.0
 11
108.5834531859
 21
42.2409170482
 31
0.0
  0
LINE
  5
135
330
1F
100
AcDbEntity
  8
0
  6
Continuous
 62
     8
370
     0
100
AcDbLine
 10
53.5834534839
 20
41.9409156951
 30
0.0
 11
53.5834534839
 21
42.2409170482
 31
0.0
  0
DIMENSION
  5
136
330
1F
100
AcDbEntity
  8
0
  6
Continuous
 62
     7
370
     0
100
AcDbDimension
  2
*D2
 10
114.5834533349
 20
118.8052261648
 30
0.0
 11
80.6317657402
 21
118.8052261648
 31
0.0
 70
   160
  1
(<>)
 71
     2
 42
-1.0
  3
SLDDIMSTYLE1
100
AcDbAlignedDimension
 13
47.5834533349
 23
102.9409165296
 33
0.0
 14
114.5834533349
 24
102.9409165296
 34
0.0
100
AcDbRotatedDimension
  0
DIMENSION
  5
143
330
1F
100
AcDbEntity
  8
0
  6
Continuous
 62
     7
370
     0
100
AcDbDimension
  2
*D3
 10
38.8328037483
 20
10.4409165296
 30
0.0
 11
38.8328037483
 21
71.7623982659
 31
0.0
 70
   160
  1
(<>)
 71
     2
 42
-1.0
  3
SLDDIMSTYLE1
100
AcDbAlignedDimension
 13
54.5834533349
 23
110.4409165296
 33
0.0
 14
78.0834533349
 24
10.4409165296
 34
0.0
 50
90.0
100
AcDbRotatedDimension
  0
LINE
  5
14F
330
1F
100
AcDbEntity
  8
0
  6
CENTERX2
 62
     7
370
     0
100
AcDbLine
 10
81.0834533349
 20
112.0495181011
 30
0.0
 11
81.0834533349
 21
8.3518805859
 31
0.0
  0
SPLINE
  5
150
330
1F
100
AcDbEntity
  8
0
  6
Continuous
 62
     7
370
    30
100
AcDbSpline
210
0.0
220
0.0
230
1.0
 70
     8
 71
     3
 72
    23
 73
    19
 74
     0
 42
0.00000001
 43
0.00000001
 40
0.0
 40
0.0
 40
0.0
 40
0.0
 40
0.0545188005461774
 40
0.1037218455516539
 40
0.1452551819532415
 40
0.1897779957375862
 40
0.2475836188672418
 40
0.3186761624475105
 40
0.3939059831457684
 40
0.4554587514193995
 40
0.4849295658379158
 40
0.5097577022075078
 40
0.5328408288968479
 40
0.5842375801054988
 40
0.6585353096679295
 40
0.7561774158180449
 40
0.8773515170629509
 40
0.9999999999999999
 40
0.9999999999999999
 40
0.9999999999999999
 40
0.9999999999999999
 10
209.4126851517256
 20
145.4274128292197
 30
0.0
 10
209.5421168883079
 20
145.4274121251843
 30
0.0
 10
209.7883603576576
 20
145.4274107857592
 30
0.0
 10
210.1328633929093
 20
145.4274092893311
 30
0.0
 10
210.452435071953
 20
145.427408831966
 30
0.0
 10
210.7914961986648
 20
145.4274093893091
 30
0.0
 10
211.2011668629058
 20
145.4274090092367
 30
0.0
 10
211.6835562149187
 20
145.427406328154
 30
0.0
 10
212.1747717728098
 20
145.4274021104281
 30
0.0
 10
212.5654390051311
 20
145.4273998867164
 30
0.0
 10
212.8342492128199
 20
145.427399102252
 30
0.0
 10
213.0117746167123
 20
145.4273989633857
 30
0.0
 10
213.2300018192541
 20
145.4274002529652
 30
0.0
 10
213.5158406393797
 20
145.4274111123655
 30
0.0
 10
213.9195434122927
 20
145.4274380609485
 30
0.0
 10
214.4236184056131
 20
145.4274632867148
 30
0.0
 10
214.9941447290422
 20
145.4274205703712
 30
0.0
 10
215.3904218186695
 20
145.4274275028236
 30
0.0
 10
215.5897584963138
 20
145.4274309900099
 30
0.0
  0
SPLINE
  5
151
330
1F
100
AcDbEntity
  8
0
  6
Continuous
 62
     7
370
    30
100
AcDbSpline
210
0.0
220
0.0
230
1.0
 70
     8
 71
     3
 72
    16
 73
    12
 74
     0
 42
0.00000001
 43
0.00000001
 40
0.0
 40
0.0
 40
0.0
 40
0.0
 40
0.0857290297745991
 40
0.1965064276158339
 40
0.3317832844479097
 40
0.4831520724723787
 40
0.6217589325583076
 40
0.7457638353038398
 40
0.855698594845964
 40
0.9523273584396063
 40
0.9999999999999999
 40
0.9999999999999999
 40
0.9999999999999999
 40
0.9999999999999999
 10
170.7526450264747
 20
145.4274010130646
 30
0.0
 10
170.8477922217412
 20
145.4274095167632
 30
0.0
 10
171.0658867865419
 20
145.4274290087771
 30
0.0
 10
171.5191951745418
 20
145.4275423288089
 30
0.0
 10
172.0901530217426
 20
145.4276868672971
 30
0.0
 10
172.7293991862569
 20
145.4277564623011
 30
0.0
 10
173.3700663511073
 20
145.4277014789212
 30
0.0
 10
173.968622897417
 20
145.4275907449952
 30
0.0
 10
174.5224744581931
 20
145.427492862806
 30
0.0
 10
174.964124522262
 20
145.427439770142
 30
0.0
 10
175.2275152222711
 20
145.427431157728
 30
0.0
 10
175.3145312178428
 20
145.4274283124575
 30
0.0
  0
LINE
  5
152
330
1F
100
AcDbEntity
  8
0
  6
Continuous
 62
     7
370
    30
100
AcDbLine
 10
184.4323459301
 20
217.37741971
 30
0.0
 11
184.4323459301
 21
217.4274205564
 31
0.0
  0
LINE
  5
153
330
1F
100
AcDbEntity
  8
0
  6
Continuous
 62
     7
370
    30
100
AcDbLine
 10
176.7923464287
 20
217.4274205564
 30
0.0
 11
176.7923464287
 21
217.37741971
 31
0.0
  0
LINE
  5
154
330
1F
100
AcDbEntity
  8
0
  6
Continuous
 62
     7
370
    30
100
AcDbLine
 10
163.2083398509
 20
167.4274011849
 30
0.0
 11
158.112345751
 21
167.4274011849
 31
0.0
  0
LINE
  5
155
330
1F
100
AcDbEntity
  8
0
  6
Continuous
 62
     7
370
    30
100
AcDbLine
 10
163.2083398509
 20
167.4274011849
 30
0.0
 11
163.125435378
 21
148.4274010973
 31
0.0
  0
LINE
  5
156
330
1F
100
AcDbEntity
  8
0
  6
Continuous
 62
     7
370
    30
100
AcDbLine
 10
163.125435378
 20
148.4274010973
 30
0.0
 11
159.6123450655
 21
148.4274010973
 31
0.0
  0
LINE
  5
157
330
1F
100
AcDbEntity
  8
0
  6
Continuous
 62
     7
370
    30
100
AcDbLine
 10
159.6123450655
 20
148.4274010973
 30
0.0
 11
159.6123450655
 21
145.4274010131
 31
0.0
  0
LINE
  5
158
330
1F
100
AcDbEntity
  8
0
  6
Continuous
 62
     7
370
    30
100
AcDbLine
 10
159.6123450655
 20
145.4274010131
 30
0.0
 11
158.112345751
 21
145.4274010131
 31
0.0
  0
LINE
  5
159
330
1F
100
AcDbEntity
  8
0
  6
Continuous
 62
     7
370
    30
100
AcDbLine
 10
158.112345751
 20
145.4274010131
 30
0.0
 11
158.112345751
 21
167.4274011849
 31
0.0
  0
LINE
  5
15A
330
1F
100
AcDbEntity
  8
0
  6
Continuous
 62
     7
370
    30
100
AcDbLine
 10
224.1123453933
 20
145.4274010131
 30
0.0
 11
224.1123453933
 21
148.4274010973
 31
0.0
  0
LINE
  5
15B
330
1F
100
AcDbEntity
  8
0
  6
Continuous
 62
     7
370
    30
100
AcDbLine
 10
223.099256422
 20
148.4274010973
 30
0.0
 11
223.016351949
 21
167.4274011849
 31
0.0
  0
LINE
  5
15C
330
1F
100
AcDbEntity
  8
0
  6
Continuous
 62
     7
370
    30
100
AcDbLine
 10
225.6123447079
 20
167.4274011849
 30
0.0
 11
225.6123447079
 21
145.4274010131
 31
0.0
  0
LINE
  5
15D
330
1F
100
AcDbEntity
  8
0
  6
Continuous
 62
     7
370
    30
100
AcDbLine
 10
224.1123453933
 20
148.4274010973
 30
0.0
 11
223.099256422
 21
148.4274010973
 31
0.0
  0
LINE
  5
15E
330
1F
100
AcDbEntity
  8
0
  6
Continuous
 62
     7
370
    30
100
AcDbLine
 10
225.6123447079
 20
145.4274010131
 30
0.0
 11
224.1123453933
 21
145.4274010131
 31
0.0
  0
LINE
  5
15F
330
1F
100
AcDbEntity
  8
0
  6
Continuous
 62
     7
370
    30
100
AcDbLine
 10
225.6123447079
 20
167.4274011849
 30
0.0
 11
223.016351949
 21
167.4274011849
 31
0.0
  0
LINE
  5
160
330
1F
100
AcDbEntity
  8
0
  6
Continuous
 62
     7
370
    30
100
AcDbLine
 10
166.0065339166
 20
154.0604058056
 30
0.0
 11
165.8260864425
 21
154.1563515885
 31
0.0
  0
ARC
  5
161
330
1F
100
AcDbEntity
  8
0
  6
Continuous
 62
     7
370
    30
100
AcDbCircle
 10
165.3708791331
 20
152.8649145533
 30
0.0
 40
1.353977779790643
100
AcDbArc
 50
4.0
 51
62.0
  0
LINE
  5
162
330
1F
100
AcDbEntity
  8
0
  6
Continuous
 62
     7
370
    30
100
AcDbLine
 10
167.1679602224
 20
146.5755336204
 30
0.0
 11
166.7215586859
 21
152.9593631959
 31
0.0
  0
ARC
  5
163
330
1F
100
AcDbEntity
  8
0
  6
Continuous
 62
     7
370
    30
100
AcDbCircle
 10
168.1655235983
 20
146.6452900705
 30
0.0
 40
1.00000000000001
100
AcDbArc
 50
184.0
 51
265.0
  0
LINE
  5
164
330
1F
100
AcDbEntity
  8
0
  6
Continuous
 62
     7
370
    30
100
AcDbLine
 10
170.6123450059
 20
145.4274010131
 30
0.0
 11
168.0783671546
 21
145.649095367
 31
0.0
  0
LINE
  5
165
330
1F
100
AcDbEntity
  8
0
  6
Continuous
 62
     7
370
    30
100
AcDbLine
 10
170.6123450059
 20
145.4274010131
 30
0.0
 11
171.6123451698
 21
145.4274010131
 31
0.0
  0
LINE
  5
166
330
1F
100
AcDbEntity
  8
0
  6
Continuous
 62
     7
370
    30
100
AcDbLine
 10
171.6123451698
 20
145.4274010131
 30
0.0
 11
171.6123451698
 21
144.4274010238
 31
0.0
  0
LINE
  5
167
330
1F
100
AcDbEntity
  8
0
  6
Continuous
 62
     7
370
    30
100
AcDbLine
 10
159.6123450655
 20
144.4274010238
 30
0.0
 11
171.6123451698
 21
144.4274010238
 31
0.0
  0
LINE
  5
168
330
1F
100
AcDbEntity
  8
0
  6
Continuous
 62
     7
370
    30
100
AcDbLine
 10
160.1123460788
 20
148.4274010973
 30
0.0
 11
159.6123450655
 21
148.138725791
 31
0.0
  0
LINE
  5
169
330
1F
100
AcDbEntity
  8
0
  6
Continuous
 62
     7
370
    30
100
AcDbLine
 10
163.1297995556
 20
148.4274010973
 30
0.0
 11
160.1123460788
 21
148.4274010973
 31
0.0
  0
LINE
  5
16A
330
1F
100
AcDbEntity
  8
0
  6
Continuous
 62
     7
370
    30
100
AcDbLine
 10
163.1297995556
 20
148.4274010973
 30
0.0
 11
163.2127021659
 21
167.4274011849
 31
0.0
  0
LINE
  5
16B
330
1F
100
AcDbEntity
  8
0
  6
Continuous
 62
     7
370
    30
100
AcDbLine
 10
163.2127021659
 20
167.4274011849
 30
0.0
 11
164.8623463917
 21
167.4274011849
 31
0.0
  0
LINE
  5
16C
330
1F
100
AcDbEntity
  8
0
  6
Continuous
 62
     7
370
    30
100
AcDbLine
 10
164.8623463917
 20
167.4274011849
 30
0.0
 11
165.2961657602
 21
155.0043999551
 31
0.0
  0
ARC
  5
16D
330
1F
100
AcDbEntity
  8
0
  6
Continuous
 62
     7
370
    30
100
AcDbCircle
 10
166.2955574966
 20
155.0392990796
 30
0.0
 40
1.000000000000018
100
AcDbArc
 50
182.0
 51
242.0
  0
LINE
  5
16E
330
1F
100
AcDbEntity
  8
0
  6
Continuous
 62
     7
370
    30
100
AcDbLine
 10
159.6123450655
 20
144.4274010238
 30
0.0
 11
159.6123450655
 21
148.138725791
 31
0.0
  0
LINE
  5
16F
330
1F
100
AcDbEntity
  8
0
  6
Continuous
 62
     7
370
    30
100
AcDbLine
 10
220.9285260397
 20
155.0043999551
 30
0.0
 11
221.3623454082
 21
167.4274011849
 31
0.0
  0
LINE
  5
170
330
1F
100
AcDbEntity
  8
0
  6
Continuous
 62
     7
370
    30
100
AcDbLine
 10
223.0119896341
 20
167.4274011849
 30
0.0
 11
223.0948922444
 21
148.4274010973
 31
0.0
  0
LINE
  5
171
330
1F
100
AcDbEntity
  8
0
  6
Continuous
 62
     7
370
    30
100
AcDbLine
 10
224.1123453933
 20
148.138725791
 30
0.0
 11
223.6123462427
 21
148.4274010973
 31
0.0
  0
LINE
  5
172
330
1F
100
AcDbEntity
  8
0
  6
Continuous
 62
     7
370
    30
100
AcDbLine
 10
224.1123453933
 20
148.138725791
 30
0.0
 11
224.1123453933
 21
144.4274010238
 31
0.0
  0
LINE
  5
173
330
1F
100
AcDbEntity
  8
0
  6
Continuous
 62
     7
370
    30
100
AcDbLine
 10
214.6123466301
 20
144.4274010238
 30
0.0
 11
214.6123466301
 21
145.4274010131
 31
0.0
  0
LINE
  5
174
330
1F
100
AcDbEntity
  8
0
  6
Continuous
 62
     7
370
    30
100
AcDbLine
 10
218.1463246453
 20
145.649095367
 30
0.0
 11
215.612346794
 21
145.4274010131
 31
0.0
  0
ARC
  5
175
330
1F
100
AcDbEntity
  8
0
  6
Continuous
 62
     7
370
    30
100
AcDbCircle
 10
218.0591682017
 20
146.6452900705
 30
0.0
 40
1.00000000000001
100
AcDbArc
 50
275.0
 51
356.0
  0
LINE
  5
176
330
1F
100
AcDbEntity
  8
0
  6
Continuous
 62
     7
370
    30
100
AcDbLine
 10
219.503133114
 20
152.9593631959
 30
0.0
 11
219.0567315775
 21
146.5755336204
 31
0.0
  0
ARC
  5
177
330
1F
100
AcDbEntity
  8
0
  6
Continuous
 62
     7
370
    30
100
AcDbCircle
 10
220.8538126668
 20
152.8649145533
 30
0.0
 40
1.353977779790667
100
AcDbArc
 50
118.0
 51
176.0
  0
LINE
  5
178
330
1F
100
AcDbEntity
  8
0
  6
Continuous
 62
     7
370
    30
100
AcDbLine
 10
220.3986053574
 20
154.1563515885
 30
0.0
 11
220.2181578833
 21
154.0604058056
 31
0.0
  0
ARC
  5
179
330
1F
100
AcDbEntity
  8
0
  6
Continuous
 62
     7
370
    30
100
AcDbCircle
 10
219.9291343034
 20
155.0392990796
 30
0.0
 40
0.9999999999999961
100
AcDbArc
 50
298.0
 51
358.0
  0
LINE
  5
17A
330
1F
100
AcDbEntity
  8
0
  6
Continuous
 62
     7
370
    30
100
AcDbLine
 10
214.6123466301
 20
145.4274010131
 30
0.0
 11
215.612346794
 21
145.4274010131
 31
0.0
  0
LINE
  5
17B
330
1F
100
AcDbEntity
  8
0
  6
Continuous
 62
     7
370
    30
100
AcDbLine
 10
221.3623454082
 20
167.4274011849
 30
0.0
 11
223.0119896341
 21
167.4274011849
 31
0.0
  0
LINE
  5
17C
330
1F
100
AcDbEntity
  8
0
  6
Continuous
 62
     7
370
    30
100
AcDbLine
 10
223.6123462427
 20
148.4274010973
 30
0.0
 11
223.0948922444
 21
148.4274010973
 31
0.0
  0
LINE
  5
17D
330
1F
100
AcDbEntity
  8
0
  6
Continuous
 62
     7
370
    30
100
AcDbLine
 10
214.6123466301
 20
144.4274010238
 30
0.0
 11
224.1123453933
 21
144.4274010238
 31
0.0
  0
LINE
  5
17E
330
1F
100
AcDbEntity
  8
0
  6
Continuous
 62
     7
370
    30
100
AcDbLine
 10
165.3620419312
 20
167.4448504447
 30
0.0
 11
165.8260864425
 21
154.1563515885
 31
0.0
  0
LWPOLYLINE
  5
17F
330
1F
100
AcDbEntity
  8
0
  6
Continuous
 62
     7
370
    30
100
AcDbPolyline
 90
        9
 70
   128
 43
0.0
 10
165.1121941614
 20
167.4361258148
 10
165.1609358597
 20
167.4378282724
 10
165.2078055996
 20
167.4394655375
 10
165.2510022033
 20
167.4409724175
 10
165.2888623286
 20
167.4422948955
 10
165.3199349749
 20
167.4433808176
 10
165.3430224616
 20
167.444187343
 10
165.357240032
 20
167.4446828066
 10
165.3620419312
 20
167.4448504447
  0
LINE
  5
180
330
1F
100
AcDbEntity
  8
0
  6
Continuous
 62
     7
370
    30
100
AcDbLine
 10
220.3986053574
 20
154.1563515885
 30
0.0
 11
220.8626498688
 21
167.4448504447
 31
0.0
  0
LWPOLYLINE
  5
181
330
1F
100
AcDbEntity
  8
0
  6
Continuous
 62
     7
370
    30
100
AcDbPolyline
 90
        9
 70
   128
 43
0.0
 10
220.8626498688
 20
167.4448504447
 10
220.867451768
 20
167.4446828066
 10
220.8816693384
 20
167.444187343
 10
220.904756825
 20
167.4433808176
 10
220.9358294714
 20
167.4422948955
 10
220.9736895967
 20
167.4409724175
 10
221.0168862003
 20
167.4394655375
 10
221.0637559402
 20
167.4378282724
 10
221.1124976385
 20
167.4361258148
  0
LINE
  5
182
330
1F
100
AcDbEntity
  8
0
  6
Continuous
 62
     7
370
    30
100
AcDbLine
 10
165.1121941614
 20
167.4361258148
 30
0.0
 11
164.8623463917
 21
167.4274011849
 31
0.0
  0
LINE
  5
183
330
1F
100
AcDbEntity
  8
0
  6
Continuous
 62
     7
370
    30
100
AcDbLine
 10
221.1124976385
 20
167.4361258148
 30
0.0
 11
221.3623454082
 21
167.4274011849
 31
0.0
  0
LINE
  5
184
330
1F
100
AcDbEntity
  8
0
  6
Continuous
 62
     7
370
    30
100
AcDbLine
 10
171.6123451698
 20
145.4274010131
 30
0.0
 11
172.6123453337
 21
145.4274010131
 31
0.0
  0
LINE
  5
185
330
1F
100
AcDbEntity
  8
0
  6
Continuous
 62
     7
370
    30
100
AcDbLine
 10
171.6123451698
 20
144.4274010238
 30
0.0
 11
172.6123453337
 21
144.4274010238
 31
0.0
  0
LINE
  5
186
330
1F
100
AcDbEntity
  8
0
  6
Continuous
 62
     7
370
    30
100
AcDbLine
 10
213.6123464662
 20
145.4274010131
 30
0.0
 11
214.6123466301
 21
145.4274010131
 31
0.0
  0
LINE
  5
187
330
1F
100
AcDbEntity
  8
0
  6
Continuous
 62
     7
370
    30
100
AcDbLine
 10
213.6123464662
 20
144.4274010238
 30
0.0
 11
214.6123466301
 21
144.4274010238
 31
0.0
  0
LINE
  5
188
330
1F
100
AcDbEntity
  8
0
  6
Continuous
 62
     7
370
    30
100
AcDbLine
 10
172.6123453337
 20
145.4274010131
 30
0.0
 11
213.6123464662
 21
145.4274010131
 31
0.0
  0
LINE
  5
189
330
1F
100
AcDbEntity
  8
0
  6
Continuous
 62
     7
370
    30
100
AcDbLine
 10
172.6123453337
 20
144.4274010238
 30
0.0
 11
213.6123464662
 21
144.4274010238
 31
0.0
  0
SPLINE
  5
18A
330
1F
100
AcDbEntity
  8
0
  6
Continuous
 62
     7
370
    30
100
AcDbSpline
210
0.0
220
0.0
230
1.0
 70
    24
 71
     3
 72
    11
 73
     7
 74
     0
 42
0.00000001
 43
0.00000001
 40
0.0
 40
0.0
 40
0.0
 40
0.0
 40
0.240833409686298
 40
0.5113804635232599
 40
0.7819278993888673
 40
1.0
 40
1.0
 40
1.0
 40
1.0
 10
165.7964722472723
 20
155.0043999551305
 30
0.0
 10
165.8951004908006
 20
155.0043999551305
 30
0.0
 10
166.1045255741296
 20
155.0043999551305
 30
0.0
 10
166.5386636521694
 20
155.0043999551305
 30
0.0
 10
167.0222271741018
 20
155.0043999551305
 30
0.0
 10
167.3897507065065
 20
155.0043999551305
 30
0.0
 10
167.5537773627336
 20
155.0043999551305
 30
0.0
  0
LINE
  5
18B
330
1F
100
AcDbEntity
  8
0
  6
Continuous
 62
     7
370
    30
100
AcDbLine
 10
165.3626510161
 20
167.4274011849
 30
0.0
 11
165.4725750196
 21
167.4274011849
 31
0.0
  0
SPLINE
  5
18C
330
1F
100
AcDbEntity
  8
0
  6
Continuous
 62
     7
370
    30
100
AcDbSpline
210
0.0
220
0.0
230
1.0
 70
    24
 71
     3
 72
    11
 73
     7
 74
     0
 42
0.00000001
 43
0.00000001
 40
0.0
 40
0.0
 40
0.0
 40
0.0
 40
0.2180721006111328
 40
0.4886195364767401
 40
0.759166590313702
 40
1.0
 40
1.0
 40
1.0
 40
1.0
 10
218.6709144372041
 20
155.0043999551305
 30
0.0
 10
218.8349410934313
 20
155.0043999551305
 30
0.0
 10
219.202464625836
 20
155.0043999551305
 30
0.0
 10
219.6860281477684
 20
155.0043999551305
 30
0.0
 10
220.1201662258082
 20
155.0043999551305
 30
0.0
 10
220.3295913091372
 20
155.0043999551305
 30
0.0
 10
220.4282195526655
 20
155.0043999551305
 30
0.0
  0
LINE
  5
18D
330
1F
100
AcDbEntity
  8
0
  6
Continuous
 62
     7
370
    30
100
AcDbLine
 10
220.8620407838
 20
167.4274011849
 30
0.0
 11
220.7521167803
 21
167.4274011849
 31
0.0
  0
LINE
  5
18E
330
1F
100
AcDbEntity
  8
0
  6
Continuous
 62
     7
370
    30
100
AcDbLine
 10
186.6123457659
 20
217.7274181841
 30
0.0
 11
186.6123457659
 21
219.4274171589
 31
0.0
  0
ARC
  5
18F
330
1F
100
AcDbEntity
  8
0
  6
Continuous
 62
     7
370
    30
100
AcDbCircle
 10
186.3123459
 20
217.7274172185
 30
0.0
 40
0.3000000000000114
100
AcDbArc
 50
270.0
 51
0.0
  0
LINE
  5
190
330
1F
100
AcDbEntity
  8
0
  6
Continuous
 62
     7
370
    30
100
AcDbLine
 10
173.4123458374
 20
217.4274205564
 30
0.0
 11
186.3123458098
 21
217.4274205564
 31
0.0
  0
ARC
  5
191
330
1F
100
AcDbEntity
  8
0
  6
Continuous
 62
     7
370
    30
100
AcDbCircle
 10
173.4123459
 20
217.7274172185
 30
0.0
 40
0.3000000000000114
100
AcDbArc
 50
180.0
 51
270.0
  0
LINE
  5
192
330
1F
100
AcDbEntity
  8
0
  6
Continuous
 62
     7
370
    30
100
AcDbLine
 10
173.112346347
 20
217.7274181841
 30
0.0
 11
173.112346347
 21
219.4274171589
 31
0.0
  0
LINE
  5
193
330
1F
100
AcDbEntity
  8
0
  6
Continuous
 62
     7
370
    30
100
AcDbLine
 10
173.112346347
 20
219.4274171589
 30
0.0
 11
186.6123457659
 21
219.4274171589
 31
0.0
  0
ARC
  5
194
330
1F
100
AcDbEntity
  8
0
  6
Continuous
 62
     7
370
    30
100
AcDbCircle
 10
199.9123459
 20
217.7274172185
 30
0.0
 40
0.3000000000000114
100
AcDbArc
 50
180.0
 51
270.0
  0
LINE
  5
195
330
1F
100
AcDbEntity
  8
0
  6
Continuous
 62
     7
370
    30
100
AcDbLine
 10
199.9123459901
 20
217.4274205564
 30
0.0
 11
199.4123459082
 21
217.4274205564
 31
0.0
  0
LINE
  5
196
330
1F
100
AcDbEntity
  8
0
  6
Continuous
 62
     7
370
    30
100
AcDbLine
 10
186.8123458918
 20
217.4274205564
 30
0.0
 11
186.3123458098
 21
217.4274205564
 31
0.0
  0
LINE
  5
197
330
1F
100
AcDbEntity
  8
0
  6
Continuous
 62
     7
370
    30
100
AcDbLine
 10
199.6123460341
 20
219.4274171589
 30
0.0
 11
199.6123460341
 21
217.7274181841
 31
0.0
  0
ARC
  5
198
330
1F
100
AcDbEntity
  8
0
  6
Continuous
 62
     7
370
    30
100
AcDbCircle
 10
212.8123459
 20
217.7274172185
 30
0.0
 40
0.3000000000000398
100
AcDbArc
 50
270.0
 51
0.0
  0
LINE
  5
199
330
1F
100
AcDbEntity
  8
0
  6
Continuous
 62
     7
370
    30
100
AcDbLine
 10
213.1123454529
 20
219.4274171589
 30
0.0
 11
213.1123454529
 21
217.7274181841
 31
0.0
  0
LINE
  5
19A
330
1F
100
AcDbEntity
  8
0
  6
Continuous
 62
     7
370
    30
100
AcDbLine
 10
199.9123459901
 20
217.4274205564
 30
0.0
 11
212.8123459626
 21
217.4274205564
 31
0.0
  0
LINE
  5
19B
330
1F
100
AcDbEntity
  8
0
  6
Continuous
 62
     7
370
    30
100
AcDbLine
 10
199.6123460341
 20
219.4274171589
 30
0.0
 11
213.1123454529
 21
219.4274171589
 31
0.0
  0
LINE
  5
19C
330
1F
100
AcDbEntity
  8
0
  6
Continuous
 62
     7
370
    30
100
AcDbLine
 10
200.8623457733
 20
219.4274171589
 30
0.0
 11
200.8623457733
 21
225.0274150966
 31
0.0
  0
LINE
  5
19D
330
1F
100
AcDbEntity
  8
0
  6
Continuous
 62
     7
370
    30
100
AcDbLine
 10
185.3623460266
 20
225.0274150966
 30
0.0
 11
185.3623460266
 21
219.4274171589
 31
0.0
  0
LINE
  5
19E
330
1F
100
AcDbEntity
  8
0
  6
Continuous
 62
     7
370
    30
100
AcDbLine
 10
188.862345669
 20
189.9274169801
 30
0.0
 11
190.5123458929
 21
188.2774188517
 31
0.0
  0
LINE
  5
19F
330
1F
100
AcDbEntity
  8
0
  6
Continuous
 62
     7
370
    30
100
AcDbLine
 10
188.862345669
 20
195.4274169503
 30
0.0
 11
188.862345669
 21
189.9274169801
 31
0.0
  0
LINE
  5
1A0
330
1F
100
AcDbEntity
  8
0
  6
Continuous
 62
     7
370
    30
100
AcDbLine
 10
186.8123458918
 20
197.4774181245
 30
0.0
 11
188.862345669
 21
195.4274169503
 31
0.0
  0
LINE
  5
1A1
330
1F
100
AcDbEntity
  8
0
  6
Continuous
 62
     7
370
    30
100
AcDbLine
 10
186.8123458918
 20
219.4274171589
 30
0.0
 11
186.8123458918
 21
197.4774181245
 31
0.0
  0
LINE
  5
1A2
330
1F
100
AcDbEntity
  8
0
  6
Continuous
 62
     7
370
    30
100
AcDbLine
 10
188.1123460117
 20
228.527414739
 30
0.0
 11
188.1123460117
 21
225.0274150966
 31
0.0
  0
LINE
  5
1A3
330
1F
100
AcDbEntity
  8
0
  6
Continuous
 62
     7
370
    30
100
AcDbLine
 10
190.1123458739
 20
228.527414739
 30
0.0
 11
188.1123460117
 21
228.527414739
 31
0.0
  0
LINE
  5
1A4
330
1F
100
AcDbEntity
  8
0
  6
Continuous
 62
     7
370
    30
100
AcDbLine
 10
190.1123458739
 20
236.9274153708
 30
0.0
 11
190.1123458739
 21
228.527414739
 31
0.0
  0
LINE
  5
1A5
330
1F
100
AcDbEntity
  8
0
  6
Continuous
 62
     7
370
    30
100
AcDbLine
 10
188.862345669
 20
236.9274153708
 30
0.0
 11
190.1123458739
 21
236.9274153708
 31
0.0
  0
LINE
  5
1A6
330
1F
100
AcDbEntity
  8
0
  6
Continuous
 62
     7
370
    30
100
AcDbLine
 10
188.862345669
 20
238.5274201034
 30
0.0
 11
188.862345669
 21
236.9274153708
 31
0.0
  0
LINE
  5
1A7
330
1F
100
AcDbEntity
  8
0
  6
Continuous
 62
     7
370
    30
100
AcDbLine
 10
190.1123458739
 20
238.5274201034
 30
0.0
 11
188.862345669
 21
238.5274201034
 31
0.0
  0
LINE
  5
1A8
330
1F
100
AcDbEntity
  8
0
  6
Continuous
 62
     7
370
    30
100
AcDbLine
 10
190.1123458739
 20
245.5274193882
 30
0.0
 11
190.1123458739
 21
238.5274201034
 31
0.0
  0
LINE
  5
1A9
330
1F
100
AcDbEntity
  8
0
  6
Continuous
 62
     7
370
    30
100
AcDbLine
 10
196.112345926
 20
245.5274193882
 30
0.0
 11
190.1123458739
 21
245.5274193882
 31
0.0
  0
LINE
  5
1AA
330
1F
100
AcDbEntity
  8
0
  6
Continuous
 62
     7
370
    30
100
AcDbLine
 10
196.112345926
 20
238.5274201034
 30
0.0
 11
196.112345926
 21
245.5274193882
 31
0.0
  0
LINE
  5
1AB
330
1F
100
AcDbEntity
  8
0
  6
Continuous
 62
     7
370
    30
100
AcDbLine
 10
197.3623461309
 20
238.5274201034
 30
0.0
 11
196.112345926
 21
238.5274201034
 31
0.0
  0
LINE
  5
1AC
330
1F
100
AcDbEntity
  8
0
  6
Continuous
 62
     7
370
    30
100
AcDbLine
 10
197.3623461309
 20
236.9274153708
 30
0.0
 11
197.3623461309
 21
238.5274201034
 31
0.0
  0
LINE
  5
1AD
330
1F
100
AcDbEntity
  8
0
  6
Continuous
 62
     7
370
    30
100
AcDbLine
 10
196.112345926
 20
236.9274153708
 30
0.0
 11
197.3623461309
 21
236.9274153708
 31
0.0
  0
LINE
  5
1AE
330
1F
100
AcDbEntity
  8
0
  6
Continuous
 62
     7
370
    30
100
AcDbLine
 10
196.112345926
 20
228.527414739
 30
0.0
 11
196.112345926
 21
236.9274153708
 31
0.0
  0
LINE
  5
1AF
330
1F
100
AcDbEntity
  8
0
  6
Continuous
 62
     7
370
    30
100
AcDbLine
 10
198.1123457882
 20
228.527414739
 30
0.0
 11
196.112345926
 21
228.527414739
 31
0.0
  0
LINE
  5
1B0
330
1F
100
AcDbEntity
  8
0
  6
Continuous
 62
     7
370
    30
100
AcDbLine
 10
198.1123457882
 20
225.0274150966
 30
0.0
 11
198.1123457882
 21
228.527414739
 31
0.0
  0
LINE
  5
1B1
330
1F
100
AcDbEntity
  8
0
  6
Continuous
 62
     7
370
    30
100
AcDbLine
 10
199.4123459082
 20
197.4774181245
 30
0.0
 11
199.4123459082
 21
219.4274171589
 31
0.0
  0
LINE
  5
1B2
330
1F
100
AcDbEntity
  8
0
  6
Continuous
 62
     7
370
    30
100
AcDbLine
 10
197.3623461309
 20
195.4274169503
 30
0.0
 11
199.4123459082
 21
197.4774181245
 31
0.0
  0
LINE
  5
1B3
330
1F
100
AcDbEntity
  8
0
  6
Continuous
 62
     7
370
    30
100
AcDbLine
 10
197.3623461309
 20
189.9274169801
 30
0.0
 11
197.3623461309
 21
195.4274169503
 31
0.0
  0
LINE
  5
1B4
330
1F
100
AcDbEntity
  8
0
  6
Continuous
 62
     7
370
    30
100
AcDbLine
 10
195.712345907
 20
188.2774188517
 30
0.0
 11
197.3623461309
 21
189.9274169801
 31
0.0
  0
LINE
  5
1B5
330
1F
100
AcDbEntity
  8
0
  6
Continuous
 62
     7
370
    30
100
AcDbLine
 10
195.712345907
 20
171.0274174212
 30
0.0
 11
195.712345907
 21
188.2774188517
 31
0.0
  0
LINE
  5
1B6
330
1F
100
AcDbEntity
  8
0
  6
Continuous
 62
     7
370
    30
100
AcDbLine
 10
190.5123458929
 20
171.0274174212
 30
0.0
 11
195.712345907
 21
171.0274174212
 31
0.0
  0
LINE
  5
1B7
330
1F
100
AcDbEntity
  8
0
  6
Continuous
 62
     7
370
    30
100
AcDbLine
 10
190.5123458929
 20
188.2774188517
 30
0.0
 11
190.5123458929
 21
171.0274174212
 31
0.0
  0
LINE
  5
1B8
330
1F
100
AcDbEntity
  8
0
  6
Continuous
 62
     7
370
    30
100
AcDbLine
 10
199.4123459082
 20
219.4274171589
 30
0.0
 11
200.8623457733
 21
219.4274171589
 31
0.0
  0
LINE
  5
1B9
330
1F
100
AcDbEntity
  8
0
  6
Continuous
 62
     7
370
    30
100
AcDbLine
 10
185.3623460266
 20
219.4274171589
 30
0.0
 11
186.8123458918
 21
219.4274171589
 31
0.0
  0
LINE
  5
1BA
330
1F
100
AcDbEntity
  8
0
  6
Continuous
 62
     7
370
    30
100
AcDbLine
 10
188.1123460117
 20
225.0274150966
 30
0.0
 11
185.3623460266
 21
225.0274150966
 31
0.0
  0
LINE
  5
1BB
330
1F
100
AcDbEntity
  8
0
  6
Continuous
 62
     7
370
    30
100
AcDbLine
 10
200.8623457733
 20
225.0274150966
 30
0.0
 11
198.1123457882
 21
225.0274150966
 31
0.0
  0
LINE
  5
1BC
330
1F
100
AcDbEntity
  8
0
  6
Continuous
 62
     7
370
    30
100
AcDbLine
 10
182.2123457897
 20
233.4274157284
 30
0.0
 11
182.2123457897
 21
232.2274177669
 31
0.0
  0
LINE
  5
1BD
330
1F
100
AcDbEntity
  8
0
  6
Continuous
 62
     7
370
    30
100
AcDbLine
 10
184.612345438
 20
233.4274157284
 30
0.0
 11
182.2123457897
 21
233.4274157284
 31
0.0
  0
LINE
  5
1BE
330
1F
100
AcDbEntity
  8
0
  6
Continuous
 62
     7
370
    30
100
AcDbLine
 10
184.612345438
 20
232.2274177669
 30
0.0
 11
184.612345438
 21
233.4274157284
 31
0.0
  0
LINE
  5
1BF
330
1F
100
AcDbEntity
  8
0
  6
Continuous
 62
     7
370
    30
100
AcDbLine
 10
184.612345438
 20
232.2274177669
 30
0.0
 11
182.2123457897
 21
232.2274177669
 31
0.0
  0
LINE
  5
1C0
330
1F
100
AcDbEntity
  8
0
  6
Continuous
 62
     7
370
    30
100
AcDbLine
 10
205.5087159607
 20
232.2274177669
 30
0.0
 11
205.5087159607
 21
233.4274157284
 31
0.0
  0
LINE
  5
1C1
330
1F
100
AcDbEntity
  8
0
  6
Continuous
 62
     7
370
    30
100
AcDbLine
 10
201.6123463619
 20
232.2274177669
 30
0.0
 11
205.5087159607
 21
232.2274177669
 31
0.0
  0
LINE
  5
1C2
330
1F
100
AcDbEntity
  8
0
  6
Continuous
 62
     7
370
    30
100
AcDbLine
 10
173.112346347
 20
257.6724171041
 30
0.0
 11
173.3692665804
 21
257.2274162768
 31
0.0
  0
LINE
  5
1C3
330
1F
100
AcDbEntity
  8
0
  6
Continuous
 62
     7
370
    30
100
AcDbLine
 10
173.3692665804
 20
262.227418959
 30
0.0
 11
173.112346347
 21
261.7824181317
 31
0.0
  0
LINE
  5
1C4
330
1F
100
AcDbEntity
  8
0
  6
Continuous
 62
     7
370
    30
100
AcDbLine
 10
173.112346347
 20
258.4774150847
 30
0.0
 11
173.112346347
 21
257.6724171041
 31
0.0
  0
LINE
  5
1C5
330
1F
100
AcDbEntity
  8
0
  6
Continuous
 62
     7
370
    30
100
AcDbLine
 10
176.1123449761
 20
258.4774150847
 30
0.0
 11
173.112346347
 21
258.4774150847
 31
0.0
  0
LINE
  5
1C6
330
1F
100
AcDbEntity
  8
0
  6
Continuous
 62
     7
370
    30
100
AcDbLine
 10
176.1123449761
 20
258.4774150847
 30
0.0
 11
176.1123449761
 21
260.9774201511
 31
0.0
  0
LINE
  5
1C7
330
1F
100
AcDbEntity
  8
0
  6
Continuous
 62
     7
370
    30
100
AcDbLine
 10
176.1123449761
 20
260.9774201511
 30
0.0
 11
173.112346347
 21
260.9774201511
 31
0.0
  0
LINE
  5
1C8
330
1F
100
AcDbEntity
  8
0
  6
Continuous
 62
     7
370
    30
100
AcDbLine
 10
173.112346347
 20
261.7824181317
 30
0.0
 11
173.112346347
 21
260.9774201511
 31
0.0
  0
LINE
  5
1C9
330
1F
100
AcDbEntity
  8
0
  6
Continuous
 62
     7
370
    30
100
AcDbLine
 10
176.6123459894
 20
262.227418959
 30
0.0
 11
173.3692665804
 21
262.227418959
 31
0.0
  0
LINE
  5
1CA
330
1F
100
AcDbEntity
  8
0
  6
Continuous
 62
     7
370
    30
100
AcDbLine
 10
179.1123454678
 20
259.7274138926
 30
0.0
 11
176.6123459894
 21
262.227418959
 31
0.0
  0
LINE
  5
1CB
330
1F
100
AcDbEntity
  8
0
  6
Continuous
 62
     7
370
    30
100
AcDbLine
 10
176.6123459894
 20
257.2274162768
 30
0.0
 11
179.1123454678
 21
259.7274138926
 31
0.0
  0
LINE
  5
1CC
330
1F
100
AcDbEntity
  8
0
  6
Continuous
 62
     7
370
    30
100
AcDbLine
 10
173.3692665804
 20
257.2274162768
 30
0.0
 11
176.6123459894
 21
257.2274162768
 31
0.0
  0
LINE
  5
1CD
330
1F
100
AcDbEntity
  8
0
  6
Continuous
 62
     7
370
    30
100
AcDbLine
 10
176.1123449761
 20
259.7274138926
 30
0.0
 11
173.112346347
 21
259.7274138926
 31
0.0
  0
LINE
  5
1CE
330
1F
100
AcDbEntity
  8
0
  6
Continuous
 62
     7
370
    30
100
AcDbLine
 10
173.112346347
 20
260.9774201511
 30
0.0
 11
173.112346347
 21
259.7274138926
 31
0.0
  0
LINE
  5
1CF
330
1F
100
AcDbEntity
  8
0
  6
Continuous
 62
     7
370
    30
100
AcDbLine
 10
173.112346347
 20
258.4774150847
 30
0.0
 11
173.112346347
 21
259.7274138926
 31
0.0
  0
LINE
  5
1D0
330
1F
100
AcDbEntity
  8
0
  6
Continuous
 62
     7
370
    30
100
AcDbLine
 10
184.4010208953
 20
256.2274142502
 30
0.0
 11
184.1123462874
 21
255.7274206875
 31
0.0
  0
LINE
  5
1D1
330
1F
100
AcDbEntity
  8
0
  6
Continuous
 62
     7
370
    30
100
AcDbLine
 10
202.1123455125
 20
255.7274206875
 30
0.0
 11
201.8236709047
 21
256.2274142502
 31
0.0
  0
LINE
  5
1D2
330
1F
100
AcDbEntity
  8
0
  6
Continuous
 62
     7
370
    30
100
AcDbLine
 10
190.0123458109
 20
242.2274156807
 30
0.0
 11
190.0123458109
 21
256.2274142502
 31
0.0
  0
LINE
  5
1D3
330
1F
100
AcDbEntity
  8
0
  6
Continuous
 62
     7
370
    30
100
AcDbLine
 10
189.4349956639
 20
241.2274136542
 30
0.0
 11
190.0123458109
 21
242.2274156807
 31
0.0
  0
LINE
  5
1D4
330
1F
100
AcDbEntity
  8
0
  6
Continuous
 62
     7
370
    30
100
AcDbLine
 10
185.11234552
 20
241.2274136542
 30
0.0
 11
189.4349956639
 21
241.2274136542
 31
0.0
  0
LINE
  5
1D5
330
1F
100
AcDbEntity
  8
0
  6
Continuous
 62
     7
370
    30
100
AcDbLine
 10
185.11234552
 20
231.2274157403
 30
0.0
 11
185.11234552
 21
241.2274136542
 31
0.0
  0
LINE
  5
1D6
330
1F
100
AcDbEntity
  8
0
  6
Continuous
 62
     7
370
    30
100
AcDbLine
 10
184.612345438
 20
230.7274147271
 30
0.0
 11
185.11234552
 21
231.2274157403
 31
0.0
  0
LINE
  5
1D7
330
1F
100
AcDbEntity
  8
0
  6
Continuous
 62
     7
370
    30
100
AcDbLine
 10
184.4010208953
 20
230.7274147271
 30
0.0
 11
184.612345438
 21
230.7274147271
 31
0.0
  0
LINE
  5
1D8
330
1F
100
AcDbEntity
  8
0
  6
Continuous
 62
     7
370
    30
100
AcDbLine
 10
184.1123462874
 20
231.2274157403
 30
0.0
 11
184.4010208953
 21
230.7274147271
 31
0.0
  0
LINE
  5
1D9
330
1F
100
AcDbEntity
  8
0
  6
Continuous
 62
     7
370
    30
100
AcDbLine
 10
184.1123462874
 20
231.9274201392
 30
0.0
 11
184.1123462874
 21
231.2274157403
 31
0.0
  0
LINE
  5
1DA
330
1F
100
AcDbEntity
  8
0
  6
Continuous
 62
     7
370
    30
100
AcDbLine
 10
184.1123462874
 20
231.9274201392
 30
0.0
 11
184.612345438
 21
231.9274201392
 31
0.0
  0
LINE
  5
1DB
330
1F
100
AcDbEntity
  8
0
  6
Continuous
 62
     7
370
    30
100
AcDbLine
 10
184.612345438
 20
231.9274201392
 30
0.0
 11
184.612345438
 21
233.4274157284
 31
0.0
  0
LINE
  5
1DC
330
1F
100
AcDbEntity
  8
0
  6
Continuous
 62
     7
370
    30
100
AcDbLine
 10
184.612345438
 20
233.4274157284
 30
0.0
 11
184.1123462874
 21
233.4274157284
 31
0.0
  0
LINE
  5
1DD
330
1F
100
AcDbEntity
  8
0
  6
Continuous
 62
     7
370
    30
100
AcDbLine
 10
184.1123462874
 20
255.7274206875
 30
0.0
 11
184.1123462874
 21
233.4274157284
 31
0.0
  0
LINE
  5
1DE
330
1F
100
AcDbEntity
  8
0
  6
Continuous
 62
     7
370
    30
100
AcDbLine
 10
190.0123458109
 20
256.2274142502
 30
0.0
 11
184.4010208953
 21
256.2274142502
 31
0.0
  0
LINE
  5
1DF
330
1F
100
AcDbEntity
  8
0
  6
Continuous
 62
     7
370
    30
100
AcDbLine
 10
201.8236709047
 20
230.7274147271
 30
0.0
 11
202.1123455125
 21
231.2274157403
 31
0.0
  0
LINE
  5
1E0
330
1F
100
AcDbEntity
  8
0
  6
Continuous
 62
     7
370
    30
100
AcDbLine
 10
201.6123463619
 20
233.4274157284
 30
0.0
 11
201.6123463619
 21
231.9274201392
 31
0.0
  0
LINE
  5
1E1
330
1F
100
AcDbEntity
  8
0
  6
Continuous
 62
     7
370
    30
100
AcDbLine
 10
201.1123462799
 20
241.2274136542
 30
0.0
 11
201.1123462799
 21
231.2274157403
 31
0.0
  0
LINE
  5
1E2
330
1F
100
AcDbEntity
  8
0
  6
Continuous
 62
     7
370
    30
100
AcDbLine
 10
185.11234552
 20
231.2274157403
 30
0.0
 11
190.1123458739
 21
231.2274157403
 31
0.0
  0
LINE
  5
1E3
330
1F
100
AcDbEntity
  8
0
  6
Continuous
 62
     7
370
    30
100
AcDbLine
 10
196.112345926
 20
231.2274157403
 30
0.0
 11
201.1123462799
 21
231.2274157403
 31
0.0
  0
LINE
  5
1E4
330
1F
100
AcDbEntity
  8
0
  6
Continuous
 62
     7
370
    30
100
AcDbLine
 10
190.0123458109
 20
242.2274156807
 30
0.0
 11
190.1123458739
 21
242.2274156807
 31
0.0
  0
LINE
  5
1E5
330
1F
100
AcDbEntity
  8
0
  6
Continuous
 62
     7
370
    30
100
AcDbLine
 10
196.112345926
 20
242.2274156807
 30
0.0
 11
196.212345989
 21
242.2274156807
 31
0.0
  0
LINE
  5
1E6
330
1F
100
AcDbEntity
  8
0
  6
Continuous
 62
     7
370
    30
100
AcDbLine
 10
196.212345989
 20
242.2274156807
 30
0.0
 11
196.7896961361
 21
241.2274136542
 31
0.0
  0
LINE
  5
1E7
330
1F
100
AcDbEntity
  8
0
  6
Continuous
 62
     7
370
    30
100
AcDbLine
 10
196.7896961361
 20
241.2274136542
 30
0.0
 11
196.112345926
 21
241.2274136542
 31
0.0
  0
LINE
  5
1E8
330
1F
100
AcDbEntity
  8
0
  6
Continuous
 62
     7
370
    30
100
AcDbLine
 10
190.1123458739
 20
241.2274136542
 30
0.0
 11
189.4349956639
 21
241.2274136542
 31
0.0
  0
LINE
  5
1E9
330
1F
100
AcDbEntity
  8
0
  6
Continuous
 62
     7
370
    30
100
AcDbLine
 10
196.212345989
 20
256.2274142502
 30
0.0
 11
196.212345989
 21
242.2274156807
 31
0.0
  0
LINE
  5
1EA
330
1F
100
AcDbEntity
  8
0
  6
Continuous
 62
     7
370
    30
100
AcDbLine
 10
201.6123463619
 20
231.9274201392
 30
0.0
 11
202.1123455125
 21
231.9274201392
 31
0.0
  0
LINE
  5
1EB
330
1F
100
AcDbEntity
  8
0
  6
Continuous
 62
     7
370
    30
100
AcDbLine
 10
202.1123455125
 20
231.2274157403
 30
0.0
 11
202.1123455125
 21
231.9274201392
 31
0.0
  0
LINE
  5
1EC
330
1F
100
AcDbEntity
  8
0
  6
Continuous
 62
     7
370
    30
100
AcDbLine
 10
201.1123462799
 20
231.2274157403
 30
0.0
 11
201.6123463619
 21
230.7274147271
 31
0.0
  0
LINE
  5
1ED
330
1F
100
AcDbEntity
  8
0
  6
Continuous
 62
     7
370
    30
100
AcDbLine
 10
202.1123455125
 20
233.4274157284
 30
0.0
 11
202.1123455125
 21
255.7274206875
 31
0.0
  0
LINE
  5
1EE
330
1F
100
AcDbEntity
  8
0
  6
Continuous
 62
     7
370
    30
100
AcDbLine
 10
196.7896961361
 20
241.2274136542
 30
0.0
 11
201.1123462799
 21
241.2274136542
 31
0.0
  0
LINE
  5
1EF
330
1F
100
AcDbEntity
  8
0
  6
Continuous
 62
     7
370
    30
100
AcDbLine
 10
201.8236709047
 20
256.2274142502
 30
0.0
 11
196.212345989
 21
256.2274142502
 31
0.0
  0
LINE
  5
1F0
330
1F
100
AcDbEntity
  8
0
  6
Continuous
 62
     7
370
    30
100
AcDbLine
 10
201.6123463619
 20
230.7274147271
 30
0.0
 11
201.8236709047
 21
230.7274147271
 31
0.0
  0
LINE
  5
1F1
330
1F
100
AcDbEntity
  8
0
  6
Continuous
 62
     7
370
    30
100
AcDbLine
 10
202.1123455125
 20
233.4274157284
 30
0.0
 11
201.6123463619
 21
233.4274157284
 31
0.0
  0
LINE
  5
1F2
330
1F
100
AcDbEntity
  8
0
  6
Continuous
 62
     7
370
    30
100
AcDbLine
 10
201.6123463619
 20
230.7274147271
 30
0.0
 11
196.112345926
 21
230.7274147271
 31
0.0
  0
LINE
  5
1F3
330
1F
100
AcDbEntity
  8
0
  6
Continuous
 62
     7
370
    30
100
AcDbLine
 10
190.1123458739
 20
230.7274147271
 30
0.0
 11
184.612345438
 21
230.7274147271
 31
0.0
  0
LINE
  5
1F4
330
1F
100
AcDbEntity
  8
0
  6
Continuous
 62
     7
370
    30
100
AcDbLine
 10
255.1123448867
 20
261.5274145602
 30
0.0
 11
181.2926042113
 21
261.5274145602
 31
0.0
  0
LINE
  5
1F5
330
1F
100
AcDbEntity
  8
0
  6
Continuous
 62
     7
370
    30
100
AcDbLine
 10
255.1123448867
 20
261.5274145602
 30
0.0
 11
255.1123448867
 21
258.681829214
 31
0.0
  0
SPLINE
  5
1F6
330
1F
100
AcDbEntity
  8
0
  6
Continuous
 62
     7
370
    30
100
AcDbSpline
210
0.0
220
0.0
230
1.0
 70
     8
 71
     3
 72
    15
 73
    11
 74
     0
 42
0.00000001
 43
0.00000001
 40
0.0
 40
0.0
 40
0.0
 40
0.0
 40
0.1070302981597586
 40
0.2161318619462433
 40
0.3363212650594641
 40
0.4571204171878517
 40
0.5980894099873867
 40
0.741804154729661
 40
0.9095410424946635
 40
1.0
 40
1.0
 40
1.0
 40
1.0
 10
255.1123448866899
 20
258.681829213954
 30
0.0
 10
255.0081862514819
 20
258.6982289398081
 30
0.0
 10
254.7978532882708
 20
258.7313457613549
 30
0.0
 10
254.4631712723547
 20
258.7386083586035
 30
0.0
 10
254.1185898963027
 20
258.674235603678
 30
0.0
 10
253.799541200784
 20
258.5014158121838
 30
0.0
 10
253.5594884748371
 20
258.2750195173308
 30
0.0
 10
253.3854580501654
 20
258.0614485805299
 30
0.0
 10
253.3018225602198
 20
257.9428886123397
 30
0.0
 10
253.2938259844101
 20
257.9314338526
 30
0.0
 10
253.2910243827398
 20
257.9274206756124
 30
0.0
  0
LINE
  5
1F7
330
1F
100
AcDbEntity
  8
0
  6
Continuous
 62
     7
370
    30
100
AcDbLine
 10
195.112345995
 20
257.9274206756
 30
0.0
 11
253.2910243827
 21
257.9274206756
 31
0.0
  0
SPLINE
  5
1F8
330
1F
100
AcDbEntity
  8
0
  6
Continuous
 62
     7
370
    30
100
AcDbSpline
210
0.0
220
0.0
230
1.0
 70
     8
 71
     3
 72
    15
 73
    11
 74
     0
 42
0.00000001
 43
0.00000001
 40
0.0
 40
0.0
 40
0.0
 40
0.0
 40
0.1047569486356474
 40
0.2608286523811754
 40
0.3929875437503228
 40
0.5289303705320071
 40
0.6290607871803898
 40
0.7316804288539823
 40
0.8939721302320298
 40
0.9999999999999999
 40
0.9999999999999999
 40
0.9999999999999999
 40
0.9999999999999999
 10
193.9841257045525
 20
259.7274138926039
 30
0.0
 10
193.9970509960775
 20
259.6197540695258
 30
0.0
 10
194.0292329793637
 20
259.3516977073008
 30
0.0
 10
194.2354835583902
 20
259.0086136660269
 30
0.0
 10
194.464855683405
 20
258.6870942936546
 30
0.0
 10
194.6648367919869
 20
258.4411787533956
 30
0.0
 10
194.8306054081225
 20
258.2459547573247
 30
0.0
 10
194.9826299743214
 20
258.0720907723403
 30
0.0
 10
195.0934973264492
 20
257.9483335473183
 30
0.0
 10
195.10700741387
 20
257.9333439089389
 30
0.0
 10
195.1123459949638
 20
257.9274206756124
 30
0.0
  0
LINE
  5
1F9
330
1F
100
AcDbEntity
  8
0
  6
Continuous
 62
     7
370
    30
100
AcDbLine
 10
192.2405660954
 20
259.7274138926
 30
0.0
 11
193.9841257046
 21
259.7274138926
 31
0.0
  0
SPLINE
  5
1FA
330
1F
100
AcDbEntity
  8
0
  6
Continuous
 62
     7
370
    30
100
AcDbSpline
210
0.0
220
0.0
230
1.0
 70
     8
 71
     3
 72
    16
 73
    12
 74
     0
 42
0.00000001
 43
0.00000001
 40
0.0
 40
0.0
 40
0.0
 40
0.0
 40
0.057628231999982
 40
0.2049196702622991
 40
0.3604860208935847
 40
0.4780060936107813
 40
0.598884122743291
 40
0.7193285082183085
 40
0.8429993472417996
 40
0.9501326018602182
 40
1.0
 40
1.0
 40
1.0
 40
1.0
 10
191.112345804974
 20
257.9274206756124
 30
0.0
 10
191.1139524893148
 20
257.9292046329562
 30
0.0
 10
191.1196656825518
 20
257.9355481895424
 30
0.0
 10
191.1973274229462
 20
258.0218948884382
 30
0.0
 10
191.3613321895022
 20
258.2075819563675
 30
0.0
 10
191.5546059976635
 20
258.4345234313646
 30
0.0
 10
191.7480369619815
 20
258.6739277445612
 30
0.0
 10
191.9492022596949
 20
258.9476483782682
 30
0.0
 10
192.1265414015473
 20
259.2427735597186
 30
0.0
 10
192.2289209993024
 20
259.514679415678
 30
0.0
 10
192.2377589405819
 20
259.6761323398804
 30
0.0
 10
192.2405660953852
 20
259.7274138926039
 30
0.0
  0
LINE
  5
1FB
330
1F
100
AcDbEntity
  8
0
  6
Continuous
 62
     7
370
    30
100
AcDbLine
 10
181.2926042113
 20
257.9274206756
 30
0.0
 11
191.112345805
 21
257.9274206756
 31
0.0
  0
LINE
  5
1FC
330
1F
100
AcDbEntity
  8
0
  6
Continuous
 62
     7
370
    30
100
AcDbLine
 10
181.2926042113
 20
261.5274145602
 30
0.0
 11
181.2926042113
 21
257.9274206756
 31
0.0
  0
LINE
  5
1FD
330
1F
100
AcDbEntity
  8
0
  6
Continuous
 62
     7
370
    30
100
AcDbLine
 10
191.112345805
 20
257.9274206756
 30
0.0
 11
191.112345805
 21
257.2274162768
 31
0.0
  0
LINE
  5
1FE
330
1F
100
AcDbEntity
  8
0
  6
Continuous
 62
     7
370
    30
100
AcDbLine
 10
195.112345995
 20
257.2274162768
 30
0.0
 11
195.112345995
 21
257.9274206756
 31
0.0
  0
LINE
  5
1FF
330
1F
100
AcDbEntity
  8
0
  6
Continuous
 62
     7
370
    30
100
AcDbLine
 10
191.112345805
 20
257.2274162768
 30
0.0
 11
195.112345995
 21
257.2274162768
 31
0.0
  0
LINE
  5
200
330
1F
100
AcDbEntity
  8
0
  6
Continuous
 62
     7
370
    30
100
AcDbLine
 10
258.1123435158
 20
255.527417302
 30
0.0
 11
258.1123435158
 21
257.3487340806
 31
0.0
  0
SPLINE
  5
201
330
1F
100
AcDbEntity
  8
0
  6
Continuous
 62
     7
370
    30
100
AcDbSpline
210
0.0
220
0.0
230
1.0
 70
     8
 71
     3
 72
    12
 73
     8
 74
     0
 42
0.00000001
 43
0.00000001
 40
0.0
 40
0.0
 40
0.0
 40
0.0
 40
0.2145459050338236
 40
0.429195137910219
 40
0.6411055608089316
 40
0.8513371304975054
 40
1.0
 40
1.0
 40
1.0
 40
1.0
 10
257.812345888048
 20
255.2274196742544
 30
0.0
 10
257.8459643662425
 20
255.2307073481383
 30
0.0
 10
257.9132175136878
 20
255.2372842792886
 30
0.0
 10
258.0029162739851
 20
255.2887165531549
 30
0.0
 10
258.0703409307423
 20
255.3640658952473
 30
0.0
 10
258.1068967028338
 20
255.4481182907063
 30
0.0
 10
258.1107481514197
 20
255.5041907256717
 30
0.0
 10
258.1123435157831
 20
255.5274173019895
 30
0.0
  0
LINE
  5
202
330
1F
100
AcDbEntity
  8
0
  6
Continuous
 62
     7
370
    30
100
AcDbLine
 10
257.812345888
 20
255.2274196743
 30
0.0
 11
255.9910291094
 21
255.2274196743
 31
0.0
  0
LINE
  5
203
330
1F
100
AcDbEntity
  8
0
  6
Continuous
 62
     7
370
    30
100
AcDbLine
 10
255.9910291094
 20
255.2274196743
 30
0.0
 11
253.2910243827
 21
257.9274206756
 31
0.0
  0
SPLINE
  5
204
330
1F
100
AcDbEntity
  8
0
  6
Continuous
 62
     7
370
    30
100
AcDbSpline
210
0.0
220
0.0
230
1.0
 70
     8
 71
     3
 72
    14
 73
    10
 74
     0
 42
0.00000001
 43
0.00000001
 40
0.0
 40
0.0
 40
0.0
 40
0.0
 40
0.0723598005183033
 40
0.1822931587312576
 40
0.2949770369104435
 40
0.4883119450187642
 40
0.682408926137608
 40
0.8647733935391213
 40
1.0
 40
1.0
 40
1.0
 40
1.0
 10
256.0211518067415
 20
259.439925789691
 30
0.0
 10
256.0171544220603
 20
259.4417298431993
 30
0.0
 10
256.0070839703043
 20
259.4462747232322
 30
0.0
 10
255.9283175088954
 20
259.4747928105149
 30
0.0
 10
255.794608852728
 20
259.4903406400731
 30
0.0
 10
255.6110743489927
 20
259.433425965628
 30
0.0
 10
255.40963038498
 20
259.2269680857811
 30
0.0
 10
255.244129512176
 20
258.9579167794076
 30
0.0
 10
255.1517002132653
 20
258.764278257321
 30
0.0
 10
255.1123448866899
 20
258.681829213954
 30
0.0
  0
LINE
  5
205
330
1F
100
AcDbEntity
  8
0
  6
Continuous
 62
     7
370
    30
100
AcDbLine
 10
256.0211518067
 20
259.4399257897
 30
0.0
 11
258.1123435158
 21
257.3487340806
 31
0.0
  0
LINE
  5
206
330
1F
100
AcDbEntity
  8
0
  6
Continuous
 62
     7
370
    30
100
AcDbLine
 10
256.1938935179
 20
259.7274138926
 30
0.0
 11
255.1123448867
 21
261.5274145602
 31
0.0
  0
LINE
  5
207
330
1F
100
AcDbEntity
  8
0
  6
Continuous
 62
     7
370
    30
100
AcDbLine
 10
256.0211518067
 20
259.4399257897
 30
0.0
 11
256.1938935179
 21
259.7274138926
 31
0.0
  0
LINE
  5
208
330
1F
100
AcDbEntity
  8
0
  6
Continuous
 62
     7
370
    30
100
AcDbLine
 10
173.4123458374
 20
255.2274196743
 30
0.0
 11
184.1123462874
 21
255.2274196743
 31
0.0
  0
ARC
  5
209
330
1F
100
AcDbEntity
  8
0
  6
Continuous
 62
     7
370
    30
100
AcDbCircle
 10
173.4123459
 20
255.5274172185
 30
0.0
 40
0.3000000000000114
100
AcDbArc
 50
180.0
 51
270.0
  0
LINE
  5
20A
330
1F
100
AcDbEntity
  8
0
  6
Continuous
 62
     7
370
    30
100
AcDbLine
 10
173.112346347
 20
255.527417302
 30
0.0
 11
173.112346347
 21
257.127414584
 31
0.0
  0
LINE
  5
20B
330
1F
100
AcDbEntity
  8
0
  6
Continuous
 62
     7
370
    30
100
AcDbLine
 10
173.6123454976
 20
257.6274155973
 30
0.0
 11
173.112346347
 21
257.127414584
 31
0.0
  0
LINE
  5
20C
330
1F
100
AcDbEntity
  8
0
  6
Continuous
 62
     7
370
    30
100
AcDbLine
 10
173.6123454976
 20
257.6274155973
 30
0.0
 11
181.1123457957
 21
257.6274155973
 31
0.0
  0
LINE
  5
20D
330
1F
100
AcDbEntity
  8
0
  6
Continuous
 62
     7
370
    30
100
AcDbLine
 10
181.1123457957
 20
257.6274155973
 30
0.0
 11
181.2926042113
 21
257.9274206756
 31
0.0
  0
LINE
  5
20E
330
1F
100
AcDbEntity
  8
0
  6
Continuous
 62
     7
370
    30
100
AcDbLine
 10
191.112345805
 20
257.2274162768
 30
0.0
 11
190.1123458739
 21
256.2274142502
 31
0.0
  0
LINE
  5
20F
330
1F
100
AcDbEntity
  8
0
  6
Continuous
 62
     7
370
    30
100
AcDbLine
 10
184.1123462874
 20
256.2274142502
 30
0.0
 11
190.1123458739
 21
256.2274142502
 31
0.0
  0
LINE
  5
210
330
1F
100
AcDbEntity
  8
0
  6
Continuous
 62
     7
370
    30
100
AcDbLine
 10
184.1123462874
 20
256.2274142502
 30
0.0
 11
184.1123462874
 21
255.2274196743
 31
0.0
  0
LINE
  5
211
330
1F
100
AcDbEntity
  8
0
  6
Continuous
 62
     7
370
    30
100
AcDbLine
 10
181.2926042113
 20
261.5274145602
 30
0.0
 11
181.1123457957
 21
261.8274196385
 31
0.0
  0
LINE
  5
212
330
1F
100
AcDbEntity
  8
0
  6
Continuous
 62
     7
370
    30
100
AcDbLine
 10
181.1123457957
 20
261.8274196385
 30
0.0
 11
173.6123454976
 21
261.8274196385
 31
0.0
  0
LINE
  5
213
330
1F
100
AcDbEntity
  8
0
  6
Continuous
 62
     7
370
    30
100
AcDbLine
 10
173.112346347
 20
262.3274206518
 30
0.0
 11
173.6123454976
 21
261.8274196385
 31
0.0
  0
LINE
  5
214
330
1F
100
AcDbEntity
  8
0
  6
Continuous
 62
     7
370
    30
100
AcDbLine
 10
173.112346347
 20
262.3274206518
 30
0.0
 11
173.112346347
 21
262.9274159072
 31
0.0
  0
ARC
  5
215
330
1F
100
AcDbEntity
  8
0
  6
Continuous
 62
     7
370
    30
100
AcDbCircle
 10
173.4123459
 20
262.9274172185
 30
0.0
 40
0.3000000000000114
100
AcDbArc
 50
90.0
 51
180.0
  0
LINE
  5
216
330
1F
100
AcDbEntity
  8
0
  6
Continuous
 62
     7
370
    30
100
AcDbLine
 10
173.4123458374
 20
263.227413535
 30
0.0
 11
257.812345888
 21
263.227413535
 31
0.0
  0
ARC
  5
217
330
1F
100
AcDbEntity
  8
0
  6
Continuous
 62
     7
370
    30
100
AcDbCircle
 10
257.8123459
 20
262.9274172185
 30
0.0
 40
0.3000000000000114
100
AcDbArc
 50
0.0
 51
90.0
  0
LINE
  5
218
330
1F
100
AcDbEntity
  8
0
  6
Continuous
 62
     7
370
    30
100
AcDbLine
 10
258.1123435158
 20
262.9274159072
 30
0.0
 11
258.1123435158
 21
257.3487340806
 31
0.0
  0
LINE
  5
219
330
1F
100
AcDbEntity
  8
0
  6
Continuous
 62
     7
370
    30
100
AcDbLine
 10
202.1123455125
 20
255.2274196743
 30
0.0
 11
202.1123455125
 21
256.2274142502
 31
0.0
  0
LINE
  5
21A
330
1F
100
AcDbEntity
  8
0
  6
Continuous
 62
     7
370
    30
100
AcDbLine
 10
196.112345926
 20
256.2274142502
 30
0.0
 11
195.112345995
 21
257.2274162768
 31
0.0
  0
LINE
  5
21B
330
1F
100
AcDbEntity
  8
0
  6
Continuous
 62
     7
370
    30
100
AcDbLine
 10
190.1123458739
 20
256.2274142502
 30
0.0
 11
196.112345926
 21
256.2274142502
 31
0.0
  0
LINE
  5
21C
330
1F
100
AcDbEntity
  8
0
  6
Continuous
 62
     7
370
    30
100
AcDbLine
 10
173.112346347
 20
257.127414584
 30
0.0
 11
173.112346347
 21
257.6724171041
 31
0.0
  0
LINE
  5
21D
330
1F
100
AcDbEntity
  8
0
  6
Continuous
 62
     7
370
    30
100
AcDbLine
 10
173.112346347
 20
261.7824181317
 30
0.0
 11
173.112346347
 21
262.3274206518
 31
0.0
  0
LINE
  5
21E
330
1F
100
AcDbEntity
  8
0
  6
Continuous
 62
     7
370
    30
100
AcDbLine
 10
181.1123457957
 20
261.8274196385
 30
0.0
 11
181.1123457957
 21
257.6274155973
 31
0.0
  0
LINE
  5
21F
330
1F
100
AcDbEntity
  8
0
  6
Continuous
 62
     7
370
    30
100
AcDbLine
 10
196.112345926
 20
256.2274142502
 30
0.0
 11
202.1123455125
 21
256.2274142502
 31
0.0
  0
LINE
  5
220
330
1F
100
AcDbEntity
  8
0
  6
Continuous
 62
     7
370
    30
100
AcDbLine
 10
202.1123455125
 20
255.2274196743
 30
0.0
 11
255.9910291094
 21
255.2274196743
 31
0.0
  0
ARC
  5
221
330
1F
100
AcDbEntity
  8
0
  6
Continuous
 62
     7
370
    30
100
AcDbCircle
 10
166.1617410211
 20
233.4274172185
 30
0.0
 40
2.000000000000016
100
AcDbArc
 50
4.5
 51
90.0
  0
LINE
  5
222
330
1F
100
AcDbEntity
  8
0
  6
Continuous
 62
     7
370
    30
100
AcDbLine
 10
168.1555756587
 20
233.5843324064
 30
0.0
 11
169.0398198772
 21
222.3489611743
 31
0.0
  0
ARC
  5
223
330
1F
100
AcDbEntity
  8
0
  6
Continuous
 62
     7
370
    30
100
AcDbCircle
 10
170.0367363916
 20
222.4274172185
 30
0.0
 40
1.000000000000009
100
AcDbArc
 50
184.5
 51
270.0
  0
LINE
  5
224
330
1F
100
AcDbEntity
  8
0
  6
Continuous
 62
     7
370
    30
100
AcDbLine
 10
170.0367355007
 20
221.4274137615
 30
0.0
 11
179.1123454678
 21
221.4274137615
 31
0.0
  0
LINE
  5
225
330
1F
100
AcDbEntity
  8
0
  6
Continuous
 62
     7
370
    30
100
AcDbLine
 10
179.1123454678
 20
221.4274137615
 30
0.0
 11
179.1123454678
 21
219.4274171589
 31
0.0
  0
LINE
  5
226
330
1F
100
AcDbEntity
  8
0
  6
Continuous
 62
     7
370
    30
100
AcDbLine
 10
168.5367361862
 20
219.4274171589
 30
0.0
 11
179.1123454678
 21
219.4274171589
 31
0.0
  0
ARC
  5
227
330
1F
100
AcDbEntity
  8
0
  6
Continuous
 62
     7
370
    30
100
AcDbCircle
 10
168.5367363916
 20
220.4274172185
 30
0.0
 40
1.000000000000009
100
AcDbArc
 50
184.5
 51
270.0
  0
LINE
  5
228
330
1F
100
AcDbEntity
  8
0
  6
Continuous
 62
     7
370
    30
100
AcDbLine
 10
166.5830486673
 20
232.5058757661
 30
0.0
 11
167.5398187
 21
220.3489571212
 31
0.0
  0
ARC
  5
229
330
1F
100
AcDbEntity
  8
0
  6
Continuous
 62
     7
370
    30
100
AcDbCircle
 10
165.5861315128
 20
232.4274172185
 30
0.0
 40
1.000000000000007
100
AcDbArc
 50
4.5
 51
90.0
  0
LINE
  5
22A
330
1F
100
AcDbEntity
  8
0
  6
Continuous
 62
     7
370
    30
100
AcDbLine
 10
161.6123453933
 20
233.4274157284
 30
0.0
 11
165.5861311812
 21
233.4274157284
 31
0.0
  0
LINE
  5
22B
330
1F
100
AcDbEntity
  8
0
  6
Continuous
 62
     7
370
    30
100
AcDbLine
 10
161.6123453933
 20
235.4274197815
 30
0.0
 11
161.6123453933
 21
233.4274157284
 31
0.0
  0
LINE
  5
22C
330
1F
100
AcDbEntity
  8
0
  6
Continuous
 62
     7
370
    30
100
AcDbLine
 10
161.6123453933
 20
235.4274197815
 30
0.0
 11
166.1617406863
 21
235.4274197815
 31
0.0
  0
LINE
  5
22D
330
1F
100
AcDbEntity
  8
0
  6
Continuous
 62
     7
370
    30
100
AcDbLine
 10
207.1123463321
 20
219.4274171589
 30
0.0
 11
207.1123463321
 21
221.4274137615
 31
0.0
  0
LINE
  5
22E
330
1F
100
AcDbEntity
  8
0
  6
Continuous
 62
     7
370
    30
100
AcDbLine
 10
207.1123463321
 20
221.4274137615
 30
0.0
 11
200.8623457733
 21
221.4274137615
 31
0.0
  0
LINE
  5
22F
330
1F
100
AcDbEntity
  8
0
  6
Continuous
 62
     7
370
    30
100
AcDbLine
 10
185.3623460266
 20
221.4274137615
 30
0.0
 11
179.1123454678
 21
221.4274137615
 31
0.0
  0
LINE
  5
230
330
1F
100
AcDbEntity
  8
0
  6
Continuous
 62
     7
370
    30
100
AcDbLine
 10
218.6848731
 20
220.3489571212
 30
0.0
 11
219.6416431326
 21
232.5058757661
 31
0.0
  0
ARC
  5
231
330
1F
100
AcDbEntity
  8
0
  6
Continuous
 62
     7
370
    30
100
AcDbCircle
 10
217.6879554083
 20
220.4274172185
 30
0.0
 40
1.0
100
AcDbArc
 50
270.0
 51
355.5
  0
ARC
  5
232
330
1F
100
AcDbEntity
  8
0
  6
Continuous
 62
     7
370
    30
100
AcDbCircle
 10
216.1879554083
 20
222.4274172185
 30
0.0
 40
1.0
100
AcDbArc
 50
270.0
 51
355.5
  0
LINE
  5
233
330
1F
100
AcDbEntity
  8
0
  6
Continuous
 62
     7
370
    30
100
AcDbLine
 10
217.1848719228
 20
222.3489611743
 30
0.0
 11
218.0691161412
 21
233.5843324064
 31
0.0
  0
ARC
  5
234
330
1F
100
AcDbEntity
  8
0
  6
Continuous
 62
     7
370
    30
100
AcDbCircle
 10
220.0629507788
 20
233.4274172185
 30
0.0
 40
2.000000000000045
100
AcDbArc
 50
90.0
 51
175.5
  0
LINE
  5
235
330
1F
100
AcDbEntity
  8
0
  6
Continuous
 62
     7
370
    30
100
AcDbLine
 10
224.6123464066
 20
233.4274157284
 30
0.0
 11
224.6123464066
 21
235.4274197815
 31
0.0
  0
ARC
  5
236
330
1F
100
AcDbEntity
  8
0
  6
Continuous
 62
     7
370
    30
100
AcDbCircle
 10
220.6385602872
 20
232.4274172185
 30
0.0
 40
1.000000000000007
100
AcDbArc
 50
90.0
 51
175.5
  0
LINE
  5
237
330
1F
100
AcDbEntity
  8
0
  6
Continuous
 62
     7
370
    30
100
AcDbLine
 10
207.1123463321
 20
221.4274137615
 30
0.0
 11
216.1879562992
 21
221.4274137615
 31
0.0
  0
LINE
  5
238
330
1F
100
AcDbEntity
  8
0
  6
Continuous
 62
     7
370
    30
100
AcDbLine
 10
207.1123463321
 20
219.4274171589
 30
0.0
 11
217.6879556138
 21
219.4274171589
 31
0.0
  0
LINE
  5
239
330
1F
100
AcDbEntity
  8
0
  6
Continuous
 62
     7
370
    30
100
AcDbLine
 10
220.6385606188
 20
233.4274157284
 30
0.0
 11
224.6123464066
 21
233.4274157284
 31
0.0
  0
LINE
  5
23A
330
1F
100
AcDbEntity
  8
0
  6
Continuous
 62
     7
370
    30
100
AcDbLine
 10
220.0629511136
 20
235.4274197815
 30
0.0
 11
224.6123464066
 21
235.4274197815
 31
0.0
  0
LINE
  5
23B
330
1F
100
AcDbEntity
  8
0
  6
Continuous
 62
     7
370
    30
100
AcDbLine
 10
166.1617406863
 20
235.4274197815
 30
0.0
 11
172.1123461831
 21
235.4274197815
 31
0.0
  0
LINE
  5
23C
330
1F
100
AcDbEntity
  8
0
  6
Continuous
 62
     7
370
    30
100
AcDbLine
 10
214.1123456168
 20
235.4274197815
 30
0.0
 11
220.0629511136
 21
235.4274197815
 31
0.0
  0
LINE
  5
23D
330
1F
100
AcDbEntity
  8
0
  6
Continuous
 62
     7
370
    30
100
AcDbLine
 10
172.1123461831
 20
235.4274197815
 30
0.0
 11
177.11234514
 21
235.4274197815
 31
0.0
  0
LINE
  5
23E
330
1F
100
AcDbEntity
  8
0
  6
Continuous
 62
     7
370
    30
100
AcDbLine
 10
209.1123466599
 20
235.4274197815
 30
0.0
 11
214.1123456168
 21
235.4274197815
 31
0.0
  0
LINE
  5
23F
330
1F
100
AcDbEntity
  8
0
  6
Continuous
 62
     7
370
    30
100
AcDbLine
 10
206.1123461682
 20
243.4274136423
 30
0.0
 11
206.1123461682
 21
244.4274156688
 31
0.0
  0
LINE
  5
240
330
1F
100
AcDbEntity
  8
0
  6
Continuous
 62
     7
370
    30
100
AcDbLine
 10
180.1123456317
 20
244.4274156688
 30
0.0
 11
180.1123456317
 21
243.4274136423
 31
0.0
  0
LINE
  5
241
330
1F
100
AcDbEntity
  8
0
  6
Continuous
 62
     7
370
    30
100
AcDbLine
 10
180.1123456317
 20
243.4274136423
 30
0.0
 11
183.1123461235
 21
243.4274136423
 31
0.0
  0
LINE
  5
242
330
1F
100
AcDbEntity
  8
0
  6
Continuous
 62
     7
370
    30
100
AcDbLine
 10
184.1123462874
 20
233.4274157284
 30
0.0
 11
184.1123462874
 21
244.4274156688
 31
0.0
  0
LINE
  5
243
330
1F
100
AcDbEntity
  8
0
  6
Continuous
 62
     7
370
    30
100
AcDbLine
 10
183.1123461235
 20
233.4274157284
 30
0.0
 11
184.1123462874
 21
233.4274157284
 31
0.0
  0
LINE
  5
244
330
1F
100
AcDbEntity
  8
0
  6
Continuous
 62
     7
370
    30
100
AcDbLine
 10
183.1123461235
 20
243.4274136423
 30
0.0
 11
183.1123461235
 21
233.4274157284
 31
0.0
  0
LINE
  5
245
330
1F
100
AcDbEntity
  8
0
  6
Continuous
 62
     7
370
    30
100
AcDbLine
 10
184.1123462874
 20
244.4274156688
 30
0.0
 11
180.1123456317
 21
244.4274156688
 31
0.0
  0
LINE
  5
246
330
1F
100
AcDbEntity
  8
0
  6
Continuous
 62
     7
370
    30
100
AcDbLine
 10
203.1123456765
 20
233.4274157284
 30
0.0
 11
203.1123456765
 21
243.4274136423
 31
0.0
  0
LINE
  5
247
330
1F
100
AcDbEntity
  8
0
  6
Continuous
 62
     7
370
    30
100
AcDbLine
 10
202.1123455125
 20
244.4274156688
 30
0.0
 11
202.1123455125
 21
233.4274157284
 31
0.0
  0
LINE
  5
248
330
1F
100
AcDbEntity
  8
0
  6
Continuous
 62
     7
370
    30
100
AcDbLine
 10
202.1123455125
 20
233.4274157284
 30
0.0
 11
203.1123456765
 21
233.4274157284
 31
0.0
  0
LINE
  5
249
330
1F
100
AcDbEntity
  8
0
  6
Continuous
 62
     7
370
    30
100
AcDbLine
 10
203.1123456765
 20
243.4274136423
 30
0.0
 11
206.1123461682
 21
243.4274136423
 31
0.0
  0
LINE
  5
24A
330
1F
100
AcDbEntity
  8
0
  6
Continuous
 62
     7
370
    30
100
AcDbLine
 10
206.1123461682
 20
244.4274156688
 30
0.0
 11
202.1123455125
 21
244.4274156688
 31
0.0
  0
ARC
  5
24B
330
1F
100
AcDbEntity
  8
0
  6
Continuous
 62
     7
370
    30
100
AcDbCircle
 10
166.6123459
 20
239.4274172185
 30
0.0
 40
2.0
100
AcDbArc
 50
90.0
 51
180.0
  0
LINE
  5
24C
330
1F
100
AcDbEntity
  8
0
  6
Continuous
 62
     7
370
    30
100
AcDbLine
 10
164.6123458851
 20
239.4274204372
 30
0.0
 11
164.6123458851
 21
235.4274197815
 31
0.0
  0
LINE
  5
24D
330
1F
100
AcDbEntity
  8
0
  6
Continuous
 62
     7
370
    30
100
AcDbLine
 10
161.6123453933
 20
235.4274197815
 30
0.0
 11
164.6123458851
 21
235.4274197815
 31
0.0
  0
LINE
  5
24E
330
1F
100
AcDbEntity
  8
0
  6
Continuous
 62
     7
370
    30
100
AcDbLine
 10
161.6123453933
 20
235.4274197815
 30
0.0
 11
161.6123453933
 21
221.7274188398
 31
0.0
  0
ARC
  5
24F
330
1F
100
AcDbEntity
  8
0
  6
Continuous
 62
     7
370
    30
100
AcDbCircle
 10
161.3123459
 20
221.7274172185
 30
0.0
 40
0.3000000000000114
100
AcDbArc
 50
270.0
 51
0.0
  0
LINE
  5
250
330
1F
100
AcDbEntity
  8
0
  6
Continuous
 62
     7
370
    30
100
AcDbLine
 10
159.9123464185
 20
221.4274137615
 30
0.0
 11
161.3123440403
 21
221.4274137615
 31
0.0
  0
ARC
  5
251
330
1F
100
AcDbEntity
  8
0
  6
Continuous
 62
     7
370
    30
100
AcDbCircle
 10
159.9123459
 20
221.7274172185
 30
0.0
 40
0.3000000000000114
100
AcDbArc
 50
180.0
 51
270.0
  0
LINE
  5
252
330
1F
100
AcDbEntity
  8
0
  6
Continuous
 62
     7
370
    30
100
AcDbLine
 10
159.6123450655
 20
221.7274188398
 30
0.0
 11
159.6123450655
 21
243.1274160145
 31
0.0
  0
ARC
  5
253
330
1F
100
AcDbEntity
  8
0
  6
Continuous
 62
     7
370
    30
100
AcDbCircle
 10
159.9123459
 20
243.1274172185
 30
0.0
 40
0.3000000000000114
100
AcDbArc
 50
90.0
 51
180.0
  0
LINE
  5
254
330
1F
100
AcDbEntity
  8
0
  6
Continuous
 62
     7
370
    30
100
AcDbLine
 10
159.9123464185
 20
243.4274136423
 30
0.0
 11
182.8123457018
 21
243.4274136423
 31
0.0
  0
ARC
  5
255
330
1F
100
AcDbEntity
  8
0
  6
Continuous
 62
     7
370
    30
100
AcDbCircle
 10
182.8123459
 20
243.1274172185
 30
0.0
 40
0.3000000000000114
100
AcDbArc
 50
0.0
 51
90.0
  0
LINE
  5
256
330
1F
100
AcDbEntity
  8
0
  6
Continuous
 62
     7
370
    30
100
AcDbLine
 10
183.1123461235
 20
233.4274157284
 30
0.0
 11
183.1123461235
 21
243.1274160145
 31
0.0
  0
LINE
  5
257
330
1F
100
AcDbEntity
  8
0
  6
Continuous
 62
     7
370
    30
100
AcDbLine
 10
180.1123456317
 20
233.4274157284
 30
0.0
 11
183.1123461235
 21
233.4274157284
 31
0.0
  0
ARC
  5
258
330
1F
100
AcDbEntity
  8
0
  6
Continuous
 62
     7
370
    30
100
AcDbCircle
 10
180.1123459
 20
232.4274172185
 30
0.0
 40
1.0
100
AcDbArc
 50
90.0
 51
180.0
  0
LINE
  5
259
330
1F
100
AcDbEntity
  8
0
  6
Continuous
 62
     7
370
    30
100
AcDbLine
 10
179.1123454678
 20
221.4274137615
 30
0.0
 11
179.1123454678
 21
232.4274137019
 31
0.0
  0
LINE
  5
25A
330
1F
100
AcDbEntity
  8
0
  6
Continuous
 62
     7
370
    30
100
AcDbLine
 10
177.11234514
 20
221.4274137615
 30
0.0
 11
179.1123454678
 21
221.4274137615
 31
0.0
  0
LINE
  5
25B
330
1F
100
AcDbEntity
  8
0
  6
Continuous
 62
     7
370
    30
100
AcDbLine
 10
177.11234514
 20
239.4274204372
 30
0.0
 11
177.11234514
 21
221.4274137615
 31
0.0
  0
ARC
  5
25C
330
1F
100
AcDbEntity
  8
0
  6
Continuous
 62
     7
370
    30
100
AcDbCircle
 10
175.1123459
 20
239.4274172185
 30
0.0
 40
2.000000000000028
100
AcDbArc
 50
0.0
 51
90.0
  0
LINE
  5
25D
330
1F
100
AcDbEntity
  8
0
  6
Continuous
 62
     7
370
    30
100
AcDbLine
 10
175.1123466748
 20
241.4274170397
 30
0.0
 11
166.6123462129
 21
241.4274170397
 31
0.0
  0
LINE
  5
25E
330
1F
100
AcDbEntity
  8
0
  6
Continuous
 62
     7
370
    30
100
AcDbLine
 10
207.1123463321
 20
232.4274137019
 30
0.0
 11
207.1123463321
 21
221.4274137615
 31
0.0
  0
ARC
  5
25F
330
1F
100
AcDbEntity
  8
0
  6
Continuous
 62
     7
370
    30
100
AcDbCircle
 10
206.1123459
 20
232.4274172185
 30
0.0
 40
1.000000000000028
100
AcDbArc
 50
0.0
 51
90.0
  0
ARC
  5
260
330
1F
100
AcDbEntity
  8
0
  6
Continuous
 62
     7
370
    30
100
AcDbCircle
 10
203.4123459
 20
243.1274172185
 30
0.0
 40
0.3000000000000114
100
AcDbArc
 50
90.0
 51
180.0
  0
LINE
  5
261
330
1F
100
AcDbEntity
  8
0
  6
Continuous
 62
     7
370
    30
100
AcDbLine
 10
203.1123456765
 20
243.1274160145
 30
0.0
 11
203.1123456765
 21
233.4274157284
 31
0.0
  0
ARC
  5
262
330
1F
100
AcDbEntity
  8
0
  6
Continuous
 62
     7
370
    30
100
AcDbCircle
 10
211.1123459
 20
239.4274172185
 30
0.0
 40
2.0
100
AcDbArc
 50
90.0
 51
180.0
  0
LINE
  5
263
330
1F
100
AcDbEntity
  8
0
  6
Continuous
 62
     7
370
    30
100
AcDbLine
 10
209.1123466599
 20
221.4274137615
 30
0.0
 11
209.1123466599
 21
239.4274204372
 31
0.0
  0
ARC
  5
264
330
1F
100
AcDbEntity
  8
0
  6
Continuous
 62
     7
370
    30
100
AcDbCircle
 10
226.3123459
 20
243.1274172185
 30
0.0
 40
0.3000000000000114
100
AcDbArc
 50
0.0
 51
90.0
  0
LINE
  5
265
330
1F
100
AcDbEntity
  8
0
  6
Continuous
 62
     7
370
    30
100
AcDbLine
 10
226.6123467344
 20
243.1274160145
 30
0.0
 11
226.6123467344
 21
221.7274188398
 31
0.0
  0
ARC
  5
266
330
1F
100
AcDbEntity
  8
0
  6
Continuous
 62
     7
370
    30
100
AcDbCircle
 10
226.3123459
 20
221.7274172185
 30
0.0
 40
0.3000000000000114
100
AcDbArc
 50
270.0
 51
0.0
  0
LINE
  5
267
330
1F
100
AcDbEntity
  8
0
  6
Continuous
 62
     7
370
    30
100
AcDbLine
 10
224.9123477596
 20
221.4274137615
 30
0.0
 11
226.3123453814
 21
221.4274137615
 31
0.0
  0
ARC
  5
268
330
1F
100
AcDbEntity
  8
0
  6
Continuous
 62
     7
370
    30
100
AcDbCircle
 10
224.9123459
 20
221.7274172185
 30
0.0
 40
0.3000000000000114
100
AcDbArc
 50
180.0
 51
270.0
  0
LINE
  5
269
330
1F
100
AcDbEntity
  8
0
  6
Continuous
 62
     7
370
    30
100
AcDbLine
 10
224.6123464066
 20
221.7274188398
 30
0.0
 11
224.6123464066
 21
235.4274197815
 31
0.0
  0
LINE
  5
26A
330
1F
100
AcDbEntity
  8
0
  6
Continuous
 62
     7
370
    30
100
AcDbLine
 10
221.6123459149
 20
235.4274197815
 30
0.0
 11
224.6123464066
 21
235.4274197815
 31
0.0
  0
LINE
  5
26B
330
1F
100
AcDbEntity
  8
0
  6
Continuous
 62
     7
370
    30
100
AcDbLine
 10
221.6123459149
 20
235.4274197815
 30
0.0
 11
221.6123459149
 21
239.4274204372
 31
0.0
  0
ARC
  5
26C
330
1F
100
AcDbEntity
  8
0
  6
Continuous
 62
     7
370
    30
100
AcDbCircle
 10
219.6123459
 20
239.4274172185
 30
0.0
 40
2.0
100
AcDbArc
 50
0.0
 51
90.0
  0
LINE
  5
26D
330
1F
100
AcDbEntity
  8
0
  6
Continuous
 62
     7
370
    30
100
AcDbLine
 10
219.612345587
 20
241.4274170397
 30
0.0
 11
211.1123451251
 21
241.4274170397
 31
0.0
  0
LINE
  5
26E
330
1F
100
AcDbEntity
  8
0
  6
Continuous
 62
     7
370
    30
100
AcDbLine
 10
203.1123456765
 20
233.4274157284
 30
0.0
 11
206.1123461682
 21
233.4274157284
 31
0.0
  0
LINE
  5
26F
330
1F
100
AcDbEntity
  8
0
  6
Continuous
 62
     7
370
    30
100
AcDbLine
 10
207.1123463321
 20
221.4274137615
 30
0.0
 11
209.1123466599
 21
221.4274137615
 31
0.0
  0
LINE
  5
270
330
1F
100
AcDbEntity
  8
0
  6
Continuous
 62
     7
370
    30
100
AcDbLine
 10
203.4123460982
 20
243.4274136423
 30
0.0
 11
226.3123453814
 21
243.4274136423
 31
0.0
  0
LINE
  5
271
330
1F
100
AcDbEntity
  8
0
  6
Continuous
 62
     7
370
    30
100
AcDbLine
 10
162.4535047669
 20
221.4274137615
 30
0.0
 11
161.3123440403
 21
221.4274137615
 31
0.0
  0
LINE
  5
272
330
1F
100
AcDbEntity
  8
0
  6
Continuous
 62
     7
370
    30
100
AcDbLine
 10
224.9123477596
 20
221.4274137615
 30
0.0
 11
223.7711870331
 21
221.4274137615
 31
0.0
  0
SPLINE
  5
273
330
1F
100
AcDbEntity
  8
0
  6
Continuous
 62
     7
370
    30
100
AcDbSpline
210
0.0
220
0.0
230
1.0
 70
     8
 71
     3
 72
    19
 73
    15
 74
     0
 42
0.00000001
 43
0.00000001
 40
0.0
 40
0.0
 40
0.0
 40
0.0
 40
0.0834507572213843
 40
0.1669247111577176
 40
0.2503966442187124
 40
0.3338912267805665
 40
0.4173839067573926
 40
0.5008427692566876
 40
0.5840217925112658
 40
0.6672340280619118
 40
0.7504482069655564
 40
0.8336384296726241
 40
0.9168306943020607
 40
1.0
 40
1.0
 40
1.0
 40
1.0
 10
215.796594064265
 20
145.4274180679092
 30
0.0
 10
214.533107136957
 20
145.4416044278069
 30
0.0
 10
212.0057820722732
 20
145.4699810909689
 30
0.0
 10
208.2184743542627
 20
145.6536650244375
 30
0.0
 10
204.4347614812882
 20
145.8993500715786
 30
0.0
 10
200.6520256773255
 20
146.1652431464405
 30
0.0
 10
196.8654357747638
 20
146.3692646316397
 30
0.0
 10
193.0782802090192
 20
146.4569268415614
 30
0.0
 10
189.2954462558052
 20
146.3667486283451
 30
0.0
 10
185.5216537231331
 20
146.1619855464025
 30
0.0
 10
181.7516680516169
 20
145.8966541456012
 30
0.0
 10
177.9806737732376
 20
145.6522142637332
 30
0.0
 10
174.2061226522594
 20
145.469658154407
 30
0.0
 10
171.6873235045517
 20
145.4414962967716
 30
0.0
 10
170.4280977356727
 20
145.4274173112096
 30
0.0
  0
ARC
  5
274
330
1F
100
AcDbEntity
  8
0
  6
Continuous
 62
     7
370
    30
100
AcDbCircle
 10
163.4526698787
 20
230.4274172185
 30
0.0
 40
1.5
100
AcDbArc
 50
90.0
 51
183.2
  0
LINE
  5
275
330
1F
100
AcDbEntity
  8
0
  6
Continuous
 62
     7
370
    30
100
AcDbLine
 10
163.4526704657
 20
231.9274201392
 30
0.0
 11
165.2257596362
 21
231.9274201392
 31
0.0
  0
ARC
  5
276
330
1F
100
AcDbEntity
  8
0
  6
Continuous
 62
     7
370
    30
100
AcDbCircle
 10
165.2257601625
 20
230.4274172185
 30
0.0
 40
1.5
100
AcDbArc
 50
4.5
 51
90.0
  0
LINE
  5
277
330
1F
100
AcDbEntity
  8
0
  6
Continuous
 62
     7
370
    30
100
AcDbLine
 10
166.7211358655
 20
230.5451064704
 30
0.0
 11
172.2372160513
 21
160.4566621928
 31
0.0
  0
ARC
  5
278
330
1F
100
AcDbEntity
  8
0
  6
Continuous
 62
     7
370
    30
100
AcDbCircle
 10
178.2187202754
 20
160.9274172185
 30
0.0
 40
6.000000000000026
100
AcDbArc
 50
184.5
 51
270.0
  0
LINE
  5
279
330
1F
100
AcDbEntity
  8
0
  6
Continuous
 62
     7
370
    30
100
AcDbLine
 10
178.2187200371
 20
154.9274168311
 30
0.0
 11
208.0059717629
 21
154.9274168311
 31
0.0
  0
ARC
  5
27A
330
1F
100
AcDbEntity
  8
0
  6
Continuous
 62
     7
370
    30
100
AcDbCircle
 10
208.0059715245
 20
160.9274172185
 30
0.0
 40
6.000000000000026
100
AcDbArc
 50
270.0
 51
355.5
  0
LINE
  5
27B
330
1F
100
AcDbEntity
  8
0
  6
Continuous
 62
     7
370
    30
100
AcDbLine
 10
213.9874757487
 20
160.4566621928
 30
0.0
 11
219.5035559345
 21
230.5451064704
 31
0.0
  0
ARC
  5
27C
330
1F
100
AcDbEntity
  8
0
  6
Continuous
 62
     7
370
    30
100
AcDbCircle
 10
220.9989316375
 20
230.4274172185
 30
0.0
 40
1.5
100
AcDbArc
 50
90.0
 51
175.5
  0
LINE
  5
27D
330
1F
100
AcDbEntity
  8
0
  6
Continuous
 62
     7
370
    30
100
AcDbLine
 10
220.9989321637
 20
231.9274201392
 30
0.0
 11
222.7720213342
 21
231.9274201392
 31
0.0
  0
ARC
  5
27E
330
1F
100
AcDbEntity
  8
0
  6
Continuous
 62
     7
370
    30
100
AcDbCircle
 10
222.7720219212
 20
230.4274172185
 30
0.0
 40
1.500000000000003
100
AcDbArc
 50
356.8
 51
90.0
  0
LINE
  5
27F
330
1F
100
AcDbEntity
  8
0
  6
Continuous
 62
     7
370
    30
100
AcDbLine
 10
224.2696830291
 20
230.3436874746
 30
0.0
 11
220.6549779731
 21
165.6899518667
 31
0.0
  0
ARC
  5
280
330
1F
100
AcDbEntity
  8
0
  6
Continuous
 62
     7
370
    30
100
AcDbCircle
 10
218.6580966915
 20
165.8015951348
 30
0.0
 40
2.000000000000016
100
AcDbArc
 50
315.0
 51
356.8
  0
LINE
  5
281
330
1F
100
AcDbEntity
  8
0
  6
Continuous
 62
     7
370
    30
100
AcDbLine
 10
219.6552125025
 20
163.9702833591
 30
0.0
 11
220.0723109055
 21
164.3873817621
 31
0.0
  0
ARC
  5
282
330
1F
100
AcDbEntity
  8
0
  6
Continuous
 62
     7
370
    30
100
AcDbCircle
 10
221.0694251868
 20
162.5560693806
 30
0.0
 40
2.000000000000016
100
AcDbArc
 50
135.0
 51
177.0
  0
LINE
  5
283
330
1F
100
AcDbEntity
  8
0
  6
Continuous
 62
     7
370
    30
100
AcDbLine
 10
218.2931681383
 20
147.7965773184
 30
0.0
 11
219.0721654553
 21
162.6607413738
 31
0.0
  0
ARC
  5
284
330
1F
100
AcDbEntity
  8
0
  6
Continuous
 62
     7
370
    30
100
AcDbCircle
 10
215.7965944561
 20
147.9274172185
 30
0.0
 40
2.500000000000021
100
AcDbArc
 50
270.0
 51
357.0
  0
ARC
  5
285
330
1F
100
AcDbEntity
  8
0
  6
Continuous
 62
     7
370
    30
100
AcDbCircle
 10
170.4280973438
 20
147.9274172185
 30
0.0
 40
2.5
100
AcDbArc
 50
183.0
 51
270.0
  0
LINE
  5
286
330
1F
100
AcDbEntity
  8
0
  6
Continuous
 62
     7
370
    30
100
AcDbLine
 10
167.1525263447
 20
162.6607413738
 30
0.0
 11
167.9315236616
 21
147.7965773184
 31
0.0
  0
ARC
  5
287
330
1F
100
AcDbEntity
  8
0
  6
Continuous
 62
     7
370
    30
100
AcDbCircle
 10
165.1552666131
 20
162.5560693806
 30
0.0
 40
2.000000000000023
100
AcDbArc
 50
3.0
 51
45.0
  0
LINE
  5
288
330
1F
100
AcDbEntity
  8
0
  6
Continuous
 62
     7
370
    30
100
AcDbLine
 10
166.1523808945
 20
164.3873817621
 30
0.0
 11
166.5694792974
 21
163.9702833591
 31
0.0
  0
ARC
  5
289
330
1F
100
AcDbEntity
  8
0
  6
Continuous
 62
     7
370
    30
100
AcDbCircle
 10
167.5665951084
 20
165.8015951348
 30
0.0
 40
1.999999999999976
100
AcDbArc
 50
183.2
 51
225.0
  0
LINE
  5
28A
330
1F
100
AcDbEntity
  8
0
  6
Continuous
 62
     7
370
    30
100
AcDbLine
 10
165.5697138268
 20
165.6899518667
 30
0.0
 11
161.9550087709
 21
230.3436874746
 31
0.0
  0
LWPOLYLINE
  5
28B
330
1F
100
AcDbEntity
  8
0
  6
Continuous
 62
     7
370
    30
100
AcDbPolyline
 90
        2
 70
   128
 43
0.0
 10
166.1523808945
 20
164.3873817621
 10
166.1523808945
 20
164.3873817621
  0
LWPOLYLINE
  5
28C
330
1F
100
AcDbEntity
  8
0
  6
Continuous
 62
     7
370
    30
100
AcDbPolyline
 90
        2
 70
   128
 43
0.0
 10
220.0723109055
 20
164.3873817621
 10
220.0723109055
 20
164.3873817621
  0
LINE
  5
28D
330
1F
100
AcDbEntity
  8
0
  6
Continuous
 62
     7
370
    30
100
AcDbLine
 10
184.4323459301
 20
217.37741971
 30
0.0
 11
176.7923464287
 21
217.37741971
 31
0.0
  0
LINE
  5
28E
330
1F
100
AcDbEntity
  8
0
  6
Continuous
 62
     8
370
     0
100
AcDbLine
 10
165.5690991539
 20
154.3520895167
 30
0.0
 11
165.1121941614
 21
167.4361258148
 31
0.0
  0
LINE
  5
28F
330
1F
100
AcDbEntity
  8
0
  6
Continuous
 62
     8
370
     0
100
AcDbLine
 10
221.1124976385
 20
167.4361258148
 30
0.0
 11
220.655592646
 21
154.3520895167
 31
0.0
  0
LINE
  5
290
330
1F
100
AcDbEntity
  8
0
  6
Continuous
 62
     8
370
     0
100
AcDbLine
 10
172.6123453337
 20
145.4274010131
 30
0.0
 11
172.6123453337
 21
144.4274010238
 31
0.0
  0
LINE
  5
291
330
1F
100
AcDbEntity
  8
0
  6
Continuous
 62
     8
370
     0
100
AcDbLine
 10
213.6123464662
 20
145.4274010131
 30
0.0
 11
213.6123464662
 21
144.4274010238
 31
0.0
  0
LINE
  5
292
330
1F
100
AcDbEntity
  8
0
  6
Continuous
 62
     8
370
     0
100
AcDbLine
 10
167.5982219386
 20
154.1563515885
 30
0.0
 11
165.8260864425
 21
154.1563515885
 31
0.0
  0
LINE
  5
293
330
1F
100
AcDbEntity
  8
0
  6
Continuous
 62
     8
370
     0
100
AcDbLine
 10
220.3986053574
 20
154.1563515885
 30
0.0
 11
218.6264698613
 21
154.1563515885
 31
0.0
  0
LINE
  5
294
330
1F
100
AcDbEntity
  8
0
  6
Continuous
 62
     8
370
     0
100
AcDbLine
 10
167.6032510805
 20
154.0604058056
 30
0.0
 11
166.0065339166
 21
154.0604058056
 31
0.0
  0
LINE
  5
295
330
1F
100
AcDbEntity
  8
0
  6
Continuous
 62
     8
370
     0
100
AcDbLine
 10
167.6609539646
 20
152.9593631959
 30
0.0
 11
166.7215586859
 21
152.9593631959
 31
0.0
  0
LINE
  5
296
330
1F
100
AcDbEntity
  8
0
  6
Continuous
 62
     8
370
     0
100
AcDbLine
 10
168.3251452852
 20
146.5755336204
 30
0.0
 11
167.1679602224
 21
146.5755336204
 31
0.0
  0
LINE
  5
297
330
1F
100
AcDbEntity
  8
0
  6
Continuous
 62
     8
370
     0
100
AcDbLine
 10
169.3988987464
 20
145.649095367
 30
0.0
 11
168.0783671546
 21
145.649095367
 31
0.0
  0
LINE
  5
298
330
1F
100
AcDbEntity
  8
0
  6
Continuous
 62
     8
370
     0
100
AcDbLine
 10
218.1463246453
 20
145.649095367
 30
0.0
 11
216.8257930535
 21
145.649095367
 31
0.0
  0
LINE
  5
299
330
1F
100
AcDbEntity
  8
0
  6
Continuous
 62
     8
370
     0
100
AcDbLine
 10
219.0567315775
 20
146.5755336204
 30
0.0
 11
217.8995465148
 21
146.5755336204
 31
0.0
  0
LINE
  5
29A
330
1F
100
AcDbEntity
  8
0
  6
Continuous
 62
     8
370
     0
100
AcDbLine
 10
219.503133114
 20
152.9593631959
 30
0.0
 11
218.5637378353
 21
152.9593631959
 31
0.0
  0
LINE
  5
29B
330
1F
100
AcDbEntity
  8
0
  6
Continuous
 62
     8
370
     0
100
AcDbLine
 10
220.2181578833
 20
154.0604058056
 30
0.0
 11
218.6214407194
 21
154.0604058056
 31
0.0
  0
LINE
  5
29C
330
1F
100
AcDbEntity
  8
0
  6
Continuous
 62
     8
370
     0
100
AcDbLine
 10
186.6123457659
 20
217.7274181841
 30
0.0
 11
186.8123458918
 21
217.7274181841
 31
0.0
  0
LINE
  5
29D
330
1F
100
AcDbEntity
  8
0
  6
Continuous
 62
     8
370
     0
100
AcDbLine
 10
199.4123459082
 20
217.7274181841
 30
0.0
 11
199.6123460341
 21
217.7274181841
 31
0.0
  0
LINE
  5
29E
330
1F
100
AcDbEntity
  8
0
  6
Continuous
 62
     8
370
     0
100
AcDbLine
 10
172.1123461831
 20
233.5843324064
 30
0.0
 11
168.1555756587
 21
233.5843324064
 31
0.0
  0
LINE
  5
29F
330
1F
100
AcDbEntity
  8
0
  6
Continuous
 62
     8
370
     0
100
AcDbLine
 10
172.1123461831
 20
233.5843324064
 30
0.0
 11
172.1123461831
 21
235.4274197815
 31
0.0
  0
LINE
  5
2A0
330
1F
100
AcDbEntity
  8
0
  6
Continuous
 62
     8
370
     0
100
AcDbLine
 10
172.1123461831
 20
222.3489611743
 30
0.0
 11
172.1123461831
 21
233.5843324064
 31
0.0
  0
LINE
  5
2A1
330
1F
100
AcDbEntity
  8
0
  6
Continuous
 62
     8
370
     0
100
AcDbLine
 10
169.0398198772
 20
222.3489611743
 30
0.0
 11
172.1123461831
 21
222.3489611743
 31
0.0
  0
LINE
  5
2A2
330
1F
100
AcDbEntity
  8
0
  6
Continuous
 62
     8
370
     0
100
AcDbLine
 10
172.1123461831
 20
221.4274137615
 30
0.0
 11
172.1123461831
 21
222.3489611743
 31
0.0
  0
LINE
  5
2A3
330
1F
100
AcDbEntity
  8
0
  6
Continuous
 62
     8
370
     0
100
AcDbLine
 10
218.0691161412
 20
233.5843324064
 30
0.0
 11
214.1123456168
 21
233.5843324064
 31
0.0
  0
LINE
  5
2A4
330
1F
100
AcDbEntity
  8
0
  6
Continuous
 62
     8
370
     0
100
AcDbLine
 10
214.1123456168
 20
235.4274197815
 30
0.0
 11
214.1123456168
 21
233.5843324064
 31
0.0
  0
LINE
  5
2A5
330
1F
100
AcDbEntity
  8
0
  6
Continuous
 62
     8
370
     0
100
AcDbLine
 10
214.1123456168
 20
222.3489611743
 30
0.0
 11
217.1848719228
 21
222.3489611743
 31
0.0
  0
LINE
  5
2A6
330
1F
100
AcDbEntity
  8
0
  6
Continuous
 62
     8
370
     0
100
AcDbLine
 10
214.1123456168
 20
222.3489611743
 30
0.0
 11
214.1123456168
 21
233.5843324064
 31
0.0
  0
LINE
  5
2A7
330
1F
100
AcDbEntity
  8
0
  6
Continuous
 62
     8
370
     0
100
AcDbLine
 10
214.1123456168
 20
221.4274137615
 30
0.0
 11
214.1123456168
 21
222.3489611743
 31
0.0
  0
LINE
  5
2A8
330
1F
100
AcDbEntity
  8
0
  6
Continuous
 62
     8
370
     0
100
AcDbLine
 10
172.1123461831
 20
222.3489611743
 30
0.0
 11
177.11234514
 21
222.3489611743
 31
0.0
  0
LINE
  5
2A9
330
1F
100
AcDbEntity
  8
0
  6
Continuous
 62
     8
370
     0
100
AcDbLine
 10
209.1123466599
 20
222.3489611743
 30
0.0
 11
214.1123456168
 21
222.3489611743
 31
0.0
  0
LINE
  5
2AA
330
1F
100
AcDbEntity
  8
0
  6
Continuous
 62
     8
370
     0
100
AcDbLine
 10
214.1123456168
 20
233.5843324064
 30
0.0
 11
209.1123466599
 21
233.5843324064
 31
0.0
  0
LINE
  5
2AB
330
1F
100
AcDbEntity
  8
0
  6
Continuous
 62
     8
370
     0
100
AcDbLine
 10
177.11234514
 20
233.5843324064
 30
0.0
 11
172.1123461831
 21
233.5843324064
 31
0.0
  0
LINE
  5
2AC
330
1F
100
AcDbEntity
  8
0
  6
Continuous
 62
     8
370
     0
100
AcDbLine
 10
207.1123463321
 20
232.4274137019
 30
0.0
 11
205.5087159607
 21
232.4274137019
 31
0.0
  0
LINE
  5
2AD
330
1F
100
AcDbEntity
  8
0
  6
Continuous
 62
     8
370
     0
100
AcDbLine
 10
182.2123457897
 20
232.4274137019
 30
0.0
 11
179.1123454678
 21
232.4274137019
 31
0.0
  0
LINE
  5
2AE
330
1F
100
AcDbEntity
  8
0
  6
Continuous
 62
     8
370
     0
100
AcDbLine
 10
166.6123462129
 20
241.4274170397
 30
0.0
 11
166.6123462129
 21
239.4274204372
 31
0.0
  0
LINE
  5
2AF
330
1F
100
AcDbEntity
  8
0
  6
Continuous
 62
     8
370
     0
100
AcDbLine
 10
166.6123462129
 20
239.4274204372
 30
0.0
 11
164.6123458851
 21
239.4274204372
 31
0.0
  0
LINE
  5
2B0
330
1F
100
AcDbEntity
  8
0
  6
Continuous
 62
     8
370
     0
100
AcDbLine
 10
166.6123462129
 20
239.4274204372
 30
0.0
 11
166.6123462129
 21
235.4274197815
 31
0.0
  0
LINE
  5
2B1
330
1F
100
AcDbEntity
  8
0
  6
Continuous
 62
     8
370
     0
100
AcDbLine
 10
219.612345587
 20
241.4274170397
 30
0.0
 11
219.612345587
 21
239.4274204372
 31
0.0
  0
LINE
  5
2B2
330
1F
100
AcDbEntity
  8
0
  6
Continuous
 62
     8
370
     0
100
AcDbLine
 10
219.612345587
 20
239.4274204372
 30
0.0
 11
209.1123466599
 21
239.4274204372
 31
0.0
  0
LINE
  5
2B3
330
1F
100
AcDbEntity
  8
0
  6
Continuous
 62
     8
370
     0
100
AcDbLine
 10
177.11234514
 20
239.4274204372
 30
0.0
 11
166.6123462129
 21
239.4274204372
 31
0.0
  0
LINE
  5
2B4
330
1F
100
AcDbEntity
  8
0
  6
Continuous
 62
     8
370
     0
100
AcDbLine
 10
221.6123459149
 20
239.4274204372
 30
0.0
 11
219.612345587
 21
239.4274204372
 31
0.0
  0
LINE
  5
2B5
330
1F
100
AcDbEntity
  8
0
  6
Continuous
 62
     8
370
     0
100
AcDbLine
 10
219.612345587
 20
239.4274204372
 30
0.0
 11
219.612345587
 21
235.4274197815
 31
0.0
  0
LINE
  5
2B6
330
1F
100
AcDbEntity
  8
0
  6
Continuous
 62
     8
370
     0
100
AcDbLine
 10
161.6123453933
 20
221.7274188398
 30
0.0
 11
162.4367335099
 21
221.7274188398
 31
0.0
  0
LINE
  5
2B7
330
1F
100
AcDbEntity
  8
0
  6
Continuous
 62
     8
370
     0
100
AcDbLine
 10
165.612346049
 20
233.4270730017
 30
0.0
 11
165.612346049
 21
231.9274201392
 31
0.0
  0
LINE
  5
2B8
330
1F
100
AcDbEntity
  8
0
  6
Continuous
 62
     8
370
     0
100
AcDbLine
 10
223.78795829
 20
221.7274188398
 30
0.0
 11
224.6123464066
 21
221.7274188398
 31
0.0
  0
LINE
  5
2B9
330
1F
100
AcDbEntity
  8
0
  6
Continuous
 62
     8
370
     0
100
AcDbLine
 10
220.612345751
 20
233.4270730017
 30
0.0
 11
220.612345751
 21
231.9274201392
 31
0.0
  0
LWPOLYLINE
  5
2BA
330
1F
100
AcDbEntity
  8
0
  6
Continuous
 62
     8
370
     0
100
AcDbPolyline
 90
        2
 70
   128
 43
0.0
 10
219.6552125025
 20
163.9702833591
 10
219.6552125025
 20
163.9702833591
  0
ELLIPSE
  5
2BB
330
1F
100
AcDbEntity
  8
0
  6
Continuous
 62
     8
370
     0
100
AcDbEllipse
 10
178.2187202754
 20
160.9274172185
 30
0.0
 11
0.0
 21
6.0
 31
0.0
210
0.0
220
0.0
230
1.0
 40
0.25
 41
1.649336143134643
 42
3.141592653589793
  0
ARC
  5
2BC
330
1F
100
AcDbEntity
  8
0
  6
Continuous
 62
     8
370
     0
100
AcDbCircle
 10
174.4802803952
 20
174.8556728241
 30
0.0
 40
14.57267459364542
100
AcDbArc
 50
261.1456825413
 51
278.8543174587
  0
LINE
  5
2BD
330
1F
100
AcDbEntity
  8
0
  6
Continuous
 62
     8
370
     0
100
AcDbLine
 10
176.7233447391
 20
160.4566621928
 30
0.0
 11
209.5013470608
 21
160.4566621928
 31
0.0
  0
ELLIPSE
  5
2BE
330
1F
100
AcDbEntity
  8
0
  6
Continuous
 62
     8
370
     0
100
AcDbEllipse
 10
208.0059715245
 20
160.9274172185
 30
0.0
 11
0.0
 21
6.0
 31
0.0
210
0.0
220
0.0
230
1.0
 40
0.25
 41
3.141592653589793
 42
4.633849164044943
  0
ARC
  5
2BF
330
1F
100
AcDbEntity
  8
0
  6
Continuous
 62
     8
370
     0
100
AcDbCircle
 10
211.7444114048
 20
174.8556728241
 30
0.0
 40
14.57267459364542
100
AcDbArc
 50
261.1456825413
 51
278.8543174587
  0
ELLIPSE
  5
2C0
330
1F
100
AcDbEntity
  8
0
  6
Continuous
 62
     8
370
     0
100
AcDbEllipse
 10
171.2443133534
 20
230.4274172185
 30
0.0
 11
4.52318553390802
 21
-0.1180049533385272
 31
0.0
210
0.0
220
0.0
230
0.9999999999999999
 40
0.0257887415
 41
3.059478351218793
 42
3.144300625080387
  0
LINE
  5
2C1
330
1F
100
AcDbEntity
  8
0
  6
Continuous
 62
     8
370
     0
100
AcDbLine
 10
172.0822458375
 20
219.4274171589
 30
0.0
 11
176.7233447391
 21
160.4566621928
 31
0.0
  0
LINE
  5
2C2
330
1F
100
AcDbEntity
  8
0
  6
Continuous
 62
     8
370
     0
100
AcDbLine
 10
209.5013470608
 20
160.4566621928
 30
0.0
 11
214.1424459625
 21
219.4274171589
 31
0.0
  0
ELLIPSE
  5
2C3
330
1F
100
AcDbEntity
  8
0
  6
Continuous
 62
     8
370
     0
100
AcDbEllipse
 10
214.9803784466
 20
230.4274172185
 30
0.0
 11
4.52318553390802
 21
0.1180049533385272
 31
0.0
210
0.0
220
0.0
230
0.9999999999999999
 40
0.0257887415
 41
6.280477335690063
 42
6.365299609550298
  0
HATCH
  5
2C4
330
1F
100
AcDbEntity
  8
0
  6
Continuous
 62
     7
370
     0
100
AcDbHatch
 10
0.0
 20
0.0
 30
0.0
210
0.0
220
0.0
230
1.0
  2
ANSI35
 70
     0
 71
     0
 91
        1
 92
        0
 93
       24
 72
     1
 10
161.9550087324351
 20
230.3436849610527
 11
165.5697135800474
 21
165.689952124859
 72
     2
 10
167.5665951084113
 20
165.8015951348453
 40
2.0
 50
183.2000000000015
 51
225.0000000000002
 73
     1
 72
     1
 10
166.1523815460382
 20
164.3873815724722
 11
166.5694801755137
 21
163.9702829429968
 72
     2
 10
165.1552666131406
 20
162.5560693806237
 40
2.0
 50
315.000000000002
 51
357.000000000001
 73
     0
 72
     1
 10
167.1525256826498
 20
162.6607412931096
 11
167.9315235069635
 21
147.7965773279351
 72
     2
 10
170.4280973438499
 20
147.9274172185424
 40
2.5
 50
183.0000000000012
 51
270.0000000000008
 73
     1
 72
     4
 94
        3
 73
     1
 74
     0
 95
       11
 96
        7
 40
0.0098240675016238
 40
0.0098240675016238
 40
0.0098240675016238
 40
0.0098240675016238
 40
0.0324865820226782
 40
0.0324865820226782
 40
0.0324865820226782
 40
0.055226019125844
 40
0.055226019125844
 40
0.055226019125844
 40
0.055226019125844
 10
170.42809734385
 20
145.4274172901522
 42
1.0
 10
177.984103570432
 20
145.4309156219643
 42
1.0
 10
185.518049452348
 20
146.42423356968
 42
1.0
 10
193.0740558710151
 20
146.4272889800014
 42
1.0
 10
200.6555642009025
 20
146.4303547024901
 42
1.0
 10
208.2150863369206
 20
145.4309668463702
 42
1.0
 10
215.796594456086
 20
145.4274180667185
 42
1.0
 72
     2
 10
215.7965944560861
 20
147.9274172185424
 40
2.5
 50
270.0000000000008
 51
357.0000000000005
 73
     1
 72
     1
 10
218.2931682929725
 20
147.7965773279351
 11
219.0721661172863
 21
162.6607412931096
 72
     2
 10
221.0694251867955
 20
162.5560693806237
 40
2.0
 50
183.0000000000015
 51
225.000000000002
 73
     0
 72
     1
 10
219.6552116244224
 20
163.9702829429968
 11
220.0723102538978
 21
164.3873815724722
 72
     2
 10
218.6580966915247
 20
165.8015951348453
 40
2.0
 50
315.0000000000008
 51
356.800000000001
 73
     1
 72
     1
 10
220.6549782198887
 20
165.689952124859
 11
224.2696830675009
 21
230.3436849610527
 72
     2
 10
222.7720219212279
 20
230.4274172185424
 40
1.5
 50
356.800000000002
 51
450.0000000000008
 73
     1
 72
     1
 10
222.7720219212279
 20
231.9274172185424
 11
220.9989316374553
 21
231.9274172185424
 72
     2
 10
220.9989316374553
 20
230.4274172185424
 40
1.5
 50
90.0
 51
175.4999999999985
 73
     1
 72
     1
 10
219.5035556368557
 20
230.5451058621342
 11
213.9874755269219
 21
160.4566626441754
 72
     2
 10
208.0059715245231
 20
160.9274172185424
 40
6.0
 50
4.500000000000059
 51
90.0
 73
     0
 72
     1
 10
208.0059715245231
 20
154.9274172185424
 11
178.2187202754129
 21
154.9274172185424
 72
     2
 10
178.2187202754129
 20
160.9274172185424
 40
6.0
 50
90.0
 51
175.4999999999999
 73
     0
 72
     1
 10
172.2372162730141
 20
160.4566626441754
 11
166.7211361630804
 21
230.5451058621342
 72
     2
 10
165.2257601624807
 20
230.4274172185424
 40
1.5
 50
4.500000000001346
 51
90.0
 73
     1
 72
     1
 10
165.2257601624807
 20
231.9274172185424
 11
163.4526698787081
 21
231.9274172185424
 72
     2
 10
163.4526698787081
 20
230.4274172185424
 40
1.5
 50
90.0
 51
183.1999999999996
 73
     1
 97
        0
 75
     0
 76
     1
 52
0.0
 41
1.0
 77
     0
 78
     2
 53
45.0
 43
0.0
 44
0.0
 45
-4.490128060534576
 46
4.490128060534577
 79
     0
 53
45.0
 43
4.49013
 44
0.0
 45
-4.490128060534576
 46
4.490128060534577
 79
     4
 49
7.9375
 49
-1.5875
 49
0.0
 49
-1.5875
 98
        1
 10
0.0
 20
0.0
  0
HATCH
  5
2C5
330
1F
100
AcDbEntity
  8
0
  6
Continuous
 62
     7
370
     0
100
AcDbHatch
 10
0.0
 20
0.0
 30
0.0
210
0.0
220
0.0
230
1.0
  2
ANSI31
 70
     0
 71
     0
 91
        1
 92
        0
 93
       19
 72
     1
 10
166.612345899968
 20
241.4274172185424
 11
175.112345899968
 21
241.4274172185424
 72
     2
 10
175.112345899968
 20
239.4274172185424
 40
2.0
 50
270.0000000000008
 51
360.0000000000008
 73
     0
 72
     1
 10
177.112345899968
 20
239.4274172185424
 11
177.112345899968
 21
221.4274172185424
 72
     1
 10
177.112345899968
 20
221.4274172185424
 11
179.112345899968
 21
221.4274172185424
 72
     1
 10
179.112345899968
 20
221.4274172185424
 11
179.112345899968
 21
232.4274172185424
 72
     2
 10
180.112345899968
 20
232.4274172185424
 40
1.0
 50
180.0
 51
270.0000000000008
 73
     0
 72
     1
 10
180.112345899968
 20
233.4274172185424
 11
183.112345899968
 21
233.4274172185424
 72
     1
 10
183.112345899968
 20
233.4274172185424
 11
183.112345899968
 21
243.1274172185424
 72
     2
 10
182.812345899968
 20
243.1274172185424
 40
0.3
 50
0.0
 51
90.0
 73
     1
 72
     1
 10
182.812345899968
 20
243.4274172185424
 11
159.912345899968
 21
243.4274172185424
 72
     2
 10
159.912345899968
 20
243.1274172185424
 40
0.3
 50
90.0
 51
180.0
 73
     1
 72
     1
 10
159.612345899968
 20
243.1274172185424
 11
159.612345899968
 21
221.7274172185425
 72
     2
 10
159.912345899968
 20
221.7274172185425
 40
0.3
 50
180.0
 51
269.9999999999953
 73
     1
 72
     1
 10
159.912345899968
 20
221.4274172185424
 11
161.312345899968
 21
221.4274172185424
 72
     2
 10
161.312345899968
 20
221.7274172185425
 40
0.3
 50
270.0000000000008
 51
360.0000000000008
 73
     1
 72
     1
 10
161.612345899968
 20
221.7274172185425
 11
161.612345899968
 21
235.4274172185424
 72
     1
 10
161.612345899968
 20
235.4274172185424
 11
164.612345899968
 21
235.4274172185424
 72
     1
 10
164.612345899968
 20
235.4274172185424
 11
164.612345899968
 21
239.4274172185424
 72
     2
 10
166.612345899968
 20
239.4274172185424
 40
2.0
 50
180.0
 51
270.0000000000008
 73
     0
 97
        0
 75
     0
 76
     1
 52
0.0
 41
1.0
 77
     0
 78
     1
 53
45.0
 43
0.0
 44
0.0
 45
-2.245064030267288
 46
2.245064030267288
 79
     0
 98
        1
 10
0.0
 20
0.0
  0
HATCH
  5
2C6
330
1F
100
AcDbEntity
  8
0
  6
Continuous
 62
     7
370
     0
100
AcDbHatch
 10
0.0
 20
0.0
 30
0.0
210
0.0
220
0.0
230
1.0
  2
ANSI31
 70
     0
 71
     0
 91
        1
 92
        0
 93
       19
 72
     1
 10
211.112345899968
 20
241.4274172185424
 11
219.612345899968
 21
241.4274172185424
 72
     2
 10
219.612345899968
 20
239.4274172185424
 40
2.0
 50
270.0000000000008
 51
360.0000000000008
 73
     0
 72
     1
 10
221.612345899968
 20
239.4274172185424
 11
221.612345899968
 21
235.4274172185424
 72
     1
 10
221.612345899968
 20
235.4274172185424
 11
224.612345899968
 21
235.4274172185424
 72
     1
 10
224.612345899968
 20
235.4274172185424
 11
224.612345899968
 21
221.7274172185425
 72
     2
 10
224.912345899968
 20
221.7274172185425
 40
0.3
 50
180.0
 51
270.0000000000008
 73
     1
 72
     1
 10
224.912345899968
 20
221.4274172185424
 11
226.312345899968
 21
221.4274172185424
 72
     2
 10
226.312345899968
 20
221.7274172185425
 40
0.3
 50
270.0000000000008
 51
360.0000000000008
 73
     1
 72
     1
 10
226.612345899968
 20
221.7274172185425
 11
226.612345899968
 21
243.1274172185424
 72
     2
 10
226.312345899968
 20
243.1274172185424
 40
0.3
 50
0.0
 51
90.0
 73
     1
 72
     1
 10
226.312345899968
 20
243.4274172185424
 11
203.412345899968
 21
243.4274172185424
 72
     2
 10
203.412345899968
 20
243.1274172185424
 40
0.3
 50
90.0
 51
180.0
 73
     1
 72
     1
 10
203.112345899968
 20
243.1274172185424
 11
203.112345899968
 21
233.4274172185424
 72
     1
 10
203.112345899968
 20
233.4274172185424
 11
206.112345899968
 21
233.4274172185424
 72
     2
 10
206.112345899968
 20
232.4274172185424
 40
1.0
 50
270.0000000000008
 51
360.0000000000008
 73
     0
 72
     1
 10
207.112345899968
 20
232.4274172185424
 11
207.112345899968
 21
221.4274172185424
 72
     1
 10
207.112345899968
 20
221.4274172185424
 11
209.112345899968
 21
221.4274172185424
 72
     1
 10
209.112345899968
 20
221.4274172185424
 11
209.112345899968
 21
239.4274172185424
 72
     2
 10
211.112345899968
 20
239.4274172185424
 40
2.0
 50
180.0
 51
270.0000000000008
 73
     0
 97
        0
 75
     0
 76
     1
 52
0.0
 41
1.0
 77
     0
 78
     1
 53
45.0
 43
0.0
 44
0.0
 45
-2.245064030267288
 46
2.245064030267288
 79
     0
 98
        1
 10
0.0
 20
0.0
  0
HATCH
  5
2C7
330
1F
100
AcDbEntity
  8
0
  6
Continuous
 62
     7
370
     0
100
AcDbHatch
 10
0.0
 20
0.0
 30
0.0
210
0.0
220
0.0
230
1.0
  2
NET
 70
     0
 71
     0
 91
        1
 92
        0
 93
        6
 72
     1
 10
202.112345899968
 20
244.4274172185424
 11
202.112345899968
 21
233.4274172185424
 72
     1
 10
202.112345899968
 20
233.4274172185424
 11
203.112345899968
 21
233.4274172185424
 72
     1
 10
203.112345899968
 20
233.4274172185424
 11
203.112345899968
 21
243.4274172185424
 72
     1
 10
203.112345899968
 20
243.4274172185424
 11
206.112345899968
 21
243.4274172185424
 72
     1
 10
206.112345899968
 20
243.4274172185424
 11
206.112345899968
 21
244.4274172185424
 72
     1
 10
206.112345899968
 20
244.4274172185424
 11
202.112345899968
 21
244.4274172185424
 97
        0
 75
     0
 76
     1
 52
134.999991007
 41
1.0
 77
     0
 78
     2
 53
134.9999910069555
 43
0.0
 44
0.0
 45
-2.24506438264855
 46
-2.245063677885971
 79
     0
 53
224.9999910069555
 43
0.0
 44
0.0
 45
2.245063677885971
 46
-2.24506438264855
 79
     0
 98
        1
 10
0.0
 20
0.0
  0
HATCH
  5
2C8
330
1F
100
AcDbEntity
  8
0
  6
Continuous
 62
     7
370
     0
100
AcDbHatch
 10
0.0
 20
0.0
 30
0.0
210
0.0
220
0.0
230
1.0
  2
NET
 70
     0
 71
     0
 91
        1
 92
        0
 93
        6
 72
     1
 10
183.112345899968
 20
243.4274172185424
 11
183.112345899968
 21
233.4274172185424
 72
     1
 10
183.112345899968
 20
233.4274172185424
 11
184.112345899968
 21
233.4274172185424
 72
     1
 10
184.112345899968
 20
233.4274172185424
 11
184.112345899968
 21
244.4274172185424
 72
     1
 10
184.112345899968
 20
244.4274172185424
 11
180.112345899968
 21
244.4274172185424
 72
     1
 10
180.112345899968
 20
244.4274172185424
 11
180.112345899968
 21
243.4274172185424
 72
     1
 10
180.112345899968
 20
243.4274172185424
 11
183.112345899968
 21
243.4274172185424
 97
        0
 75
     0
 76
     1
 52
134.999991007
 41
1.0
 77
     0
 78
     2
 53
134.9999910069555
 43
0.0
 44
0.0
 45
-2.24506438264855
 46
-2.245063677885971
 79
     0
 53
224.9999910069555
 43
0.0
 44
0.0
 45
2.245063677885971
 46
-2.24506438264855
 79
     0
 98
        1
 10
0.0
 20
0.0
  0
HATCH
  5
2C9
330
1F
100
AcDbEntity
  8
0
  6
Continuous
 62
     7
370
     0
100
AcDbHatch
 10
0.0
 20
0.0
 30
0.0
210
0.0
220
0.0
230
1.0
  2
ANSI34
 70
     0
 71
     0
 91
        1
 92
        0
 93
       12
 72
     1
 10
161.612345899968
 20
235.4274172185424
 11
161.612345899968
 21
233.4274172185424
 72
     1
 10
161.612345899968
 20
233.4274172185424
 11
165.5861315127651
 21
233.4274172185424
 72
     2
 10
165.5861315127651
 20
232.4274172185424
 40
1.0
 50
270.0000000000024
 51
355.5000000000021
 73
     0
 72
     1
 10
166.5830488464983
 20
232.5058763142703
 11
167.5398190578931
 21
220.3489581228146
 72
     2
 10
168.5367363916262
 20
220.4274172185424
 40
1.0
 50
184.5000000000011
 51
270.0000000000008
 73
     1
 72
     1
 10
168.5367363916262
 20
219.4274172185424
 11
179.112345899968
 21
219.4274172185424
 72
     1
 10
179.112345899968
 20
219.4274172185424
 11
179.112345899968
 21
221.4274172185424
 72
     1
 10
179.112345899968
 20
221.4274172185424
 11
170.0367363916262
 21
221.4274172185424
 72
     2
 10
170.0367363916262
 20
222.4274172185424
 40
1.0
 50
90.0
 51
175.4999999999997
 73
     0
 72
     1
 10
169.0398190578931
 20
222.3489581228146
 11
168.1555756885732
 21
233.5843354099981
 72
     2
 10
166.161741021107
 20
233.4274172185424
 40
2.0
 50
4.499999999999559
 51
90.0
 73
     1
 72
     1
 10
166.161741021107
 20
235.4274172185424
 11
161.612345899968
 21
235.4274172185424
 97
        0
 75
     0
 76
     1
 52
90.0
 41
1.0
 77
     0
 78
     4
 53
135.0000000000002
 43
0.0
 44
0.0
 45
-13.47038418160369
 46
-13.47038418160378
 79
     0
 53
135.0000000000002
 43
-0.0000000000000157
 44
4.49013
 45
-13.47038418160369
 46
-13.47038418160378
 79
     0
 53
135.0000000000002
 43
-0.0000000000000314
 44
8.98026
 45
-13.47038418160369
 46
-13.47038418160378
 79
     0
 53
135.0000000000002
 43
-0.000000000000047
 44
13.4704
 45
-13.47038418160369
 46
-13.47038418160378
 79
     0
 98
        1
 10
0.0
 20
0.0
  0
HATCH
  5
2CA
330
1F
100
AcDbEntity
  8
0
  6
Continuous
 62
     7
370
     0
100
AcDbHatch
 10
0.0
 20
0.0
 30
0.0
210
0.0
220
0.0
230
1.0
  2
ANSI34
 70
     0
 71
     0
 91
        1
 92
        0
 93
       12
 72
     2
 10
220.6385602871709
 20
232.4274172185424
 40
1.0
 50
184.4999999999996
 51
270.0000000000008
 73
     0
 72
     1
 10
220.6385602871709
 20
233.4274172185424
 11
224.612345899968
 21
233.4274172185424
 72
     1
 10
224.612345899968
 20
233.4274172185424
 11
224.612345899968
 21
235.4274172185424
 72
     1
 10
224.612345899968
 20
235.4274172185424
 11
220.0629507788291
 21
235.4274172185424
 72
     2
 10
220.0629507788291
 20
233.4274172185424
 40
2.0
 50
90.0
 51
175.5000000000005
 73
     1
 72
     1
 10
218.0691161113628
 20
233.5843354099981
 11
217.1848727420429
 21
222.3489581228146
 72
     2
 10
216.1879554083098
 20
222.4274172185424
 40
1.0
 50
4.500000000000435
 51
90.0
 73
     0
 72
     1
 10
216.1879554083098
 20
221.4274172185424
 11
207.112345899968
 21
221.4274172185424
 72
     1
 10
207.112345899968
 20
221.4274172185424
 11
207.112345899968
 21
219.4274172185424
 72
     1
 10
207.112345899968
 20
219.4274172185424
 11
217.6879554083098
 21
219.4274172185424
 72
     2
 10
217.6879554083098
 20
220.4274172185424
 40
1.0
 50
270.0000000000008
 51
355.5000000000004
 73
     1
 72
     1
 10
218.6848727420429
 20
220.3489581228146
 11
219.6416429534378
 21
232.5058763142703
 97
        0
 75
     0
 76
     1
 52
90.0
 41
1.0
 77
     0
 78
     4
 53
135.0000000000002
 43
0.0
 44
0.0
 45
-13.47038418160369
 46
-13.47038418160378
 79
     0
 53
135.0000000000002
 43
-0.0000000000000157
 44
4.49013
 45
-13.47038418160369
 46
-13.47038418160378
 79
     0
 53
135.0000000000002
 43
-0.0000000000000314
 44
8.98026
 45
-13.47038418160369
 46
-13.47038418160378
 79
     0
 53
135.0000000000002
 43
-0.000000000000047
 44
13.4704
 45
-13.47038418160369
 46
-13.47038418160378
 79
     0
 98
        1
 10
0.0
 20
0.0
  0
HATCH
  5
2CB
330
1F
100
AcDbEntity
  8
0
  6
Continuous
 62
     7
370
     0
100
AcDbHatch
 10
0.0
 20
0.0
 30
0.0
210
0.0
220
0.0
230
1.0
  2
ANSI33
 70
     0
 71
     0
 91
        1
 92
        0
 93
        7
 72
     1
 10
202.112345899968
 20
255.2274172185424
 11
255.9910255564084
 21
255.2274172185424
 72
     1
 10
255.9910255564084
 20
255.2274172185424
 11
253.2910255564084
 21
257.9274172185424
 72
     1
 10
253.2910255564084
 20
257.9274172185424
 11
195.112345899968
 21
257.9274172185425
 72
     1
 10
195.112345899968
 20
257.9274172185425
 11
195.112345899968
 21
257.2274172185424
 72
     1
 10
195.112345899968
 20
257.2274172185424
 11
196.112345899968
 21
256.2274172185424
 72
     1
 10
196.112345899968
 20
256.2274172185424
 11
202.112345899968
 21
256.2274172185424
 72
     1
 10
202.112345899968
 20
256.2274172185424
 11
202.112345899968
 21
255.2274172185424
 97
        0
 75
     0
 76
     1
 52
0.0
 41
1.0
 77
     0
 78
     2
 53
45.0
 43
0.0
 44
0.0
 45
-4.490128060534576
 46
4.490128060534577
 79
     0
 53
45.0
 43
4.49013
 44
0.0
 45
-4.490128060534576
 46
4.490128060534577
 79
     2
 49
3.175
 49
-1.5875
 98
        1
 10
0.0
 20
0.0
  0
HATCH
  5
2CC
330
1F
100
AcDbEntity
  8
0
  6
Continuous
 62
     7
370
     0
100
AcDbHatch
 10
0.0
 20
0.0
 30
0.0
210
0.0
220
0.0
230
1.0
  2
ANSI33
 70
     0
 71
     0
 91
        1
 92
        0
 93
       11
 72
     1
 10
184.112345899968
 20
255.2274172185424
 11
184.112345899968
 21
256.2274172185424
 72
     1
 10
184.112345899968
 20
256.2274172185424
 11
190.112345899968
 21
256.2274172185424
 72
     1
 10
190.112345899968
 20
256.2274172185424
 11
191.112345899968
 21
257.2274172185424
 72
     1
 10
191.112345899968
 20
257.2274172185424
 11
191.112345899968
 21
257.9274172185425
 72
     1
 10
191.112345899968
 20
257.9274172185425
 11
181.2926040856763
 21
257.9274172185425
 72
     1
 10
181.2926040856763
 20
257.9274172185425
 11
181.112345899968
 21
257.6274172185424
 72
     1
 10
181.112345899968
 20
257.6274172185424
 11
173.612345899968
 21
257.6274172185424
 72
     1
 10
173.612345899968
 20
257.6274172185424
 11
173.112345899968
 21
257.1274172185424
 72
     1
 10
173.112345899968
 20
257.1274172185424
 11
173.112345899968
 21
255.5274172185424
 72
     2
 10
173.412345899968
 20
255.5274172185424
 40
0.3
 50
180.0
 51
270.0000000000008
 73
     1
 72
     1
 10
173.412345899968
 20
255.2274172185424
 11
184.112345899968
 21
255.2274172185424
 97
        0
 75
     0
 76
     1
 52
0.0
 41
1.0
 77
     0
 78
     2
 53
45.0
 43
0.0
 44
0.0
 45
-4.490128060534576
 46
4.490128060534577
 79
     0
 53
45.0
 43
4.49013
 44
0.0
 45
-4.490128060534576
 46
4.490128060534577
 79
     2
 49
3.175
 49
-1.5875
 98
        1
 10
0.0
 20
0.0
  0
HATCH
  5
2CD
330
1F
100
AcDbEntity
  8
0
  6
Continuous
 62
     7
370
     0
100
AcDbHatch
 10
0.0
 20
0.0
 30
0.0
210
0.0
220
0.0
230
1.0
  2
ANSI33
 70
     0
 71
     0
 91
        1
 92
        0
 93
       12
 72
     1
 10
181.2926040856763
 20
261.5274172185424
 11
255.112345899968
 21
261.5274172185424
 72
     1
 10
255.112345899968
 20
261.5274172185424
 11
256.1938950142176
 21
259.7274172185424
 72
     1
 10
256.1938950142176
 20
259.7274172185424
 11
256.0211545889993
 21
259.4399288730725
 72
     1
 10
256.0211545889993
 20
259.4399288730725
 11
258.112345899968
 21
257.3487375621021
 72
     1
 10
258.112345899968
 20
257.3487375621021
 11
258.112345899968
 21
262.9274172185424
 72
     2
 10
257.812345899968
 20
262.9274172185424
 40
0.3
 50
0.0
 51
90.0
 73
     1
 72
     1
 10
257.812345899968
 20
263.2274172185424
 11
173.412345899968
 21
263.2274172185424
 72
     2
 10
173.412345899968
 20
262.9274172185424
 40
0.3
 50
90.0
 51
180.0
 73
     1
 72
     1
 10
173.112345899968
 20
262.9274172185424
 11
173.112345899968
 21
262.3274172185425
 72
     1
 10
173.112345899968
 20
262.3274172185425
 11
173.612345899968
 21
261.8274172185424
 72
     1
 10
173.612345899968
 20
261.8274172185424
 11
181.112345899968
 21
261.8274172185424
 72
     1
 10
181.112345899968
 20
261.8274172185424
 11
181.2926040856763
 21
261.5274172185424
 97
        0
 75
     0
 76
     1
 52
0.0
 41
1.0
 77
     0
 78
     2
 53
45.0
 43
0.0
 44
0.0
 45
-4.490128060534576
 46
4.490128060534577
 79
     0
 53
45.0
 43
4.49013
 44
0.0
 45
-4.490128060534576
 46
4.490128060534577
 79
     2
 49
3.175
 49
-1.5875
 98
        1
 10
0.0
 20
0.0
  0
HATCH
  5
2CE
330
1F
100
AcDbEntity
  8
0
  6
Continuous
 62
     7
370
     0
100
AcDbHatch
 10
0.0
 20
0.0
 30
0.0
210
0.0
220
0.0
230
1.0
  2
ANSI33
 70
     0
 71
     0
 91
        1
 92
        0
 93
       14
 72
     1
 10
190.012345899968
 20
256.2274172185424
 11
184.4010210345628
 21
256.2274172185424
 72
     1
 10
184.4010210345628
 20
256.2274172185424
 11
184.112345899968
 21
255.7274172185424
 72
     1
 10
184.112345899968
 20
255.7274172185424
 11
184.112345899968
 21
233.4274172185424
 72
     1
 10
184.112345899968
 20
233.4274172185424
 11
184.612345899968
 21
233.4274172185424
 72
     1
 10
184.612345899968
 20
233.4274172185424
 11
184.612345899968
 21
231.9274172185424
 72
     1
 10
184.612345899968
 20
231.9274172185424
 11
184.112345899968
 21
231.9274172185424
 72
     1
 10
184.112345899968
 20
231.9274172185424
 11
184.112345899968
 21
231.2274172185425
 72
     1
 10
184.112345899968
 20
231.2274172185425
 11
184.4010210345629
 21
230.7274172185425
 72
     1
 10
184.4010210345629
 20
230.7274172185425
 11
184.612345899968
 21
230.7274172185425
 72
     1
 10
184.612345899968
 20
230.7274172185425
 11
185.112345899968
 21
231.2274172185424
 72
     1
 10
185.112345899968
 20
231.2274172185424
 11
185.112345899968
 21
241.2274172185424
 72
     1
 10
185.112345899968
 20
241.2274172185424
 11
189.4349956307784
 21
241.2274172185424
 72
     1
 10
189.4349956307784
 20
241.2274172185424
 11
190.012345899968
 21
242.2274172185424
 72
     1
 10
190.012345899968
 20
242.2274172185424
 11
190.012345899968
 21
256.2274172185424
 97
        0
 75
     0
 76
     1
 52
90.0
 41
1.0
 77
     0
 78
     2
 53
135.0000000000002
 43
0.0
 44
0.0
 45
-4.490128060534562
 46
-4.490128060534592
 79
     0
 53
135.0000000000002
 43
-0.0000000000000157
 44
4.49013
 45
-4.490128060534562
 46
-4.490128060534592
 79
     2
 49
3.175
 49
-1.5875
 98
        1
 10
0.0
 20
0.0
  0
HATCH
  5
2CF
330
1F
100
AcDbEntity
  8
0
  6
Continuous
 62
     7
370
     0
100
AcDbHatch
 10
0.0
 20
0.0
 30
0.0
210
0.0
220
0.0
230
1.0
  2
ANSI33
 70
     0
 71
     0
 91
        1
 92
        0
 93
       14
 72
     1
 10
202.112345899968
 20
233.4274172185424
 11
202.112345899968
 21
255.7274172185424
 72
     1
 10
202.112345899968
 20
255.7274172185424
 11
201.8236707653732
 21
256.2274172185424
 72
     1
 10
201.8236707653732
 20
256.2274172185424
 11
196.212345899968
 21
256.2274172185424
 72
     1
 10
196.212345899968
 20
256.2274172185424
 11
196.212345899968
 21
242.2274172185424
 72
     1
 10
196.212345899968
 20
242.2274172185424
 11
196.7896961691577
 21
241.2274172185424
 72
     1
 10
196.7896961691577
 20
241.2274172185424
 11
201.112345899968
 21
241.2274172185424
 72
     1
 10
201.112345899968
 20
241.2274172185424
 11
201.112345899968
 21
231.2274172185424
 72
     1
 10
201.112345899968
 20
231.2274172185424
 11
201.612345899968
 21
230.7274172185425
 72
     1
 10
201.612345899968
 20
230.7274172185425
 11
201.8236707653732
 21
230.7274172185425
 72
     1
 10
201.8236707653732
 20
230.7274172185425
 11
202.112345899968
 21
231.2274172185425
 72
     1
 10
202.112345899968
 20
231.2274172185425
 11
202.112345899968
 21
231.9274172185424
 72
     1
 10
202.112345899968
 20
231.9274172185424
 11
201.612345899968
 21
231.9274172185424
 72
     1
 10
201.612345899968
 20
231.9274172185424
 11
201.612345899968
 21
233.4274172185424
 72
     1
 10
201.612345899968
 20
233.4274172185424
 11
202.112345899968
 21
233.4274172185424
 97
        0
 75
     0
 76
     1
 52
90.0
 41
1.0
 77
     0
 78
     2
 53
135.0000000000002
 43
0.0
 44
0.0
 45
-4.490128060534562
 46
-4.490128060534592
 79
     0
 53
135.0000000000002
 43
-0.0000000000000157
 44
4.49013
 45
-4.490128060534562
 46
-4.490128060534592
 79
     2
 49
3.175
 49
-1.5875
 98
        1
 10
0.0
 20
0.0
  0
HATCH
  5
2D0
330
1F
100
AcDbEntity
  8
0
  6
Continuous
 62
     7
370
     0
100
AcDbHatch
 10
0.0
 20
0.0
 30
0.0
210
0.0
220
0.0
230
1.0
  2
ANSI32
 70
     0
 71
     0
 91
        1
 92
        0
 93
       11
 72
     1
 10
173.3692667697574
 20
257.2274172185424
 11
176.612345899968
 21
257.2274172185424
 72
     1
 10
176.612345899968
 20
257.2274172185424
 11
179.112345899968
 21
259.7274172185424
 72
     1
 10
179.112345899968
 20
259.7274172185424
 11
176.612345899968
 21
262.2274172185424
 72
     1
 10
176.612345899968
 20
262.2274172185424
 11
173.3692667697574
 21
262.2274172185424
 72
     1
 10
173.3692667697574
 20
262.2274172185424
 11
173.112345899968
 21
261.7824172185424
 72
     1
 10
173.112345899968
 20
261.7824172185424
 11
173.112345899968
 21
260.9774172185424
 72
     1
 10
173.112345899968
 20
260.9774172185424
 11
176.112345899968
 21
260.9774172185424
 72
     1
 10
176.112345899968
 20
260.9774172185424
 11
176.112345899968
 21
258.4774172185424
 72
     1
 10
176.112345899968
 20
258.4774172185424
 11
173.112345899968
 21
258.4774172185424
 72
     1
 10
173.112345899968
 20
258.4774172185424
 11
173.112345899968
 21
257.6724172185424
 72
     1
 10
173.112345899968
 20
257.6724172185424
 11
173.3692667697574
 21
257.2274172185424
 97
        0
 75
     0
 76
     1
 52
90.0
 41
1.0
 77
     0
 78
     2
 53
135.0000000000002
 43
0.0
 44
0.0
 45
-6.735192090801843
 46
-6.735192090801889
 79
     0
 53
135.0000000000002
 43
-0.0000000000000157
 44
4.49013
 45
-6.735192090801843
 46
-6.735192090801889
 79
     0
 98
        1
 10
0.0
 20
0.0
  0
HATCH
  5
2D1
330
1F
100
AcDbEntity
  8
0
  6
Continuous
 62
     7
370
     0
100
AcDbHatch
 10
0.0
 20
0.0
 30
0.0
210
0.0
220
0.0
230
1.0
  2
ANSI32
 70
     0
 71
     0
 91
        1
 92
        0
 93
        4
 72
     1
 10
182.212345899968
 20
232.2274172185425
 11
184.612345899968
 21
232.2274172185425
 72
     1
 10
184.612345899968
 20
232.2274172185425
 11
184.612345899968
 21
233.4274172185424
 72
     1
 10
184.612345899968
 20
233.4274172185424
 11
182.212345899968
 21
233.4274172185424
 72
     1
 10
182.212345899968
 20
233.4274172185424
 11
182.212345899968
 21
232.2274172185425
 97
        0
 75
     0
 76
     1
 52
0.0
 41
1.0
 77
     0
 78
     2
 53
45.0
 43
0.0
 44
0.0
 45
-6.735192090801865
 46
6.735192090801866
 79
     0
 53
45.0
 43
4.49013
 44
0.0
 45
-6.735192090801865
 46
6.735192090801866
 79
     0
 98
        1
 10
0.0
 20
0.0
  0
HATCH
  5
2D2
330
1F
100
AcDbEntity
  8
0
  6
Continuous
 62
     7
370
     0
100
AcDbHatch
 10
0.0
 20
0.0
 30
0.0
210
0.0
220
0.0
230
1.0
  2
NET
 70
     0
 71
     0
 91
        1
 92
        0
 93
       32
 72
     1
 10
190.512345899968
 20
188.2774172185424
 11
190.512345899968
 21
171.0274172185424
 72
     1
 10
190.512345899968
 20
171.0274172185424
 11
195.712345899968
 21
171.0274172185424
 72
     1
 10
195.712345899968
 20
171.0274172185424
 11
195.712345899968
 21
188.2774172185424
 72
     1
 10
195.712345899968
 20
188.2774172185424
 11
197.362345899968
 21
189.9274172185424
 72
     1
 10
197.362345899968
 20
189.9274172185424
 11
197.362345899968
 21
195.4274172185424
 72
     1
 10
197.362345899968
 20
195.4274172185424
 11
199.412345899968
 21
197.4774172185424
 72
     1
 10
199.412345899968
 20
197.4774172185424
 11
199.412345899968
 21
219.4274172185424
 72
     1
 10
199.412345899968
 20
219.4274172185424
 11
200.862345899968
 21
219.4274172185424
 72
     1
 10
200.862345899968
 20
219.4274172185424
 11
200.862345899968
 21
225.0274172185424
 72
     1
 10
200.862345899968
 20
225.0274172185424
 11
198.112345899968
 21
225.0274172185424
 72
     1
 10
198.112345899968
 20
225.0274172185424
 11
198.112345899968
 21
228.5274172185424
 72
     1
 10
198.112345899968
 20
228.5274172185424
 11
196.112345899968
 21
228.5274172185424
 72
     1
 10
196.112345899968
 20
228.5274172185424
 11
196.112345899968
 21
236.9274172185424
 72
     1
 10
196.112345899968
 20
236.9274172185424
 11
197.362345899968
 21
236.9274172185424
 72
     1
 10
197.362345899968
 20
236.9274172185424
 11
197.362345899968
 21
238.5274172185424
 72
     1
 10
197.362345899968
 20
238.5274172185424
 11
196.112345899968
 21
238.5274172185424
 72
     1
 10
196.112345899968
 20
238.5274172185424
 11
196.112345899968
 21
245.5274172185424
 72
     1
 10
196.112345899968
 20
245.5274172185424
 11
190.112345899968
 21
245.5274172185424
 72
     1
 10
190.112345899968
 20
245.5274172185424
 11
190.112345899968
 21
238.5274172185424
 72
     1
 10
190.112345899968
 20
238.5274172185424
 11
188.862345899968
 21
238.5274172185424
 72
     1
 10
188.862345899968
 20
238.5274172185424
 11
188.862345899968
 21
236.9274172185424
 72
     1
 10
188.862345899968
 20
236.9274172185424
 11
190.112345899968
 21
236.9274172185424
 72
     1
 10
190.112345899968
 20
236.9274172185424
 11
190.112345899968
 21
228.5274172185424
 72
     1
 10
190.112345899968
 20
228.5274172185424
 11
188.112345899968
 21
228.5274172185424
 72
     1
 10
188.112345899968
 20
228.5274172185424
 11
188.112345899968
 21
225.0274172185424
 72
     1
 10
188.112345899968
 20
225.0274172185424
 11
185.362345899968
 21
225.0274172185424
 72
     1
 10
185.362345899968
 20
225.0274172185424
 11
185.362345899968
 21
219.4274172185424
 72
     1
 10
185.362345899968
 20
219.4274172185424
 11
186.812345899968
 21
219.4274172185424
 72
     1
 10
186.812345899968
 20
219.4274172185424
 11
186.812345899968
 21
197.4774172185424
 72
     1
 10
186.812345899968
 20
197.4774172185424
 11
188.862345899968
 21
195.4274172185424
 72
     1
 10
188.862345899968
 20
195.4274172185424
 11
188.862345899968
 21
189.9274172185424
 72
     1
 10
188.862345899968
 20
189.9274172185424
 11
190.512345899968
 21
188.2774172185424
 97
        0
 75
     0
 76
     1
 52
44.999991007
 41
1.0
 77
     0
 78
     2
 53
44.99999100695533
 43
0.0
 44
0.0
 45
-2.245063677885963
 46
2.245064382648558
 79
     0
 53
134.9999910069553
 43
0.0
 44
0.0
 45
-2.245064382648558
 46
-2.245063677885963
 79
     0
 98
        1
 10
0.0
 20
0.0
  0
HATCH
  5
2D3
330
1F
100
AcDbEntity
  8
0
  6
Continuous
 62
     7
370
     0
100
AcDbHatch
 10
0.0
 20
0.0
 30
0.0
210
0.0
220
0.0
230
1.0
  2
ANSI33
 70
     0
 71
     0
 91
        1
 92
        0
 93
        6
 72
     1
 10
213.112345899968
 20
217.7274172185424
 11
213.112345899968
 21
219.4274172185424
 72
     1
 10
213.112345899968
 20
219.4274172185424
 11
199.612345899968
 21
219.4274172185424
 72
     1
 10
199.612345899968
 20
219.4274172185424
 11
199.612345899968
 21
217.7274172185424
 72
     2
 10
199.912345899968
 20
217.7274172185424
 40
0.3
 50
180.0
 51
270.0000000000008
 73
     1
 72
     1
 10
199.912345899968
 20
217.4274172185424
 11
212.812345899968
 21
217.4274172185424
 72
     2
 10
212.812345899968
 20
217.7274172185424
 40
0.3
 50
270.0000000000008
 51
360.0000000000008
 73
     1
 97
        0
 75
     0
 76
     1
 52
90.0
 41
1.0
 77
     0
 78
     2
 53
135.0000000000002
 43
0.0
 44
0.0
 45
-4.490128060534562
 46
-4.490128060534592
 79
     0
 53
135.0000000000002
 43
-0.0000000000000157
 44
4.49013
 45
-4.490128060534562
 46
-4.490128060534592
 79
     2
 49
3.175
 49
-1.5875
 98
        1
 10
0.0
 20
0.0
  0
HATCH
  5
2D4
330
1F
100
AcDbEntity
  8
0
  6
Continuous
 62
     7
370
     0
100
AcDbHatch
 10
0.0
 20
0.0
 30
0.0
210
0.0
220
0.0
230
1.0
  2
ANSI33
 70
     0
 71
     0
 91
        1
 92
        0
 93
        6
 72
     1
 10
173.112345899968
 20
219.4274172185424
 11
173.112345899968
 21
217.7274172185424
 72
     2
 10
173.412345899968
 20
217.7274172185424
 40
0.3
 50
180.0
 51
270.0000000000008
 73
     1
 72
     1
 10
173.412345899968
 20
217.4274172185424
 11
186.312345899968
 21
217.4274172185424
 72
     2
 10
186.312345899968
 20
217.7274172185424
 40
0.3
 50
270.0000000000008
 51
360.0000000000008
 73
     1
 72
     1
 10
186.612345899968
 20
217.7274172185424
 11
186.612345899968
 21
219.4274172185424
 72
     1
 10
186.612345899968
 20
219.4274172185424
 11
173.112345899968
 21
219.4274172185424
 97
        0
 75
     0
 76
     1
 52
90.0
 41
1.0
 77
     0
 78
     2
 53
135.0000000000002
 43
0.0
 44
0.0
 45
-4.490128060534562
 46
-4.490128060534592
 79
     0
 53
135.0000000000002
 43
-0.0000000000000157
 44
4.49013
 45
-4.490128060534562
 46
-4.490128060534592
 79
     2
 49
3.175
 49
-1.5875
 98
        1
 10
0.0
 20
0.0
  0
HATCH
  5
2D5
330
1F
100
AcDbEntity
  8
0
  6
Continuous
 62
     7
370
     0
100
AcDbHatch
 10
0.0
 20
0.0
 30
0.0
210
0.0
220
0.0
230
1.0
  2
NET
 70
     0
 71
     0
 91
        1
 92
        0
 93
       15
 72
     2
 10
166.295557496564
 20
155.0392990795964
 40
1.0
 50
118.0000000000004
 51
177.9999999999997
 73
     0
 72
     1
 10
165.2961666695449
 20
155.0043995828939
 11
164.8623458999679
 21
167.4274010198887
 72
     1
 10
164.8623458999679
 20
167.4274010198887
 11
163.2127029688441
 21
167.4274010198887
 72
     1
 10
163.2127029688441
 20
167.4274010198887
 11
163.1297993032508
 21
148.4274010198887
 72
     1
 10
163.1297993032508
 20
148.4274010198887
 11
160.112345899968
 21
148.4274010198887
 72
     1
 10
160.112345899968
 20
148.4274010198887
 11
159.6123458999679
 21
148.1387258852939
 72
     1
 10
159.6123458999679
 20
148.1387258852939
 11
159.6123458999679
 21
144.4274010198887
 72
     1
 10
159.6123458999679
 20
144.4274010198887
 11
171.6123458999679
 21
144.4274010198887
 72
     1
 10
171.6123458999679
 20
144.4274010198887
 11
171.6123458999679
 21
145.4274010198887
 72
     1
 10
171.6123458999679
 20
145.4274010198887
 11
170.6123458999679
 21
145.4274010198887
 72
     1
 10
170.6123458999679
 20
145.4274010198887
 11
168.0783678555305
 21
145.6490953724006
 72
     2
 10
168.1655235982782
 20
146.6452900704923
 40
0.9999999999999987
 50
95.00000000000136
 51
176.0000000000003
 73
     0
 72
     1
 10
167.1679595480183
 20
146.5755335967482
 11
166.7215586910632
 21
152.9593632687747
 72
     2
 10
165.3708791330934
 20
152.8649145533286
 40
1.353977779790654
 50
4.000000000000378
 51
61.99999999999962
 73
     1
 72
     1
 10
166.0065331973491
 20
154.0604059747792
 11
165.8260859337781
 21
154.1563514867375
 97
        0
 75
     0
 76
     1
 52
134.999991007
 41
1.0
 77
     0
 78
     2
 53
134.9999910069555
 43
0.0
 44
0.0
 45
-2.24506438264855
 46
-2.245063677885971
 79
     0
 53
224.9999910069555
 43
0.0
 44
0.0
 45
2.245063677885971
 46
-2.24506438264855
 79
     0
 98
        1
 10
0.0
 20
0.0
  0
HATCH
  5
2D6
330
1F
100
AcDbEntity
  8
0
  6
Continuous
 62
     7
370
     0
100
AcDbHatch
 10
0.0
 20
0.0
 30
0.0
210
0.0
220
0.0
230
1.0
  2
NET
 70
     0
 71
     0
 91
        1
 92
        0
 93
       15
 72
     2
 10
219.9291343033719
 20
155.0392990795964
 40
1.0
 50
2.000000000002041
 51
61.99999999999888
 73
     0
 72
     1
 10
220.3986058661578
 20
154.1563514867375
 11
220.2181586025868
 21
154.0604059747792
 72
     2
 10
220.8538126668425
 20
152.8649145533286
 40
1.353977779790654
 50
117.9999999999993
 51
175.9999999999995
 73
     1
 72
     1
 10
219.5031331088727
 20
152.9593632687747
 11
219.0567322519176
 21
146.5755335967482
 72
     2
 10
218.0591682016577
 20
146.6452900704923
 40
0.9999999999999987
 50
3.999999999999762
 51
84.99999999999864
 73
     0
 72
     1
 10
218.1463239444054
 20
145.6490953724006
 11
215.6123458999679
 21
145.4274010198887
 72
     1
 10
215.6123458999679
 20
145.4274010198887
 11
214.6123458999679
 21
145.4274010198887
 72
     1
 10
214.6123458999679
 20
145.4274010198887
 11
214.6123458999679
 21
144.4274010198887
 72
     1
 10
214.6123458999679
 20
144.4274010198887
 11
224.1123458999679
 21
144.4274010198887
 72
     1
 10
224.1123458999679
 20
144.4274010198887
 11
224.1123458999679
 21
148.1387258852939
 72
     1
 10
224.1123458999679
 20
148.1387258852939
 11
223.6123458999679
 21
148.4274010198887
 72
     1
 10
223.6123458999679
 20
148.4274010198887
 11
223.0948924966852
 21
148.4274010198887
 72
     1
 10
223.0948924966852
 20
148.4274010198887
 11
223.0119888310918
 21
167.4274010198887
 72
     1
 10
223.0119888310918
 20
167.4274010198887
 11
221.3623458999679
 21
167.4274010198887
 72
     1
 10
221.3623458999679
 20
167.4274010198887
 11
220.928525130391
 21
155.0043995828939
 97
        0
 75
     0
 76
     1
 52
134.999991007
 41
1.0
 77
     0
 78
     2
 53
134.9999910069555
 43
0.0
 44
0.0
 45
-2.24506438264855
 46
-2.245063677885971
 79
     0
 53
224.9999910069555
 43
0.0
 44
0.0
 45
2.245063677885971
 46
-2.24506438264855
 79
     0
 98
        1
 10
0.0
 20
0.0
  0
HATCH
  5
2D7
330
1F
100
AcDbEntity
  8
0
  6
Continuous
 62
     7
370
     0
100
AcDbHatch
 10
0.0
 20
0.0
 30
0.0
210
0.0
220
0.0
230
1.0
  2
ANSI31
 70
     0
 71
     0
 91
        1
 92
        0
 93
        6
 72
     1
 10
158.1123458999687
 20
167.4274010198887
 11
158.1123458999687
 21
145.4274010198887
 72
     1
 10
158.1123458999687
 20
145.4274010198887
 11
159.6123458999687
 21
145.4274010198887
 72
     1
 10
159.6123458999687
 20
145.4274010198887
 11
159.6123458999687
 21
148.4274010198887
 72
     1
 10
159.6123458999687
 20
148.4274010198887
 11
163.1254359524308
 21
148.4274010198887
 72
     1
 10
163.1254359524308
 20
148.4274010198887
 11
163.2083396180241
 21
167.4274010198887
 72
     1
 10
163.2083396180241
 20
167.4274010198887
 11
158.1123458999687
 21
167.4274010198887
 97
        0
 75
     0
 76
     1
 52
0.0
 41
1.0
 77
     0
 78
     1
 53
45.0
 43
0.0
 44
0.0
 45
-2.245064030267288
 46
2.245064030267288
 79
     0
 98
        1
 10
0.0
 20
0.0
  0
HATCH
  5
2D8
330
1F
100
AcDbEntity
  8
0
  6
Continuous
 62
     7
370
     0
100
AcDbHatch
 10
0.0
 20
0.0
 30
0.0
210
0.0
220
0.0
230
1.0
  2
ANSI31
 70
     0
 71
     0
 91
        1
 92
        0
 93
        6
 72
     1
 10
225.6123458999687
 20
145.4274010198887
 11
225.6123458999687
 21
167.4274010198887
 72
     1
 10
225.6123458999687
 20
167.4274010198887
 11
223.0163521819132
 21
167.4274010198887
 72
     1
 10
223.0163521819132
 20
167.4274010198887
 11
223.0992558475066
 21
148.4274010198887
 72
     1
 10
223.0992558475066
 20
148.4274010198887
 11
224.1123458999687
 21
148.4274010198887
 72
     1
 10
224.1123458999687
 20
148.4274010198887
 11
224.1123458999687
 21
145.4274010198887
 72
     1
 10
224.1123458999687
 20
145.4274010198887
 11
225.6123458999687
 21
145.4274010198887
 97
        0
 75
     0
 76
     1
 52
0.0
 41
1.0
 77
     0
 78
     1
 53
45.0
 43
0.0
 44
0.0
 45
-2.245064030267288
 46
2.245064030267288
 79
     0
 98
        1
 10
0.0
 20
0.0
  0
MTEXT
  5
2D9
330
1F
100
AcDbEntity
  8
0
  6
Continuous
 62
     7
370
     0
100
AcDbMText
 10
197.563092549
 20
275.2413195676
 30
0.0
 40
5.0
 41
0.0
 71
     2
 72
     1
  1
A-A
  7
SLDTEXTSTYLE0
 73
     1
 44
1.0
  0
LINE
  5
2DA
330
1F
100
AcDbEntity
  8
0
  6
CENTERX2
 62
     7
370
     0
100
AcDbLine
 10
193.1123459
 20
264.9274172185
 30
0.0
 11
193.1123459
 21
142.3141596401
 31
0.0
  0
LINE
  5
2DB
330
1F
100
AcDbEntity
  8
0
  6
CENTERX2
 62
     7
370
     0
100
AcDbLine
 10
181.2926040857
 20
259.7274172185
 30
0.0
 11
258.1938950142
 21
259.7274172185
 31
0.0
  0
LINE
  5
2DC
330
1F
100
AcDbEntity
  8
0
  6
CENTERX2
 62
     7
370
     0
100
AcDbLine
 10
259.5265594623
 20
253.8132036562
 30
0.0
 11
252.0670293789
 21
261.2727337396
 31
0.0
  0
LINE
  5
2DD
330
1F
100
AcDbEntity
  8
0
  6
CENTERX2
 62
     7
370
     0
100
AcDbLine
 10
171.6123459
 20
259.7274172185
 30
0.0
 11
181.2926040857
 21
259.7274172185
 31
0.0
  0
LINE
  5
2DE
330
1F
100
AcDbEntity
  8
0
  6
CENTERX2
 62
     7
370
     0
100
AcDbLine
 10
214.1123459
 20
235.58433541
 30
0.0
 11
214.1123459
 21
220.3489581228
 31
0.0
  0
LINE
  5
2DF
330
1F
100
AcDbEntity
  8
0
  6
CENTERX2
 62
     7
370
     0
100
AcDbLine
 10
172.1123459
 20
235.58433541
 30
0.0
 11
172.1123459
 21
220.3489581228
 31
0.0
  0
LINE
  5
2E0
330
1F
100
AcDbEntity
  8
0
  6
CENTERX2
 62
     7
370
     0
100
AcDbLine
 10
166.6123459
 20
241.4274172185
 30
0.0
 11
166.6123459
 21
233.4274172185
 31
0.0
  0
LINE
  5
2E1
330
1F
100
AcDbEntity
  8
0
  6
CENTERX2
 62
     7
370
     0
100
AcDbLine
 10
219.6123459
 20
241.4274172185
 30
0.0
 11
219.6123459
 21
233.4274172185
 31
0.0
  0
ENDSEC
  0
SECTION
  2
OBJECTS
  0
DICTIONARY
  5
C
330
0
100
AcDbDictionary
281
     1
  3
ACAD_GROUP
350
D
  3
ACAD_LAYOUT
350
1A
  3
ACAD_MLINESTYLE
350
17
  3
ACAD_PLOTSETTINGS
350
19
  3
ACAD_PLOTSTYLENAME
350
E
  0
DICTIONARY
  5
D
102
{ACAD_REACTORS
330
C
102
}
330
C
100
AcDbDictionary
281
     1
  0
DICTIONARY
  5
1A
102
{ACAD_REACTORS
330
C
102
}
330
C
100
AcDbDictionary
281
     1
  3
Layout1
350
1E
  3
Layout2
350
26
  3
Model
350
22
  0
DICTIONARY
  5
17
102
{ACAD_REACTORS
330
C
102
}
330
C
100
AcDbDictionary
281
     1
  3
Standard
350
18
  0
DICTIONARY
  5
19
102
{ACAD_REACTORS
330
C
102
}
330
C
100
AcDbDictionary
281
     1
  0
ACDBDICTIONARYWDFLT
  5
E
102
{ACAD_REACTORS
330
C
102
}
330
C
100
AcDbDictionary
281
     1
  3
Normal
350
F
100
AcDbDictionaryWithDefault
340
F
  0
LAYOUT
  5
1E
102
{ACAD_REACTORS
330
1A
102
}
330
1A
100
AcDbPlotSettings
  1

  2
none_device
  4

  6

 40
0.0
 41
0.0
 42
0.0
 43
0.0
 44
0.0
 45
0.0
 46
0.0
 47
0.0
 48
0.0
 49
0.0
140
0.0
141
0.0
142
1.0
143
1.0
 70
   688
 72
     0
 73
     0
 74
     5
  7

 75
    16
147
1.0
148
0.0
149
0.0
100
AcDbLayout
  1
Layout1
 70
     1
 71
     1
 10
0.0
 20
0.0
 11
420.0
 21
297.0
 12
0.0
 22
0.0
 32
0.0
 14
1.0000000000E+20
 24
1.0000000000E+20
 34
1.0000000000E+20
 15
-1.0000000000E+20
 25
-1.0000000000E+20
 35
-1.0000000000E+20
146
0.0
 13
0.0
 23
0.0
 33
0.0
 16
1.0
 26
0.0
 36
0.0
 17
0.0
 27
1.0
 37
0.0
 76
     0
330
1B
  0
LAYOUT
  5
26
102
{ACAD_REACTORS
330
1A
102
}
330
1A
100
AcDbPlotSettings
  1

  2
none_device
  4

  6

 40
0.0
 41
0.0
 42
0.0
 43
0.0
 44
0.0
 45
0.0
 46
0.0
 47
0.0
 48
0.0
 49
0.0
140
0.0
141
0.0
142
1.0
143
1.0
 70
   688
 72
     0
 73
     0
 74
     5
  7

 75
    16
147
1.0
148
0.0
149
0.0
100
AcDbLayout
  1
Layout2
 70
     1
 71
     2
 10
0.0
 20
0.0
 11
0.0
 21
0.0
 12
0.0
 22
0.0
 32
0.0
 14
0.0
 24
0.0
 34
0.0
 15
0.0
 25
0.0
 35
0.0
146
0.0
 13
0.0
 23
0.0
 33
0.0
 16
1.0
 26
0.0
 36
0.0
 17
0.0
 27
1.0
 37
0.0
 76
     0
330
23
  0
LAYOUT
  5
22
102
{ACAD_REACTORS
330
1A
102
}
330
1A
100
AcDbPlotSettings
  1

  2
none_device
  4

  6

 40
0.0
 41
0.0
 42
0.0
 43
0.0
 44
0.0
 45
0.0
 46
0.0
 47
0.0
 48
0.0
 49
0.0
140
0.0
141
0.0
142
1.0
143
1.0
 70
  1712
 72
     0
 73
     0
 74
     0
  7

 75
     0
147
1.0
148
0.0
149
0.0
100
AcDbLayout
  1
Model
 70
     1
 71
     0
 10
0.0
 20
0.0
 11
420.0
 21
297.0
 12
0.0
 22
0.0
 32
0.0
 14
0.0
 24
0.0
 34
0.0
 15
420.0
 25
297.0
 35
0.0
146
0.0
 13
0.0
 23
0.0
 33
0.0
 16
1.0
 26
0.0
 36
0.0
 17
0.0
 27
1.0
 37
0.0
 76
     0
330
1F
331
29
  0
MLINESTYLE
  5
18
102
{ACAD_REACTORS
330
17
102
}
330
17
100
AcDbMlineStyle
  2
Standard
 70
     0
  3

 62
   256
 51
90.0
 52
90.0
 71
     2
 49
0.5
 62
   256
  6
BYLAYER
 49
-0.5
 62
   256
  6
BYLAYER
  0
ACDBPLACEHOLDER
  5
F
102
{ACAD_REACTORS
330
E
102
}
330
E
  0
ENDSEC
  0
EOF
