  0
SECTION
  2
HEADER
  9
$ACADVER
  1
AC1032
  9
$ACADMAINTVER
 90
       55
  9
$DWGCODEPAGE
  3
ANSI_1252
  9
$LASTSAVEDBY
  1
P.Perez
  9
$REQUIREDVERSIONS
160
                 0
  9
$INSBASE
 10
0.0
 20
0.0
 30
0.0
  9
$EXTMIN
 10
0.0
 20
0.0
 30
0.0
  9
$EXTMAX
 10
315.0
 20
445.5
 30
0.0
  9
$LIMMIN
 10
0.0
 20
0.0
  9
$LIMMAX
 10
315.0
 20
445.5
  9
$ORTHOMODE
 70
     0
  9
$REGENMODE
 70
     1
  9
$FILLMODE
 70
     1
  9
$QTEXTMODE
 70
     0
  9
$MIRRTEXT
 70
     1
  9
$LTSCALE
 40
1.5
  9
$ATTMODE
 70
     1
  9
$TEXTSIZE
 40
5.25
  9
$TRACEWID
 40
1.0
  9
$TEXTSTYLE
  7
STANDARD
  9
$CLAYER
  8
0
  9
$CELTYPE
  6
ByLayer
  9
$CECOLOR
 62
   256
  9
$CELTSCALE
 40
1.0
  9
$DISPSILH
 70
     0
  9
$DIMSCALE
 40
1.0
  9
$DIMASZ
 40
4.953
  9
$DIMEXO
 40
1.5
  9
$DIMDLI
 40
3.75
  9
$DIMRND
 40
0.0
  9
$DIMDLE
 40
0.0
  9
$DIMEXE
 40
1.5
  9
$DIMTP
 40
0.0
  9
$DIMTM
 40
0.0
  9
$DIMTXT
 40
5.25
  9
$DIMCEN
 40
2.5
  9
$DIMTSZ
 40
0.0
  9
$DIMTOL
 70
     0
  9
$DIMLIM
 70
     0
  9
$DIMTIH
 70
     1
  9
$DIMTOH
 70
     1
  9
$DIMSE1
 70
     0
  9
$DIMSE2
 70
     0
  9
$DIMTAD
 70
     1
  9
$DIMZIN
 70
     1
  9
$DIMBLK
  1

  9
$DIMASO
 70
     1
  9
$DIMSHO
 70
     1
  9
$DIMPOST
  1

  9
$DIMAPOST
  1

  9
$DIMALT
 70
     0
  9
$DIMALTD
 70
     3
  9
$DIMALTF
 40
0.0393700787
  9
$DIMLFAC
 40
1.0
  9
$DIMTOFL
 70
     1
  9
$DIMTVP
 40
0.0
  9
$DIMTIX
 70
     0
  9
$DIMSOXD
 70
     0
  9
$DIMSAH
 70
     0
  9
$DIMBLK1
  1

  9
$DIMBLK2
  1

  9
$DIMSTYLE
  2
ISO-25
  9
$DIMCLRD
 70
     0
  9
$DIMCLRE
 70
     0
  9
$DIMCLRT
 70
     0
  9
$DIMTFAC
 40
1.0
  9
$DIMGAP
 40
2.286
  9
$DIMJUST
 70
     0
  9
$DIMSD1
 70
     0
  9
$DIMSD2
 70
     0
  9
$DIMTOLJ
 70
     0
  9
$DIMTZIN
 70
     1
  9
$DIMALTZ
 70
     0
  9
$DIMALTTZ
 70
     0
  9
$DIMUPT
 70
     0
  9
$DIMDEC
 70
     2
  9
$DIMTDEC
 70
     2
  9
$DIMALTU
 70
     2
  9
$DIMALTTD
 70
     3
  9
$DIMTXSTY
  7
STANDARD
  9
$DIMAUNIT
 70
     0
  9
$DIMADEC
 70
     2
  9
$DIMALTRND
 40
0.0
  9
$DIMAZIN
 70
     0
  9
$DIMDSEP
 70
    44
  9
$DIMATFIT
 70
     3
  9
$DIMFRAC
 70
     0
  9
$DIMLDRBLK
  1

  9
$DIMLUNIT
 70
     2
  9
$DIMLWD
 70
    -2
  9
$DIMLWE
 70
    -2
  9
$DIMTMOVE
 70
     0
  9
$DIMFXL
 40
1.0
  9
$DIMFXLON
 70
     0
  9
$DIMJOGANG
 40
0.7853981634
  9
$DIMTFILL
 70
     0
  9
$DIMTFILLCLR
 70
     0
  9
$DIMARCSYM
 70
     0
  9
$DIMLTYPE
  6

  9
$DIMLTEX1
  6

  9
$DIMLTEX2
  6

  9
$DIMTXTDIRECTION
 70
     0
  9
$LUNITS
 70
     2
  9
$LUPREC
 70
     2
  9
$SKETCHINC
 40
1.0
  9
$FILLETRAD
 40
10.0
  9
$AUNITS
 70
     0
  9
$AUPREC
 70
     2
  9
$MENU
  1
.
  9
$ELEVATION
 40
0.0
  9
$PELEVATION
 40
0.0
  9
$THICKNESS
 40
0.0
  9
$LIMCHECK
 70
     0
  9
$CHAMFERA
 40
0.0
  9
$CHAMFERB
 40
0.0
  9
$CHAMFERC
 40
0.0
  9
$CHAMFERD
 40
0.0
  9
$SKPOLY
 70
     0
  9
$TDCREATE
 40
2460087.417362014
  9
$TDUCREATE
 40
2460087.33402868
  9
$TDUPDATE
 40
2460087.417363356
  9
$TDUUPDATE
 40
2460087.334030023
  9
$TDINDWG
 40
0.0000000116
  9
$TDUSRTIMER
 40
0.0000000116
  9
$USRTIMER
 70
     1
  9
$ANGBASE
 50
0.0
  9
$ANGDIR
 70
     0
  9
$PDMODE
 70
     0
  9
$PDSIZE
 40
-1.0
  9
$PLINEWID
 40
0.0
  9
$SPLFRAME
 70
     0
  9
$SPLINETYPE
 70
     6
  9
$SPLINESEGS
 70
     8
  9
$HANDSEED
  5
1D6
  9
$SURFTAB1
 70
     6
  9
$SURFTAB2
 70
     6
  9
$SURFTYPE
 70
     6
  9
$SURFU
 70
     6
  9
$SURFV
 70
     6
  9
$UCSBASE
  2

  9
$UCSNAME
  2

  9
$UCSORG
 10
0.0
 20
0.0
 30
0.0
  9
$UCSXDIR
 10
1.0
 20
0.0
 30
0.0
  9
$UCSYDIR
 10
0.0
 20
1.0
 30
0.0
  9
$UCSORTHOREF
  2

  9
$UCSORTHOVIEW
 70
     0
  9
$UCSORGTOP
 10
0.0
 20
0.0
 30
0.0
  9
$UCSORGBOTTOM
 10
0.0
 20
0.0
 30
0.0
  9
$UCSORGLEFT
 10
0.0
 20
0.0
 30
0.0
  9
$UCSORGRIGHT
 10
0.0
 20
0.0
 30
0.0
  9
$UCSORGFRONT
 10
0.0
 20
0.0
 30
0.0
  9
$UCSORGBACK
 10
0.0
 20
0.0
 30
0.0
  9
$PUCSBASE
  2

  9
$PUCSNAME
  2

  9
$PUCSORG
 10
0.0
 20
0.0
 30
0.0
  9
$PUCSXDIR
 10
1.0
 20
0.0
 30
0.0
  9
$PUCSYDIR
 10
0.0
 20
1.0
 30
0.0
  9
$PUCSORTHOREF
  2

  9
$PUCSORTHOVIEW
 70
     0
  9
$PUCSORGTOP
 10
0.0
 20
0.0
 30
0.0
  9
$PUCSORGBOTTOM
 10
0.0
 20
0.0
 30
0.0
  9
$PUCSORGLEFT
 10
0.0
 20
0.0
 30
0.0
  9
$PUCSORGRIGHT
 10
0.0
 20
0.0
 30
0.0
  9
$PUCSORGFRONT
 10
0.0
 20
0.0
 30
0.0
  9
$PUCSORGBACK
 10
0.0
 20
0.0
 30
0.0
  9
$USERI1
 70
     0
  9
$USERI2
 70
     0
  9
$USERI3
 70
     0
  9
$USERI4
 70
     0
  9
$USERI5
 70
     0
  9
$USERR1
 40
0.0
  9
$USERR2
 40
0.0
  9
$USERR3
 40
0.0
  9
$USERR4
 40
0.0
  9
$USERR5
 40
0.0
  9
$WORLDVIEW
 70
     1
  9
$SHADEDGE
 70
     3
  9
$SHADEDIF
 70
    70
  9
$TILEMODE
 70
     1
  9
$MAXACTVP
 70
    64
  9
$PINSBASE
 10
0.0
 20
0.0
 30
0.0
  9
$PLIMCHECK
 70
     0
  9
$PEXTMIN
 10
1.0000000000E+20
 20
1.0000000000E+20
 30
1.0000000000E+20
  9
$PEXTMAX
 10
-1.0000000000E+20
 20
-1.0000000000E+20
 30
-1.0000000000E+20
  9
$PLIMMIN
 10
0.0
 20
0.0
  9
$PLIMMAX
 10
420.0
 20
297.0
  9
$UNITMODE
 70
     0
  9
$VISRETAIN
 70
     1
  9
$PLINEGEN
 70
     0
  9
$PSLTSCALE
 70
     1
  9
$TREEDEPTH
 70
  3020
  9
$CMLSTYLE
  2
Standard
  9
$CMLJUST
 70
     0
  9
$CMLSCALE
 40
20.0
  9
$PROXYGRAPHICS
 70
     1
  9
$MEASUREMENT
 70
     1
  9
$CELWEIGHT
370
    -1
  9
$ENDCAPS
280
     0
  9
$JOINSTYLE
280
     0
  9
$LWDISPLAY
290
     1
  9
$INSUNITS
 70
     4
  9
$HYPERLINKBASE
  1

  9
$STYLESHEET
  1

  9
$XEDIT
290
     1
  9
$CEPSNTYPE
380
     0
  9
$PSTYLEMODE
290
     1
  9
$FINGERPRINTGUID
  2
{3f84b63d-2afc-4615-98ca-708935ff81e9}
  9
$VERSIONGUID
  2
{FAEB1C32-E019-11D5-929B-00C0DF256EC4}
  9
$EXTNAMES
290
     1
  9
$PSVPSCALE
 40
0.0
  9
$OLESTARTUP
290
     0
  9
$SORTENTS
280
   127
  9
$INDEXCTL
280
     0
  9
$HIDETEXT
280
     1
  9
$XCLIPFRAME
280
     2
  9
$HALOGAP
280
     0
  9
$OBSCOLOR
 70
   257
  9
$OBSLTYPE
280
     0
  9
$INTERSECTIONDISPLAY
280
     0
  9
$INTERSECTIONCOLOR
 70
   257
  9
$DIMASSOC
280
     2
  9
$PROJECTNAME
  1

  9
$CAMERADISPLAY
290
     0
  9
$LENSLENGTH
 40
50.0
  9
$CAMERAHEIGHT
 40
0.0
  9
$STEPSPERSEC
 40
2.0
  9
$STEPSIZE
 40
6.0
  9
$3DDWFPREC
 40
2.0
  9
$PSOLWIDTH
 40
5.0
  9
$PSOLHEIGHT
 40
80.0
  9
$LOFTANG1
 40
1.5707963268
  9
$LOFTANG2
 40
1.5707963268
  9
$LOFTMAG1
 40
0.0
  9
$LOFTMAG2
 40
0.0
  9
$LOFTPARAM
 70
     7
  9
$LOFTNORMALS
280
     1
  9
$LATITUDE
 40
37.795
  9
$LONGITUDE
 40
-122.394
  9
$NORTHDIRECTION
 40
0.0
  9
$TIMEZONE
 70
 -8000
  9
$LIGHTGLYPHDISPLAY
280
     1
  9
$TILEMODELIGHTSYNCH
280
     1
  9
$CMATERIAL
347
44
  9
$SOLIDHIST
280
     0
  9
$SHOWHIST
280
     1
  9
$DWFFRAME
280
     2
  9
$DGNFRAME
280
     2
  9
$REALWORLDSCALE
290
     1
  9
$INTERFERECOLOR
 62
   256
  9
$CSHADOW
280
     0
  9
$SHADOWPLANELOCATION
 40
0.0
  0
ENDSEC
  0
SECTION
  2
CLASSES
  0
CLASS
  1
ACDBDICTIONARYWDFLT
  2
AcDbDictionaryWithDefault
  3
ObjectDBX Classes
 90
        0
 91
        3
280
     0
281
     0
  0
CLASS
  1
VISUALSTYLE
  2
AcDbVisualStyle
  3
ObjectDBX Classes
 90
     4095
 91
        3
280
     0
281
     0
  0
CLASS
  1
MATERIAL
  2
AcDbMaterial
  3
ObjectDBX Classes
 90
     1153
 91
        3
280
     0
281
     0
  0
CLASS
  1
SCALE
  2
AcDbScale
  3
ObjectDBX Classes
 90
     1153
 91
        3
280
     0
281
     0
  0
CLASS
  1
TABLESTYLE
  2
AcDbTableStyle
  3
ObjectDBX Classes
 90
     4095
 91
        3
280
     0
281
     0
  0
CLASS
  1
MLEADERSTYLE
  2
AcDbMLeaderStyle
  3
ACDB_MLEADERSTYLE_CLASS
 90
     4095
 91
        3
280
     0
281
     0
  0
CLASS
  1
SUN
  2
AcDbSun
  3
SCENEOE
 90
     1153
 91
        3
280
     0
281
     0
  0
CLASS
  1
DICTIONARYVAR
  2
AcDbDictionaryVar
  3
ObjectDBX Classes
 90
        0
 91
        3
280
     0
281
     0
  0
CLASS
  1
CELLSTYLEMAP
  2
AcDbCellStyleMap
  3
ObjectDBX Classes
 90
     1152
 91
        3
280
     0
281
     0
  0
ENDSEC
  0
SECTION
  2
TABLES
  0
TABLE
  2
VPORT
  5
8
330
0
100
AcDbSymbolTable
 70
     1
  0
VPORT
  5
29
330
8
100
AcDbSymbolTableRecord
100
AcDbViewportTableRecord
  2
*Active
 70
     0
 10
0.0
 20
0.0
 11
1.0
 21
1.0
 12
157.5
 22
222.75
 13
0.0
 23
0.0
 14
10.0
 24
10.0
 15
10.0
 25
10.0
 16
0.0
 26
0.0
 36
1.0
 17
0.0
 27
0.0
 37
0.0
 40
445.5
 41
0.7070707071
 42
50.0
 43
0.0
 44
0.0
 50
0.0
 51
0.0
 71
     0
 72
  2000
 73
     1
 74
     3
 75
     0
 76
     0
 77
     0
 78
     0
281
     0
 65
     1
110
0.0
120
0.0
130
0.0
111
1.0
121
0.0
131
0.0
112
0.0
122
1.0
132
0.0
 79
     0
146
0.0
348
2F
 60
     3
 61
     5
292
     1
282
     1
141
0.0
142
0.0
 63
   250
361
6D
  0
ENDTAB
  0
TABLE
  2
LTYPE
  5
5
330
0
100
AcDbSymbolTable
 70
     8
  0
LTYPE
  5
14
330
5
100
AcDbSymbolTableRecord
100
AcDbLinetypeTableRecord
  2
ByBlock
 70
     0
  3

 72
    65
 73
     0
 40
0.0
  0
LTYPE
  5
15
330
5
100
AcDbSymbolTableRecord
100
AcDbLinetypeTableRecord
  2
ByLayer
 70
     0
  3

 72
    65
 73
     0
 40
0.0
  0
LTYPE
  5
16
330
5
100
AcDbSymbolTableRecord
100
AcDbLinetypeTableRecord
  2
Continuous
 70
     0
  3
Solid line
 72
    65
 73
     0
 40
0.0
  0
LTYPE
  5
6E
330
5
100
AcDbSymbolTableRecord
100
AcDbLinetypeTableRecord
  2
SLD-Durchgehend
 70
     0
  3
SolidWorks Line Style
 72
    65
 73
     0
 40
0.0
  0
LTYPE
  5
6F
330
5
100
AcDbSymbolTableRecord
100
AcDbLinetypeTableRecord
  2
SLD-Gestrichelt
 70
     0
  3
SolidWorks Line Style
 72
    65
 73
     2
 40
1.905
 49
1.27
 74
     0
 49
-0.635
 74
     0
  0
LTYPE
  5
70
330
5
100
AcDbSymbolTableRecord
100
AcDbLinetypeTableRecord
  2
SLD-Phantom
 70
     0
  3
SolidWorks Line Style
 72
    65
 73
     6
 40
12.7
 49
6.35
 74
     0
 49
-1.27
 74
     0
 49
1.27
 74
     0
 49
-1.27
 74
     0
 49
1.27
 74
     0
 49
-1.27
 74
     0
  0
LTYPE
  5
71
330
5
100
AcDbSymbolTableRecord
100
AcDbLinetypeTableRecord
  2
SLD-Kette
 70
     0
  3
SolidWorks Line Style
 72
    65
 73
     4
 40
10.16
 49
6.35
 74
     0
 49
-1.27
 74
     0
 49
1.27
 74
     0
 49
-1.27
 74
     0
  0
LTYPE
  5
72
330
5
100
AcDbSymbolTableRecord
100
AcDbLinetypeTableRecord
  2
SLD-Punktstrich
 70
     0
  3
SolidWorks Line Style
 72
    65
 73
     4
 40
19.05
 49
15.24
 74
     0
 49
-1.27
 74
     0
 49
1.27
 74
     0
 49
-1.27
 74
     0
  0
LTYPE
  5
73
330
5
100
AcDbSymbolTableRecord
100
AcDbLinetypeTableRecord
  2
SLD-Naht
 70
     0
  3
SolidWorks Line Style
 72
    65
 73
     2
 40
0.635
 49
0.0
 74
     0
 49
-0.635
 74
     0
  0
LTYPE
  5
74
330
5
100
AcDbSymbolTableRecord
100
AcDbLinetypeTableRecord
  2
SLD-Dicke-Dünne-Kette
 70
     0
  3
SolidWorks Line Style
 72
    65
 73
     4
 40
10.16
 49
6.35
 74
     0
 49
-1.27
 74
     0
 49
1.27
 74
     0
 49
-1.27
 74
     0
  0
ENDTAB
  0
TABLE
  2
LAYER
  5
2
330
0
100
AcDbSymbolTable
 70
     5
  0
LAYER
  5
10
330
2
100
AcDbSymbolTableRecord
100
AcDbLayerTableRecord
  2
0
 70
     0
 62
     7
  6
Continuous
370
    -3
390
F
347
46
348
0
  0
LAYER
  5
75
330
2
100
AcDbSymbolTableRecord
100
AcDbLayerTableRecord
  2
RAHMEN
 70
     0
 62
   179
  6
SLD-Durchgehend
370
    -3
390
F
347
46
348
0
  0
LAYER
  5
76
330
2
100
AcDbSymbolTableRecord
100
AcDbLayerTableRecord
  2
KOPF
 70
     0
 62
     7
  6
SLD-Durchgehend
370
    -3
390
F
347
46
348
0
  0
LAYER
  5
77
330
2
100
AcDbSymbolTableRecord
100
AcDbLayerTableRecord
  2
TEMP
 70
     0
 62
     7
  6
SLD-Durchgehend
370
    -3
390
F
347
46
348
0
  0
LAYER
  5
78
330
2
100
AcDbSymbolTableRecord
100
AcDbLayerTableRecord
  2
ZEICHNUNG
 70
     0
 62
     7
  6
SLD-Durchgehend
370
    -3
390
F
347
46
348
0
  0
ENDTAB
  0
TABLE
  2
STYLE
  5
3
330
0
100
AcDbSymbolTable
 70
     2
  0
STYLE
  5
11
330
3
100
AcDbSymbolTableRecord
100
AcDbTextStyleTableRecord
  2
STANDARD
 70
     0
 40
0.0
 41
1.0
 50
0.0
 71
     0
 42
5.25
  3
GOTHIC.TTF
  4

1001
ACAD
1000
CENTURY GOTHIC
1071
       34
  0
STYLE
  5
141
330
3
100
AcDbSymbolTableRecord
100
AcDbTextStyleTableRecord
  2
SLDTEXTSTYLE0
 70
     0
 40
0.0
 41
0.913
 50
0.0
 71
     0
 42
5.25
  3
GOTHIC.TTF
  4

1001
ACAD
1000
Century Gothic
1071
      290
  0
ENDTAB
  0
TABLE
  2
VIEW
  5
6
330
0
100
AcDbSymbolTable
 70
     0
  0
ENDTAB
  0
TABLE
  2
UCS
  5
7
330
0
100
AcDbSymbolTable
 70
     0
  0
ENDTAB
  0
TABLE
  2
APPID
  5
9
330
0
100
AcDbSymbolTable
 70
     1
  0
APPID
  5
12
330
9
100
AcDbSymbolTableRecord
100
AcDbRegAppTableRecord
  2
ACAD
 70
     0
  0
ENDTAB
  0
TABLE
  2
DIMSTYLE
  5
A
330
0
100
AcDbSymbolTable
 70
     3
100
AcDbDimStyleTable
  0
DIMSTYLE
105
27
330
A
100
AcDbSymbolTableRecord
100
AcDbDimStyleTableRecord
  2
ISO-25
 70
     0
 41
2.5
 42
0.625
 43
3.75
 44
1.25
 73
     0
 74
     0
 77
     1
 78
     8
140
2.5
141
2.5
143
0.0393700787
147
0.625
171
     3
172
     1
178
     0
271
     2
272
     2
274
     3
278
    44
283
     0
284
     8
340
11
  0
DIMSTYLE
105
142
102
{ACAD_REACTORS
330
140
330
14F
330
177
330
1B0
330
1BD
102
}
330
A
100
AcDbSymbolTableRecord
100
AcDbDimStyleTableRecord
  2
SLDDIMSTYLE0
 70
     0
 41
4.953
 44
0.0
 45
0.000000001
 73
     0
 74
     0
 77
     1
 78
     4
 79
     1
140
5.25
147
1.3125
172
     1
173
     1
178
     0
271
     2
272
     2
276
     2
284
    12
289
     0
340
141
  0
DIMSTYLE
105
184
102
{ACAD_REACTORS
330
183
330
18E
102
}
330
A
100
AcDbSymbolTableRecord
100
AcDbDimStyleTableRecord
  2
SLDDIMSTYLE1
 70
     0
 41
4.953
 44
0.0
 45
0.000000001
 73
     0
 74
     0
 77
     1
 78
     4
 79
     1
140
5.25
147
1.3125
173
     1
178
     0
271
     2
272
     2
276
     2
284
    12
340
141
  0
ENDTAB
  0
TABLE
  2
BLOCK_RECORD
  5
1
330
0
100
AcDbSymbolTable
 70
     9
  0
BLOCK_RECORD
  5
1F
330
1
100
AcDbSymbolTableRecord
100
AcDbBlockTableRecord
  2
*Model_Space
340
22
 70
     0
280
     1
281
     0
  0
BLOCK_RECORD
  5
1B
330
1
100
AcDbSymbolTableRecord
100
AcDbBlockTableRecord
  2
*Paper_Space
340
1E
 70
     0
280
     1
281
     0
  0
BLOCK_RECORD
  5
23
330
1
100
AcDbSymbolTableRecord
100
AcDbBlockTableRecord
  2
*Paper_Space0
340
26
 70
     0
280
     1
281
     0
  0
BLOCK_RECORD
  5
79
330
1
100
AcDbSymbolTableRecord
100
AcDbBlockTableRecord
  2
Block4
340
0
 70
     0
280
     1
281
     0
  0
BLOCK_RECORD
  5
143
330
1
100
AcDbSymbolTableRecord
100
AcDbBlockTableRecord
  2
_D
340
0
 70
     0
280
     1
281
     0
  0
BLOCK_RECORD
  5
150
330
1
100
AcDbSymbolTableRecord
100
AcDbBlockTableRecord
  2
_D_1
340
0
 70
     0
280
     1
281
     0
  0
BLOCK_RECORD
  5
178
330
1
100
AcDbSymbolTableRecord
100
AcDbBlockTableRecord
  2
_D_2
340
0
 70
     0
280
     1
281
     0
  0
BLOCK_RECORD
  5
185
330
1
100
AcDbSymbolTableRecord
100
AcDbBlockTableRecord
  2
_D_3
340
0
 70
     0
280
     1
281
     0
  0
BLOCK_RECORD
  5
18F
330
1
100
AcDbSymbolTableRecord
100
AcDbBlockTableRecord
  2
_D_4
340
0
 70
     0
280
     1
281
     0
  0
BLOCK_RECORD
  5
1B1
330
1
100
AcDbSymbolTableRecord
100
AcDbBlockTableRecord
  2
_D_5
340
0
 70
     0
280
     1
281
     0
  0
BLOCK_RECORD
  5
1BE
330
1
100
AcDbSymbolTableRecord
100
AcDbBlockTableRecord
  2
_D_6
340
0
 70
     0
280
     1
281
     0
  0
ENDTAB
  0
ENDSEC
  0
SECTION
  2
BLOCKS
  0
BLOCK
  5
20
330
1F
100
AcDbEntity
  8
0
100
AcDbBlockBegin
  2
*Model_Space
 70
     0
 10
0.0
 20
0.0
 30
0.0
  3
*Model_Space
  1

  0
ENDBLK
  5
21
330
1F
100
AcDbEntity
  8
0
100
AcDbBlockEnd
  0
BLOCK
  5
1C
330
1B
100
AcDbEntity
 67
     1
  8
0
100
AcDbBlockBegin
  2
*Paper_Space
 70
     0
 10
0.0
 20
0.0
 30
0.0
  3
*Paper_Space
  1

  0
ENDBLK
  5
1D
330
1B
100
AcDbEntity
 67
     1
  8
0
100
AcDbBlockEnd
  0
BLOCK
  5
24
330
23
100
AcDbEntity
  8
0
100
AcDbBlockBegin
  2
*Paper_Space0
 70
     0
 10
0.0
 20
0.0
 30
0.0
  3
*Paper_Space0
  1

  0
ENDBLK
  5
25
330
23
100
AcDbEntity
  8
0
100
AcDbBlockEnd
  0
BLOCK
  5
7A
330
79
100
AcDbEntity
  8
0
100
AcDbBlockBegin
  2
Block4
 70
     0
 10
0.0
 20
0.0
 30
0.0
  3
Block4
  1

  0
LINE
  5
7C
330
79
100
AcDbEntity
  8
0
  6
SLD-Durchgehend
 62
     7
370
    50
100
AcDbLine
 10
10.22156325
 20
0.01514475
 30
0.0
 11
10.22476365
 21
0.01514475
 31
0.0
  0
LINE
  5
7D
330
79
100
AcDbEntity
  8
0
  6
SLD-Durchgehend
 62
     7
370
    50
100
AcDbLine
 10
46.15393995
 20
5.5518939
 30
0.0
 11
46.1775429
 21
5.49994455
 31
0.0
  0
LINE
  5
7E
330
79
100
AcDbEntity
  8
0
  6
SLD-Durchgehend
 62
     7
370
    50
100
AcDbLine
 10
46.1775429
 20
5.49994455
 30
0.0
 11
47.29225365
 21
5.4924579
 31
0.0
  0
LINE
  5
7F
330
79
100
AcDbEntity
  8
0
  6
SLD-Durchgehend
 62
     7
370
    50
100
AcDbLine
 10
47.29225365
 20
5.4924579
 30
0.0
 11
47.23658955
 21
5.61961665
 31
0.0
  0
LINE
  5
80
330
79
100
AcDbEntity
  8
0
  6
SLD-Durchgehend
 62
     7
370
    50
100
AcDbLine
 10
44.40012075
 20
0.01514475
 30
0.0
 11
44.419266
 21
0.01514475
 31
0.0
  0
LINE
  5
81
330
79
100
AcDbEntity
  8
0
  6
SLD-Durchgehend
 62
     7
370
    50
100
AcDbLine
 10
47.34306
 20
1.9669887
 30
0.0
 11
47.3916375
 21
2.08991835
 31
0.0
  0
LINE
  5
82
330
79
100
AcDbEntity
  8
0
  6
SLD-Durchgehend
 62
     7
370
    50
100
AcDbLine
 10
47.3916375
 20
2.08991835
 30
0.0
 11
46.26503955
 21
2.0903184
 31
0.0
  0
LINE
  5
83
330
79
100
AcDbEntity
  8
0
  6
SLD-Durchgehend
 62
     7
370
    50
100
AcDbLine
 10
46.26503955
 20
2.0903184
 30
0.0
 11
46.2414366
 21
2.039112
 31
0.0
  0
LINE
  5
84
330
79
100
AcDbEntity
  8
0
  6
SLD-Durchgehend
 62
     7
370
    50
100
AcDbLine
 10
17.31067785
 20
0.01514475
 30
0.0
 11
17.32176495
 21
0.01514475
 31
0.0
  0
LINE
  5
85
330
79
100
AcDbEntity
  8
0
  6
SLD-Durchgehend
 62
     7
370
    50
100
AcDbLine
 10
20.4671295
 20
3.55547295
 30
0.0
 11
20.46912975
 21
3.55547295
 31
0.0
  0
LINE
  5
86
330
79
100
AcDbEntity
  8
0
  6
SLD-Durchgehend
 62
     7
370
    50
100
AcDbLine
 10
20.46912975
 20
3.55547295
 30
0.0
 11
20.46912975
 21
8.99649585
 31
0.0
  0
LINE
  5
87
330
79
100
AcDbEntity
  8
0
  6
SLD-Durchgehend
 62
     7
370
    50
100
AcDbLine
 10
20.46912975
 20
8.99649585
 30
0.0
 11
19.44694485
 21
8.99649585
 31
0.0
  0
LINE
  5
88
330
79
100
AcDbEntity
  8
0
  6
SLD-Durchgehend
 62
     7
370
    50
100
AcDbLine
 10
19.44694485
 20
8.99649585
 30
0.0
 11
19.44694485
 21
6.3735966
 31
0.0
  0
LINE
  5
89
330
79
100
AcDbEntity
  8
0
  6
SLD-Durchgehend
 62
     7
370
    50
100
AcDbLine
 10
39.27593745
 20
5.65939305
 30
0.0
 11
39.3021693
 21
5.6153304
 31
0.0
  0
LINE
  5
8A
330
79
100
AcDbEntity
  8
0
  6
SLD-Durchgehend
 62
     7
370
    50
100
AcDbLine
 10
39.3021693
 20
5.6153304
 30
0.0
 11
40.32475425
 21
5.6153304
 31
0.0
  0
LINE
  5
8B
330
79
100
AcDbEntity
  8
0
  6
SLD-Durchgehend
 62
     7
370
    50
100
AcDbLine
 10
40.32475425
 20
5.6153304
 30
0.0
 11
40.26886155
 21
5.741289
 31
0.0
  0
LINE
  5
8C
330
79
100
AcDbEntity
  8
0
  6
SLD-Durchgehend
 62
     7
370
    50
100
AcDbLine
 10
37.8817632
 20
7.3017126
 30
0.0
 11
37.79369505
 21
7.3009125
 31
0.0
  0
LINE
  5
8D
330
79
100
AcDbEntity
  8
0
  6
SLD-Durchgehend
 62
     7
370
    50
100
AcDbLine
 10
37.79369505
 20
7.3009125
 30
0.0
 11
37.79369505
 21
7.29891225
 31
0.0
  0
LINE
  5
8E
330
79
100
AcDbEntity
  8
0
  6
SLD-Durchgehend
 62
     7
370
    50
100
AcDbLine
 10
36.286821
 20
2.0564856
 30
0.0
 11
36.2688759
 21
2.1222081
 31
0.0
  0
LINE
  5
8F
330
79
100
AcDbEntity
  8
0
  6
SLD-Durchgehend
 62
     7
370
    50
100
AcDbLine
 10
36.2688759
 20
2.1222081
 30
0.0
 11
35.2231452
 21
2.1222081
 31
0.0
  0
LINE
  5
90
330
79
100
AcDbEntity
  8
0
  6
SLD-Durchgehend
 62
     7
370
    50
100
AcDbLine
 10
35.2231452
 20
2.1222081
 30
0.0
 11
35.2596069
 21
2.00567925
 31
0.0
  0
LINE
  5
91
330
79
100
AcDbEntity
  8
0
  6
SLD-Durchgehend
 62
     7
370
    50
100
AcDbLine
 10
37.9189107
 20
0.0
 30
0.0
 11
37.9965204
 21
0.00085725
 31
0.0
  0
LINE
  5
92
330
79
100
AcDbEntity
  8
0
  6
SLD-Durchgehend
 62
     7
370
    50
100
AcDbLine
 10
49.4710974
 20
6.3489078
 30
0.0
 11
49.4710974
 21
8.99649585
 31
0.0
  0
LINE
  5
93
330
79
100
AcDbEntity
  8
0
  6
SLD-Durchgehend
 62
     7
370
    50
100
AcDbLine
 10
49.4710974
 20
8.99649585
 30
0.0
 11
48.4428546
 21
8.99649585
 31
0.0
  0
LINE
  5
94
330
79
100
AcDbEntity
  8
0
  6
SLD-Durchgehend
 62
     7
370
    50
100
AcDbLine
 10
48.4428546
 20
8.99649585
 30
0.0
 11
48.4428546
 21
0.1850517
 31
0.0
  0
LINE
  5
95
330
79
100
AcDbEntity
  8
0
  6
SLD-Durchgehend
 62
     7
370
    50
100
AcDbLine
 10
48.4428546
 20
0.1850517
 30
0.0
 11
49.4710974
 21
0.1850517
 31
0.0
  0
LINE
  5
96
330
79
100
AcDbEntity
  8
0
  6
SLD-Durchgehend
 62
     7
370
    50
100
AcDbLine
 10
49.4710974
 20
0.1850517
 30
0.0
 11
49.4710974
 21
4.23510075
 31
0.0
  0
LINE
  5
97
330
79
100
AcDbEntity
  8
0
  6
SLD-Durchgehend
 62
     7
370
    50
100
AcDbLine
 10
52.88175225
 20
4.6166913
 30
0.0
 11
52.88175225
 21
0.1850517
 31
0.0
  0
LINE
  5
98
330
79
100
AcDbEntity
  8
0
  6
SLD-Durchgehend
 62
     7
370
    50
100
AcDbLine
 10
52.88175225
 20
0.1850517
 30
0.0
 11
53.91182385
 21
0.1850517
 31
0.0
  0
LINE
  5
99
330
79
100
AcDbEntity
  8
0
  6
SLD-Durchgehend
 62
     7
370
    50
100
AcDbLine
 10
53.91182385
 20
0.1850517
 30
0.0
 11
53.91182385
 21
4.87106595
 31
0.0
  0
LINE
  5
9A
330
79
100
AcDbEntity
  8
0
  6
SLD-Durchgehend
 62
     7
370
    50
100
AcDbLine
 10
29.872305
 20
6.36016635
 30
0.0
 11
29.872305
 21
7.15283685
 31
0.0
  0
LINE
  5
9B
330
79
100
AcDbEntity
  8
0
  6
SLD-Durchgehend
 62
     7
370
    50
100
AcDbLine
 10
29.872305
 20
7.15283685
 30
0.0
 11
28.84389075
 21
7.15283685
 31
0.0
  0
LINE
  5
9C
330
79
100
AcDbEntity
  8
0
  6
SLD-Durchgehend
 62
     7
370
    50
100
AcDbLine
 10
28.84389075
 20
7.15283685
 30
0.0
 11
28.84389075
 21
0.1850517
 31
0.0
  0
LINE
  5
9D
330
79
100
AcDbEntity
  8
0
  6
SLD-Durchgehend
 62
     7
370
    50
100
AcDbLine
 10
28.84389075
 20
0.1850517
 30
0.0
 11
29.872305
 21
0.1850517
 31
0.0
  0
LINE
  5
9E
330
79
100
AcDbEntity
  8
0
  6
SLD-Durchgehend
 62
     7
370
    50
100
AcDbLine
 10
29.872305
 20
0.1850517
 30
0.0
 11
29.872305
 21
4.2343578
 31
0.0
  0
LINE
  5
9F
330
79
100
AcDbEntity
  8
0
  6
SLD-Durchgehend
 62
     7
370
    50
100
AcDbLine
 10
33.28398855
 20
4.61629125
 30
0.0
 11
33.28398855
 21
0.1850517
 31
0.0
  0
LINE
  5
A0
330
79
100
AcDbEntity
  8
0
  6
SLD-Durchgehend
 62
     7
370
    50
100
AcDbLine
 10
33.28398855
 20
0.1850517
 30
0.0
 11
34.3126314
 21
0.1850517
 31
0.0
  0
LINE
  5
A1
330
79
100
AcDbEntity
  8
0
  6
SLD-Durchgehend
 62
     7
370
    50
100
AcDbLine
 10
34.3126314
 20
0.1850517
 30
0.0
 11
34.3126314
 21
4.87106595
 31
0.0
  0
LINE
  5
A2
330
79
100
AcDbEntity
  8
0
  6
SLD-Durchgehend
 62
     7
370
    50
100
AcDbLine
 10
24.6290211
 20
0.01514475
 30
0.0
 11
24.63627915
 21
0.01514475
 31
0.0
  0
LINE
  5
A3
330
79
100
AcDbEntity
  8
0
  6
SLD-Durchgehend
 62
     7
370
    50
100
AcDbLine
 10
27.58259025
 20
2.2415373
 30
0.0
 11
27.61848045
 21
2.35726605
 31
0.0
  0
LINE
  5
A4
330
79
100
AcDbEntity
  8
0
  6
SLD-Durchgehend
 62
     7
370
    50
100
AcDbLine
 10
27.61848045
 20
2.35726605
 30
0.0
 11
26.48119545
 21
2.35726605
 31
0.0
  0
LINE
  5
A5
330
79
100
AcDbEntity
  8
0
  6
SLD-Durchgehend
 62
     7
370
    50
100
AcDbLine
 10
26.48119545
 20
2.35726605
 30
0.0
 11
26.46045
 21
2.29783005
 31
0.0
  0
LINE
  5
A6
330
79
100
AcDbEntity
  8
0
  6
SLD-Durchgehend
 62
     7
370
    50
100
AcDbLine
 10
24.593931
 20
0.9873234
 30
0.0
 11
24.57375705
 21
0.9881235
 31
0.0
  0
LINE
  5
A7
330
79
100
AcDbEntity
  8
0
  6
SLD-Durchgehend
 62
     7
370
    50
100
AcDbLine
 10
22.5041841
 20
3.5133534
 30
0.0
 11
22.50378405
 21
3.6070794
 31
0.0
  0
LINE
  5
A8
330
79
100
AcDbEntity
  8
0
  6
SLD-Durchgehend
 62
     7
370
    50
100
AcDbLine
 10
22.50378405
 20
3.6070794
 30
0.0
 11
27.6822027
 21
3.6070794
 31
0.0
  0
LINE
  5
A9
330
79
100
AcDbEntity
  8
0
  6
SLD-Durchgehend
 62
     7
370
    50
100
AcDbLine
 10
27.6822027
 20
3.6070794
 30
0.0
 11
27.6790023
 21
3.70074825
 31
0.0
  0
LINE
  5
AA
330
79
100
AcDbEntity
  8
0
  6
SLD-Durchgehend
 62
     7
370
    50
100
AcDbLine
 10
26.5169142
 20
4.4946189
 30
0.0
 11
22.5179001
 21
4.4946189
 31
0.0
  0
LINE
  5
AB
330
79
100
AcDbEntity
  8
0
  6
SLD-Durchgehend
 62
     7
370
    50
100
AcDbLine
 10
3.1584519
 20
0.01354455
 30
0.0
 11
3.14719335
 21
0.01354455
 31
0.0
  0
LINE
  5
AC
330
79
100
AcDbEntity
  8
0
  6
SLD-Durchgehend
 62
     7
370
    50
100
AcDbLine
 10
0.00200025
 20
3.55387275
 30
0.0
 11
0.0
 21
3.55387275
 31
0.0
  0
LINE
  5
AD
330
79
100
AcDbEntity
  8
0
  6
SLD-Durchgehend
 62
     7
370
    50
100
AcDbLine
 10
0.0
 20
3.55387275
 30
0.0
 11
0.0
 21
8.99466705
 31
0.0
  0
LINE
  5
AE
330
79
100
AcDbEntity
  8
0
  6
SLD-Durchgehend
 62
     7
370
    50
100
AcDbLine
 10
0.0
 20
8.99466705
 30
0.0
 11
1.0219563
 21
8.99466705
 31
0.0
  0
LINE
  5
AF
330
79
100
AcDbEntity
  8
0
  6
SLD-Durchgehend
 62
     7
370
    50
100
AcDbLine
 10
1.0219563
 20
8.99466705
 30
0.0
 11
1.0219563
 21
6.3717678
 31
0.0
  0
LINE
  5
B0
330
79
100
AcDbEntity
  8
0
  6
SLD-Durchgehend
 62
     7
370
    50
100
AcDbLine
 10
56.1049551
 20
3.65457105
 30
0.0
 11
56.10455505
 21
3.65457105
 31
0.0
  0
LINE
  5
B1
330
79
100
AcDbEntity
  8
0
  6
SLD-Durchgehend
 62
     7
370
    50
100
AcDbLine
 10
61.4057319
 20
7.1382636
 30
0.0
 11
60.34302765
 21
7.1382636
 31
0.0
  0
LINE
  5
B2
330
79
100
AcDbEntity
  8
0
  6
SLD-Durchgehend
 62
     7
370
    50
100
AcDbLine
 10
60.34302765
 20
7.1382636
 30
0.0
 11
60.34302765
 21
6.49092555
 31
0.0
  0
LINE
  5
B3
330
79
100
AcDbEntity
  8
0
  6
SLD-Durchgehend
 62
     7
370
    50
100
AcDbLine
 10
58.23499275
 20
0.0002286
 30
0.0
 11
58.23636435
 21
0.0002286
 31
0.0
  0
LINE
  5
B4
330
79
100
AcDbEntity
  8
0
  6
SLD-Durchgehend
 62
     7
370
    50
100
AcDbLine
 10
60.40109205
 20
0.873252
 30
0.0
 11
60.5357946
 21
0.1704213
 31
0.0
  0
LINE
  5
B5
330
79
100
AcDbEntity
  8
0
  6
SLD-Durchgehend
 62
     7
370
    50
100
AcDbLine
 10
60.5357946
 20
0.1704213
 30
0.0
 11
61.39321605
 21
0.1704213
 31
0.0
  0
LINE
  5
B6
330
79
100
AcDbEntity
  8
0
  6
SLD-Durchgehend
 62
     7
370
    50
100
AcDbLine
 10
61.39321605
 20
0.1704213
 30
0.0
 11
61.39321605
 21
6.2507241
 31
0.0
  0
LINE
  5
B7
330
79
100
AcDbEntity
  8
0
  6
SLD-Durchgehend
 62
     7
370
    50
100
AcDbLine
 10
61.39321605
 20
6.2507241
 30
0.0
 11
61.4057319
 21
6.2507241
 31
0.0
  0
LINE
  5
B8
330
79
100
AcDbEntity
  8
0
  6
SLD-Durchgehend
 62
     7
370
    50
100
AcDbLine
 10
61.4057319
 20
6.2507241
 30
0.0
 11
61.4057319
 21
7.1382636
 31
0.0
  0
LINE
  5
B9
330
79
100
AcDbEntity
  8
0
  6
SLD-Durchgehend
 62
     7
370
    50
100
AcDbLine
 10
65.5528788
 20
6.26541165
 30
0.0
 11
65.5528788
 21
7.1530083
 31
0.0
  0
LINE
  5
BA
330
79
100
AcDbEntity
  8
0
  6
SLD-Durchgehend
 62
     7
370
    50
100
AcDbLine
 10
65.5528788
 20
7.1530083
 30
0.0
 11
64.4266809
 21
7.1530083
 31
0.0
  0
LINE
  5
BB
330
79
100
AcDbEntity
  8
0
  6
SLD-Durchgehend
 62
     7
370
    50
100
AcDbLine
 10
64.4266809
 20
7.1530083
 30
0.0
 11
64.4266809
 21
8.9966673
 31
0.0
  0
LINE
  5
BC
330
79
100
AcDbEntity
  8
0
  6
SLD-Durchgehend
 62
     7
370
    50
100
AcDbLine
 10
64.4266809
 20
8.9966673
 30
0.0
 11
63.39826665
 21
8.9966673
 31
0.0
  0
LINE
  5
BD
330
79
100
AcDbEntity
  8
0
  6
SLD-Durchgehend
 62
     7
370
    50
100
AcDbLine
 10
63.39826665
 20
8.9966673
 30
0.0
 11
63.39826665
 21
7.1530083
 31
0.0
  0
LINE
  5
BE
330
79
100
AcDbEntity
  8
0
  6
SLD-Durchgehend
 62
     7
370
    50
100
AcDbLine
 10
63.39826665
 20
7.1530083
 30
0.0
 11
62.571249
 21
7.1530083
 31
0.0
  0
LINE
  5
BF
330
79
100
AcDbEntity
  8
0
  6
SLD-Durchgehend
 62
     7
370
    50
100
AcDbLine
 10
62.571249
 20
7.1530083
 30
0.0
 11
62.571249
 21
6.26541165
 31
0.0
  0
LINE
  5
C0
330
79
100
AcDbEntity
  8
0
  6
SLD-Durchgehend
 62
     7
370
    50
100
AcDbLine
 10
62.571249
 20
6.26541165
 30
0.0
 11
63.39826665
 21
6.26541165
 31
0.0
  0
LINE
  5
C1
330
79
100
AcDbEntity
  8
0
  6
SLD-Durchgehend
 62
     7
370
    50
100
AcDbLine
 10
63.39826665
 20
6.26541165
 30
0.0
 11
63.39826665
 21
1.30787775
 31
0.0
  0
LINE
  5
C2
330
79
100
AcDbEntity
  8
0
  6
SLD-Durchgehend
 62
     7
370
    50
100
AcDbLine
 10
65.5528788
 20
0.1524762
 30
0.0
 11
65.5528788
 21
1.0282428
 31
0.0
  0
LINE
  5
C3
330
79
100
AcDbEntity
  8
0
  6
SLD-Durchgehend
 62
     7
370
    50
100
AcDbLine
 10
65.5528788
 20
1.0282428
 30
0.0
 11
64.83216015
 21
1.0282428
 31
0.0
  0
LINE
  5
C4
330
79
100
AcDbEntity
  8
0
  6
SLD-Durchgehend
 62
     7
370
    50
100
AcDbLine
 10
64.4266809
 20
1.8736056
 30
0.0
 11
64.4266809
 21
6.26541165
 31
0.0
  0
LINE
  5
C5
330
79
100
AcDbEntity
  8
0
  6
SLD-Durchgehend
 62
     7
370
    50
100
AcDbLine
 10
64.4266809
 20
6.26541165
 30
0.0
 11
65.5528788
 21
6.26541165
 31
0.0
  0
LINE
  5
C6
330
79
100
AcDbEntity
  8
0
  6
SLD-Durchgehend
 62
     7
370
    50
100
AcDbLine
 10
68.16137625
 20
1.0839069
 30
0.0
 11
71.8583526
 21
6.5799081
 31
0.0
  0
LINE
  5
C7
330
79
100
AcDbEntity
  8
0
  6
SLD-Durchgehend
 62
     7
370
    50
100
AcDbLine
 10
71.8583526
 20
6.5799081
 30
0.0
 11
71.8583526
 21
7.16426685
 31
0.0
  0
LINE
  5
C8
330
79
100
AcDbEntity
  8
0
  6
SLD-Durchgehend
 62
     7
370
    50
100
AcDbLine
 10
71.8583526
 20
7.16426685
 30
0.0
 11
66.78577575
 21
7.16426685
 31
0.0
  0
LINE
  5
C9
330
79
100
AcDbEntity
  8
0
  6
SLD-Durchgehend
 62
     7
370
    50
100
AcDbLine
 10
66.78577575
 20
7.16426685
 30
0.0
 11
66.78577575
 21
6.27684165
 31
0.0
  0
LINE
  5
CA
330
79
100
AcDbEntity
  8
0
  6
SLD-Durchgehend
 62
     7
370
    50
100
AcDbLine
 10
66.78577575
 20
6.27684165
 30
0.0
 11
70.4107431
 21
6.2774703
 31
0.0
  0
LINE
  5
CB
330
79
100
AcDbEntity
  8
0
  6
SLD-Durchgehend
 62
     7
370
    50
100
AcDbLine
 10
70.4107431
 20
6.2774703
 30
0.0
 11
66.78577575
 21
0.8967978
 31
0.0
  0
LINE
  5
CC
330
79
100
AcDbEntity
  8
0
  6
SLD-Durchgehend
 62
     7
370
    50
100
AcDbLine
 10
66.78577575
 20
0.8967978
 30
0.0
 11
66.78577575
 21
0.19642455
 31
0.0
  0
LINE
  5
CD
330
79
100
AcDbEntity
  8
0
  6
SLD-Durchgehend
 62
     7
370
    50
100
AcDbLine
 10
66.78577575
 20
0.19642455
 30
0.0
 11
71.91395955
 21
0.19642455
 31
0.0
  0
LINE
  5
CE
330
79
100
AcDbEntity
  8
0
  6
SLD-Durchgehend
 62
     7
370
    50
100
AcDbLine
 10
71.91395955
 20
0.19642455
 30
0.0
 11
71.91395955
 21
1.0839069
 31
0.0
  0
LINE
  5
CF
330
79
100
AcDbEntity
  8
0
  6
SLD-Durchgehend
 62
     7
370
    50
100
AcDbLine
 10
71.91395955
 20
1.0839069
 30
0.0
 11
68.16137625
 21
1.0839069
 31
0.0
  0
SPLINE
  5
D0
330
79
100
AcDbEntity
  8
0
  6
Continuous
 62
     8
420
  8421504
370
    50
100
AcDbSpline
210
0.0
220
0.0
230
1.0
 70
     8
 71
     3
 72
     8
 73
     4
 74
     0
 42
0.00000001
 43
0.00000001
 40
0.0
 40
0.0
 40
0.0
 40
0.0
 40
0.1
 40
0.1
 40
0.1
 40
0.1
 10
10.22156325
 20
7.322172299999999
 30
0.0
 10
9.351797399999995
 20
7.322915249999995
 30
0.0
 10
8.557640999999997
 20
7.002818100000002
 30
0.0
 10
7.984655099999994
 20
6.38142615
 30
0.0
  0
SPLINE
  5
D1
330
79
100
AcDbEntity
  8
0
  6
Continuous
 62
     8
420
  8421504
370
    50
100
AcDbSpline
210
0.0
220
0.0
230
1.0
 70
     8
 71
     3
 72
     8
 73
     4
 74
     0
 42
0.00000001
 43
0.00000001
 40
0.1
 40
0.1
 40
0.1
 40
0.1
 40
0.2
 40
0.2
 40
0.2
 40
0.2
 10
7.984655099999994
 20
6.38142615
 30
0.0
 10
7.41206925
 20
5.7614058
 30
0.0
 10
7.063111349999998
 20
4.845462749999998
 30
0.0
 10
7.063111349999998
 20
3.669258600000007
 30
0.0
  0
SPLINE
  5
D2
330
79
100
AcDbEntity
  8
0
  6
Continuous
 62
     8
420
  8421504
370
    50
100
AcDbSpline
210
0.0
220
0.0
230
1.0
 70
     8
 71
     3
 72
     8
 73
     4
 74
     0
 42
0.00000001
 43
0.00000001
 40
0.2
 40
0.2
 40
0.2
 40
0.2
 40
0.3
 40
0.3
 40
0.3
 40
0.3
 10
7.063111349999998
 20
3.669258600000007
 30
0.0
 10
7.063111349999998
 20
2.491968600000001
 30
0.0
 10
7.41206925
 20
1.576825650000002
 30
0.0
 10
7.984655099999994
 20
0.9562338000000031
 30
0.0
  0
SPLINE
  5
D3
330
79
100
AcDbEntity
  8
0
  6
Continuous
 62
     8
420
  8421504
370
    50
100
AcDbSpline
210
0.0
220
0.0
230
1.0
 70
     8
 71
     3
 72
     8
 73
     4
 74
     0
 42
0.00000001
 43
0.00000001
 40
0.3
 40
0.3
 40
0.3
 40
0.3
 40
0.4
 40
0.4
 40
0.4
 40
0.4
 10
7.984655099999994
 20
0.9562338000000031
 30
0.0
 10
8.557640999999997
 20
0.336784950000002
 30
0.0
 10
9.351797399999995
 20
0.0151447499999971
 30
0.0
 10
10.22156325
 20
0.0151447499999971
 30
0.0
  0
SPLINE
  5
D4
330
79
100
AcDbEntity
  8
0
  6
Continuous
 62
     8
420
  8421504
370
    50
100
AcDbSpline
210
0.0
220
0.0
230
1.0
 70
     8
 71
     3
 72
     8
 73
     4
 74
     0
 42
0.00000001
 43
0.00000001
 40
0.5
 40
0.5
 40
0.5
 40
0.5
 40
0.6
 40
0.6
 40
0.6
 40
0.6
 10
10.22476365
 20
0.0151447499999971
 30
0.0
 10
11.09355794999999
 20
0.0151447499999971
 30
0.0
 10
11.88605699999999
 20
0.336784950000002
 30
0.0
 10
12.45864285
 20
0.9562338000000031
 30
0.0
  0
SPLINE
  5
D5
330
79
100
AcDbEntity
  8
0
  6
Continuous
 62
     8
420
  8421504
370
    50
100
AcDbSpline
210
0.0
220
0.0
230
1.0
 70
     8
 71
     3
 72
     8
 73
     4
 74
     0
 42
0.00000001
 43
0.00000001
 40
0.6
 40
0.6
 40
0.6
 40
0.6
 40
0.7
 40
0.7
 40
0.7
 40
0.7
 10
12.45864285
 20
0.9562338000000031
 30
0.0
 10
13.03162875
 20
1.576825650000002
 30
0.0
 10
13.38081525
 20
2.491968600000001
 30
0.0
 10
13.38081525
 20
3.669258600000007
 30
0.0
  0
SPLINE
  5
D6
330
79
100
AcDbEntity
  8
0
  6
Continuous
 62
     8
420
  8421504
370
    50
100
AcDbSpline
210
0.0
220
0.0
230
1.0
 70
     8
 71
     3
 72
     8
 73
     4
 74
     0
 42
0.00000001
 43
0.00000001
 40
0.7
 40
0.7
 40
0.7
 40
0.7
 40
0.8
 40
0.8
 40
0.8
 40
0.8
 10
13.38081525
 20
3.669258600000007
 30
0.0
 10
13.38081525
 20
4.845462749999998
 30
0.0
 10
13.03162875
 20
5.7614058
 30
0.0
 10
12.45864285
 20
6.38142615
 30
0.0
  0
SPLINE
  5
D7
330
79
100
AcDbEntity
  8
0
  6
Continuous
 62
     8
420
  8421504
370
    50
100
AcDbSpline
210
0.0
220
0.0
230
1.0
 70
     8
 71
     3
 72
     8
 73
     4
 74
     0
 42
0.00000001
 43
0.00000001
 40
0.8
 40
0.8
 40
0.8
 40
0.8
 40
1.0
 40
1.0
 40
1.0
 40
1.0
 10
12.45864285
 20
6.38142615
 30
0.0
 10
11.88605699999999
 20
7.002818100000002
 30
0.0
 10
11.09230065
 20
7.322915249999995
 30
0.0
 10
10.22156325
 20
7.322172299999999
 30
0.0
  0
SPLINE
  5
D8
330
79
100
AcDbEntity
  8
0
  6
Continuous
 62
     8
420
  8421504
370
    50
100
AcDbSpline
210
0.0
220
0.0
230
1.0
 70
     8
 71
     3
 72
     8
 73
     4
 74
     0
 42
0.00000001
 43
0.00000001
 40
0.0
 40
0.0
 40
0.0
 40
0.0
 40
0.2
 40
0.2
 40
0.2
 40
0.2
 10
10.22156325
 20
0.987323400000001
 30
0.0
 10
9.018727199999999
 20
0.9907523999999945
 30
0.0
 10
8.097983550000002
 20
1.947386249999999
 30
0.0
 10
8.091754199999995
 20
3.669258600000007
 30
0.0
  0
SPLINE
  5
D9
330
79
100
AcDbEntity
  8
0
  6
Continuous
 62
     8
420
  8421504
370
    50
100
AcDbSpline
210
0.0
220
0.0
230
1.0
 70
     8
 71
     3
 72
     8
 73
     4
 74
     0
 42
0.00000001
 43
0.00000001
 40
0.2
 40
0.2
 40
0.2
 40
0.2
 40
0.4
 40
0.4
 40
0.4
 40
0.4
 10
8.091754199999995
 20
3.669258600000007
 30
0.0
 10
8.097183449999998
 20
5.377472099999998
 30
0.0
 10
9.019527299999996
 20
6.347707649999999
 30
0.0
 10
10.22156325
 20
6.350107949999998
 30
0.0
  0
SPLINE
  5
DA
330
79
100
AcDbEntity
  8
0
  6
Continuous
 62
     8
420
  8421504
370
    50
100
AcDbSpline
210
0.0
220
0.0
230
1.0
 70
     8
 71
     3
 72
     8
 73
     4
 74
     0
 42
0.00000001
 43
0.00000001
 40
0.4
 40
0.4
 40
0.4
 40
0.4
 40
0.6
 40
0.6
 40
0.6
 40
0.6
 10
10.22156325
 20
6.350107949999998
 30
0.0
 10
11.42457075
 20
6.347707649999999
 30
0.0
 10
12.34617165
 20
5.377472099999998
 30
0.0
 10
12.3516009
 20
3.669258600000007
 30
0.0
  0
SPLINE
  5
DB
330
79
100
AcDbEntity
  8
0
  6
Continuous
 62
     8
420
  8421504
370
    50
100
AcDbSpline
210
0.0
220
0.0
230
1.0
 70
     8
 71
     3
 72
     8
 73
     4
 74
     0
 42
0.00000001
 43
0.00000001
 40
0.6
 40
0.6
 40
0.6
 40
0.6
 40
1.0
 40
1.0
 40
1.0
 40
1.0
 10
12.3516009
 20
3.669258600000007
 30
0.0
 10
12.34617165
 20
1.947386249999999
 30
0.0
 10
11.42537085
 20
0.9907523999999945
 30
0.0
 10
10.22156325
 20
0.987323400000001
 30
0.0
  0
SPLINE
  5
DC
330
79
100
AcDbEntity
  8
0
  6
Continuous
 62
     8
420
  8421504
370
    50
100
AcDbSpline
210
0.0
220
0.0
230
1.0
 70
     8
 71
     3
 72
     8
 73
     4
 74
     0
 42
0.00000001
 43
0.00000001
 40
0.0
 40
0.0
 40
0.0
 40
0.0
 40
0.0625
 40
0.0625
 40
0.0625
 40
0.0625
 10
46.24143659999999
 20
2.039112000000006
 30
0.0
 10
45.9529434
 20
1.443323249999991
 30
0.0
 10
45.42733484999999
 20
0.9907523999999945
 30
0.0
 10
44.40012074999999
 20
0.987323400000001
 30
0.0
  0
SPLINE
  5
DD
330
79
100
AcDbEntity
  8
0
  6
Continuous
 62
     8
420
  8421504
370
    50
100
AcDbSpline
210
0.0
220
0.0
230
1.0
 70
     8
 71
     3
 72
     8
 73
     4
 74
     0
 42
0.00000001
 43
0.00000001
 40
0.0625
 40
0.0625
 40
0.0625
 40
0.0625
 40
0.125
 40
0.125
 40
0.125
 40
0.125
 10
44.40012074999999
 20
0.987323400000001
 30
0.0
 10
43.3769643
 20
0.9901808999999957
 30
0.0
 10
42.2737407
 20
1.840572900000004
 30
0.0
 10
42.27048314999999
 20
3.669258600000007
 30
0.0
  0
SPLINE
  5
DE
330
79
100
AcDbEntity
  8
0
  6
Continuous
 62
     8
420
  8421504
370
    50
100
AcDbSpline
210
0.0
220
0.0
230
1.0
 70
     8
 71
     3
 72
     8
 73
     4
 74
     0
 42
0.00000001
 43
0.00000001
 40
0.125
 40
0.125
 40
0.125
 40
0.125
 40
0.1875
 40
0.1875
 40
0.1875
 40
0.1875
 10
42.27048314999999
 20
3.669258600000007
 30
0.0
 10
42.27454079999999
 20
5.4968013
 30
0.0
 10
43.37353529999999
 20
6.345764549999999
 30
0.0
 10
44.48481705
 20
6.350107949999998
 30
0.0
  0
SPLINE
  5
DF
330
79
100
AcDbEntity
  8
0
  6
Continuous
 62
     8
420
  8421504
370
    50
100
AcDbSpline
210
0.0
220
0.0
230
1.0
 70
     8
 71
     3
 72
     8
 73
     4
 74
     0
 42
0.00000001
 43
0.00000001
 40
0.1875
 40
0.1875
 40
0.1875
 40
0.1875
 40
0.25
 40
0.25
 40
0.25
 40
0.25
 10
44.48481705
 20
6.350107949999998
 30
0.0
 10
45.28034505
 20
6.347707649999999
 30
0.0
 10
45.88579215
 20
6.113849850000004
 30
0.0
 10
46.15393995
 20
5.551893900000003
 30
0.0
  0
SPLINE
  5
E0
330
79
100
AcDbEntity
  8
0
  6
Continuous
 62
     8
420
  8421504
370
    50
100
AcDbSpline
210
0.0
220
0.0
230
1.0
 70
     8
 71
     3
 72
     8
 73
     4
 74
     0
 42
0.00000001
 43
0.00000001
 40
0.4375
 40
0.4375
 40
0.4375
 40
0.4375
 40
0.5
 40
0.5
 40
0.5
 40
0.5
 10
47.23658955
 20
5.619616650000004
 30
0.0
 10
46.6148547
 20
7.049281050000002
 30
0.0
 10
45.46082474999999
 20
7.327258649999995
 30
0.0
 10
44.59751685
 20
7.322172299999999
 30
0.0
  0
SPLINE
  5
E1
330
79
100
AcDbEntity
  8
0
  6
Continuous
 62
     8
420
  8421504
370
    50
100
AcDbSpline
210
0.0
220
0.0
230
1.0
 70
     8
 71
     3
 72
     8
 73
     4
 74
     0
 42
0.00000001
 43
0.00000001
 40
0.5
 40
0.5
 40
0.5
 40
0.5
 40
0.5625
 40
0.5625
 40
0.5625
 40
0.5625
 10
44.59751685
 20
7.322172299999999
 30
0.0
 10
42.59669535
 20
7.327258649999995
 30
0.0
 10
41.2632144
 20
5.839758450000001
 30
0.0
 10
41.24144025
 20
3.669658649999997
 30
0.0
  0
SPLINE
  5
E2
330
79
100
AcDbEntity
  8
0
  6
Continuous
 62
     8
420
  8421504
370
    50
100
AcDbSpline
210
0.0
220
0.0
230
1.0
 70
     8
 71
     3
 72
     8
 73
     4
 74
     0
 42
0.00000001
 43
0.00000001
 40
0.5625
 40
0.5625
 40
0.5625
 40
0.5625
 40
0.625
 40
0.625
 40
0.625
 40
0.625
 10
41.24144025
 20
3.669658649999997
 30
0.0
 10
41.2658433
 20
1.496015549999996
 30
0.0
 10
42.64733025
 20
0.0135445500000025
 30
0.0
 10
44.40012074999999
 20
0.0151447499999971
 30
0.0
  0
SPLINE
  5
E3
330
79
100
AcDbEntity
  8
0
  6
Continuous
 62
     8
420
  8421504
370
    50
100
AcDbSpline
210
0.0
220
0.0
230
1.0
 70
     8
 71
     3
 72
     8
 73
     4
 74
     0
 42
0.00000001
 43
0.00000001
 40
0.6875
 40
0.6875
 40
0.6875
 40
0.6875
 40
0.75
 40
0.75
 40
0.75
 40
0.75
 10
44.419266
 20
0.0151447499999971
 30
0.0
 10
45.90133694999999
 20
0.0151447499999971
 30
0.0
 10
46.84202594999999
 20
0.6762559500000015
 30
0.0
 10
47.34306
 20
1.966988699999998
 30
0.0
  0
SPLINE
  5
E4
330
79
100
AcDbEntity
  8
0
  6
Continuous
 62
     8
420
  8421504
370
    50
100
AcDbSpline
210
0.0
220
0.0
230
1.0
 70
     8
 71
     3
 72
     8
 73
     4
 74
     0
 42
0.00000001
 43
0.00000001
 40
0.0
 40
0.0
 40
0.0
 40
0.0
 40
0.0769230769230769
 40
0.0769230769230769
 40
0.0769230769230769
 40
0.0769230769230769
 10
19.44694484999999
 20
6.373596599999999
 30
0.0
 10
18.94933979999999
 20
6.979215149999998
 30
0.0
 10
18.13260914999999
 20
7.322915249999995
 30
0.0
 10
17.31067785
 20
7.322915249999995
 30
0.0
  0
SPLINE
  5
E5
330
79
100
AcDbEntity
  8
0
  6
Continuous
 62
     8
420
  8421504
370
    50
100
AcDbSpline
210
0.0
220
0.0
230
1.0
 70
     8
 71
     3
 72
     8
 73
     4
 74
     0
 42
0.00000001
 43
0.00000001
 40
0.0769230769230769
 40
0.0769230769230769
 40
0.0769230769230769
 40
0.0769230769230769
 40
0.1538461538461539
 40
0.1538461538461539
 40
0.1538461538461539
 40
0.1538461538461539
 10
17.31067785
 20
7.322915249999995
 30
0.0
 10
16.4401119
 20
7.322915249999995
 30
0.0
 10
15.64635554999999
 20
7.002818100000002
 30
0.0
 10
15.07376969999999
 20
6.38142615
 30
0.0
  0
SPLINE
  5
E6
330
79
100
AcDbEntity
  8
0
  6
Continuous
 62
     8
420
  8421504
370
    50
100
AcDbSpline
210
0.0
220
0.0
230
1.0
 70
     8
 71
     3
 72
     8
 73
     4
 74
     0
 42
0.00000001
 43
0.00000001
 40
0.1538461538461539
 40
0.1538461538461539
 40
0.1538461538461539
 40
0.1538461538461539
 40
0.2307692307692308
 40
0.2307692307692308
 40
0.2307692307692308
 40
0.2307692307692308
 10
15.07376969999999
 20
6.38142615
 30
0.0
 10
14.50061234999999
 20
5.7614058
 30
0.0
 10
14.1515973
 20
4.845462749999998
 30
0.0
 10
14.1515973
 20
3.669258600000007
 30
0.0
  0
SPLINE
  5
E7
330
79
100
AcDbEntity
  8
0
  6
Continuous
 62
     8
420
  8421504
370
    50
100
AcDbSpline
210
0.0
220
0.0
230
1.0
 70
     8
 71
     3
 72
     8
 73
     4
 74
     0
 42
0.00000001
 43
0.00000001
 40
0.2307692307692308
 40
0.2307692307692308
 40
0.2307692307692308
 40
0.2307692307692308
 40
0.3076923076923077
 40
0.3076923076923077
 40
0.3076923076923077
 40
0.3076923076923077
 10
14.1515973
 20
3.669258600000007
 30
0.0
 10
14.1515973
 20
2.491968600000001
 30
0.0
 10
14.50061234999999
 20
1.576825650000002
 30
0.0
 10
15.07376969999999
 20
0.9562338000000031
 30
0.0
  0
SPLINE
  5
E8
330
79
100
AcDbEntity
  8
0
  6
Continuous
 62
     8
420
  8421504
370
    50
100
AcDbSpline
210
0.0
220
0.0
230
1.0
 70
     8
 71
     3
 72
     8
 73
     4
 74
     0
 42
0.00000001
 43
0.00000001
 40
0.3076923076923077
 40
0.3076923076923077
 40
0.3076923076923077
 40
0.3076923076923077
 40
0.3846153846153846
 40
0.3846153846153846
 40
0.3846153846153846
 40
0.3846153846153846
 10
15.07376969999999
 20
0.9562338000000031
 30
0.0
 10
15.64635554999999
 20
0.336784950000002
 30
0.0
 10
16.4401119
 20
0.0151447499999971
 30
0.0
 10
17.31067785
 20
0.0151447499999971
 30
0.0
  0
SPLINE
  5
E9
330
79
100
AcDbEntity
  8
0
  6
Continuous
 62
     8
420
  8421504
370
    50
100
AcDbSpline
210
0.0
220
0.0
230
1.0
 70
     8
 71
     3
 72
     8
 73
     4
 74
     0
 42
0.00000001
 43
0.00000001
 40
0.4615384615384616
 40
0.4615384615384616
 40
0.4615384615384616
 40
0.4615384615384616
 40
0.5384615384615384
 40
0.5384615384615384
 40
0.5384615384615384
 40
0.5384615384615384
 10
17.32176495
 20
0.0151447499999971
 30
0.0
 10
18.7925202
 20
0.0151447499999971
 30
0.0
 10
20.05342065
 20
0.8963977499999984
 30
0.0
 10
20.38043295
 20
2.636043749999993
 30
0.0
  0
SPLINE
  5
EA
330
79
100
AcDbEntity
  8
0
  6
Continuous
 62
     8
420
  8421504
370
    50
100
AcDbSpline
210
0.0
220
0.0
230
1.0
 70
     8
 71
     3
 72
     8
 73
     4
 74
     0
 42
0.00000001
 43
0.00000001
 40
0.5384615384615384
 40
0.5384615384615384
 40
0.5384615384615384
 40
0.5384615384615384
 40
0.6153846153846154
 40
0.6153846153846154
 40
0.6153846153846154
 40
0.6153846153846154
 10
20.38043295
 20
2.636043749999993
 30
0.0
 10
20.4444981
 20
2.976600599999996
 30
0.0
 10
20.4671295
 20
3.360191399999991
 30
0.0
 10
20.4671295
 20
3.555472949999997
 30
0.0
  0
SPLINE
  5
EB
330
79
100
AcDbEntity
  8
0
  6
Continuous
 62
     8
420
  8421504
370
    50
100
AcDbSpline
210
0.0
220
0.0
230
1.0
 70
     8
 71
     3
 72
     8
 73
     4
 74
     0
 42
0.00000001
 43
0.00000001
 40
0.0
 40
0.0
 40
0.0
 40
0.0
 40
0.2
 40
0.2
 40
0.2
 40
0.2
 10
17.31067785
 20
0.987323400000001
 30
0.0
 10
16.10664165
 20
0.9907523999999945
 30
0.0
 10
15.18629804999999
 20
1.947386249999999
 30
0.0
 10
15.1804116
 20
3.669258600000007
 30
0.0
  0
SPLINE
  5
EC
330
79
100
AcDbEntity
  8
0
  6
Continuous
 62
     8
420
  8421504
370
    50
100
AcDbSpline
210
0.0
220
0.0
230
1.0
 70
     8
 71
     3
 72
     8
 73
     4
 74
     0
 42
0.00000001
 43
0.00000001
 40
0.2
 40
0.2
 40
0.2
 40
0.2
 40
0.4
 40
0.4
 40
0.4
 40
0.4
 10
15.1804116
 20
3.669258600000007
 30
0.0
 10
15.18629804999999
 20
5.377472099999998
 30
0.0
 10
16.10744175
 20
6.347707649999999
 30
0.0
 10
17.31067785
 20
6.350107949999998
 30
0.0
  0
SPLINE
  5
ED
330
79
100
AcDbEntity
  8
0
  6
Continuous
 62
     8
420
  8421504
370
    50
100
AcDbSpline
210
0.0
220
0.0
230
1.0
 70
     8
 71
     3
 72
     8
 73
     4
 74
     0
 42
0.00000001
 43
0.00000001
 40
0.4
 40
0.4
 40
0.4
 40
0.4
 40
0.6
 40
0.6
 40
0.6
 40
0.6
 10
17.31067785
 20
6.350107949999998
 30
0.0
 10
18.5130567
 20
6.347707649999999
 30
0.0
 10
19.44031545
 20
5.483371050000001
 30
0.0
 10
19.44031545
 20
3.669258600000007
 30
0.0
  0
SPLINE
  5
EE
330
79
100
AcDbEntity
  8
0
  6
Continuous
 62
     8
420
  8421504
370
    50
100
AcDbSpline
210
0.0
220
0.0
230
1.0
 70
     8
 71
     3
 72
     8
 73
     4
 74
     0
 42
0.00000001
 43
0.00000001
 40
0.6
 40
0.6
 40
0.6
 40
0.6
 40
1.0
 40
1.0
 40
1.0
 40
1.0
 10
19.44031545
 20
3.669258600000007
 30
0.0
 10
19.45100249999999
 20
1.794967200000003
 30
0.0
 10
18.51368535
 20
0.9907523999999945
 30
0.0
 10
17.31067785
 20
0.987323400000001
 30
0.0
  0
SPLINE
  5
EF
330
79
100
AcDbEntity
  8
0
  6
Continuous
 62
     8
420
  8421504
370
    50
100
AcDbSpline
210
0.0
220
0.0
230
1.0
 70
     8
 71
     3
 72
     8
 73
     4
 74
     0
 42
0.00000001
 43
0.00000001
 40
0.0
 40
0.0
 40
0.0
 40
0.0
 40
0.04
 40
0.04
 40
0.04
 40
0.04
 10
38.47332285
 20
4.187094749999998
 30
0.0
 10
37.969317
 20
4.302823499999997
 30
0.0
 10
37.46931165
 20
4.389120000000001
 30
0.0
 10
37.10943809999999
 20
4.548968549999996
 30
0.0
  0
SPLINE
  5
F0
330
79
100
AcDbEntity
  8
0
  6
Continuous
 62
     8
420
  8421504
370
    50
100
AcDbSpline
210
0.0
220
0.0
230
1.0
 70
     8
 71
     3
 72
     8
 73
     4
 74
     0
 42
0.00000001
 43
0.00000001
 40
0.04
 40
0.04
 40
0.04
 40
0.04
 40
0.08
 40
0.08
 40
0.08
 40
0.08
 10
37.10943809999999
 20
4.548968549999996
 30
0.0
 10
36.7473357
 20
4.713160500000003
 30
0.0
 10
36.53902395
 20
4.917928949999999
 30
0.0
 10
36.53559494999999
 20
5.317236000000003
 30
0.0
  0
SPLINE
  5
F1
330
79
100
AcDbEntity
  8
0
  6
Continuous
 62
     8
420
  8421504
370
    50
100
AcDbSpline
210
0.0
220
0.0
230
1.0
 70
     8
 71
     3
 72
     8
 73
     4
 74
     0
 42
0.00000001
 43
0.00000001
 40
0.08
 40
0.08
 40
0.08
 40
0.08
 40
0.12
 40
0.12
 40
0.12
 40
0.12
 10
36.53559494999999
 20
5.317236000000003
 30
0.0
 10
36.549711
 20
5.934684599999996
 30
0.0
 10
36.77573924999999
 20
6.355594349999995
 30
0.0
 10
37.90010835
 20
6.409772550000005
 30
0.0
  0
SPLINE
  5
F2
330
79
100
AcDbEntity
  8
0
  6
Continuous
 62
     8
420
  8421504
370
    50
100
AcDbSpline
210
0.0
220
0.0
230
1.0
 70
     8
 71
     3
 72
     8
 73
     4
 74
     0
 42
0.00000001
 43
0.00000001
 40
0.12
 40
0.12
 40
0.12
 40
0.12
 40
0.16
 40
0.16
 40
0.16
 40
0.16
 10
37.90010835
 20
6.409772550000005
 30
0.0
 10
38.55961935
 20
6.404686199999998
 30
0.0
 10
38.99750264999999
 20
6.126822899999994
 30
0.0
 10
39.27593744999999
 20
5.65939305
 30
0.0
  0
SPLINE
  5
F3
330
79
100
AcDbEntity
  8
0
  6
Continuous
 62
     8
420
  8421504
370
    50
100
AcDbSpline
210
0.0
220
0.0
230
1.0
 70
     8
 71
     3
 72
     8
 73
     4
 74
     0
 42
0.00000001
 43
0.00000001
 40
0.28
 40
0.28
 40
0.28
 40
0.28
 40
0.32
 40
0.32
 40
0.32
 40
0.32
 10
40.26886155
 20
5.741288999999997
 30
0.0
 10
39.82011975
 20
6.7586733
 30
0.0
 10
38.944296
 20
7.305198750000003
 30
0.0
 10
37.94651414999999
 20
7.303655700000004
 30
0.0
  0
SPLINE
  5
F4
330
79
100
AcDbEntity
  8
0
  6
Continuous
 62
     8
420
  8421504
370
    50
100
AcDbSpline
210
0.0
220
0.0
230
1.0
 70
     8
 71
     3
 72
     8
 73
     4
 74
     0
 42
0.00000001
 43
0.00000001
 40
0.32
 40
0.32
 40
0.32
 40
0.32
 40
0.36
 40
0.36
 40
0.36
 40
0.36
 10
37.94651414999999
 20
7.303655700000004
 30
0.0
 10
37.92108239999999
 20
7.303655700000004
 30
0.0
 10
37.90010835
 20
7.301712600000002
 30
0.0
 10
37.88176319999999
 20
7.301712600000002
 30
0.0
  0
SPLINE
  5
F5
330
79
100
AcDbEntity
  8
0
  6
Continuous
 62
     8
420
  8421504
370
    50
100
AcDbSpline
210
0.0
220
0.0
230
1.0
 70
     8
 71
     3
 72
     8
 73
     4
 74
     0
 42
0.00000001
 43
0.00000001
 40
0.44
 40
0.44
 40
0.44
 40
0.44
 40
0.48
 40
0.48
 40
0.48
 40
0.48
 10
37.79369504999999
 20
7.298912250000003
 30
0.0
 10
36.32253974999999
 20
7.255992599999999
 30
0.0
 10
35.5037517
 20
6.346964700000004
 30
0.0
 10
35.50700925
 20
5.345582399999996
 30
0.0
  0
SPLINE
  5
F6
330
79
100
AcDbEntity
  8
0
  6
Continuous
 62
     8
420
  8421504
370
    50
100
AcDbSpline
210
0.0
220
0.0
230
1.0
 70
     8
 71
     3
 72
     8
 73
     4
 74
     0
 42
0.00000001
 43
0.00000001
 40
0.48
 40
0.48
 40
0.48
 40
0.48
 40
0.52
 40
0.52
 40
0.52
 40
0.52
 10
35.50700925
 20
5.345582399999996
 30
0.0
 10
35.50335165
 20
3.931519950000004
 30
0.0
 10
36.58903019999999
 20
3.610622699999996
 30
0.0
 10
37.5872121
 20
3.419227350000005
 30
0.0
  0
SPLINE
  5
F7
330
79
100
AcDbEntity
  8
0
  6
Continuous
 62
     8
420
  8421504
370
    50
100
AcDbSpline
210
0.0
220
0.0
230
1.0
 70
     8
 71
     3
 72
     8
 73
     4
 74
     0
 42
0.00000001
 43
0.00000001
 40
0.52
 40
0.52
 40
0.52
 40
0.52
 40
0.56
 40
0.56
 40
0.56
 40
0.56
 10
37.5872121
 20
3.419227350000005
 30
0.0
 10
38.09087504999999
 20
3.317614649999995
 30
0.0
 10
38.5890516
 20
3.237318899999993
 30
0.0
 10
38.94652485
 20
3.064840200000001
 30
0.0
  0
SPLINE
  5
F8
330
79
100
AcDbEntity
  8
0
  6
Continuous
 62
     8
420
  8421504
370
    50
100
AcDbSpline
210
0.0
220
0.0
230
1.0
 70
     8
 71
     3
 72
     8
 73
     4
 74
     0
 42
0.00000001
 43
0.00000001
 40
0.56
 40
0.56
 40
0.56
 40
0.56
 40
0.6
 40
0.6
 40
0.6
 40
0.6
 10
38.94652485
 20
3.064840200000001
 30
0.0
 10
39.30416955
 20
2.888018099999996
 30
0.0
 10
39.51808199999999
 20
2.650559849999996
 30
0.0
 10
39.52271115
 20
2.178043650000007
 30
0.0
  0
SPLINE
  5
F9
330
79
100
AcDbEntity
  8
0
  6
Continuous
 62
     8
420
  8421504
370
    50
100
AcDbSpline
210
0.0
220
0.0
230
1.0
 70
     8
 71
     3
 72
     8
 73
     4
 74
     0
 42
0.00000001
 43
0.00000001
 40
0.6
 40
0.6
 40
0.6
 40
0.6
 40
0.64
 40
0.64
 40
0.64
 40
0.64
 10
39.52271115
 20
2.178043650000007
 30
0.0
 10
39.5223111
 20
1.147629150000006
 30
0.0
 10
38.68866405
 20
0.9121711500000018
 30
0.0
 10
37.99229129999999
 20
0.8829103500000034
 30
0.0
  0
SPLINE
  5
FA
330
79
100
AcDbEntity
  8
0
  6
Continuous
 62
     8
420
  8421504
370
    50
100
AcDbSpline
210
0.0
220
0.0
230
1.0
 70
     8
 71
     3
 72
     8
 73
     4
 74
     0
 42
0.00000001
 43
0.00000001
 40
0.64
 40
0.64
 40
0.64
 40
0.64
 40
0.68
 40
0.68
 40
0.68
 40
0.68
 10
37.99229129999999
 20
0.8829103500000034
 30
0.0
 10
37.40576085
 20
0.8955976499999949
 30
0.0
 10
36.56668454999999
 20
1.092307949999997
 30
0.0
 10
36.286821
 20
2.056485600000004
 30
0.0
  0
SPLINE
  5
FB
330
79
100
AcDbEntity
  8
0
  6
Continuous
 62
     8
420
  8421504
370
    50
100
AcDbSpline
210
0.0
220
0.0
230
1.0
 70
     8
 71
     3
 72
     8
 73
     4
 74
     0
 42
0.00000001
 43
0.00000001
 40
0.8
 40
0.8
 40
0.8
 40
0.8
 40
0.84
 40
0.84
 40
0.84
 40
0.84
 10
35.25960689999999
 20
2.005679250000004
 30
0.0
 10
35.65257029999999
 20
0.7387208999999963
 30
0.0
 10
36.81242955
 20
0.0366902999999974
 30
0.0
 10
37.9189107
 20
0.0
 30
0.0
  0
SPLINE
  5
FC
330
79
100
AcDbEntity
  8
0
  6
Continuous
 62
     8
420
  8421504
370
    50
100
AcDbSpline
210
0.0
220
0.0
230
1.0
 70
     8
 71
     3
 72
     8
 73
     4
 74
     0
 42
0.00000001
 43
0.00000001
 40
0.88
 40
0.88
 40
0.88
 40
0.88
 40
0.92
 40
0.92
 40
0.92
 40
0.92
 10
37.9965204
 20
0.0008572499999984
 30
0.0
 10
39.62169494999999
 20
0.0564641999999997
 30
0.0
 10
40.554783
 20
1.016355599999995
 30
0.0
 10
40.5519255
 20
2.149640099999994
 30
0.0
  0
SPLINE
  5
FD
330
79
100
AcDbEntity
  8
0
  6
Continuous
 62
     8
420
  8421504
370
    50
100
AcDbSpline
210
0.0
220
0.0
230
1.0
 70
     8
 71
     3
 72
     8
 73
     4
 74
     0
 42
0.00000001
 43
0.00000001
 40
0.92
 40
0.92
 40
0.92
 40
0.92
 40
1.0
 40
1.0
 40
1.0
 40
1.0
 10
40.5519255
 20
2.149640099999994
 30
0.0
 10
40.55558309999999
 20
3.574389599999995
 30
0.0
 10
39.4761339
 20
3.963409649999992
 30
0.0
 10
38.47332285
 20
4.187094749999998
 30
0.0
  0
SPLINE
  5
FE
330
79
100
AcDbEntity
  8
0
  6
Continuous
 62
     8
420
  8421504
370
    50
100
AcDbSpline
210
0.0
220
0.0
230
1.0
 70
     8
 71
     3
 72
     8
 73
     4
 74
     0
 42
0.00000001
 43
0.00000001
 40
0.0
 40
0.0
 40
0.0
 40
0.0
 40
0.0714285714285714
 40
0.0714285714285714
 40
0.0714285714285714
 40
0.0714285714285714
 10
51.431571
 20
7.322915249999995
 30
0.0
 10
50.69907945
 20
7.3241154
 30
0.0
 10
49.93681274999999
 20
7.05911085
 30
0.0
 10
49.4710974
 20
6.348907800000005
 30
0.0
  0
SPLINE
  5
FF
330
79
100
AcDbEntity
  8
0
  6
Continuous
 62
     8
420
  8421504
370
    50
100
AcDbSpline
210
0.0
220
0.0
230
1.0
 70
     8
 71
     3
 72
     8
 73
     4
 74
     0
 42
0.00000001
 43
0.00000001
 40
0.4285714285714285
 40
0.4285714285714285
 40
0.4285714285714285
 40
0.4285714285714285
 40
0.5
 40
0.5
 40
0.5
 40
0.5
 10
49.4710974
 20
4.235100749999997
 30
0.0
 10
49.47812684999999
 20
5.722429499999994
 30
0.0
 10
50.34183480000001
 20
6.343021349999994
 30
0.0
 10
51.31864259999999
 20
6.350107949999998
 30
0.0
  0
SPLINE
  5
100
330
79
100
AcDbEntity
  8
0
  6
Continuous
 62
     8
420
  8421504
370
    50
100
AcDbSpline
210
0.0
220
0.0
230
1.0
 70
     8
 71
     3
 72
     8
 73
     4
 74
     0
 42
0.00000001
 43
0.00000001
 40
0.5
 40
0.5
 40
0.5
 40
0.5
 40
0.5714285714285714
 40
0.5714285714285714
 40
0.5714285714285714
 40
0.5714285714285714
 10
51.31864259999999
 20
6.350107949999998
 30
0.0
 10
52.3648305
 20
6.332791499999995
 30
0.0
 10
52.86483584999999
 20
5.961830849999996
 30
0.0
 10
52.88175224999999
 20
4.616691299999996
 30
0.0
  0
SPLINE
  5
101
330
79
100
AcDbEntity
  8
0
  6
Continuous
 62
     8
420
  8421504
370
    50
100
AcDbSpline
210
0.0
220
0.0
230
1.0
 70
     8
 71
     3
 72
     8
 73
     4
 74
     0
 42
0.00000001
 43
0.00000001
 40
0.7857142857142857
 40
0.7857142857142857
 40
0.7857142857142857
 40
0.7857142857142857
 40
0.8571428571428571
 40
0.8571428571428571
 40
0.8571428571428571
 40
0.8571428571428571
 10
53.91182385
 20
4.871065949999997
 30
0.0
 10
53.91182385
 20
5.584983749999997
 30
0.0
 10
53.72734364999999
 20
6.201232199999997
 30
0.0
 10
53.31803535
 20
6.637801049999998
 30
0.0
  0
SPLINE
  5
102
330
79
100
AcDbEntity
  8
0
  6
Continuous
 62
     8
420
  8421504
370
    50
100
AcDbSpline
210
0.0
220
0.0
230
1.0
 70
     8
 71
     3
 72
     8
 73
     4
 74
     0
 42
0.00000001
 43
0.00000001
 40
0.8571428571428571
 40
0.8571428571428571
 40
0.8571428571428571
 40
0.8571428571428571
 40
1.0
 40
1.0
 40
1.0
 40
1.0
 10
53.31803535
 20
6.637801049999998
 30
0.0
 10
52.90855560000001
 20
7.075284300000004
 30
0.0
 10
52.281963
 20
7.322915249999995
 30
0.0
 10
51.431571
 20
7.322915249999995
 30
0.0
  0
SPLINE
  5
103
330
79
100
AcDbEntity
  8
0
  6
Continuous
 62
     8
420
  8421504
370
    50
100
AcDbSpline
210
0.0
220
0.0
230
1.0
 70
     8
 71
     3
 72
     8
 73
     4
 74
     0
 42
0.00000001
 43
0.00000001
 40
0.0
 40
0.0
 40
0.0
 40
0.0
 40
0.0714285714285714
 40
0.0714285714285714
 40
0.0714285714285714
 40
0.0714285714285714
 10
31.83260715
 20
7.322172299999999
 30
0.0
 10
31.10017275
 20
7.3241154
 30
0.0
 10
30.33904905
 20
7.059910950000003
 30
0.0
 10
29.872305
 20
6.36016635
 30
0.0
  0
SPLINE
  5
104
330
79
100
AcDbEntity
  8
0
  6
Continuous
 62
     8
420
  8421504
370
    50
100
AcDbSpline
210
0.0
220
0.0
230
1.0
 70
     8
 71
     3
 72
     8
 73
     4
 74
     0
 42
0.00000001
 43
0.00000001
 40
0.4285714285714285
 40
0.4285714285714285
 40
0.4285714285714285
 40
0.4285714285714285
 40
0.5
 40
0.5
 40
0.5
 40
0.5
 10
29.872305
 20
4.234357800000001
 30
0.0
 10
29.87956304999999
 20
5.722429499999994
 30
0.0
 10
30.74309955
 20
6.343021349999994
 30
0.0
 10
31.71967874999999
 20
6.350107949999998
 30
0.0
  0
SPLINE
  5
105
330
79
100
AcDbEntity
  8
0
  6
Continuous
 62
     8
420
  8421504
370
    50
100
AcDbSpline
210
0.0
220
0.0
230
1.0
 70
     8
 71
     3
 72
     8
 73
     4
 74
     0
 42
0.00000001
 43
0.00000001
 40
0.5
 40
0.5
 40
0.5
 40
0.5
 40
0.5714285714285714
 40
0.5714285714285714
 40
0.5714285714285714
 40
0.5714285714285714
 10
31.71967874999999
 20
6.350107949999998
 30
0.0
 10
32.7662667
 20
6.333191549999997
 30
0.0
 10
33.2666721
 20
5.961830849999996
 30
0.0
 10
33.28398855
 20
4.616291249999994
 30
0.0
  0
SPLINE
  5
106
330
79
100
AcDbEntity
  8
0
  6
Continuous
 62
     8
420
  8421504
370
    50
100
AcDbSpline
210
0.0
220
0.0
230
1.0
 70
     8
 71
     3
 72
     8
 73
     4
 74
     0
 42
0.00000001
 43
0.00000001
 40
0.7857142857142857
 40
0.7857142857142857
 40
0.7857142857142857
 40
0.7857142857142857
 40
0.8571428571428571
 40
0.8571428571428571
 40
0.8571428571428571
 40
0.8571428571428571
 10
34.3126314
 20
4.871065949999997
 30
0.0
 10
34.3126314
 20
5.584983749999997
 30
0.0
 10
34.1283798
 20
6.201232199999997
 30
0.0
 10
33.7193001
 20
6.637801049999998
 30
0.0
  0
SPLINE
  5
107
330
79
100
AcDbEntity
  8
0
  6
Continuous
 62
     8
420
  8421504
370
    50
100
AcDbSpline
210
0.0
220
0.0
230
1.0
 70
     8
 71
     3
 72
     8
 73
     4
 74
     0
 42
0.00000001
 43
0.00000001
 40
0.8571428571428571
 40
0.8571428571428571
 40
0.8571428571428571
 40
0.8571428571428571
 40
1.0
 40
1.0
 40
1.0
 40
1.0
 10
33.7193001
 20
6.637801049999998
 30
0.0
 10
33.310449
 20
7.076027250000001
 30
0.0
 10
32.6828277
 20
7.323372449999993
 30
0.0
 10
31.83260715
 20
7.322172299999999
 30
0.0
  0
SPLINE
  5
108
330
79
100
AcDbEntity
  8
0
  6
Continuous
 62
     8
420
  8421504
370
    50
100
AcDbSpline
210
0.0
220
0.0
230
1.0
 70
     8
 71
     3
 72
     8
 73
     4
 74
     0
 42
0.00000001
 43
0.00000001
 40
0.0
 40
0.0
 40
0.0
 40
0.0
 40
0.0526315789473684
 40
0.0526315789473684
 40
0.0526315789473684
 40
0.0526315789473684
 10
27.6790023
 20
3.700748249999994
 30
0.0
 10
27.61528005
 20
5.730716249999992
 30
0.0
 10
26.58440835
 20
7.326515699999999
 30
0.0
 10
24.51992175
 20
7.322915249999995
 30
0.0
  0
SPLINE
  5
109
330
79
100
AcDbEntity
  8
0
  6
Continuous
 62
     8
420
  8421504
370
    50
100
AcDbSpline
210
0.0
220
0.0
230
1.0
 70
     8
 71
     3
 72
     8
 73
     4
 74
     0
 42
0.00000001
 43
0.00000001
 40
0.0526315789473684
 40
0.0526315789473684
 40
0.0526315789473684
 40
0.0526315789473684
 40
0.1052631578947368
 40
0.1052631578947368
 40
0.1052631578947368
 40
0.1052631578947368
 10
24.51992175
 20
7.322915249999995
 30
0.0
 10
23.64998445
 20
7.322915249999995
 30
0.0
 10
22.85639955
 20
7.002818100000002
 30
0.0
 10
22.28364225
 20
6.38142615
 30
0.0
  0
SPLINE
  5
10A
330
79
100
AcDbEntity
  8
0
  6
Continuous
 62
     8
420
  8421504
370
    50
100
AcDbSpline
210
0.0
220
0.0
230
1.0
 70
     8
 71
     3
 72
     8
 73
     4
 74
     0
 42
0.00000001
 43
0.00000001
 40
0.1052631578947368
 40
0.1052631578947368
 40
0.1052631578947368
 40
0.1052631578947368
 40
0.1578947368421053
 40
0.1578947368421053
 40
0.1578947368421053
 40
0.1578947368421053
 10
22.28364225
 20
6.38142615
 30
0.0
 10
21.7110564
 20
5.7614058
 30
0.0
 10
21.3610698
 20
4.845462749999998
 30
0.0
 10
21.3618699
 20
3.668515649999998
 30
0.0
  0
SPLINE
  5
10B
330
79
100
AcDbEntity
  8
0
  6
Continuous
 62
     8
420
  8421504
370
    50
100
AcDbSpline
210
0.0
220
0.0
230
1.0
 70
     8
 71
     3
 72
     8
 73
     4
 74
     0
 42
0.00000001
 43
0.00000001
 40
0.1578947368421053
 40
0.1578947368421053
 40
0.1578947368421053
 40
0.1578947368421053
 40
0.2105263157894737
 40
0.2105263157894737
 40
0.2105263157894737
 40
0.2105263157894737
 10
21.3618699
 20
3.668515649999998
 30
0.0
 10
21.3610698
 20
2.491968600000001
 30
0.0
 10
21.7110564
 20
1.576825650000002
 30
0.0
 10
22.28364225
 20
0.9562338000000031
 30
0.0
  0
SPLINE
  5
10C
330
79
100
AcDbEntity
  8
0
  6
Continuous
 62
     8
420
  8421504
370
    50
100
AcDbSpline
210
0.0
220
0.0
230
1.0
 70
     8
 71
     3
 72
     8
 73
     4
 74
     0
 42
0.00000001
 43
0.00000001
 40
0.2105263157894737
 40
0.2105263157894737
 40
0.2105263157894737
 40
0.2105263157894737
 40
0.2631578947368421
 40
0.2631578947368421
 40
0.2631578947368421
 40
0.2631578947368421
 10
22.28364225
 20
0.9562338000000031
 30
0.0
 10
22.8562281
 20
0.336784950000002
 30
0.0
 10
23.64998445
 20
0.0151447499999971
 30
0.0
 10
24.51992175
 20
0.0151447499999971
 30
0.0
  0
SPLINE
  5
10D
330
79
100
AcDbEntity
  8
0
  6
Continuous
 62
     8
420
  8421504
370
    50
100
AcDbSpline
210
0.0
220
0.0
230
1.0
 70
     8
 71
     3
 72
     8
 73
     4
 74
     0
 42
0.00000001
 43
0.00000001
 40
0.2631578947368421
 40
0.2631578947368421
 40
0.2631578947368421
 40
0.2631578947368421
 40
0.3157894736842105
 40
0.3157894736842105
 40
0.3157894736842105
 40
0.3157894736842105
 10
24.51992175
 20
0.0151447499999971
 30
0.0
 10
24.54312465
 20
0.0151447499999971
 30
0.0
 10
24.56004105
 20
0.0169164000000013
 30
0.0
 10
24.57352845
 20
0.0169164000000013
 30
0.0
  0
SPLINE
  5
10E
330
79
100
AcDbEntity
  8
0
  6
Continuous
 62
     8
420
  8421504
370
    50
100
AcDbSpline
210
0.0
220
0.0
230
1.0
 70
     8
 71
     3
 72
     8
 73
     4
 74
     0
 42
0.00000001
 43
0.00000001
 40
0.3157894736842105
 40
0.3157894736842105
 40
0.3157894736842105
 40
0.3157894736842105
 40
0.3684210526315789
 40
0.3684210526315789
 40
0.3684210526315789
 40
0.3684210526315789
 10
24.57352845
 20
0.0169164000000013
 30
0.0
 10
24.5876445
 20
0.0169164000000013
 30
0.0
 10
24.6066183
 20
0.0151447499999971
 30
0.0
 10
24.6290211
 20
0.0151447499999971
 30
0.0
  0
SPLINE
  5
10F
330
79
100
AcDbEntity
  8
0
  6
Continuous
 62
     8
420
  8421504
370
    50
100
AcDbSpline
210
0.0
220
0.0
230
1.0
 70
     8
 71
     3
 72
     8
 73
     4
 74
     0
 42
0.00000001
 43
0.00000001
 40
0.4210526315789473
 40
0.4210526315789473
 40
0.4210526315789473
 40
0.4210526315789473
 40
0.4736842105263158
 40
0.4736842105263158
 40
0.4736842105263158
 40
0.4736842105263158
 10
24.63627915
 20
0.0151447499999971
 30
0.0
 10
25.9819902
 20
0.0151447499999971
 30
0.0
 10
27.1374489
 20
0.7963852499999952
 30
0.0
 10
27.58259024999999
 20
2.241537299999998
 30
0.0
  0
SPLINE
  5
110
330
79
100
AcDbEntity
  8
0
  6
Continuous
 62
     8
420
  8421504
370
    50
100
AcDbSpline
210
0.0
220
0.0
230
1.0
 70
     8
 71
     3
 72
     8
 73
     4
 74
     0
 42
0.00000001
 43
0.00000001
 40
0.631578947368421
 40
0.631578947368421
 40
0.631578947368421
 40
0.631578947368421
 40
0.6842105263157895
 40
0.6842105263157895
 40
0.6842105263157895
 40
0.6842105263157895
 10
26.46045
 20
2.297830050000006
 30
0.0
 10
26.17658595
 20
1.501216200000007
 30
0.0
 10
25.59331305
 20
1.004296949999997
 30
0.0
 10
24.593931
 20
0.987323400000001
 30
0.0
  0
SPLINE
  5
111
330
79
100
AcDbEntity
  8
0
  6
Continuous
 62
     8
420
  8421504
370
    50
100
AcDbSpline
210
0.0
220
0.0
230
1.0
 70
     8
 71
     3
 72
     8
 73
     4
 74
     0
 42
0.00000001
 43
0.00000001
 40
0.7368421052631579
 40
0.7368421052631579
 40
0.7368421052631579
 40
0.7368421052631579
 40
0.7894736842105263
 40
0.7894736842105263
 40
0.7894736842105263
 40
0.7894736842105263
 10
24.57375705
 20
0.9881234999999919
 30
0.0
 10
23.1294051
 20
1.003039649999997
 30
0.0
 10
22.51349955
 20
2.027624849999994
 30
0.0
 10
22.5041841
 20
3.513353399999997
 30
0.0
  0
SPLINE
  5
112
330
79
100
AcDbEntity
  8
0
  6
Continuous
 62
     8
420
  8421504
370
    50
100
AcDbSpline
210
0.0
220
0.0
230
1.0
 70
     8
 71
     3
 72
     8
 73
     4
 74
     0
 42
0.00000001
 43
0.00000001
 40
0.0
 40
0.0
 40
0.0
 40
0.0
 40
0.25
 40
0.25
 40
0.25
 40
0.25
 10
22.5179001
 20
4.494618900000002
 30
0.0
 10
22.68969299999999
 20
5.544807299999999
 30
0.0
 10
23.40498239999999
 20
6.348907800000005
 30
0.0
 10
24.51992175
 20
6.350107949999998
 30
0.0
  0
SPLINE
  5
113
330
79
100
AcDbEntity
  8
0
  6
Continuous
 62
     8
420
  8421504
370
    50
100
AcDbSpline
210
0.0
220
0.0
230
1.0
 70
     8
 71
     3
 72
     8
 73
     4
 74
     0
 42
0.00000001
 43
0.00000001
 40
0.25
 40
0.25
 40
0.25
 40
0.25
 40
0.5
 40
0.5
 40
0.5
 40
0.5
 10
24.51992175
 20
6.350107949999998
 30
0.0
 10
25.8291711
 20
6.347707649999999
 30
0.0
 10
26.31488894999999
 20
5.435765100000003
 30
0.0
 10
26.5169142
 20
4.494618900000002
 30
0.0
  0
SPLINE
  5
114
330
79
100
AcDbEntity
  8
0
  6
Continuous
 62
     8
420
  8421504
370
    50
100
AcDbSpline
210
0.0
220
0.0
230
1.0
 70
     8
 71
     3
 72
     8
 73
     4
 74
     0
 42
0.00000001
 43
0.00000001
 40
0.0
 40
0.0
 40
0.0
 40
0.0
 40
0.0769230769230769
 40
0.0769230769230769
 40
0.0769230769230769
 40
0.0769230769230769
 10
1.021956299999994
 20
6.371767800000001
 30
0.0
 10
1.519561349999999
 20
6.97738635
 30
0.0
 10
2.336291999999995
 20
7.321543650000005
 30
0.0
 10
3.158451899999994
 20
7.321543650000005
 30
0.0
  0
SPLINE
  5
115
330
79
100
AcDbEntity
  8
0
  6
Continuous
 62
     8
420
  8421504
370
    50
100
AcDbSpline
210
0.0
220
0.0
230
1.0
 70
     8
 71
     3
 72
     8
 73
     4
 74
     0
 42
0.00000001
 43
0.00000001
 40
0.0769230769230769
 40
0.0769230769230769
 40
0.0769230769230769
 40
0.0769230769230769
 40
0.1538461538461539
 40
0.1538461538461539
 40
0.1538461538461539
 40
0.1538461538461539
 10
3.158451899999994
 20
7.321543650000005
 30
0.0
 10
4.029246449999999
 20
7.321543650000005
 30
0.0
 10
4.822602749999996
 20
7.000989300000003
 30
0.0
 10
5.395588649999998
 20
6.379597350000001
 30
0.0
  0
SPLINE
  5
116
330
79
100
AcDbEntity
  8
0
  6
Continuous
 62
     8
420
  8421504
370
    50
100
AcDbSpline
210
0.0
220
0.0
230
1.0
 70
     8
 71
     3
 72
     8
 73
     4
 74
     0
 42
0.00000001
 43
0.00000001
 40
0.1538461538461539
 40
0.1538461538461539
 40
0.1538461538461539
 40
0.1538461538461539
 40
0.2307692307692308
 40
0.2307692307692308
 40
0.2307692307692308
 40
0.2307692307692308
 10
5.395588649999998
 20
6.379597350000001
 30
0.0
 10
5.96857455
 20
5.759805600000005
 30
0.0
 10
6.317761049999994
 20
4.843919699999997
 30
0.0
 10
6.317761049999994
 20
3.667715550000007
 30
0.0
  0
SPLINE
  5
117
330
79
100
AcDbEntity
  8
0
  6
Continuous
 62
     8
420
  8421504
370
    50
100
AcDbSpline
210
0.0
220
0.0
230
1.0
 70
     8
 71
     3
 72
     8
 73
     4
 74
     0
 42
0.00000001
 43
0.00000001
 40
0.2307692307692308
 40
0.2307692307692308
 40
0.2307692307692308
 40
0.2307692307692308
 40
0.3076923076923077
 40
0.3076923076923077
 40
0.3076923076923077
 40
0.3076923076923077
 10
6.317761049999994
 20
3.667715550000007
 30
0.0
 10
6.317761049999994
 20
2.490311249999999
 30
0.0
 10
5.96857455
 20
1.575225449999995
 30
0.0
 10
5.395588649999998
 20
0.9546907500000036
 30
0.0
  0
SPLINE
  5
118
330
79
100
AcDbEntity
  8
0
  6
Continuous
 62
     8
420
  8421504
370
    50
100
AcDbSpline
210
0.0
220
0.0
230
1.0
 70
     8
 71
     3
 72
     8
 73
     4
 74
     0
 42
0.00000001
 43
0.00000001
 40
0.3076923076923077
 40
0.3076923076923077
 40
0.3076923076923077
 40
0.3076923076923077
 40
0.3846153846153846
 40
0.3846153846153846
 40
0.3846153846153846
 40
0.3846153846153846
 10
5.395588649999998
 20
0.9546907500000036
 30
0.0
 10
4.822602749999996
 20
0.3351276000000001
 30
0.0
 10
4.029246449999999
 20
0.0135445500000025
 30
0.0
 10
3.158451899999994
 20
0.0135445500000025
 30
0.0
  0
SPLINE
  5
119
330
79
100
AcDbEntity
  8
0
  6
Continuous
 62
     8
420
  8421504
370
    50
100
AcDbSpline
210
0.0
220
0.0
230
1.0
 70
     8
 71
     3
 72
     8
 73
     4
 74
     0
 42
0.00000001
 43
0.00000001
 40
0.4615384615384616
 40
0.4615384615384616
 40
0.4615384615384616
 40
0.4615384615384616
 40
0.5384615384615384
 40
0.5384615384615384
 40
0.5384615384615384
 40
0.5384615384615384
 10
3.147193349999994
 20
0.0135445500000025
 30
0.0
 10
1.676838149999993
 20
0.0135445500000025
 30
0.0
 10
0.4159376999999936
 20
0.8947975499999914
 30
0.0
 10
0.0886967999999953
 20
2.634443549999999
 30
0.0
  0
SPLINE
  5
11A
330
79
100
AcDbEntity
  8
0
  6
Continuous
 62
     8
420
  8421504
370
    50
100
AcDbSpline
210
0.0
220
0.0
230
1.0
 70
     8
 71
     3
 72
     8
 73
     4
 74
     0
 42
0.00000001
 43
0.00000001
 40
0.5384615384615384
 40
0.5384615384615384
 40
0.5384615384615384
 40
0.5384615384615384
 40
0.6153846153846154
 40
0.6153846153846154
 40
0.6153846153846154
 40
0.6153846153846154
 10
0.0886967999999953
 20
2.634443549999999
 30
0.0
 10
0.0248030999999968
 20
2.975057549999996
 30
0.0
 10
0.0020002499999963
 20
3.358591199999997
 30
0.0
 10
0.0020002499999963
 20
3.553872750000002
 30
0.0
  0
SPLINE
  5
11B
330
79
100
AcDbEntity
  8
0
  6
Continuous
 62
     8
420
  8421504
370
    50
100
AcDbSpline
210
0.0
220
0.0
230
1.0
 70
     8
 71
     3
 72
     8
 73
     4
 74
     0
 42
0.00000001
 43
0.00000001
 40
0.0
 40
0.0
 40
0.0
 40
0.0
 40
0.2
 40
0.2
 40
0.2
 40
0.2
 10
3.158451899999994
 20
0.9857231999999939
 30
0.0
 10
4.362316649999995
 20
0.9893236499999972
 30
0.0
 10
5.28243165
 20
1.945786050000005
 30
0.0
 10
5.288489549999997
 20
3.667715550000007
 30
0.0
  0
SPLINE
  5
11C
330
79
100
AcDbEntity
  8
0
  6
Continuous
 62
     8
420
  8421504
370
    50
100
AcDbSpline
210
0.0
220
0.0
230
1.0
 70
     8
 71
     3
 72
     8
 73
     4
 74
     0
 42
0.00000001
 43
0.00000001
 40
0.2
 40
0.2
 40
0.2
 40
0.2
 40
0.4
 40
0.4
 40
0.4
 40
0.4
 10
5.288489549999997
 20
3.667715550000007
 30
0.0
 10
5.28243165
 20
5.375871900000003
 30
0.0
 10
4.361916599999994
 20
6.346164600000001
 30
0.0
 10
3.158451899999994
 20
6.348507750000003
 30
0.0
  0
SPLINE
  5
11D
330
79
100
AcDbEntity
  8
0
  6
Continuous
 62
     8
420
  8421504
370
    50
100
AcDbSpline
210
0.0
220
0.0
230
1.0
 70
     8
 71
     3
 72
     8
 73
     4
 74
     0
 42
0.00000001
 43
0.00000001
 40
0.4
 40
0.4
 40
0.4
 40
0.4
 40
0.6
 40
0.6
 40
0.6
 40
0.6
 10
3.158451899999994
 20
6.348507750000003
 30
0.0
 10
1.955844449999994
 20
6.346164600000001
 30
0.0
 10
1.028642849999997
 20
5.481828
 30
0.0
 10
1.028642849999997
 20
3.667715550000007
 30
0.0
  0
SPLINE
  5
11E
330
79
100
AcDbEntity
  8
0
  6
Continuous
 62
     8
420
  8421504
370
    50
100
AcDbSpline
210
0.0
220
0.0
230
1.0
 70
     8
 71
     3
 72
     8
 73
     4
 74
     0
 42
0.00000001
 43
0.00000001
 40
0.6
 40
0.6
 40
0.6
 40
0.6
 40
1.0
 40
1.0
 40
1.0
 40
1.0
 10
1.028642849999997
 20
3.667715550000007
 30
0.0
 10
1.017955799999996
 20
1.793424150000003
 30
0.0
 10
1.955272949999995
 20
0.9893236499999972
 30
0.0
 10
3.158451899999994
 20
0.9857231999999939
 30
0.0
  0
SPLINE
  5
11F
330
79
100
AcDbEntity
  8
0
  6
Continuous
 62
     8
420
  8421504
370
    50
100
AcDbSpline
210
0.0
220
0.0
230
1.0
 70
     8
 71
     3
 72
     8
 73
     4
 74
     0
 42
0.00000001
 43
0.00000001
 40
0.0
 40
0.0
 40
0.0
 40
0.0
 40
0.1666666666666667
 40
0.1666666666666667
 40
0.1666666666666667
 40
0.1666666666666667
 10
58.23499275
 20
0.9726358500000004
 30
0.0
 10
57.031128
 20
0.9760076999999993
 30
0.0
 10
56.11015575
 20
1.932470100000007
 30
0.0
 10
56.1049551
 20
3.654571049999994
 30
0.0
  0
SPLINE
  5
120
330
79
100
AcDbEntity
  8
0
  6
Continuous
 62
     8
420
  8421504
370
    50
100
AcDbSpline
210
0.0
220
0.0
230
1.0
 70
     8
 71
     3
 72
     8
 73
     4
 74
     0
 42
0.00000001
 43
0.00000001
 40
0.3333333333333333
 40
0.3333333333333333
 40
0.3333333333333333
 40
0.3333333333333333
 40
0.5
 40
0.5
 40
0.5
 40
0.5
 10
56.10455504999999
 20
3.654571049999994
 30
0.0
 10
56.11015575
 20
5.362727400000002
 30
0.0
 10
57.03278535
 20
6.333020099999999
 30
0.0
 10
58.23499275
 20
6.335363250000003
 30
0.0
  0
SPLINE
  5
121
330
79
100
AcDbEntity
  8
0
  6
Continuous
 62
     8
420
  8421504
370
    50
100
AcDbSpline
210
0.0
220
0.0
230
1.0
 70
     8
 71
     3
 72
     8
 73
     4
 74
     0
 42
0.00000001
 43
0.00000001
 40
0.5
 40
0.5
 40
0.5
 40
0.5
 40
0.6666666666666666
 40
0.6666666666666666
 40
0.6666666666666666
 40
0.6666666666666666
 10
58.23499275
 20
6.335363250000003
 30
0.0
 10
59.43697154999999
 20
6.333020099999999
 30
0.0
 10
60.35874390000001
 20
5.362727400000002
 30
0.0
 10
60.3650304
 20
3.654571049999994
 30
0.0
  0
SPLINE
  5
122
330
79
100
AcDbEntity
  8
0
  6
Continuous
 62
     8
420
  8421504
370
    50
100
AcDbSpline
210
0.0
220
0.0
230
1.0
 70
     8
 71
     3
 72
     8
 73
     4
 74
     0
 42
0.00000001
 43
0.00000001
 40
0.6666666666666666
 40
0.6666666666666666
 40
0.6666666666666666
 40
0.6666666666666666
 40
1.0
 40
1.0
 40
1.0
 40
1.0
 10
60.3650304
 20
3.654571049999994
 30
0.0
 10
60.35874390000001
 20
1.932470100000007
 30
0.0
 10
59.4376002
 20
0.9760076999999993
 30
0.0
 10
58.23499275
 20
0.9726358500000004
 30
0.0
  0
SPLINE
  5
123
330
79
100
AcDbEntity
  8
0
  6
Continuous
 62
     8
420
  8421504
370
    50
100
AcDbSpline
210
0.0
220
0.0
230
1.0
 70
     8
 71
     3
 72
     8
 73
     4
 74
     0
 42
0.00000001
 43
0.00000001
 40
0.1333333333333333
 40
0.1333333333333333
 40
0.1333333333333333
 40
0.1333333333333333
 40
0.2
 40
0.2
 40
0.2
 40
0.2
 10
60.34302765
 20
6.490925550000005
 30
0.0
 10
59.78272904999999
 20
7.0276212
 30
0.0
 10
59.0430366
 20
7.308399150000005
 30
0.0
 10
58.23499275
 20
7.307599050000001
 30
0.0
  0
SPLINE
  5
124
330
79
100
AcDbEntity
  8
0
  6
Continuous
 62
     8
420
  8421504
370
    50
100
AcDbSpline
210
0.0
220
0.0
230
1.0
 70
     8
 71
     3
 72
     8
 73
     4
 74
     0
 42
0.00000001
 43
0.00000001
 40
0.2
 40
0.2
 40
0.2
 40
0.2
 40
0.2666666666666667
 40
0.2666666666666667
 40
0.2666666666666667
 40
0.2666666666666667
 10
58.23499275
 20
7.307599050000001
 30
0.0
 10
57.36459825
 20
7.308399150000005
 30
0.0
 10
56.57044185000001
 20
6.987844800000003
 30
0.0
 10
55.99768455
 20
6.366452850000001
 30
0.0
  0
SPLINE
  5
125
330
79
100
AcDbEntity
  8
0
  6
Continuous
 62
     8
420
  8421504
370
    50
100
AcDbSpline
210
0.0
220
0.0
230
1.0
 70
     8
 71
     3
 72
     8
 73
     4
 74
     0
 42
0.00000001
 43
0.00000001
 40
0.2666666666666667
 40
0.2666666666666667
 40
0.2666666666666667
 40
0.2666666666666667
 40
0.3333333333333333
 40
0.3333333333333333
 40
0.3333333333333333
 40
0.3333333333333333
 10
55.99768455
 20
6.366452850000001
 30
0.0
 10
55.42572735
 20
5.746661100000004
 30
0.0
 10
55.0759122
 20
4.830775199999997
 30
0.0
 10
55.0759122
 20
3.654571049999994
 30
0.0
  0
SPLINE
  5
126
330
79
100
AcDbEntity
  8
0
  6
Continuous
 62
     8
420
  8421504
370
    50
100
AcDbSpline
210
0.0
220
0.0
230
1.0
 70
     8
 71
     3
 72
     8
 73
     4
 74
     0
 42
0.00000001
 43
0.00000001
 40
0.3333333333333333
 40
0.3333333333333333
 40
0.3333333333333333
 40
0.3333333333333333
 40
0.4
 40
0.4
 40
0.4
 40
0.4
 10
55.0759122
 20
3.654571049999994
 30
0.0
 10
55.0759122
 20
2.477223899999993
 30
0.0
 10
55.42572735
 20
1.561966649999992
 30
0.0
 10
55.99768455
 20
0.9413747999999932
 30
0.0
  0
SPLINE
  5
127
330
79
100
AcDbEntity
  8
0
  6
Continuous
 62
     8
420
  8421504
370
    50
100
AcDbSpline
210
0.0
220
0.0
230
1.0
 70
     8
 71
     3
 72
     8
 73
     4
 74
     0
 42
0.00000001
 43
0.00000001
 40
0.4
 40
0.4
 40
0.4
 40
0.4
 40
0.4666666666666667
 40
0.4666666666666667
 40
0.4666666666666667
 40
0.4666666666666667
 10
55.99768455
 20
0.9413747999999932
 30
0.0
 10
56.57044185000001
 20
0.3220402500000004
 30
0.0
 10
57.36459825
 20
0.0002285999999983
 30
0.0
 10
58.23499275
 20
0.0002285999999983
 30
0.0
  0
SPLINE
  5
128
330
79
100
AcDbEntity
  8
0
  6
Continuous
 62
     8
420
  8421504
370
    50
100
AcDbSpline
210
0.0
220
0.0
230
1.0
 70
     8
 71
     3
 72
     8
 73
     4
 74
     0
 42
0.00000001
 43
0.00000001
 40
0.5333333333333333
 40
0.5333333333333333
 40
0.5333333333333333
 40
0.5333333333333333
 40
0.6
 40
0.6
 40
0.6
 40
0.6
 10
58.23636435
 20
0.0002285999999983
 30
0.0
 10
59.0718402
 20
0.0002285999999983
 30
0.0
 10
59.83439265000001
 20
0.3000374999999971
 30
0.0
 10
60.40109204999999
 20
0.8732520000000036
 30
0.0
  0
SPLINE
  5
129
330
79
100
AcDbEntity
  8
0
  6
Continuous
 62
     8
420
  8421504
370
    50
100
AcDbSpline
210
0.0
220
0.0
230
1.0
 70
     8
 71
     3
 72
     8
 73
     4
 74
     0
 42
0.00000001
 43
0.00000001
 40
0.4736842105263158
 40
0.4736842105263158
 40
0.4736842105263158
 40
0.4736842105263158
 40
0.5263157894736842
 40
0.5263157894736842
 40
0.5263157894736842
 40
0.5263157894736842
 10
63.39826665
 20
1.307877750000003
 30
0.0
 10
63.39603779999999
 20
0.8455913999999997
 30
0.0
 10
63.54565649999999
 20
0.5416105499999984
 30
0.0
 10
63.7871724
 20
0.3688461000000004
 30
0.0
  0
SPLINE
  5
12A
330
79
100
AcDbEntity
  8
0
  6
Continuous
 62
     8
420
  8421504
370
    50
100
AcDbSpline
210
0.0
220
0.0
230
1.0
 70
     8
 71
     3
 72
     8
 73
     4
 74
     0
 42
0.00000001
 43
0.00000001
 40
0.5263157894736842
 40
0.5263157894736842
 40
0.5263157894736842
 40
0.5263157894736842
 40
0.5789473684210527
 40
0.5789473684210527
 40
0.5789473684210527
 40
0.5789473684210527
 10
63.7871724
 20
0.3688461000000004
 30
0.0
 10
64.02771675
 20
0.1953958500000013
 30
0.0
 10
64.33558380000001
 20
0.1532762999999951
 30
0.0
 10
64.6478514
 20
0.1532762999999951
 30
0.0
  0
SPLINE
  5
12B
330
79
100
AcDbEntity
  8
0
  6
Continuous
 62
     8
420
  8421504
370
    50
100
AcDbSpline
210
0.0
220
0.0
230
1.0
 70
     8
 71
     3
 72
     8
 73
     4
 74
     0
 42
0.00000001
 43
0.00000001
 40
0.5789473684210527
 40
0.5789473684210527
 40
0.5789473684210527
 40
0.5789473684210527
 40
0.631578947368421
 40
0.631578947368421
 40
0.631578947368421
 40
0.631578947368421
 10
64.6478514
 20
0.1532762999999951
 30
0.0
 10
64.704087
 20
0.1532762999999951
 30
0.0
 10
65.5285329
 20
0.1524761999999978
 30
0.0
 10
65.5528788
 20
0.1524761999999978
 30
0.0
  0
SPLINE
  5
12C
330
79
100
AcDbEntity
  8
0
  6
Continuous
 62
     8
420
  8421504
370
    50
100
AcDbSpline
210
0.0
220
0.0
230
1.0
 70
     8
 71
     3
 72
     8
 73
     4
 74
     0
 42
0.00000001
 43
0.00000001
 40
0.7368421052631579
 40
0.7368421052631579
 40
0.7368421052631579
 40
0.7368421052631579
 40
0.7894736842105263
 40
0.7894736842105263
 40
0.7894736842105263
 40
0.7894736842105263
 10
64.83216014999999
 20
1.028242799999995
 30
0.0
 10
64.61841915000001
 20
1.034129249999995
 30
0.0
 10
64.5480675
 20
1.103852250000004
 30
0.0
 10
64.48880295000001
 20
1.246384349999996
 30
0.0
  0
SPLINE
  5
12D
330
79
100
AcDbEntity
  8
0
  6
Continuous
 62
     8
420
  8421504
370
    50
100
AcDbSpline
210
0.0
220
0.0
230
1.0
 70
     8
 71
     3
 72
     8
 73
     4
 74
     0
 42
0.00000001
 43
0.00000001
 40
0.7894736842105263
 40
0.7894736842105263
 40
0.7894736842105263
 40
0.7894736842105263
 40
0.8421052631578947
 40
0.8421052631578947
 40
0.8421052631578947
 40
0.8421052631578947
 10
64.48880295000001
 20
1.246384349999996
 30
0.0
 10
64.43273880000001
 20
1.392574049999999
 30
0.0
 10
64.42628085
 20
1.62037395
 30
0.0
 10
64.4266809
 20
1.873605600000003
 30
0.0
  0
HATCH
  5
12E
330
79
100
AcDbEntity
  8
0
  6
Continuous
 62
     7
100
AcDbHatch
 10
0.0
 20
0.0
 30
0.0
210
0.0
220
0.0
230
1.0
  2
SOLID
 70
     1
 71
     0
 91
        2
 92
        0
 93
       12
 72
     4
 94
        3
 73
     1
 74
     0
 95
        8
 96
        4
 40
0.5384615384615384
 40
0.5384615384615384
 40
0.5384615384615384
 40
0.5384615384615384
 40
0.6153846153846154
 40
0.6153846153846154
 40
0.6153846153846154
 40
0.6153846153846154
 10
0.0020002499999963
 20
3.553872750000002
 42
1.0
 10
0.0020002499999963
 20
3.358591199999997
 42
1.0
 10
0.0248030999999968
 20
2.975057549999996
 42
1.0
 10
0.0886967999999953
 20
2.634443549999999
 42
1.0
 97
        0
 72
     4
 94
        3
 73
     1
 74
     0
 95
        8
 96
        4
 40
0.4615384615384616
 40
0.4615384615384616
 40
0.4615384615384616
 40
0.4615384615384616
 40
0.5384615384615384
 40
0.5384615384615384
 40
0.5384615384615384
 40
0.5384615384615384
 10
0.0886967999999953
 20
2.634443549999999
 42
1.0
 10
0.4159376999999936
 20
0.8947975499999914
 42
1.0
 10
1.676838149999993
 20
0.0135445500000025
 42
1.0
 10
3.147193349999994
 20
0.0135445500000025
 42
1.0
 97
        0
 72
     1
 10
3.147193349999994
 20
0.0135445500000025
 11
3.158451899999994
 21
0.0135445500000025
 72
     4
 94
        3
 73
     1
 74
     0
 95
        8
 96
        4
 40
0.3076923076923077
 40
0.3076923076923077
 40
0.3076923076923077
 40
0.3076923076923077
 40
0.3846153846153846
 40
0.3846153846153846
 40
0.3846153846153846
 40
0.3846153846153846
 10
3.158451899999994
 20
0.0135445500000025
 42
1.0
 10
4.029246449999999
 20
0.0135445500000025
 42
1.0
 10
4.822602749999996
 20
0.3351276000000001
 42
1.0
 10
5.395588649999998
 20
0.9546907500000036
 42
1.0
 97
        0
 72
     4
 94
        3
 73
     1
 74
     0
 95
        8
 96
        4
 40
0.2307692307692308
 40
0.2307692307692308
 40
0.2307692307692308
 40
0.2307692307692308
 40
0.3076923076923077
 40
0.3076923076923077
 40
0.3076923076923077
 40
0.3076923076923077
 10
5.395588649999998
 20
0.9546907500000036
 42
1.0
 10
5.96857455
 20
1.575225449999995
 42
1.0
 10
6.317761049999994
 20
2.490311249999999
 42
1.0
 10
6.317761049999994
 20
3.667715550000007
 42
1.0
 97
        0
 72
     4
 94
        3
 73
     1
 74
     0
 95
        8
 96
        4
 40
0.1538461538461539
 40
0.1538461538461539
 40
0.1538461538461539
 40
0.1538461538461539
 40
0.2307692307692308
 40
0.2307692307692308
 40
0.2307692307692308
 40
0.2307692307692308
 10
6.317761049999994
 20
3.667715550000007
 42
1.0
 10
6.317761049999994
 20
4.843919699999997
 42
1.0
 10
5.96857455
 20
5.759805600000005
 42
1.0
 10
5.395588649999998
 20
6.379597350000001
 42
1.0
 97
        0
 72
     4
 94
        3
 73
     1
 74
     0
 95
        8
 96
        4
 40
0.0769230769230769
 40
0.0769230769230769
 40
0.0769230769230769
 40
0.0769230769230769
 40
0.1538461538461539
 40
0.1538461538461539
 40
0.1538461538461539
 40
0.1538461538461539
 10
5.395588649999998
 20
6.379597350000001
 42
1.0
 10
4.822602749999996
 20
7.000989300000003
 42
1.0
 10
4.029246449999999
 20
7.321543650000005
 42
1.0
 10
3.158451899999994
 20
7.321543650000005
 42
1.0
 97
        0
 72
     4
 94
        3
 73
     1
 74
     0
 95
        8
 96
        4
 40
0.0
 40
0.0
 40
0.0
 40
0.0
 40
0.0769230769230769
 40
0.0769230769230769
 40
0.0769230769230769
 40
0.0769230769230769
 10
3.158451899999994
 20
7.321543650000005
 42
1.0
 10
2.336291999999995
 20
7.321543650000005
 42
1.0
 10
1.519561349999999
 20
6.97738635
 42
1.0
 10
1.021956299999994
 20
6.371767800000001
 42
1.0
 97
        0
 72
     1
 10
1.021956299999994
 20
6.371767800000001
 11
1.021956299999994
 21
8.994667049999993
 72
     1
 10
1.021956299999994
 20
8.994667049999993
 11
0.0
 21
8.994667049999993
 72
     1
 10
0.0
 20
8.994667049999993
 11
0.0
 21
3.553872750000002
 72
     1
 10
0.0
 20
3.553872750000002
 11
0.0020002499999963
 21
3.553872750000002
 97
        0
 92
        0
 93
        4
 72
     4
 94
        3
 73
     1
 74
     0
 95
        8
 96
        4
 40
0.6
 40
0.6
 40
0.6
 40
0.6
 40
1.0
 40
1.0
 40
1.0
 40
1.0
 10
3.158451899999994
 20
0.9857231999999939
 42
1.0
 10
1.955272949999995
 20
0.9893236499999972
 42
1.0
 10
1.017955799999996
 20
1.793424150000003
 42
1.0
 10
1.028642849999997
 20
3.667715550000007
 42
1.0
 97
        0
 72
     4
 94
        3
 73
     1
 74
     0
 95
        8
 96
        4
 40
0.4
 40
0.4
 40
0.4
 40
0.4
 40
0.6
 40
0.6
 40
0.6
 40
0.6
 10
1.028642849999997
 20
3.667715550000007
 42
1.0
 10
1.028642849999997
 20
5.481828
 42
1.0
 10
1.955844449999994
 20
6.346164600000001
 42
1.0
 10
3.158451899999994
 20
6.348507750000003
 42
1.0
 97
        0
 72
     4
 94
        3
 73
     1
 74
     0
 95
        8
 96
        4
 40
0.2
 40
0.2
 40
0.2
 40
0.2
 40
0.4
 40
0.4
 40
0.4
 40
0.4
 10
3.158451899999994
 20
6.348507750000003
 42
1.0
 10
4.361916599999994
 20
6.346164600000001
 42
1.0
 10
5.28243165
 20
5.375871900000003
 42
1.0
 10
5.288489549999997
 20
3.667715550000007
 42
1.0
 97
        0
 72
     4
 94
        3
 73
     1
 74
     0
 95
        8
 96
        4
 40
0.0
 40
0.0
 40
0.0
 40
0.0
 40
0.2
 40
0.2
 40
0.2
 40
0.2
 10
5.288489549999997
 20
3.667715550000007
 42
1.0
 10
5.28243165
 20
1.945786050000005
 42
1.0
 10
4.362316649999995
 20
0.9893236499999972
 42
1.0
 10
3.158451899999994
 20
0.9857231999999939
 42
1.0
 97
        0
 97
        0
 75
     0
 76
     1
 98
        1
 10
0.0
 20
0.0
  0
HATCH
  5
12F
330
79
100
AcDbEntity
  8
0
  6
Continuous
 62
     7
100
AcDbHatch
 10
0.0
 20
0.0
 30
0.0
210
0.0
220
0.0
230
1.0
  2
SOLID
 70
     1
 71
     0
 91
        2
 92
        0
 93
        9
 72
     4
 94
        3
 73
     1
 74
     0
 95
        8
 96
        4
 40
0.7
 40
0.7
 40
0.7
 40
0.7
 40
0.8
 40
0.8
 40
0.8
 40
0.8
 10
13.38081525
 20
3.669258600000007
 42
1.0
 10
13.38081525
 20
4.845462749999998
 42
1.0
 10
13.03162875
 20
5.7614058
 42
1.0
 10
12.45864285
 20
6.38142615
 42
1.0
 97
        0
 72
     4
 94
        3
 73
     1
 74
     0
 95
        8
 96
        4
 40
0.8
 40
0.8
 40
0.8
 40
0.8
 40
1.0
 40
1.0
 40
1.0
 40
1.0
 10
12.45864285
 20
6.38142615
 42
1.0
 10
11.88605699999999
 20
7.002818100000002
 42
1.0
 10
11.09230065
 20
7.322915249999995
 42
1.0
 10
10.22156325
 20
7.322172299999999
 42
1.0
 97
        0
 72
     4
 94
        3
 73
     1
 74
     0
 95
        8
 96
        4
 40
0.0
 40
0.0
 40
0.0
 40
0.0
 40
0.1
 40
0.1
 40
0.1
 40
0.1
 10
10.22156325
 20
7.322172299999999
 42
1.0
 10
9.351797399999995
 20
7.322915249999995
 42
1.0
 10
8.557640999999997
 20
7.002818100000002
 42
1.0
 10
7.984655099999994
 20
6.38142615
 42
1.0
 97
        0
 72
     4
 94
        3
 73
     1
 74
     0
 95
        8
 96
        4
 40
0.1
 40
0.1
 40
0.1
 40
0.1
 40
0.2
 40
0.2
 40
0.2
 40
0.2
 10
7.984655099999994
 20
6.38142615
 42
1.0
 10
7.41206925
 20
5.7614058
 42
1.0
 10
7.063111349999998
 20
4.845462749999998
 42
1.0
 10
7.063111349999998
 20
3.669258600000007
 42
1.0
 97
        0
 72
     4
 94
        3
 73
     1
 74
     0
 95
        8
 96
        4
 40
0.2
 40
0.2
 40
0.2
 40
0.2
 40
0.3
 40
0.3
 40
0.3
 40
0.3
 10
7.063111349999998
 20
3.669258600000007
 42
1.0
 10
7.063111349999998
 20
2.491968600000001
 42
1.0
 10
7.41206925
 20
1.576825650000002
 42
1.0
 10
7.984655099999994
 20
0.9562338000000031
 42
1.0
 97
        0
 72
     4
 94
        3
 73
     1
 74
     0
 95
        8
 96
        4
 40
0.3
 40
0.3
 40
0.3
 40
0.3
 40
0.4
 40
0.4
 40
0.4
 40
0.4
 10
7.984655099999994
 20
0.9562338000000031
 42
1.0
 10
8.557640999999997
 20
0.336784950000002
 42
1.0
 10
9.351797399999995
 20
0.0151447499999971
 42
1.0
 10
10.22156325
 20
0.0151447499999971
 42
1.0
 97
        0
 72
     1
 10
10.22156325
 20
0.0151447499999971
 11
10.22476365
 21
0.0151447499999971
 72
     4
 94
        3
 73
     1
 74
     0
 95
        8
 96
        4
 40
0.5
 40
0.5
 40
0.5
 40
0.5
 40
0.6
 40
0.6
 40
0.6
 40
0.6
 10
10.22476365
 20
0.0151447499999971
 42
1.0
 10
11.09355794999999
 20
0.0151447499999971
 42
1.0
 10
11.88605699999999
 20
0.336784950000002
 42
1.0
 10
12.45864285
 20
0.9562338000000031
 42
1.0
 97
        0
 72
     4
 94
        3
 73
     1
 74
     0
 95
        8
 96
        4
 40
0.6
 40
0.6
 40
0.6
 40
0.6
 40
0.7
 40
0.7
 40
0.7
 40
0.7
 10
12.45864285
 20
0.9562338000000031
 42
1.0
 10
13.03162875
 20
1.576825650000002
 42
1.0
 10
13.38081525
 20
2.491968600000001
 42
1.0
 10
13.38081525
 20
3.669258600000007
 42
1.0
 97
        0
 97
        0
 92
        0
 93
        4
 72
     4
 94
        3
 73
     1
 74
     0
 95
        8
 96
        4
 40
0.4
 40
0.4
 40
0.4
 40
0.4
 40
0.6
 40
0.6
 40
0.6
 40
0.6
 10
10.22156325
 20
6.350107949999998
 42
1.0
 10
11.42457075
 20
6.347707649999999
 42
1.0
 10
12.34617165
 20
5.377472099999998
 42
1.0
 10
12.3516009
 20
3.669258600000007
 42
1.0
 97
        0
 72
     4
 94
        3
 73
     1
 74
     0
 95
        8
 96
        4
 40
0.6
 40
0.6
 40
0.6
 40
0.6
 40
1.0
 40
1.0
 40
1.0
 40
1.0
 10
12.3516009
 20
3.669258600000007
 42
1.0
 10
12.34617165
 20
1.947386249999999
 42
1.0
 10
11.42537085
 20
0.9907523999999945
 42
1.0
 10
10.22156325
 20
0.987323400000001
 42
1.0
 97
        0
 72
     4
 94
        3
 73
     1
 74
     0
 95
        8
 96
        4
 40
0.0
 40
0.0
 40
0.0
 40
0.0
 40
0.2
 40
0.2
 40
0.2
 40
0.2
 10
10.22156325
 20
0.987323400000001
 42
1.0
 10
9.018727199999999
 20
0.9907523999999945
 42
1.0
 10
8.097983550000002
 20
1.947386249999999
 42
1.0
 10
8.091754199999995
 20
3.669258600000007
 42
1.0
 97
        0
 72
     4
 94
        3
 73
     1
 74
     0
 95
        8
 96
        4
 40
0.2
 40
0.2
 40
0.2
 40
0.2
 40
0.4
 40
0.4
 40
0.4
 40
0.4
 10
8.091754199999995
 20
3.669258600000007
 42
1.0
 10
8.097183449999998
 20
5.377472099999998
 42
1.0
 10
9.019527299999996
 20
6.347707649999999
 42
1.0
 10
10.22156325
 20
6.350107949999998
 42
1.0
 97
        0
 97
        0
 75
     0
 76
     1
 98
        1
 10
0.0
 20
0.0
  0
HATCH
  5
130
330
79
100
AcDbEntity
  8
0
  6
Continuous
 62
     7
100
AcDbHatch
 10
0.0
 20
0.0
 30
0.0
210
0.0
220
0.0
230
1.0
  2
SOLID
 70
     1
 71
     0
 91
        2
 92
        0
 93
       18
 72
     1
 10
24.593931
 20
0.9873234000000013
 11
24.57375705
 21
0.9881234999999923
 72
     4
 94
        3
 73
     1
 74
     0
 95
        8
 96
        4
 40
0.7368421052631579
 40
0.7368421052631579
 40
0.7368421052631579
 40
0.7368421052631579
 40
0.7894736842105263
 40
0.7894736842105263
 40
0.7894736842105263
 40
0.7894736842105263
 10
24.57375705
 20
0.9881234999999919
 42
1.0
 10
23.1294051
 20
1.003039649999997
 42
1.0
 10
22.51349955
 20
2.027624849999994
 42
1.0
 10
22.5041841
 20
3.513353399999997
 42
1.0
 97
        0
 72
     1
 10
22.5041841
 20
3.513353399999997
 11
22.50378405
 21
3.607079399999999
 72
     1
 10
22.50378405
 20
3.607079399999999
 11
27.68220269999999
 21
3.607079399999999
 72
     1
 10
27.68220269999999
 20
3.607079399999999
 11
27.6790023
 21
3.700748249999995
 72
     4
 94
        3
 73
     1
 74
     0
 95
        8
 96
        4
 40
0.0
 40
0.0
 40
0.0
 40
0.0
 40
0.0526315789473684
 40
0.0526315789473684
 40
0.0526315789473684
 40
0.0526315789473684
 10
27.6790023
 20
3.700748249999994
 42
1.0
 10
27.61528005
 20
5.730716249999992
 42
1.0
 10
26.58440835
 20
7.326515699999999
 42
1.0
 10
24.51992175
 20
7.322915249999995
 42
1.0
 97
        0
 72
     4
 94
        3
 73
     1
 74
     0
 95
        8
 96
        4
 40
0.0526315789473684
 40
0.0526315789473684
 40
0.0526315789473684
 40
0.0526315789473684
 40
0.1052631578947368
 40
0.1052631578947368
 40
0.1052631578947368
 40
0.1052631578947368
 10
24.51992175
 20
7.322915249999995
 42
1.0
 10
23.64998445
 20
7.322915249999995
 42
1.0
 10
22.85639955
 20
7.002818100000002
 42
1.0
 10
22.28364225
 20
6.38142615
 42
1.0
 97
        0
 72
     4
 94
        3
 73
     1
 74
     0
 95
        8
 96
        4
 40
0.1052631578947368
 40
0.1052631578947368
 40
0.1052631578947368
 40
0.1052631578947368
 40
0.1578947368421053
 40
0.1578947368421053
 40
0.1578947368421053
 40
0.1578947368421053
 10
22.28364225
 20
6.38142615
 42
1.0
 10
21.7110564
 20
5.7614058
 42
1.0
 10
21.3610698
 20
4.845462749999998
 42
1.0
 10
21.3618699
 20
3.668515649999998
 42
1.0
 97
        0
 72
     4
 94
        3
 73
     1
 74
     0
 95
        8
 96
        4
 40
0.1578947368421053
 40
0.1578947368421053
 40
0.1578947368421053
 40
0.1578947368421053
 40
0.2105263157894737
 40
0.2105263157894737
 40
0.2105263157894737
 40
0.2105263157894737
 10
21.3618699
 20
3.668515649999998
 42
1.0
 10
21.3610698
 20
2.491968600000001
 42
1.0
 10
21.7110564
 20
1.576825650000002
 42
1.0
 10
22.28364225
 20
0.9562338000000031
 42
1.0
 97
        0
 72
     4
 94
        3
 73
     1
 74
     0
 95
        8
 96
        4
 40
0.2105263157894737
 40
0.2105263157894737
 40
0.2105263157894737
 40
0.2105263157894737
 40
0.2631578947368421
 40
0.2631578947368421
 40
0.2631578947368421
 40
0.2631578947368421
 10
22.28364225
 20
0.9562338000000031
 42
1.0
 10
22.8562281
 20
0.336784950000002
 42
1.0
 10
23.64998445
 20
0.0151447499999971
 42
1.0
 10
24.51992175
 20
0.0151447499999971
 42
1.0
 97
        0
 72
     4
 94
        3
 73
     1
 74
     0
 95
        8
 96
        4
 40
0.2631578947368421
 40
0.2631578947368421
 40
0.2631578947368421
 40
0.2631578947368421
 40
0.3157894736842105
 40
0.3157894736842105
 40
0.3157894736842105
 40
0.3157894736842105
 10
24.51992175
 20
0.0151447499999971
 42
1.0
 10
24.54312465
 20
0.0151447499999971
 42
1.0
 10
24.56004105
 20
0.0169164000000013
 42
1.0
 10
24.57352845
 20
0.0169164000000013
 42
1.0
 97
        0
 72
     4
 94
        3
 73
     1
 74
     0
 95
        8
 96
        4
 40
0.3157894736842105
 40
0.3157894736842105
 40
0.3157894736842105
 40
0.3157894736842105
 40
0.3684210526315789
 40
0.3684210526315789
 40
0.3684210526315789
 40
0.3684210526315789
 10
24.57352845
 20
0.0169164000000013
 42
1.0
 10
24.5876445
 20
0.0169164000000013
 42
1.0
 10
24.6066183
 20
0.0151447499999971
 42
1.0
 10
24.6290211
 20
0.0151447499999971
 42
1.0
 97
        0
 72
     1
 10
24.6290211
 20
0.0151447499999971
 11
24.63627915
 21
0.0151447499999971
 72
     4
 94
        3
 73
     1
 74
     0
 95
        8
 96
        4
 40
0.4210526315789473
 40
0.4210526315789473
 40
0.4210526315789473
 40
0.4210526315789473
 40
0.4736842105263158
 40
0.4736842105263158
 40
0.4736842105263158
 40
0.4736842105263158
 10
24.63627915
 20
0.0151447499999971
 42
1.0
 10
25.9819902
 20
0.0151447499999971
 42
1.0
 10
27.1374489
 20
0.7963852499999952
 42
1.0
 10
27.58259024999999
 20
2.241537299999998
 42
1.0
 97
        0
 72
     1
 10
27.58259024999999
 20
2.241537299999997
 11
27.61848045
 21
2.357266049999996
 72
     1
 10
27.61848045
 20
2.357266049999996
 11
26.48119545
 21
2.357266049999997
 72
     1
 10
26.48119545
 20
2.357266049999997
 11
26.46045
 21
2.297830050000006
 72
     4
 94
        3
 73
     1
 74
     0
 95
        8
 96
        4
 40
0.631578947368421
 40
0.631578947368421
 40
0.631578947368421
 40
0.631578947368421
 40
0.6842105263157895
 40
0.6842105263157895
 40
0.6842105263157895
 40
0.6842105263157895
 10
26.46045
 20
2.297830050000006
 42
1.0
 10
26.17658595
 20
1.501216200000007
 42
1.0
 10
25.59331305
 20
1.004296949999997
 42
1.0
 10
24.593931
 20
0.987323400000001
 42
1.0
 97
        0
 97
        0
 92
        0
 93
        3
 72
     4
 94
        3
 73
     1
 74
     0
 95
        8
 96
        4
 40
0.0
 40
0.0
 40
0.0
 40
0.0
 40
0.25
 40
0.25
 40
0.25
 40
0.25
 10
22.5179001
 20
4.494618900000002
 42
1.0
 10
22.68969299999999
 20
5.544807299999999
 42
1.0
 10
23.40498239999999
 20
6.348907800000005
 42
1.0
 10
24.51992175
 20
6.350107949999998
 42
1.0
 97
        0
 72
     4
 94
        3
 73
     1
 74
     0
 95
        8
 96
        4
 40
0.25
 40
0.25
 40
0.25
 40
0.25
 40
0.5
 40
0.5
 40
0.5
 40
0.5
 10
24.51992175
 20
6.350107949999998
 42
1.0
 10
25.8291711
 20
6.347707649999999
 42
1.0
 10
26.31488894999999
 20
5.435765100000003
 42
1.0
 10
26.5169142
 20
4.494618900000002
 42
1.0
 97
        0
 72
     1
 10
26.5169142
 20
4.494618900000002
 11
22.5179001
 21
4.494618900000002
 97
        0
 75
     0
 76
     1
 98
        1
 10
0.0
 20
0.0
  0
HATCH
  5
131
330
79
100
AcDbEntity
  8
0
  6
Continuous
 62
     7
100
AcDbHatch
 10
0.0
 20
0.0
 30
0.0
210
0.0
220
0.0
230
1.0
  2
SOLID
 70
     1
 71
     0
 91
        2
 92
        0
 93
       14
 72
     1
 10
58.23499275
 20
0.0002285999999983
 11
58.23636435
 21
0.0002285999999983
 72
     4
 94
        3
 73
     1
 74
     0
 95
        8
 96
        4
 40
0.5333333333333333
 40
0.5333333333333333
 40
0.5333333333333333
 40
0.5333333333333333
 40
0.6
 40
0.6
 40
0.6
 40
0.6
 10
58.23636435
 20
0.0002285999999983
 42
1.0
 10
59.0718402
 20
0.0002285999999983
 42
1.0
 10
59.83439265000001
 20
0.3000374999999971
 42
1.0
 10
60.40109204999999
 20
0.8732520000000036
 42
1.0
 97
        0
 72
     1
 10
60.40109204999998
 20
0.873252000000004
 11
60.53579459999998
 21
0.170421300000001
 72
     1
 10
60.53579459999998
 20
0.170421300000001
 11
61.39321605
 21
0.170421300000001
 72
     1
 10
61.39321605
 20
0.170421300000001
 11
61.39321605
 21
6.2507241
 72
     1
 10
61.39321605
 20
6.2507241
 11
61.4057319
 21
6.2507241
 72
     1
 10
61.4057319
 20
6.2507241
 11
61.4057319
 21
7.138263600000003
 72
     1
 10
61.4057319
 20
7.138263600000003
 11
60.34302765
 21
7.138263600000003
 72
     1
 10
60.34302765
 20
7.138263600000003
 11
60.34302765
 21
6.490925550000005
 72
     4
 94
        3
 73
     1
 74
     0
 95
        8
 96
        4
 40
0.1333333333333333
 40
0.1333333333333333
 40
0.1333333333333333
 40
0.1333333333333333
 40
0.2
 40
0.2
 40
0.2
 40
0.2
 10
60.34302765
 20
6.490925550000005
 42
1.0
 10
59.78272904999999
 20
7.0276212
 42
1.0
 10
59.0430366
 20
7.308399150000005
 42
1.0
 10
58.23499275
 20
7.307599050000001
 42
1.0
 97
        0
 72
     4
 94
        3
 73
     1
 74
     0
 95
        8
 96
        4
 40
0.2
 40
0.2
 40
0.2
 40
0.2
 40
0.2666666666666667
 40
0.2666666666666667
 40
0.2666666666666667
 40
0.2666666666666667
 10
58.23499275
 20
7.307599050000001
 42
1.0
 10
57.36459825
 20
7.308399150000005
 42
1.0
 10
56.57044185000001
 20
6.987844800000003
 42
1.0
 10
55.99768455
 20
6.366452850000001
 42
1.0
 97
        0
 72
     4
 94
        3
 73
     1
 74
     0
 95
        8
 96
        4
 40
0.2666666666666667
 40
0.2666666666666667
 40
0.2666666666666667
 40
0.2666666666666667
 40
0.3333333333333333
 40
0.3333333333333333
 40
0.3333333333333333
 40
0.3333333333333333
 10
55.99768455
 20
6.366452850000001
 42
1.0
 10
55.42572735
 20
5.746661100000004
 42
1.0
 10
55.0759122
 20
4.830775199999997
 42
1.0
 10
55.0759122
 20
3.654571049999994
 42
1.0
 97
        0
 72
     4
 94
        3
 73
     1
 74
     0
 95
        8
 96
        4
 40
0.3333333333333333
 40
0.3333333333333333
 40
0.3333333333333333
 40
0.3333333333333333
 40
0.4
 40
0.4
 40
0.4
 40
0.4
 10
55.0759122
 20
3.654571049999994
 42
1.0
 10
55.0759122
 20
2.477223899999993
 42
1.0
 10
55.42572735
 20
1.561966649999992
 42
1.0
 10
55.99768455
 20
0.9413747999999932
 42
1.0
 97
        0
 72
     4
 94
        3
 73
     1
 74
     0
 95
        8
 96
        4
 40
0.4
 40
0.4
 40
0.4
 40
0.4
 40
0.4666666666666667
 40
0.4666666666666667
 40
0.4666666666666667
 40
0.4666666666666667
 10
55.99768455
 20
0.9413747999999932
 42
1.0
 10
56.57044185000001
 20
0.3220402500000004
 42
1.0
 10
57.36459825
 20
0.0002285999999983
 42
1.0
 10
58.23499275
 20
0.0002285999999983
 42
1.0
 97
        0
 97
        0
 92
        0
 93
        5
 72
     4
 94
        3
 73
     1
 74
     0
 95
        8
 96
        4
 40
0.5
 40
0.5
 40
0.5
 40
0.5
 40
0.6666666666666666
 40
0.6666666666666666
 40
0.6666666666666666
 40
0.6666666666666666
 10
58.23499275
 20
6.335363250000003
 42
1.0
 10
59.43697154999999
 20
6.333020099999999
 42
1.0
 10
60.35874390000001
 20
5.362727400000002
 42
1.0
 10
60.3650304
 20
3.654571049999994
 42
1.0
 97
        0
 72
     4
 94
        3
 73
     1
 74
     0
 95
        8
 96
        4
 40
0.6666666666666666
 40
0.6666666666666666
 40
0.6666666666666666
 40
0.6666666666666666
 40
1.0
 40
1.0
 40
1.0
 40
1.0
 10
60.3650304
 20
3.654571049999994
 42
1.0
 10
60.35874390000001
 20
1.932470100000007
 42
1.0
 10
59.4376002
 20
0.9760076999999993
 42
1.0
 10
58.23499275
 20
0.9726358500000004
 42
1.0
 97
        0
 72
     4
 94
        3
 73
     1
 74
     0
 95
        8
 96
        4
 40
0.0
 40
0.0
 40
0.0
 40
0.0
 40
0.1666666666666667
 40
0.1666666666666667
 40
0.1666666666666667
 40
0.1666666666666667
 10
58.23499275
 20
0.9726358500000004
 42
1.0
 10
57.031128
 20
0.9760076999999993
 42
1.0
 10
56.11015575
 20
1.932470100000007
 42
1.0
 10
56.1049551
 20
3.654571049999994
 42
1.0
 97
        0
 72
     1
 10
56.1049551
 20
3.654571049999994
 11
56.10455504999999
 21
3.654571049999994
 72
     4
 94
        3
 73
     1
 74
     0
 95
        8
 96
        4
 40
0.3333333333333333
 40
0.3333333333333333
 40
0.3333333333333333
 40
0.3333333333333333
 40
0.5
 40
0.5
 40
0.5
 40
0.5
 10
56.10455504999999
 20
3.654571049999994
 42
1.0
 10
56.11015575
 20
5.362727400000002
 42
1.0
 10
57.03278535
 20
6.333020099999999
 42
1.0
 10
58.23499275
 20
6.335363250000003
 42
1.0
 97
        0
 97
        0
 75
     0
 76
     1
 98
        1
 10
0.0
 20
0.0
  0
HATCH
  5
132
330
79
100
AcDbEntity
  8
0
  6
Continuous
 62
     7
100
AcDbHatch
 10
0.0
 20
0.0
 30
0.0
210
0.0
220
0.0
230
1.0
  2
SOLID
 70
     1
 71
     0
 91
        1
 92
        0
 93
       18
 72
     4
 94
        3
 73
     1
 74
     0
 95
        8
 96
        4
 40
0.7368421052631579
 40
0.7368421052631579
 40
0.7368421052631579
 40
0.7368421052631579
 40
0.7894736842105263
 40
0.7894736842105263
 40
0.7894736842105263
 40
0.7894736842105263
 10
64.83216014999999
 20
1.028242799999995
 42
1.0
 10
64.61841915000001
 20
1.034129249999995
 42
1.0
 10
64.5480675
 20
1.103852250000004
 42
1.0
 10
64.48880295000001
 20
1.246384349999996
 42
1.0
 97
        0
 72
     4
 94
        3
 73
     1
 74
     0
 95
        8
 96
        4
 40
0.7894736842105263
 40
0.7894736842105263
 40
0.7894736842105263
 40
0.7894736842105263
 40
0.8421052631578947
 40
0.8421052631578947
 40
0.8421052631578947
 40
0.8421052631578947
 10
64.48880295000001
 20
1.246384349999996
 42
1.0
 10
64.43273880000001
 20
1.392574049999999
 42
1.0
 10
64.42628085
 20
1.62037395
 42
1.0
 10
64.4266809
 20
1.873605600000003
 42
1.0
 97
        0
 72
     1
 10
64.4266809
 20
1.873605600000003
 11
64.4266809
 21
6.265411650000002
 72
     1
 10
64.4266809
 20
6.265411650000002
 11
65.5528788
 21
6.265411650000002
 72
     1
 10
65.5528788
 20
6.265411650000002
 11
65.5528788
 21
7.153008299999999
 72
     1
 10
65.5528788
 20
7.153008299999999
 11
64.4266809
 21
7.153008299999999
 72
     1
 10
64.4266809
 20
7.153008299999999
 11
64.4266809
 21
8.996667300000002
 72
     1
 10
64.4266809
 20
8.996667300000002
 11
63.39826665
 21
8.996667300000002
 72
     1
 10
63.39826665
 20
8.996667300000002
 11
63.39826665
 21
7.153008299999999
 72
     1
 10
63.39826665
 20
7.153008299999999
 11
62.57124899999999
 21
7.153008299999999
 72
     1
 10
62.57124899999999
 20
7.153008299999999
 11
62.57124899999999
 21
6.265411650000002
 72
     1
 10
62.57124899999999
 20
6.265411650000002
 11
63.39826665
 21
6.265411650000002
 72
     1
 10
63.39826665
 20
6.265411650000002
 11
63.39826665
 21
1.307877750000003
 72
     4
 94
        3
 73
     1
 74
     0
 95
        8
 96
        4
 40
0.4736842105263158
 40
0.4736842105263158
 40
0.4736842105263158
 40
0.4736842105263158
 40
0.5263157894736842
 40
0.5263157894736842
 40
0.5263157894736842
 40
0.5263157894736842
 10
63.39826665
 20
1.307877750000003
 42
1.0
 10
63.39603779999999
 20
0.8455913999999997
 42
1.0
 10
63.54565649999999
 20
0.5416105499999984
 42
1.0
 10
63.7871724
 20
0.3688461000000004
 42
1.0
 97
        0
 72
     4
 94
        3
 73
     1
 74
     0
 95
        8
 96
        4
 40
0.5263157894736842
 40
0.5263157894736842
 40
0.5263157894736842
 40
0.5263157894736842
 40
0.5789473684210527
 40
0.5789473684210527
 40
0.5789473684210527
 40
0.5789473684210527
 10
63.7871724
 20
0.3688461000000004
 42
1.0
 10
64.02771675
 20
0.1953958500000013
 42
1.0
 10
64.33558380000001
 20
0.1532762999999951
 42
1.0
 10
64.6478514
 20
0.1532762999999951
 42
1.0
 97
        0
 72
     4
 94
        3
 73
     1
 74
     0
 95
        8
 96
        4
 40
0.5789473684210527
 40
0.5789473684210527
 40
0.5789473684210527
 40
0.5789473684210527
 40
0.631578947368421
 40
0.631578947368421
 40
0.631578947368421
 40
0.631578947368421
 10
64.6478514
 20
0.1532762999999951
 42
1.0
 10
64.704087
 20
0.1532762999999951
 42
1.0
 10
65.5285329
 20
0.1524761999999978
 42
1.0
 10
65.5528788
 20
0.1524761999999978
 42
1.0
 97
        0
 72
     1
 10
65.5528788
 20
0.1524761999999978
 11
65.5528788
 21
1.028242799999995
 72
     1
 10
65.5528788
 20
1.028242799999995
 11
64.83216014999999
 21
1.028242799999995
 97
        0
 75
     0
 76
     1
 98
        1
 10
0.0
 20
0.0
  0
HATCH
  5
133
330
79
100
AcDbEntity
  8
0
  6
Continuous
 62
     7
100
AcDbHatch
 10
0.0
 20
0.0
 30
0.0
210
0.0
220
0.0
230
1.0
  2
SOLID
 70
     1
 71
     0
 91
        1
 92
        0
 93
       10
 72
     1
 10
71.91395955
 20
1.083906899999998
 11
68.16137625
 21
1.083906899999998
 72
     1
 10
68.16137625
 20
1.083906899999998
 11
71.8583526
 21
6.579908099999995
 72
     1
 10
71.8583526
 20
6.579908099999995
 11
71.8583526
 21
7.164266850000006
 72
     1
 10
71.8583526
 20
7.164266850000006
 11
66.78577575
 21
7.164266850000006
 72
     1
 10
66.78577575
 20
7.164266850000006
 11
66.78577575
 21
6.276841650000006
 72
     1
 10
66.78577575
 20
6.276841650000006
 11
70.4107431
 21
6.277470299999999
 72
     1
 10
70.4107431
 20
6.277470299999999
 11
66.78577575
 21
0.8967977999999999
 72
     1
 10
66.78577575
 20
0.8967978000000002
 11
66.78577575
 21
0.1964245500000031
 72
     1
 10
66.78577575
 20
0.1964245500000031
 11
71.91395955
 21
0.1964245500000031
 72
     1
 10
71.91395955
 20
0.1964245500000031
 11
71.91395955
 21
1.083906899999998
 97
        0
 75
     0
 76
     1
 98
        1
 10
0.0
 20
0.0
  0
HATCH
  5
134
330
79
100
AcDbEntity
  8
0
  6
Continuous
 62
     7
100
AcDbHatch
 10
0.0
 20
0.0
 30
0.0
210
0.0
220
0.0
230
1.0
  2
SOLID
 70
     1
 71
     0
 91
        1
 92
        0
 93
       13
 72
     1
 10
48.4428546
 20
8.996495850000002
 11
48.4428546
 21
0.1850516999999936
 72
     1
 10
48.4428546
 20
0.185051699999994
 11
49.4710974
 21
0.185051699999994
 72
     1
 10
49.4710974
 20
0.185051699999994
 11
49.4710974
 21
4.235100749999997
 72
     4
 94
        3
 73
     1
 74
     0
 95
        8
 96
        4
 40
0.4285714285714285
 40
0.4285714285714285
 40
0.4285714285714285
 40
0.4285714285714285
 40
0.5
 40
0.5
 40
0.5
 40
0.5
 10
49.4710974
 20
4.235100749999997
 42
1.0
 10
49.47812684999999
 20
5.722429499999994
 42
1.0
 10
50.34183480000001
 20
6.343021349999994
 42
1.0
 10
51.31864259999999
 20
6.350107949999998
 42
1.0
 97
        0
 72
     4
 94
        3
 73
     1
 74
     0
 95
        8
 96
        4
 40
0.5
 40
0.5
 40
0.5
 40
0.5
 40
0.5714285714285714
 40
0.5714285714285714
 40
0.5714285714285714
 40
0.5714285714285714
 10
51.31864259999999
 20
6.350107949999998
 42
1.0
 10
52.3648305
 20
6.332791499999995
 42
1.0
 10
52.86483584999999
 20
5.961830849999996
 42
1.0
 10
52.88175224999999
 20
4.616691299999996
 42
1.0
 97
        0
 72
     1
 10
52.88175224999999
 20
4.616691299999996
 11
52.88175224999999
 21
0.1850516999999936
 72
     1
 10
52.88175224999999
 20
0.185051699999994
 11
53.91182385
 21
0.185051699999994
 72
     1
 10
53.91182385
 20
0.185051699999994
 11
53.91182385
 21
4.871065949999997
 72
     4
 94
        3
 73
     1
 74
     0
 95
        8
 96
        4
 40
0.7857142857142857
 40
0.7857142857142857
 40
0.7857142857142857
 40
0.7857142857142857
 40
0.8571428571428571
 40
0.8571428571428571
 40
0.8571428571428571
 40
0.8571428571428571
 10
53.91182385
 20
4.871065949999997
 42
1.0
 10
53.91182385
 20
5.584983749999997
 42
1.0
 10
53.72734364999999
 20
6.201232199999997
 42
1.0
 10
53.31803535
 20
6.637801049999998
 42
1.0
 97
        0
 72
     4
 94
        3
 73
     1
 74
     0
 95
        8
 96
        4
 40
0.8571428571428571
 40
0.8571428571428571
 40
0.8571428571428571
 40
0.8571428571428571
 40
1.0
 40
1.0
 40
1.0
 40
1.0
 10
53.31803535
 20
6.637801049999998
 42
1.0
 10
52.90855560000001
 20
7.075284300000004
 42
1.0
 10
52.281963
 20
7.322915249999995
 42
1.0
 10
51.431571
 20
7.322915249999995
 42
1.0
 97
        0
 72
     4
 94
        3
 73
     1
 74
     0
 95
        8
 96
        4
 40
0.0
 40
0.0
 40
0.0
 40
0.0
 40
0.0714285714285714
 40
0.0714285714285714
 40
0.0714285714285714
 40
0.0714285714285714
 10
51.431571
 20
7.322915249999995
 42
1.0
 10
50.69907945
 20
7.3241154
 42
1.0
 10
49.93681274999999
 20
7.05911085
 42
1.0
 10
49.4710974
 20
6.348907800000005
 42
1.0
 97
        0
 72
     1
 10
49.4710974
 20
6.348907800000005
 11
49.4710974
 21
8.996495850000002
 72
     1
 10
49.4710974
 20
8.996495850000002
 11
48.4428546
 21
8.996495850000002
 97
        0
 75
     0
 76
     1
 98
        1
 10
0.0
 20
0.0
  0
HATCH
  5
135
330
79
100
AcDbEntity
  8
0
  6
Continuous
 62
     7
100
AcDbHatch
 10
0.0
 20
0.0
 30
0.0
210
0.0
220
0.0
230
1.0
  2
SOLID
 70
     1
 71
     0
 91
        2
 92
        0
 93
       12
 72
     4
 94
        3
 73
     1
 74
     0
 95
        8
 96
        4
 40
0.5384615384615384
 40
0.5384615384615384
 40
0.5384615384615384
 40
0.5384615384615384
 40
0.6153846153846154
 40
0.6153846153846154
 40
0.6153846153846154
 40
0.6153846153846154
 10
20.38043295
 20
2.636043749999993
 42
1.0
 10
20.4444981
 20
2.976600599999996
 42
1.0
 10
20.4671295
 20
3.360191399999991
 42
1.0
 10
20.4671295
 20
3.555472949999997
 42
1.0
 97
        0
 72
     1
 10
20.4671295
 20
3.555472949999997
 11
20.46912974999999
 21
3.555472949999997
 72
     1
 10
20.46912974999999
 20
3.555472949999997
 11
20.46912974999999
 21
8.996495850000002
 72
     1
 10
20.46912974999999
 20
8.996495850000002
 11
19.44694484999999
 21
8.996495850000002
 72
     1
 10
19.44694484999999
 20
8.996495850000002
 11
19.44694484999999
 21
6.373596599999999
 72
     4
 94
        3
 73
     1
 74
     0
 95
        8
 96
        4
 40
0.0
 40
0.0
 40
0.0
 40
0.0
 40
0.0769230769230769
 40
0.0769230769230769
 40
0.0769230769230769
 40
0.0769230769230769
 10
19.44694484999999
 20
6.373596599999999
 42
1.0
 10
18.94933979999999
 20
6.979215149999998
 42
1.0
 10
18.13260914999999
 20
7.322915249999995
 42
1.0
 10
17.31067785
 20
7.322915249999995
 42
1.0
 97
        0
 72
     4
 94
        3
 73
     1
 74
     0
 95
        8
 96
        4
 40
0.0769230769230769
 40
0.0769230769230769
 40
0.0769230769230769
 40
0.0769230769230769
 40
0.1538461538461539
 40
0.1538461538461539
 40
0.1538461538461539
 40
0.1538461538461539
 10
17.31067785
 20
7.322915249999995
 42
1.0
 10
16.4401119
 20
7.322915249999995
 42
1.0
 10
15.64635554999999
 20
7.002818100000002
 42
1.0
 10
15.07376969999999
 20
6.38142615
 42
1.0
 97
        0
 72
     4
 94
        3
 73
     1
 74
     0
 95
        8
 96
        4
 40
0.1538461538461539
 40
0.1538461538461539
 40
0.1538461538461539
 40
0.1538461538461539
 40
0.2307692307692308
 40
0.2307692307692308
 40
0.2307692307692308
 40
0.2307692307692308
 10
15.07376969999999
 20
6.38142615
 42
1.0
 10
14.50061234999999
 20
5.7614058
 42
1.0
 10
14.1515973
 20
4.845462749999998
 42
1.0
 10
14.1515973
 20
3.669258600000007
 42
1.0
 97
        0
 72
     4
 94
        3
 73
     1
 74
     0
 95
        8
 96
        4
 40
0.2307692307692308
 40
0.2307692307692308
 40
0.2307692307692308
 40
0.2307692307692308
 40
0.3076923076923077
 40
0.3076923076923077
 40
0.3076923076923077
 40
0.3076923076923077
 10
14.1515973
 20
3.669258600000007
 42
1.0
 10
14.1515973
 20
2.491968600000001
 42
1.0
 10
14.50061234999999
 20
1.576825650000002
 42
1.0
 10
15.07376969999999
 20
0.9562338000000031
 42
1.0
 97
        0
 72
     4
 94
        3
 73
     1
 74
     0
 95
        8
 96
        4
 40
0.3076923076923077
 40
0.3076923076923077
 40
0.3076923076923077
 40
0.3076923076923077
 40
0.3846153846153846
 40
0.3846153846153846
 40
0.3846153846153846
 40
0.3846153846153846
 10
15.07376969999999
 20
0.9562338000000031
 42
1.0
 10
15.64635554999999
 20
0.336784950000002
 42
1.0
 10
16.4401119
 20
0.0151447499999971
 42
1.0
 10
17.31067785
 20
0.0151447499999971
 42
1.0
 97
        0
 72
     1
 10
17.31067785
 20
0.0151447499999971
 11
17.32176495
 21
0.0151447499999971
 72
     4
 94
        3
 73
     1
 74
     0
 95
        8
 96
        4
 40
0.4615384615384616
 40
0.4615384615384616
 40
0.4615384615384616
 40
0.4615384615384616
 40
0.5384615384615384
 40
0.5384615384615384
 40
0.5384615384615384
 40
0.5384615384615384
 10
17.32176495
 20
0.0151447499999971
 42
1.0
 10
18.7925202
 20
0.0151447499999971
 42
1.0
 10
20.05342065
 20
0.8963977499999984
 42
1.0
 10
20.38043295
 20
2.636043749999993
 42
1.0
 97
        0
 97
        0
 92
        0
 93
        4
 72
     4
 94
        3
 73
     1
 74
     0
 95
        8
 96
        4
 40
0.4
 40
0.4
 40
0.4
 40
0.4
 40
0.6
 40
0.6
 40
0.6
 40
0.6
 10
17.31067785
 20
6.350107949999998
 42
1.0
 10
18.5130567
 20
6.347707649999999
 42
1.0
 10
19.44031545
 20
5.483371050000001
 42
1.0
 10
19.44031545
 20
3.669258600000007
 42
1.0
 97
        0
 72
     4
 94
        3
 73
     1
 74
     0
 95
        8
 96
        4
 40
0.6
 40
0.6
 40
0.6
 40
0.6
 40
1.0
 40
1.0
 40
1.0
 40
1.0
 10
19.44031545
 20
3.669258600000007
 42
1.0
 10
19.45100249999999
 20
1.794967200000003
 42
1.0
 10
18.51368535
 20
0.9907523999999945
 42
1.0
 10
17.31067785
 20
0.987323400000001
 42
1.0
 97
        0
 72
     4
 94
        3
 73
     1
 74
     0
 95
        8
 96
        4
 40
0.0
 40
0.0
 40
0.0
 40
0.0
 40
0.2
 40
0.2
 40
0.2
 40
0.2
 10
17.31067785
 20
0.987323400000001
 42
1.0
 10
16.10664165
 20
0.9907523999999945
 42
1.0
 10
15.18629804999999
 20
1.947386249999999
 42
1.0
 10
15.1804116
 20
3.669258600000007
 42
1.0
 97
        0
 72
     4
 94
        3
 73
     1
 74
     0
 95
        8
 96
        4
 40
0.2
 40
0.2
 40
0.2
 40
0.2
 40
0.4
 40
0.4
 40
0.4
 40
0.4
 10
15.1804116
 20
3.669258600000007
 42
1.0
 10
15.18629804999999
 20
5.377472099999998
 42
1.0
 10
16.10744175
 20
6.347707649999999
 42
1.0
 10
17.31067785
 20
6.350107949999998
 42
1.0
 97
        0
 97
        0
 75
     0
 76
     1
 98
        1
 10
0.0
 20
0.0
  0
HATCH
  5
136
330
79
100
AcDbEntity
  8
0
  6
Continuous
 62
     7
100
AcDbHatch
 10
0.0
 20
0.0
 30
0.0
210
0.0
220
0.0
230
1.0
  2
SOLID
 70
     1
 71
     0
 91
        1
 92
        0
 93
       13
 72
     4
 94
        3
 73
     1
 74
     0
 95
        8
 96
        4
 40
0.8571428571428571
 40
0.8571428571428571
 40
0.8571428571428571
 40
0.8571428571428571
 40
1.0
 40
1.0
 40
1.0
 40
1.0
 10
33.7193001
 20
6.637801049999998
 42
1.0
 10
33.310449
 20
7.076027250000001
 42
1.0
 10
32.6828277
 20
7.323372449999993
 42
1.0
 10
31.83260715
 20
7.322172299999999
 42
1.0
 97
        0
 72
     4
 94
        3
 73
     1
 74
     0
 95
        8
 96
        4
 40
0.0
 40
0.0
 40
0.0
 40
0.0
 40
0.0714285714285714
 40
0.0714285714285714
 40
0.0714285714285714
 40
0.0714285714285714
 10
31.83260715
 20
7.322172299999999
 42
1.0
 10
31.10017275
 20
7.3241154
 42
1.0
 10
30.33904905
 20
7.059910950000003
 42
1.0
 10
29.872305
 20
6.36016635
 42
1.0
 97
        0
 72
     1
 10
29.872305
 20
6.36016635
 11
29.872305
 21
7.152836850000002
 72
     1
 10
29.872305
 20
7.152836850000002
 11
28.84389075
 21
7.152836850000002
 72
     1
 10
28.84389075
 20
7.152836850000002
 11
28.84389075
 21
0.1850516999999936
 72
     1
 10
28.84389075
 20
0.185051699999994
 11
29.872305
 21
0.185051699999994
 72
     1
 10
29.872305
 20
0.185051699999994
 11
29.872305
 21
4.2343578
 72
     4
 94
        3
 73
     1
 74
     0
 95
        8
 96
        4
 40
0.4285714285714285
 40
0.4285714285714285
 40
0.4285714285714285
 40
0.4285714285714285
 40
0.5
 40
0.5
 40
0.5
 40
0.5
 10
29.872305
 20
4.234357800000001
 42
1.0
 10
29.87956304999999
 20
5.722429499999994
 42
1.0
 10
30.74309955
 20
6.343021349999994
 42
1.0
 10
31.71967874999999
 20
6.350107949999998
 42
1.0
 97
        0
 72
     4
 94
        3
 73
     1
 74
     0
 95
        8
 96
        4
 40
0.5
 40
0.5
 40
0.5
 40
0.5
 40
0.5714285714285714
 40
0.5714285714285714
 40
0.5714285714285714
 40
0.5714285714285714
 10
31.71967874999999
 20
6.350107949999998
 42
1.0
 10
32.7662667
 20
6.333191549999997
 42
1.0
 10
33.2666721
 20
5.961830849999996
 42
1.0
 10
33.28398855
 20
4.616291249999994
 42
1.0
 97
        0
 72
     1
 10
33.28398855
 20
4.616291249999994
 11
33.28398855
 21
0.1850516999999936
 72
     1
 10
33.28398855
 20
0.185051699999994
 11
34.3126314
 21
0.185051699999994
 72
     1
 10
34.3126314
 20
0.185051699999994
 11
34.3126314
 21
4.871065949999997
 72
     4
 94
        3
 73
     1
 74
     0
 95
        8
 96
        4
 40
0.7857142857142857
 40
0.7857142857142857
 40
0.7857142857142857
 40
0.7857142857142857
 40
0.8571428571428571
 40
0.8571428571428571
 40
0.8571428571428571
 40
0.8571428571428571
 10
34.3126314
 20
4.871065949999997
 42
1.0
 10
34.3126314
 20
5.584983749999997
 42
1.0
 10
34.1283798
 20
6.201232199999997
 42
1.0
 10
33.7193001
 20
6.637801049999998
 42
1.0
 97
        0
 97
        0
 75
     0
 76
     1
 98
        1
 10
0.0
 20
0.0
  0
HATCH
  5
137
330
79
100
AcDbEntity
  8
0
  6
Continuous
 62
     7
100
AcDbHatch
 10
0.0
 20
0.0
 30
0.0
210
0.0
220
0.0
230
1.0
  2
SOLID
 70
     1
 71
     0
 91
        1
 92
        0
 93
       24
 72
     4
 94
        3
 73
     1
 74
     0
 95
        8
 96
        4
 40
0.92
 40
0.92
 40
0.92
 40
0.92
 40
1.0
 40
1.0
 40
1.0
 40
1.0
 10
40.5519255
 20
2.149640099999994
 42
1.0
 10
40.55558309999999
 20
3.574389599999995
 42
1.0
 10
39.4761339
 20
3.963409649999992
 42
1.0
 10
38.47332285
 20
4.187094749999998
 42
1.0
 97
        0
 72
     4
 94
        3
 73
     1
 74
     0
 95
        8
 96
        4
 40
0.0
 40
0.0
 40
0.0
 40
0.0
 40
0.04
 40
0.04
 40
0.04
 40
0.04
 10
38.47332285
 20
4.187094749999998
 42
1.0
 10
37.969317
 20
4.302823499999997
 42
1.0
 10
37.46931165
 20
4.389120000000001
 42
1.0
 10
37.10943809999999
 20
4.548968549999996
 42
1.0
 97
        0
 72
     4
 94
        3
 73
     1
 74
     0
 95
        8
 96
        4
 40
0.04
 40
0.04
 40
0.04
 40
0.04
 40
0.08
 40
0.08
 40
0.08
 40
0.08
 10
37.10943809999999
 20
4.548968549999996
 42
1.0
 10
36.7473357
 20
4.713160500000003
 42
1.0
 10
36.53902395
 20
4.917928949999999
 42
1.0
 10
36.53559494999999
 20
5.317236000000003
 42
1.0
 97
        0
 72
     4
 94
        3
 73
     1
 74
     0
 95
        8
 96
        4
 40
0.08
 40
0.08
 40
0.08
 40
0.08
 40
0.12
 40
0.12
 40
0.12
 40
0.12
 10
36.53559494999999
 20
5.317236000000003
 42
1.0
 10
36.549711
 20
5.934684599999996
 42
1.0
 10
36.77573924999999
 20
6.355594349999995
 42
1.0
 10
37.90010835
 20
6.409772550000005
 42
1.0
 97
        0
 72
     4
 94
        3
 73
     1
 74
     0
 95
        8
 96
        4
 40
0.12
 40
0.12
 40
0.12
 40
0.12
 40
0.16
 40
0.16
 40
0.16
 40
0.16
 10
37.90010835
 20
6.409772550000005
 42
1.0
 10
38.55961935
 20
6.404686199999998
 42
1.0
 10
38.99750264999999
 20
6.126822899999994
 42
1.0
 10
39.27593744999999
 20
5.65939305
 42
1.0
 97
        0
 72
     1
 10
39.27593744999999
 20
5.65939305
 11
39.3021693
 21
5.615330399999999
 72
     1
 10
39.3021693
 20
5.615330399999999
 11
40.32475425
 21
5.615330399999999
 72
     1
 10
40.32475425
 20
5.615330399999999
 11
40.26886155
 21
5.741288999999997
 72
     4
 94
        3
 73
     1
 74
     0
 95
        8
 96
        4
 40
0.28
 40
0.28
 40
0.28
 40
0.28
 40
0.32
 40
0.32
 40
0.32
 40
0.32
 10
40.26886155
 20
5.741288999999997
 42
1.0
 10
39.82011975
 20
6.7586733
 42
1.0
 10
38.944296
 20
7.305198750000003
 42
1.0
 10
37.94651414999999
 20
7.303655700000004
 42
1.0
 97
        0
 72
     4
 94
        3
 73
     1
 74
     0
 95
        8
 96
        4
 40
0.32
 40
0.32
 40
0.32
 40
0.32
 40
0.36
 40
0.36
 40
0.36
 40
0.36
 10
37.94651414999999
 20
7.303655700000004
 42
1.0
 10
37.92108239999999
 20
7.303655700000004
 42
1.0
 10
37.90010835
 20
7.301712600000002
 42
1.0
 10
37.88176319999999
 20
7.301712600000002
 42
1.0
 97
        0
 72
     1
 10
37.88176319999999
 20
7.301712600000002
 11
37.79369504999999
 21
7.300912499999998
 72
     1
 10
37.79369504999999
 20
7.300912499999998
 11
37.79369504999999
 21
7.298912250000003
 72
     4
 94
        3
 73
     1
 74
     0
 95
        8
 96
        4
 40
0.44
 40
0.44
 40
0.44
 40
0.44
 40
0.48
 40
0.48
 40
0.48
 40
0.48
 10
37.79369504999999
 20
7.298912250000003
 42
1.0
 10
36.32253974999999
 20
7.255992599999999
 42
1.0
 10
35.5037517
 20
6.346964700000004
 42
1.0
 10
35.50700925
 20
5.345582399999996
 42
1.0
 97
        0
 72
     4
 94
        3
 73
     1
 74
     0
 95
        8
 96
        4
 40
0.48
 40
0.48
 40
0.48
 40
0.48
 40
0.52
 40
0.52
 40
0.52
 40
0.52
 10
35.50700925
 20
5.345582399999996
 42
1.0
 10
35.50335165
 20
3.931519950000004
 42
1.0
 10
36.58903019999999
 20
3.610622699999996
 42
1.0
 10
37.5872121
 20
3.419227350000005
 42
1.0
 97
        0
 72
     4
 94
        3
 73
     1
 74
     0
 95
        8
 96
        4
 40
0.52
 40
0.52
 40
0.52
 40
0.52
 40
0.56
 40
0.56
 40
0.56
 40
0.56
 10
37.5872121
 20
3.419227350000005
 42
1.0
 10
38.09087504999999
 20
3.317614649999995
 42
1.0
 10
38.5890516
 20
3.237318899999993
 42
1.0
 10
38.94652485
 20
3.064840200000001
 42
1.0
 97
        0
 72
     4
 94
        3
 73
     1
 74
     0
 95
        8
 96
        4
 40
0.56
 40
0.56
 40
0.56
 40
0.56
 40
0.6
 40
0.6
 40
0.6
 40
0.6
 10
38.94652485
 20
3.064840200000001
 42
1.0
 10
39.30416955
 20
2.888018099999996
 42
1.0
 10
39.51808199999999
 20
2.650559849999996
 42
1.0
 10
39.52271115
 20
2.178043650000007
 42
1.0
 97
        0
 72
     4
 94
        3
 73
     1
 74
     0
 95
        8
 96
        4
 40
0.6
 40
0.6
 40
0.6
 40
0.6
 40
0.64
 40
0.64
 40
0.64
 40
0.64
 10
39.52271115
 20
2.178043650000007
 42
1.0
 10
39.5223111
 20
1.147629150000006
 42
1.0
 10
38.68866405
 20
0.9121711500000018
 42
1.0
 10
37.99229129999999
 20
0.8829103500000034
 42
1.0
 97
        0
 72
     4
 94
        3
 73
     1
 74
     0
 95
        8
 96
        4
 40
0.64
 40
0.64
 40
0.64
 40
0.64
 40
0.68
 40
0.68
 40
0.68
 40
0.68
 10
37.99229129999999
 20
0.8829103500000034
 42
1.0
 10
37.40576085
 20
0.8955976499999949
 42
1.0
 10
36.56668454999999
 20
1.092307949999997
 42
1.0
 10
36.286821
 20
2.056485600000004
 42
1.0
 97
        0
 72
     1
 10
36.286821
 20
2.056485600000004
 11
36.26887589999999
 21
2.122208099999995
 72
     1
 10
36.26887589999999
 20
2.122208099999995
 11
35.2231452
 21
2.122208099999995
 72
     1
 10
35.2231452
 20
2.122208099999995
 11
35.25960689999999
 21
2.005679250000004
 72
     4
 94
        3
 73
     1
 74
     0
 95
        8
 96
        4
 40
0.8
 40
0.8
 40
0.8
 40
0.8
 40
0.84
 40
0.84
 40
0.84
 40
0.84
 10
35.25960689999999
 20
2.005679250000004
 42
1.0
 10
35.65257029999999
 20
0.7387208999999963
 42
1.0
 10
36.81242955
 20
0.0366902999999974
 42
1.0
 10
37.9189107
 20
0.0
 42
1.0
 97
        0
 72
     1
 10
37.9189107
 20
0.0
 11
37.9965204
 21
0.0008572499999984
 72
     4
 94
        3
 73
     1
 74
     0
 95
        8
 96
        4
 40
0.88
 40
0.88
 40
0.88
 40
0.88
 40
0.92
 40
0.92
 40
0.92
 40
0.92
 10
37.9965204
 20
0.0008572499999984
 42
1.0
 10
39.62169494999999
 20
0.0564641999999997
 42
1.0
 10
40.554783
 20
1.016355599999995
 42
1.0
 10
40.5519255
 20
2.149640099999994
 42
1.0
 97
        0
 97
        0
 75
     0
 76
     1
 98
        1
 10
0.0
 20
0.0
  0
HATCH
  5
138
330
79
100
AcDbEntity
  8
0
  6
Continuous
 62
     7
100
AcDbHatch
 10
0.0
 20
0.0
 30
0.0
210
0.0
220
0.0
230
1.0
  2
SOLID
 70
     1
 71
     0
 91
        1
 92
        0
 93
       15
 72
     4
 94
        3
 73
     1
 74
     0
 95
        8
 96
        4
 40
0.6875
 40
0.6875
 40
0.6875
 40
0.6875
 40
0.75
 40
0.75
 40
0.75
 40
0.75
 10
44.419266
 20
0.0151447499999971
 42
1.0
 10
45.90133694999999
 20
0.0151447499999971
 42
1.0
 10
46.84202594999999
 20
0.6762559500000015
 42
1.0
 10
47.34306
 20
1.966988699999998
 42
1.0
 97
        0
 72
     1
 10
47.34306
 20
1.966988699999998
 11
47.39163749999999
 21
2.089918350000004
 72
     1
 10
47.39163749999999
 20
2.089918350000004
 11
46.26503955
 21
2.090318400000006
 72
     1
 10
46.26503955
 20
2.090318400000006
 11
46.24143659999999
 21
2.039112000000006
 72
     4
 94
        3
 73
     1
 74
     0
 95
        8
 96
        4
 40
0.0
 40
0.0
 40
0.0
 40
0.0
 40
0.0625
 40
0.0625
 40
0.0625
 40
0.0625
 10
46.24143659999999
 20
2.039112000000006
 42
1.0
 10
45.9529434
 20
1.443323249999991
 42
1.0
 10
45.42733484999999
 20
0.9907523999999945
 42
1.0
 10
44.40012074999999
 20
0.987323400000001
 42
1.0
 97
        0
 72
     4
 94
        3
 73
     1
 74
     0
 95
        8
 96
        4
 40
0.0625
 40
0.0625
 40
0.0625
 40
0.0625
 40
0.125
 40
0.125
 40
0.125
 40
0.125
 10
44.40012074999999
 20
0.987323400000001
 42
1.0
 10
43.3769643
 20
0.9901808999999957
 42
1.0
 10
42.2737407
 20
1.840572900000004
 42
1.0
 10
42.27048314999999
 20
3.669258600000007
 42
1.0
 97
        0
 72
     4
 94
        3
 73
     1
 74
     0
 95
        8
 96
        4
 40
0.125
 40
0.125
 40
0.125
 40
0.125
 40
0.1875
 40
0.1875
 40
0.1875
 40
0.1875
 10
42.27048314999999
 20
3.669258600000007
 42
1.0
 10
42.27454079999999
 20
5.4968013
 42
1.0
 10
43.37353529999999
 20
6.345764549999999
 42
1.0
 10
44.48481705
 20
6.350107949999998
 42
1.0
 97
        0
 72
     4
 94
        3
 73
     1
 74
     0
 95
        8
 96
        4
 40
0.1875
 40
0.1875
 40
0.1875
 40
0.1875
 40
0.25
 40
0.25
 40
0.25
 40
0.25
 10
44.48481705
 20
6.350107949999998
 42
1.0
 10
45.28034505
 20
6.347707649999999
 42
1.0
 10
45.88579215
 20
6.113849850000004
 42
1.0
 10
46.15393995
 20
5.551893900000003
 42
1.0
 97
        0
 72
     1
 10
46.15393995
 20
5.551893900000003
 11
46.1775429
 21
5.499944550000007
 72
     1
 10
46.1775429
 20
5.499944550000007
 11
47.29225365000001
 21
5.492457900000001
 72
     1
 10
47.29225365000001
 20
5.492457900000001
 11
47.23658955
 21
5.619616650000004
 72
     4
 94
        3
 73
     1
 74
     0
 95
        8
 96
        4
 40
0.4375
 40
0.4375
 40
0.4375
 40
0.4375
 40
0.5
 40
0.5
 40
0.5
 40
0.5
 10
47.23658955
 20
5.619616650000004
 42
1.0
 10
46.6148547
 20
7.049281050000002
 42
1.0
 10
45.46082474999999
 20
7.327258649999995
 42
1.0
 10
44.59751685
 20
7.322172299999999
 42
1.0
 97
        0
 72
     4
 94
        3
 73
     1
 74
     0
 95
        8
 96
        4
 40
0.5
 40
0.5
 40
0.5
 40
0.5
 40
0.5625
 40
0.5625
 40
0.5625
 40
0.5625
 10
44.59751685
 20
7.322172299999999
 42
1.0
 10
42.59669535
 20
7.327258649999995
 42
1.0
 10
41.2632144
 20
5.839758450000001
 42
1.0
 10
41.24144025
 20
3.669658649999997
 42
1.0
 97
        0
 72
     4
 94
        3
 73
     1
 74
     0
 95
        8
 96
        4
 40
0.5625
 40
0.5625
 40
0.5625
 40
0.5625
 40
0.625
 40
0.625
 40
0.625
 40
0.625
 10
41.24144025
 20
3.669658649999997
 42
1.0
 10
41.2658433
 20
1.496015549999996
 42
1.0
 10
42.64733025
 20
0.0135445500000025
 42
1.0
 10
44.40012074999999
 20
0.0151447499999971
 42
1.0
 97
        0
 72
     1
 10
44.40012074999999
 20
0.0151447499999971
 11
44.419266
 21
0.0151447499999971
 97
        0
 75
     0
 76
     1
 98
        1
 10
0.0
 20
0.0
  0
ENDBLK
  5
7B
330
79
100
AcDbEntity
  8
0
100
AcDbBlockEnd
  0
BLOCK
  5
144
330
143
100
AcDbEntity
  8
0
100
AcDbBlockBegin
  2
_D
 70
     0
 10
0.0
 20
0.0
 30
0.0
  3
_D
  1

  0
SOLID
  5
146
330
143
100
AcDbEntity
  8
0
  6
SLD-Durchgehend
 62
     1
370
    18
100
AcDbTrace
 10
270.3823466765
 20
272.7515946923
 30
0.0
 11
271.1443466765
 21
277.7045946923
 31
0.0
 12
269.6203466765
 22
277.7045946923
 32
0.0
 13
269.6203466765
 23
277.7045946923
 33
0.0
  0
SOLID
  5
147
330
143
100
AcDbEntity
  8
0
  6
SLD-Durchgehend
 62
     1
370
    18
100
AcDbTrace
 10
270.3823466765
 20
236.7515946923
 30
0.0
 11
269.6203466765
 21
231.7985946923
 31
0.0
 12
271.1443466765
 22
231.7985946923
 32
0.0
 13
271.1443466765
 23
231.7985946923
 33
0.0
  0
LINE
  5
148
330
143
100
AcDbEntity
  8
0
  6
SLD-Durchgehend
 62
     1
370
     0
100
AcDbLine
 10
222.999531706
 20
272.7515946923
 30
0.0
 11
271.8823466765
 21
272.7515946923
 31
0.0
  0
LINE
  5
149
330
143
100
AcDbEntity
  8
0
  6
SLD-Durchgehend
 62
     1
370
     0
100
AcDbLine
 10
222.999531706
 20
236.7515946923
 30
0.0
 11
271.8823466765
 21
236.7515946923
 31
0.0
  0
LINE
  5
14A
330
143
100
AcDbEntity
  8
0
  6
SLD-Durchgehend
 62
     1
370
     0
100
AcDbLine
 10
270.3823466765
 20
272.7515946923
 30
0.0
 11
270.3823466765
 21
282.2765946923
 31
0.0
  0
LINE
  5
14B
330
143
100
AcDbEntity
  8
0
  6
SLD-Durchgehend
 62
     1
370
     0
100
AcDbLine
 10
270.3823466765
 20
272.7515946923
 30
0.0
 11
270.3823466765
 21
236.7515946923
 31
0.0
  0
LINE
  5
14C
330
143
100
AcDbEntity
  8
0
  6
SLD-Durchgehend
 62
     1
370
     0
100
AcDbLine
 10
270.3823466765
 20
236.7515946923
 30
0.0
 11
270.3823466765
 21
227.2265946923
 31
0.0
  0
MTEXT
  5
14D
330
143
100
AcDbEntity
  8
0
  6
SLD-Durchgehend
 62
     1
370
    18
100
AcDbMText
 10
263.676291989
 20
242.8373848106
 30
0.0
 40
5.25
 41
0.0
 46
0.0
 71
     1
 72
     1
  1
%%c
  7
SLDTEXTSTYLE0
 11
-7.044195017643634E-15
 21
1.0
 31
0.0
 73
     1
 44
1.0
  0
MTEXT
  5
14E
330
143
100
AcDbEntity
  8
0
  6
SLD-Durchgehend
 62
     1
370
    18
100
AcDbMText
 10
263.596083724
 20
250.7550409081
 30
0.0
 40
5.25
 41
0.0
 46
0.0
 71
     1
 72
     1
  1
36.00
  7
SLDTEXTSTYLE0
 11
-7.044195017643634E-15
 21
1.0
 31
0.0
 73
     1
 44
1.0
  0
ENDBLK
  5
145
330
143
100
AcDbEntity
  8
0
100
AcDbBlockEnd
  0
BLOCK
  5
151
330
150
100
AcDbEntity
  8
0
100
AcDbBlockBegin
  2
_D_1
 70
     0
 10
0.0
 20
0.0
 30
0.0
  3
_D_1
  1

  0
SOLID
  5
153
330
150
100
AcDbEntity
  8
0
  6
SLD-Durchgehend
 62
     1
370
    18
100
AcDbTrace
 10
254.7737467144
 20
264.7515946923
 30
0.0
 11
255.5357467144
 21
269.7045946923
 31
0.0
 12
254.0117467144
 22
269.7045946923
 32
0.0
 13
254.0117467144
 23
269.7045946923
 33
0.0
  0
SOLID
  5
154
330
150
100
AcDbEntity
  8
0
  6
SLD-Durchgehend
 62
     1
370
    18
100
AcDbTrace
 10
254.7737467144
 20
244.7515946923
 30
0.0
 11
254.0117467144
 21
239.7985946923
 31
0.0
 12
255.5357467144
 22
239.7985946923
 32
0.0
 13
255.5357467144
 23
239.7985946923
 33
0.0
  0
LINE
  5
155
330
150
100
AcDbEntity
  8
0
  6
SLD-Durchgehend
 62
     1
370
     0
100
AcDbLine
 10
222.999531706
 20
264.7515946923
 30
0.0
 11
256.2737467144
 21
264.7515946923
 31
0.0
  0
LINE
  5
156
330
150
100
AcDbEntity
  8
0
  6
SLD-Durchgehend
 62
     1
370
     0
100
AcDbLine
 10
222.999531706
 20
244.7515946923
 30
0.0
 11
256.2737467144
 21
244.7515946923
 31
0.0
  0
LINE
  5
157
330
150
100
AcDbEntity
  8
0
  6
SLD-Durchgehend
 62
     1
370
     0
100
AcDbLine
 10
254.7737467144
 20
264.7515946923
 30
0.0
 11
254.7737467144
 21
274.2765946923
 31
0.0
  0
LINE
  5
158
330
150
100
AcDbEntity
  8
0
  6
SLD-Durchgehend
 62
     1
370
     0
100
AcDbLine
 10
254.7737467144
 20
264.7515946923
 30
0.0
 11
254.7737467144
 21
244.7515946923
 31
0.0
  0
LINE
  5
159
330
150
100
AcDbEntity
  8
0
  6
SLD-Durchgehend
 62
     1
370
     0
100
AcDbLine
 10
254.7737467144
 20
244.7515946923
 30
0.0
 11
254.7737467144
 21
235.2265946923
 31
0.0
  0
MTEXT
  5
15A
330
150
100
AcDbEntity
  8
0
  6
SLD-Durchgehend
 62
     1
370
    18
100
AcDbMText
 10
248.0676920269
 20
241.1381439935
 30
0.0
 40
5.25
 41
0.0
 46
0.0
 71
     1
 72
     1
  1
%%c
  7
SLDTEXTSTYLE0
 11
-7.044195017643634E-15
 21
1.0
 31
0.0
 73
     1
 44
1.0
  0
MTEXT
  5
15B
330
150
100
AcDbEntity
  8
0
  6
SLD-Durchgehend
 62
     1
370
    18
100
AcDbMText
 10
247.9874837619
 20
249.055800091
 30
0.0
 40
5.25
 41
0.0
 46
0.0
 71
     1
 72
     1
  1
20.00
  7
SLDTEXTSTYLE0
 11
-7.044195017643634E-15
 21
1.0
 31
0.0
 73
     1
 44
1.0
  0
ENDBLK
  5
152
330
150
100
AcDbEntity
  8
0
100
AcDbBlockEnd
  0
BLOCK
  5
179
330
178
100
AcDbEntity
  8
0
100
AcDbBlockBegin
  2
_D_2
 70
     0
 10
0.0
 20
0.0
 30
0.0
  3
_D_2
  1

  0
SOLID
  5
17B
330
178
100
AcDbEntity
  8
0
  6
SLD-Durchgehend
 62
     1
370
    18
100
AcDbTrace
 10
166.2751208079
 20
277.0530594884
 30
0.0
 11
171.2281208079
 21
276.2910594884
 31
0.0
 12
171.2281208079
 22
277.8150594884
 32
0.0
 13
171.2281208079
 23
277.8150594884
 33
0.0
  0
SOLID
  5
17C
330
178
100
AcDbEntity
  8
0
  6
SLD-Durchgehend
 62
     1
370
    18
100
AcDbTrace
 10
161.2751208079
 20
277.0530594884
 30
0.0
 11
156.3221208079
 21
277.8150594884
 31
0.0
 12
156.3221208079
 22
276.2910594884
 32
0.0
 13
156.3221208079
 23
276.2910594884
 33
0.0
  0
LINE
  5
17D
330
178
100
AcDbEntity
  8
0
  6
SLD-Durchgehend
 62
     1
370
     0
100
AcDbLine
 10
166.2751208079
 20
274.2515946923
 30
0.0
 11
166.2751208079
 21
278.5530594884
 31
0.0
  0
LINE
  5
17E
330
178
100
AcDbEntity
  8
0
  6
SLD-Durchgehend
 62
     1
370
     0
100
AcDbLine
 10
161.2751208079
 20
273.7515946923
 30
0.0
 11
161.2751208079
 21
278.5530594884
 31
0.0
  0
LINE
  5
17F
330
178
100
AcDbEntity
  8
0
  6
SLD-Durchgehend
 62
     1
370
     0
100
AcDbLine
 10
166.2751208079
 20
277.0530594884
 30
0.0
 11
175.8001208079
 21
277.0530594884
 31
0.0
  0
LINE
  5
180
330
178
100
AcDbEntity
  8
0
  6
SLD-Durchgehend
 62
     1
370
     0
100
AcDbLine
 10
166.2751208079
 20
277.0530594884
 30
0.0
 11
161.2751208079
 21
277.0530594884
 31
0.0
  0
LINE
  5
181
330
178
100
AcDbEntity
  8
0
  6
SLD-Durchgehend
 62
     1
370
     0
100
AcDbLine
 10
161.2751208079
 20
277.0530594884
 30
0.0
 11
144.3408780715
 21
277.0530594884
 31
0.0
  0
MTEXT
  5
182
330
178
100
AcDbEntity
  8
0
  6
SLD-Durchgehend
 62
     1
370
    18
100
AcDbMText
 10
144.3408780715
 20
283.7591139139
 30
0.0
 40
5.25
 41
0.0
 46
0.0
 71
     1
 72
     1
  1
5.00
  7
SLDTEXTSTYLE0
 73
     1
 44
1.0
  0
ENDBLK
  5
17A
330
178
100
AcDbEntity
  8
0
100
AcDbBlockEnd
  0
BLOCK
  5
186
330
185
100
AcDbEntity
  8
0
100
AcDbBlockBegin
  2
_D_3
 70
     0
 10
0.0
 20
0.0
 30
0.0
  3
_D_3
  1

  0
SOLID
  5
188
330
185
100
AcDbEntity
  8
0
  6
SLD-Durchgehend
 62
     1
370
    18
100
AcDbTrace
 10
166.2751208079
 20
287.7549123409
 30
0.0
 11
161.3221208079
 21
288.5169123409
 31
0.0
 12
161.3221208079
 22
286.9929123409
 32
0.0
 13
161.3221208079
 23
286.9929123409
 33
0.0
  0
SOLID
  5
189
330
185
100
AcDbEntity
  8
0
  6
SLD-Durchgehend
 62
     1
370
    18
100
AcDbTrace
 10
47.2751208079
 20
287.7549123409
 30
0.0
 11
52.2281208079
 21
286.9929123409
 31
0.0
 12
52.2281208079
 22
288.5169123409
 32
0.0
 13
52.2281208079
 23
288.5169123409
 33
0.0
  0
LINE
  5
18A
330
185
100
AcDbEntity
  8
0
  6
SLD-Durchgehend
 62
     1
370
     0
100
AcDbLine
 10
166.2751208079
 20
274.2515946923
 30
0.0
 11
166.2751208079
 21
289.2549123409
 31
0.0
  0
LINE
  5
18B
330
185
100
AcDbEntity
  8
0
  6
SLD-Durchgehend
 62
     1
370
     0
100
AcDbLine
 10
47.2751208079
 20
265.7515946923
 30
0.0
 11
47.2751208079
 21
289.2549123409
 31
0.0
  0
LINE
  5
18C
330
185
100
AcDbEntity
  8
0
  6
SLD-Durchgehend
 62
     1
370
     0
100
AcDbLine
 10
166.2751208079
 20
287.7549123409
 30
0.0
 11
47.2751208079
 21
287.7549123409
 31
0.0
  0
MTEXT
  5
18D
330
185
100
AcDbEntity
  8
0
  6
SLD-Durchgehend
 62
     1
370
    18
100
AcDbMText
 10
104.1120286743
 20
294.4609667665
 30
0.0
 40
5.25
 41
0.0
 46
0.0
 71
     1
 72
     1
  1
119.00
  7
SLDTEXTSTYLE0
 73
     1
 44
1.0
  0
ENDBLK
  5
187
330
185
100
AcDbEntity
  8
0
100
AcDbBlockEnd
  0
BLOCK
  5
190
330
18F
100
AcDbEntity
  8
0
100
AcDbBlockBegin
  2
_D_4
 70
     0
 10
0.0
 20
0.0
 30
0.0
  3
_D_4
  1

  0
SOLID
  5
192
330
18F
100
AcDbEntity
  8
0
  6
SLD-Durchgehend
 62
     1
370
    18
100
AcDbTrace
 10
149.3791168306
 20
262.7515946923
 30
0.0
 11
148.6171168306
 21
257.7985946923
 31
0.0
 12
150.1411168306
 22
257.7985946923
 32
0.0
 13
150.1411168306
 23
257.7985946923
 33
0.0
  0
SOLID
  5
193
330
18F
100
AcDbEntity
  8
0
  6
SLD-Durchgehend
 62
     1
370
    18
100
AcDbTrace
 10
149.3791168306
 20
246.7515946923
 30
0.0
 11
150.1411168306
 21
251.7045946923
 31
0.0
 12
148.6171168306
 22
251.7045946923
 32
0.0
 13
148.6171168306
 23
251.7045946923
 33
0.0
  0
LINE
  5
194
330
18F
100
AcDbEntity
  8
0
  6
SLD-Durchgehend
 62
     1
370
     0
100
AcDbLine
 10
149.3791168306
 20
262.7515946923
 30
0.0
 11
149.3791168306
 21
246.7515946923
 31
0.0
  0
LINE
  5
195
330
18F
100
AcDbEntity
  8
0
  6
SLD-Durchgehend
 62
     1
370
     0
100
AcDbLine
 10
149.3791168306
 20
246.7515946923
 30
0.0
 11
149.3791168306
 21
219.0075604413
 31
0.0
  0
MTEXT
  5
196
330
18F
100
AcDbEntity
  8
0
  6
SLD-Durchgehend
 62
     1
370
    18
100
AcDbMText
 10
142.6730621431
 20
219.0075604413
 30
0.0
 40
5.25
 41
0.0
 46
0.0
 71
     1
 72
     1
  1
%%c
  7
SLDTEXTSTYLE0
 11
-7.044195017643634E-15
 21
1.0
 31
0.0
 73
     1
 44
1.0
  0
MTEXT
  5
197
330
18F
100
AcDbEntity
  8
0
  6
SLD-Durchgehend
 62
     1
370
    18
100
AcDbMText
 10
142.5928538781
 20
226.9252165389
 30
0.0
 40
5.25
 41
0.0
 46
0.0
 71
     1
 72
     1
  1
16.00
  7
SLDTEXTSTYLE0
 11
-7.044195017643634E-15
 21
1.0
 31
0.0
 73
     1
 44
1.0
  0
ENDBLK
  5
191
330
18F
100
AcDbEntity
  8
0
100
AcDbBlockEnd
  0
BLOCK
  5
1B2
330
1B1
100
AcDbEntity
  8
0
100
AcDbBlockBegin
  2
_D_5
 70
     0
 10
0.0
 20
0.0
 30
0.0
  3
_D_5
  1

  0
SOLID
  5
1B4
330
1B1
100
AcDbEntity
  8
0
  6
SLD-Durchgehend
 62
     1
370
    18
100
AcDbTrace
 10
205.499531706
 20
209.4190116862
 30
0.0
 11
200.546531706
 21
210.1810116862
 31
0.0
 12
200.546531706
 22
208.6570116862
 32
0.0
 13
200.546531706
 23
208.6570116862
 33
0.0
  0
SOLID
  5
1B5
330
1B1
100
AcDbEntity
  8
0
  6
SLD-Durchgehend
 62
     1
370
    18
100
AcDbTrace
 10
237.499531706
 20
209.4190116862
 30
0.0
 11
242.452531706
 21
208.6570116862
 31
0.0
 12
242.452531706
 22
210.1810116862
 32
0.0
 13
242.452531706
 23
210.1810116862
 33
0.0
  0
LINE
  5
1B6
330
1B1
100
AcDbEntity
  8
0
  6
SLD-Durchgehend
 62
     1
370
     0
100
AcDbLine
 10
205.499531706
 20
188.1312145132
 30
0.0
 11
205.499531706
 21
210.9190116862
 31
0.0
  0
LINE
  5
1B7
330
1B1
100
AcDbEntity
  8
0
  6
SLD-Durchgehend
 62
     1
370
     0
100
AcDbLine
 10
237.499531706
 20
188.1312145132
 30
0.0
 11
237.499531706
 21
210.9190116862
 31
0.0
  0
LINE
  5
1B8
330
1B1
100
AcDbEntity
  8
0
  6
SLD-Durchgehend
 62
     1
370
     0
100
AcDbLine
 10
205.499531706
 20
209.4190116862
 30
0.0
 11
195.974531706
 21
209.4190116862
 31
0.0
  0
LINE
  5
1B9
330
1B1
100
AcDbEntity
  8
0
  6
SLD-Durchgehend
 62
     1
370
     0
100
AcDbLine
 10
205.499531706
 20
209.4190116862
 30
0.0
 11
237.499531706
 21
209.4190116862
 31
0.0
  0
LINE
  5
1BA
330
1B1
100
AcDbEntity
  8
0
  6
SLD-Durchgehend
 62
     1
370
     0
100
AcDbLine
 10
237.499531706
 20
209.4190116862
 30
0.0
 11
247.024531706
 21
209.4190116862
 31
0.0
  0
MTEXT
  5
1BB
330
1B1
100
AcDbEntity
  8
0
  6
SLD-Durchgehend
 62
     1
370
    18
100
AcDbMText
 10
207.0146186946
 20
216.1250663737
 30
0.0
 40
5.25
 41
0.0
 46
0.0
 71
     1
 72
     1
  1
%%c
  7
SLDTEXTSTYLE0
 73
     1
 44
1.0
  0
MTEXT
  5
1BC
330
1B1
100
AcDbEntity
  8
0
  6
SLD-Durchgehend
 62
     1
370
    18
100
AcDbMText
 10
214.9322747921
 20
216.2052746387
 30
0.0
 40
5.25
 41
0.0
 46
0.0
 71
     1
 72
     1
  1
32.00
  7
SLDTEXTSTYLE0
 73
     1
 44
1.0
  0
ENDBLK
  5
1B3
330
1B1
100
AcDbEntity
  8
0
100
AcDbBlockEnd
  0
BLOCK
  5
1BF
330
1BE
100
AcDbEntity
  8
0
100
AcDbBlockBegin
  2
_D_6
 70
     0
 10
0.0
 20
0.0
 30
0.0
  3
_D_6
  1

  0
SOLID
  5
1C1
330
1BE
100
AcDbEntity
  8
0
  6
SLD-Durchgehend
 62
     1
370
    18
100
AcDbTrace
 10
219.399531706
 20
163.5848694959
 30
0.0
 11
214.446531706
 21
164.3468694959
 31
0.0
 12
214.446531706
 22
162.8228694959
 32
0.0
 13
214.446531706
 23
162.8228694959
 33
0.0
  0
SOLID
  5
1C2
330
1BE
100
AcDbEntity
  8
0
  6
SLD-Durchgehend
 62
     1
370
    18
100
AcDbTrace
 10
223.599531706
 20
163.5848694959
 30
0.0
 11
228.552531706
 21
162.8228694959
 31
0.0
 12
228.552531706
 22
164.3468694959
 32
0.0
 13
228.552531706
 23
164.3468694959
 33
0.0
  0
LINE
  5
1C3
330
1BE
100
AcDbEntity
  8
0
  6
SLD-Durchgehend
 62
     1
370
     0
100
AcDbLine
 10
219.399531706
 20
185.1312145132
 30
0.0
 11
219.399531706
 21
162.0848694959
 31
0.0
  0
LINE
  5
1C4
330
1BE
100
AcDbEntity
  8
0
  6
SLD-Durchgehend
 62
     1
370
     0
100
AcDbLine
 10
223.599531706
 20
185.1312145132
 30
0.0
 11
223.599531706
 21
162.0848694959
 31
0.0
  0
LINE
  5
1C5
330
1BE
100
AcDbEntity
  8
0
  6
SLD-Durchgehend
 62
     1
370
     0
100
AcDbLine
 10
219.399531706
 20
163.5848694959
 30
0.0
 11
209.874531706
 21
163.5848694959
 31
0.0
  0
LINE
  5
1C6
330
1BE
100
AcDbEntity
  8
0
  6
SLD-Durchgehend
 62
     1
370
     0
100
AcDbLine
 10
219.399531706
 20
163.5848694959
 30
0.0
 11
223.599531706
 21
163.5848694959
 31
0.0
  0
LINE
  5
1C7
330
1BE
100
AcDbEntity
  8
0
  6
SLD-Durchgehend
 62
     1
370
     0
100
AcDbLine
 10
223.599531706
 20
163.5848694959
 30
0.0
 11
259.8158442701
 21
163.5848694959
 31
0.0
  0
MTEXT
  5
1C8
330
1BE
100
AcDbEntity
  8
0
  6
SLD-Durchgehend
 62
     1
370
    18
100
AcDbMText
 10
238.3211031842
 20
170.2932571913
 30
0.0
 40
5.25
 41
0.0
 46
0.0
 71
     1
 72
     1
  1
%%c
  7
SLDTEXTSTYLE0
 73
     1
 44
1.0
  0
MTEXT
  5
1C9
330
1BE
100
AcDbEntity
  8
0
  6
SLD-Durchgehend
 62
     1
370
    18
100
AcDbMText
 10
246.2387592817
 20
170.3734654563
 30
0.0
 40
5.25
 41
0.0
 46
0.0
 71
     1
 72
     1
  1
4.20
  7
SLDTEXTSTYLE0
 73
     1
 44
1.0
  0
MTEXT
  5
1CA
330
1BE
100
AcDbEntity
  8
0
  6
SLD-Durchgehend
 62
     1
370
    18
100
AcDbMText
 10
243.9132652065
 20
161.9588819428
 30
0.0
 40
5.25
 41
0.0
 46
0.0
 71
     1
 72
     1
  1
M5
  7
SLDTEXTSTYLE0
 73
     1
 44
1.0
  0
ENDBLK
  5
1C0
330
1BE
100
AcDbEntity
  8
0
100
AcDbBlockEnd
  0
ENDSEC
  0
SECTION
  2
ENTITIES
  0
CIRCLE
  5
139
330
1F
100
AcDbEntity
  8
0
  6
SLD-Durchgehend
 62
     7
370
    25
100
AcDbCircle
 10
221.499531706
 20
254.7515946923
 30
0.0
 40
9.999999999999996
  0
CIRCLE
  5
13A
330
1F
100
AcDbEntity
  8
0
  6
SLD-Durchgehend
 62
     7
370
    25
100
AcDbCircle
 10
221.499531706
 20
254.7515946923
 30
0.0
 40
18.0
  0
LINE
  5
13B
330
1F
100
AcDbEntity
  8
0
  6
SLD-Durchgehend
 62
     7
370
    25
100
AcDbLine
 10
203.7512923567
 20
251.7515946923
 30
0.0
 11
201.2926253802
 21
251.7515946923
 31
0.0
  0
LINE
  5
13C
330
1F
100
AcDbEntity
  8
0
  6
SLD-Durchgehend
 62
     7
370
    25
100
AcDbLine
 10
201.2926253802
 20
257.7515946923
 30
0.0
 11
203.7512923567
 21
257.7515946923
 31
0.0
  0
LINE
  5
13D
330
1F
100
AcDbEntity
  8
0
  6
SLD-Durchgehend
 62
     7
370
    25
100
AcDbLine
 10
201.2926253802
 20
251.7515946923
 30
0.0
 11
201.2926253802
 21
257.7515946923
 31
0.0
  0
CIRCLE
  5
13E
330
1F
100
AcDbEntity
  8
0
  6
SLD-Durchgehend
 62
     8
370
    18
100
AcDbCircle
 10
221.499531706
 20
254.7515946923
 30
0.0
 40
9.500000000000018
  0
CIRCLE
  5
13F
330
1F
100
AcDbEntity
  8
0
  6
SLD-Durchgehend
 62
     8
370
    18
100
AcDbCircle
 10
221.499531706
 20
254.7515946923
 30
0.0
 40
17.49999999999998
  0
DIMENSION
  5
140
330
1F
100
AcDbEntity
  8
0
  6
SLD-Durchgehend
 62
     1
370
    18
100
AcDbDimension
280
     0
  2
_D
 10
270.3823466765
 20
236.7515946923
 30
0.0
 11
270.3823466765
 21
255.5243382248
 31
0.0
 70
   160
  1
%%c<>
 71
     2
 42
-1.0
 73
     0
 74
     0
 75
     0
  3
SLDDIMSTYLE0
100
AcDbAlignedDimension
 13
221.499531706
 23
272.7515946923
 33
0.0
 14
221.499531706
 24
236.7515946923
 34
0.0
 50
90.0
100
AcDbRotatedDimension
  0
DIMENSION
  5
14F
330
1F
100
AcDbEntity
  8
0
  6
SLD-Durchgehend
 62
     1
370
    18
100
AcDbDimension
280
     0
  2
_D_1
 10
254.7737467144
 20
244.7515946923
 30
0.0
 11
254.7737467144
 21
253.8250974077
 31
0.0
 70
   160
  1
%%c<>
 71
     2
 42
-1.0
 73
     0
 74
     0
 75
     0
  3
SLDDIMSTYLE0
100
AcDbAlignedDimension
 13
221.499531706
 23
264.7515946923
 33
0.0
 14
221.499531706
 24
244.7515946923
 34
0.0
 50
90.0
100
AcDbRotatedDimension
  0
ARC
  5
15C
330
1F
100
AcDbEntity
  8
0
  6
SLD-Durchgehend
 62
     7
370
    25
100
AcDbCircle
 10
50.7751208079
 20
264.2515946923
 30
0.0
 40
0.5000000000000071
100
AcDbArc
 50
0.0
 51
90.0
  0
ARC
  5
15D
330
1F
100
AcDbEntity
  8
0
  6
SLD-Durchgehend
 62
     7
370
    25
100
AcDbCircle
 10
50.7751208079
 20
245.2515946923
 30
0.0
 40
0.4999999999999858
100
AcDbArc
 50
270.0
 51
0.0
  0
LINE
  5
15E
330
1F
100
AcDbEntity
  8
0
  6
SLD-Durchgehend
 62
     7
370
    25
100
AcDbLine
 10
50.7751208079
 20
264.7515946923
 30
0.0
 11
47.7751208079
 21
264.7515946923
 31
0.0
  0
LINE
  5
15F
330
1F
100
AcDbEntity
  8
0
  6
SLD-Durchgehend
 62
     7
370
    25
100
AcDbLine
 10
47.7751208079
 20
244.7515946923
 30
0.0
 11
50.7751208079
 21
244.7515946923
 31
0.0
  0
ARC
  5
160
330
1F
100
AcDbEntity
  8
0
  6
SLD-Durchgehend
 62
     7
370
    25
100
AcDbCircle
 10
47.7751208079
 20
245.2515946923
 30
0.0
 40
0.5000000000000071
100
AcDbArc
 50
180.0
 51
270.0
  0
ARC
  5
161
330
1F
100
AcDbEntity
  8
0
  6
SLD-Durchgehend
 62
     7
370
    25
100
AcDbCircle
 10
47.7751208079
 20
264.2515946923
 30
0.0
 40
0.5000000000000071
100
AcDbArc
 50
90.0
 51
180.0
  0
LINE
  5
162
330
1F
100
AcDbEntity
  8
0
  6
SLD-Durchgehend
 62
     7
370
    25
100
AcDbLine
 10
161.2751208079
 20
262.7515946923
 30
0.0
 11
51.2751208079
 21
262.7515946923
 31
0.0
  0
LINE
  5
163
330
1F
100
AcDbEntity
  8
0
  6
SLD-Durchgehend
 62
     7
370
    25
100
AcDbLine
 10
51.2751208079
 20
246.7515946923
 30
0.0
 11
161.2751208079
 21
246.7515946923
 31
0.0
  0
LINE
  5
164
330
1F
100
AcDbEntity
  8
0
  6
SLD-Durchgehend
 62
     7
370
    25
100
AcDbLine
 10
166.2751208079
 20
272.7515946923
 30
0.0
 11
161.7751208079
 21
272.7515946923
 31
0.0
  0
LINE
  5
165
330
1F
100
AcDbEntity
  8
0
  6
SLD-Durchgehend
 62
     7
370
    25
100
AcDbLine
 10
161.7751208079
 20
236.7515946923
 30
0.0
 11
166.2751208079
 21
236.7515946923
 31
0.0
  0
ARC
  5
166
330
1F
100
AcDbEntity
  8
0
  6
SLD-Durchgehend
 62
     7
370
    25
100
AcDbCircle
 10
161.7751208079
 20
237.2515946923
 30
0.0
 40
0.5
100
AcDbArc
 50
180.0
 51
270.0
  0
ARC
  5
167
330
1F
100
AcDbEntity
  8
0
  6
SLD-Durchgehend
 62
     7
370
    25
100
AcDbCircle
 10
161.7751208079
 20
272.2515946923
 30
0.0
 40
0.5
100
AcDbArc
 50
90.0
 51
180.0
  0
LINE
  5
168
330
1F
100
AcDbEntity
  8
0
  6
SLD-Durchgehend
 62
     7
370
    25
100
AcDbLine
 10
167.3251208079
 20
270.2515946923
 30
0.0
 11
166.2751208079
 21
270.2515946923
 31
0.0
  0
LINE
  5
169
330
1F
100
AcDbEntity
  8
0
  6
SLD-Durchgehend
 62
     7
370
    25
100
AcDbLine
 10
166.2751208079
 20
239.2515946923
 30
0.0
 11
167.3251208079
 21
239.2515946923
 31
0.0
  0
LINE
  5
16A
330
1F
100
AcDbEntity
  8
0
  6
SLD-Durchgehend
 62
     7
370
    25
100
AcDbLine
 10
161.3438890792
 20
261.1049321216
 30
0.0
 11
161.2751208079
 21
261.2239428706
 31
0.0
  0
LINE
  5
16B
330
1F
100
AcDbEntity
  8
0
  6
SLD-Durchgehend
 62
     7
370
    25
100
AcDbLine
 10
51.2751208079
 20
254.4200494737
 30
0.0
 11
51.2751208079
 21
245.2515946923
 31
0.0
  0
LINE
  5
16C
330
1F
100
AcDbEntity
  8
0
  6
SLD-Durchgehend
 62
     7
370
    25
100
AcDbLine
 10
51.2751208079
 20
264.2515946923
 30
0.0
 11
51.2751208079
 21
254.4200494737
 31
0.0
  0
LINE
  5
16D
330
1F
100
AcDbEntity
  8
0
  6
SLD-Durchgehend
 62
     7
370
    25
100
AcDbLine
 10
47.2751208079
 20
245.2515946923
 30
0.0
 11
47.2751208079
 21
264.2515946923
 31
0.0
  0
LINE
  5
16E
330
1F
100
AcDbEntity
  8
0
  6
SLD-Durchgehend
 62
     7
370
    25
100
AcDbLine
 10
166.2751208079
 20
272.7515946923
 30
0.0
 11
166.2751208079
 21
236.7515946923
 31
0.0
  0
LINE
  5
16F
330
1F
100
AcDbEntity
  8
0
  6
SLD-Durchgehend
 62
     7
370
    25
100
AcDbLine
 10
161.2751208079
 20
237.4265065481
 30
0.0
 11
161.2751208079
 21
272.2515946923
 31
0.0
  0
LINE
  5
170
330
1F
100
AcDbEntity
  8
0
  6
SLD-Durchgehend
 62
     7
370
    25
100
AcDbLine
 10
161.2751208079
 20
237.2515946923
 30
0.0
 11
161.2751208079
 21
237.4265065481
 31
0.0
  0
LINE
  5
171
330
1F
100
AcDbEntity
  8
0
  6
SLD-Durchgehend
 62
     7
370
    25
100
AcDbLine
 10
167.3251208079
 20
270.2515946923
 30
0.0
 11
167.3251208079
 21
239.2515946923
 31
0.0
  0
LINE
  5
172
330
1F
100
AcDbEntity
  8
0
  6
SLD-Durchgehend
 62
     8
370
    18
100
AcDbLine
 10
50.7751208079
 20
254.4025997253
 30
0.0
 11
50.7751208079
 21
264.7515946923
 31
0.0
  0
LINE
  5
173
330
1F
100
AcDbEntity
  8
0
  6
SLD-Durchgehend
 62
     8
370
    18
100
AcDbLine
 10
50.7751208079
 20
244.7515946923
 30
0.0
 11
50.7751208079
 21
254.4025997253
 31
0.0
  0
LINE
  5
174
330
1F
100
AcDbEntity
  8
0
  6
SLD-Durchgehend
 62
     8
370
    18
100
AcDbLine
 10
47.7751208079
 20
264.7515946923
 30
0.0
 11
47.7751208079
 21
244.7515946923
 31
0.0
  0
LINE
  5
175
330
1F
100
AcDbEntity
  8
0
  6
SLD-Durchgehend
 62
     8
370
    18
100
AcDbLine
 10
161.7751208079
 20
236.9315040297
 30
0.0
 11
161.7751208079
 21
236.7515946923
 31
0.0
  0
LINE
  5
176
330
1F
100
AcDbEntity
  8
0
  6
SLD-Durchgehend
 62
     8
370
    18
100
AcDbLine
 10
161.7751208079
 20
272.7515946923
 30
0.0
 11
161.7751208079
 21
236.9315040297
 31
0.0
  0
DIMENSION
  5
177
330
1F
100
AcDbEntity
  8
0
  6
SLD-Durchgehend
 62
     1
370
    18
100
AcDbDimension
280
     0
  2
_D_2
 10
161.2751208079
 20
277.0530594884
 30
0.0
 11
151.1294198672
 21
277.0530594884
 31
0.0
 70
   160
  1
<>
 71
     2
 42
-1.0
 73
     0
 74
     0
 75
     0
  3
SLDDIMSTYLE0
100
AcDbAlignedDimension
 13
166.2751208079
 23
272.7515946923
 33
0.0
 14
161.2751208079
 24
272.2515946923
 34
0.0
100
AcDbRotatedDimension
  0
DIMENSION
  5
183
330
1F
100
AcDbEntity
  8
0
  6
SLD-Durchgehend
 62
     1
370
    18
100
AcDbDimension
280
     0
  2
_D_3
 10
47.2751208079
 20
287.7549123409
 30
0.0
 11
114.7797376095
 21
287.7549123409
 31
0.0
 70
   160
  1
<>
 71
     2
 42
-1.0
 73
     0
 74
     0
 75
     0
  3
SLDDIMSTYLE1
100
AcDbAlignedDimension
 13
166.2751208079
 23
272.7515946923
 33
0.0
 14
47.2751208079
 24
264.2515946923
 34
0.0
100
AcDbRotatedDimension
  0
DIMENSION
  5
18E
330
1F
100
AcDbEntity
  8
0
  6
SLD-Durchgehend
 62
     1
370
    18
100
AcDbDimension
280
     0
  2
_D_4
 10
149.3791168306
 20
246.7515946923
 30
0.0
 11
149.3791168306
 21
231.6945138555
 31
0.0
 70
   160
  1
%%c<>
 71
     2
 42
-1.0
 73
     0
 74
     0
 75
     0
  3
SLDDIMSTYLE1
100
AcDbAlignedDimension
 13
161.2751208079
 23
262.7515946923
 33
0.0
 14
161.2751208079
 24
246.7515946923
 34
0.0
 50
90.0
100
AcDbRotatedDimension
  0
SPLINE
  5
198
330
1F
100
AcDbEntity
  8
0
  6
SLD-Durchgehend
 62
     7
370
    25
100
AcDbSpline
210
0.0
220
0.0
230
1.0
 70
     8
 71
     3
 72
    64
 73
    60
 74
     0
 42
0.00000001
 43
0.00000001
 40
0.0
 40
0.0
 40
0.0
 40
0.0
 40
0.03125
 40
0.03125
 40
0.0625
 40
0.0625
 40
0.09375
 40
0.09375
 40
0.125
 40
0.125
 40
0.15625
 40
0.15625
 40
0.1875
 40
0.1875
 40
0.2499999999999999
 40
0.2499999999999999
 40
0.3124999999999999
 40
0.3124999999999999
 40
0.3437499999999998
 40
0.3437499999999998
 40
0.3749999999999998
 40
0.3749999999999998
 40
0.4062499999999999
 40
0.4062499999999999
 40
0.4374999999999999
 40
0.4374999999999999
 40
0.4687499999999999
 40
0.4687499999999999
 40
0.4999999999999999
 40
0.4999999999999999
 40
0.5312499999999999
 40
0.5312499999999999
 40
0.5624999999999999
 40
0.5624999999999999
 40
0.5937499999999999
 40
0.5937499999999999
 40
0.6249999999999999
 40
0.6249999999999999
 40
0.6562499999999999
 40
0.6562499999999999
 40
0.6874999999999999
 40
0.6874999999999999
 40
0.7187499999999999
 40
0.7187499999999999
 40
0.7499999999999999
 40
0.7499999999999999
 40
0.78125
 40
0.78125
 40
0.8125
 40
0.8125
 40
0.84375
 40
0.84375
 40
0.875
 40
0.875
 40
0.90625
 40
0.90625
 40
0.9375
 40
0.9375
 40
1.0
 40
1.0
 40
1.0
 40
1.0
 10
214.5995317059788
 20
186.6312145131602
 30
0.0
 10
214.6043377598358
 20
186.2845493783342
 30
0.0
 10
214.6352387729249
 20
185.9408013763906
 30
0.0
 10
214.7487152146934
 20
185.2590820574828
 30
0.0
 10
214.831598144497
 20
184.921865019941
 30
0.0
 10
215.0442407325379
 20
184.2708694741967
 30
0.0
 10
215.1743095926326
 20
183.9547845899025
 30
0.0
 10
215.4822243813337
 20
183.3415523558451
 30
0.0
 10
215.661771523216
 20
183.0424735203337
 30
0.0
 10
216.0587082672817
 20
182.4819006203985
 30
0.0
 10
216.276640416148
 20
182.2185081742246
 30
0.0
 10
216.7510153934577
 20
181.7251494022647
 30
0.0
 10
217.0096692425201
 20
181.4936436533005
 30
0.0
 10
217.83161594858
 20
180.8648773508687
 30
0.0
 10
218.430828885786
 20
180.5360339701903
 30
0.0
 10
219.7331587329595
 20
180.0614960338584
 30
0.0
 10
220.4045320267702
 20
179.9276330335702
 30
0.0
 10
221.4378177483588
 20
179.8803527628096
 30
0.0
 10
221.785095569946
 20
179.891106452672
 30
0.0
 10
222.465554568222
 20
179.9647312764295
 30
0.0
 10
222.8015707681654
 20
180.0272999358842
 30
0.0
 10
223.4650896852122
 20
180.2044806401399
 30
0.0
 10
223.7942813959793
 20
180.3202575993313
 30
0.0
 10
224.4221454755824
 20
180.5971194072847
 30
0.0
 10
224.7234328904369
 20
180.7586041686675
 30
0.0
 10
225.3008322412126
 20
181.1274740026181
 30
0.0
 10
225.5791574159583
 20
181.337004395209
 30
0.0
 10
226.0953423557015
 20
181.7923053581088
 30
0.0
 10
226.3337357488778
 20
182.0376165100786
 30
0.0
 10
226.7711461555604
 20
182.563521774033
 30
0.0
 10
226.9712847275001
 20
182.8458768635551
 30
0.0
 10
227.325345812339
 20
183.439430003547
 30
0.0
 10
227.4772481280789
 20
183.7465581418678
 30
0.0
 10
227.7324012648911
 20
184.3808563730782
 30
0.0
 10
227.835654447971
 20
184.7080254929175
 30
0.0
 10
227.9915096415399
 20
185.3832294652501
 30
0.0
 10
228.0422264494416
 20
185.7235328537985
 30
0.0
 10
228.0908044256522
 20
186.4056748938623
 30
0.0
 10
228.0889014442221
 20
186.748121869177
 30
0.0
 10
228.0302605888487
 20
187.4358816799997
 30
0.0
 10
227.9733566975897
 20
187.7782673936809
 30
0.0
 10
227.8086908461674
 20
188.4425340043818
 30
0.0
 10
227.7007495128554
 20
188.767091392069
 30
0.0
 10
227.4328240579446
 20
189.4008099574661
 30
0.0
 10
227.2719997030579
 20
189.7102285454519
 30
0.0
 10
226.9089961142298
 20
190.2916879809121
 30
0.0
 10
226.7057605086712
 20
190.5666888878042
 30
0.0
 10
226.2556147758022
 20
191.0850833971529
 30
0.0
 10
226.0066397565641
 20
191.329883523438
 30
0.0
 10
225.4801098135841
 20
191.770430341724
 30
0.0
 10
225.2013305611419
 20
191.9682555178022
 30
0.0
 10
224.6129283126604
 20
192.3192767376412
 30
0.0
 10
224.3002663811188
 20
192.4734988830738
 30
0.0
 10
223.6605931839641
 20
192.7274193588301
 30
0.0
 10
223.3335528624853
 20
192.8278590302251
 30
0.0
 10
222.6652915167338
 20
192.976532046602
 30
0.0
 10
222.3210940977641
 20
193.0248701835477
 30
0.0
 10
221.2885883696138
 20
193.0858640218215
 30
0.0
 10
220.6092124704373
 20
193.0179870895402
 30
0.0
 10
219.9391098630275
 20
192.8380723069268
 30
0.0
  0
ARC
  5
199
330
1F
100
AcDbEntity
  8
0
  6
SLD-Durchgehend
 62
     7
370
    25
100
AcDbCircle
 10
221.499531706
 20
186.6312145132
 30
0.0
 40
6.899999999999977
100
AcDbArc
 50
135.0003383591
 51
180.0
  0
SPLINE
  5
19A
330
1F
100
AcDbEntity
  8
0
  6
SLD-Durchgehend
 62
     7
370
    25
100
AcDbSpline
210
0.0
220
0.0
230
1.0
 70
     8
 71
     3
 72
    16
 73
    12
 74
     0
 42
0.00000001
 43
0.00000001
 40
0.0
 40
0.0
 40
0.0
 40
0.0
 40
0.2500000000000001
 40
0.2500000000000001
 40
0.5000000000000001
 40
0.5000000000000001
 40
0.6250000000000001
 40
0.6250000000000001
 40
0.7500000000000002
 40
0.7500000000000002
 40
1.0
 40
1.0
 40
1.0
 40
1.0
 10
214.8952827731593
 20
186.6312145131603
 30
0.0
 10
214.871157501995
 20
187.0775079828569
 30
0.0
 10
214.8912018627496
 20
187.5218104406264
 30
0.0
 10
215.0196114733868
 20
188.4062536789022
 30
0.0
 10
215.126274666187
 20
188.834744790197
 30
0.0
 10
215.3473636791007
 20
189.457724896313
 30
0.0
 10
215.4313183106561
 20
189.662067587496
 30
0.0
 10
215.6202173437738
 20
190.0639649888189
 30
0.0
 10
215.7256240058666
 20
190.262038698821
 30
0.0
 10
216.0659838258662
 20
190.8319593910953
 30
0.0
 10
216.3267505365477
 20
191.1844509443822
 30
0.0
 10
216.6204661028206
 20
191.5102224902062
 30
0.0
  0
LINE
  5
19B
330
1F
100
AcDbEntity
  8
0
  6
SLD-Durchgehend
 62
     7
370
    25
100
AcDbLine
 10
215.099531706
 20
186.6312145132
 30
0.0
 11
214.8952827732
 21
186.6312145132
 31
0.0
  0
ARC
  5
19C
330
1F
100
AcDbEntity
  8
0
  6
SLD-Durchgehend
 62
     7
370
    25
100
AcDbCircle
 10
221.499531706
 20
186.6312145132
 30
0.0
 40
6.400000000000006
100
AcDbArc
 50
180.0
 51
104.111868668
  0
SPLINE
  5
19D
330
1F
100
AcDbEntity
  8
0
  6
SLD-Durchgehend
 62
     7
370
    25
100
AcDbSpline
210
0.0
220
0.0
230
1.0
 70
     8
 71
     3
 72
    18
 73
    14
 74
     0
 42
0.00000001
 43
0.00000001
 40
0.0
 40
0.0
 40
0.0
 40
0.0
 40
0.125
 40
0.125
 40
0.2500000000000001
 40
0.2500000000000001
 40
0.5000000000000001
 40
0.5000000000000001
 40
0.75
 40
0.75
 40
0.875
 40
0.875
 40
1.0
 40
1.0
 40
1.0
 40
1.0
 10
219.0661470065409
 20
192.5059176535154
 30
0.0
 10
218.7845678082682
 20
192.3743323228115
 30
0.0
 10
218.5110799263366
 20
192.2263786621822
 30
0.0
 10
217.9876269743754
 20
191.8949313261494
 30
0.0
 10
217.7357454666001
 20
191.710317750792
 30
0.0
 10
217.0299279367779
 20
191.1129956991992
 30
0.0
 10
216.6206324602532
 20
190.6555426679908
 30
0.0
 10
215.9335211931026
 20
189.6190617312617
 30
0.0
 10
215.6662381244833
 20
189.0534263166165
 30
0.0
 10
215.3929705797971
 20
188.1639358594817
 30
0.0
 10
215.3231708596619
 20
187.8603325303082
 30
0.0
 10
215.22809136091
 20
187.2501808968641
 30
0.0
 10
215.2023109058663
 20
186.9421866703356
 30
0.0
 10
215.1987335250118
 20
186.6312145131603
 30
0.0
  0
LINE
  5
19E
330
1F
100
AcDbEntity
  8
0
  6
SLD-Durchgehend
 62
     7
370
    25
100
AcDbLine
 10
215.198733525
 20
186.6312145132
 30
0.0
 11
215.099531706
 21
186.6312145132
 31
0.0
  0
CIRCLE
  5
19F
330
1F
100
AcDbEntity
  8
0
  6
SLD-Durchgehend
 62
     7
370
    25
100
AcDbCircle
 10
221.499531706
 20
186.6312145132
 30
0.0
 40
2.099999999999994
  0
SPLINE
  5
1A0
330
1F
100
AcDbEntity
  8
0
  6
SLD-Durchgehend
 62
     7
370
    25
100
AcDbSpline
210
0.0
220
0.0
230
1.0
 70
     8
 71
     3
 72
     8
 73
     4
 74
     0
 42
0.00000001
 43
0.00000001
 40
0.0
 40
0.0
 40
0.0
 40
0.0
 40
1.0
 40
1.0
 40
1.0
 40
1.0
 10
219.9391098630275
 20
192.8380723069268
 30
0.0
 10
219.6425149711943
 20
192.7495653154554
 30
0.0
 10
219.3491774080596
 20
192.6381811429564
 30
0.0
 10
219.0661470065409
 20
192.5059176535154
 30
0.0
  0
SPLINE
  5
1A1
330
1F
100
AcDbEntity
  8
0
  6
SLD-Durchgehend
 62
     7
370
    25
100
AcDbSpline
210
0.0
220
0.0
230
1.0
 70
     8
 71
     3
 72
    58
 73
    54
 74
     0
 42
0.00000001
 43
0.00000001
 40
0.0
 40
0.0
 40
0.0
 40
0.0
 40
0.0625
 40
0.0625
 40
0.1249999999999999
 40
0.1249999999999999
 40
0.1562499999999999
 40
0.1562499999999999
 40
0.1874999999999999
 40
0.1874999999999999
 40
0.2499999999999999
 40
0.2499999999999999
 40
0.2812499999999998
 40
0.2812499999999998
 40
0.2968749999999998
 40
0.2968749999999998
 40
0.3124999999999998
 40
0.3124999999999998
 40
0.3749999999999999
 40
0.3749999999999999
 40
0.4062499999999999
 40
0.4062499999999999
 40
0.4218749999999999
 40
0.4218749999999999
 40
0.4374999999999999
 40
0.4374999999999999
 40
0.4999999999999999
 40
0.4999999999999999
 40
0.5624999999999999
 40
0.5624999999999999
 40
0.5781249999999999
 40
0.5781249999999999
 40
0.5937499999999999
 40
0.5937499999999999
 40
0.6249999999999998
 40
0.6249999999999998
 40
0.6874999999999999
 40
0.6874999999999999
 40
0.7031249999999999
 40
0.7031249999999999
 40
0.7187499999999999
 40
0.7187499999999999
 40
0.7499999999999999
 40
0.7499999999999999
 40
0.8125
 40
0.8125
 40
0.84375
 40
0.84375
 40
0.8749999999999999
 40
0.8749999999999999
 40
0.9374999999999999
 40
0.9374999999999999
 40
1.0
 40
1.0
 40
1.0
 40
1.0
 10
216.6204661028204
 20
191.5102224902062
 30
0.0
 10
217.1650427025472
 20
192.0548055219438
 30
0.0
 10
217.8223440494704
 20
192.5243033789779
 30
0.0
 10
219.2685234565948
 20
193.2094215358058
 30
0.0
 10
220.0550283058835
 20
193.4236221374339
 30
0.0
 10
221.2243499238132
 20
193.5368370657299
 30
0.0
 10
221.6083979013588
 20
193.5413767992681
 30
0.0
 10
222.3866060233696
 20
193.4850669936466
 30
0.0
 10
222.7787148840303
 20
193.4232812946242
 30
0.0
 10
223.9376904308977
 20
193.1350061072694
 30
0.0
 10
224.6855628755783
 20
192.8027384908776
 30
0.0
 10
225.6730624949792
 20
192.1401859651253
 30
0.0
 10
225.9801578821627
 20
191.8927398515797
 30
0.0
 10
226.4002035646896
 20
191.4923697552425
 30
0.0
 10
226.5338159043808
 20
191.3539128805335
 30
0.0
 10
226.7920821884495
 20
191.0625581750724
 30
0.0
 10
226.9159609415734
 20
190.910367045673
 30
0.0
 10
227.5045835851307
 20
190.1199083805134
 30
0.0
 10
227.8738889294699
 20
189.3908175957773
 30
0.0
 10
228.2202709825472
 20
188.2440143683673
 30
0.0
 10
228.3017908218889
 20
187.8533809364767
 30
0.0
 10
228.3728719347853
 20
187.2682381081989
 30
0.0
 10
228.3880816321316
 20
187.0733233895169
 30
0.0
 10
228.4020380647664
 20
186.685861659017
 30
0.0
 10
228.4008987785398
 20
186.4938332115575
 30
0.0
 10
228.3542417591649
 20
185.5236010594181
 30
0.0
 10
228.1806915343792
 20
184.7303986899881
 30
0.0
 10
227.5679256366532
 20
183.2510381052777
 30
0.0
 10
227.1297694082016
 20
182.5674376805647
 30
0.0
 10
226.4767067761635
 20
181.8483838145809
 30
0.0
 10
226.3417284905104
 20
181.7117927419594
 30
0.0
 10
226.0578848598714
 20
181.4476832083941
 30
0.0
 10
225.909305363943
 20
181.3206117993942
 30
0.0
 10
225.4452875381672
 20
180.9571127776877
 30
0.0
 10
225.1114262883161
 20
180.7385345434414
 30
0.0
 10
224.0555886385475
 20
180.1725450096754
 30
0.0
 10
223.2789066916266
 20
179.918133360194
 30
0.0
 10
222.3037490763486
 20
179.7754077378557
 30
0.0
 10
222.1085381387325
 20
179.7553866720716
 30
0.0
 10
221.7198971601977
 20
179.7319872809253
 30
0.0
 10
221.5275149118443
 20
179.7285605444476
 30
0.0
 10
220.9473939105031
 20
179.7424698277195
 30
0.0
 10
220.5552739424882
 20
179.7846458257524
 30
0.0
 10
219.3885101899876
 20
180.0144108875228
 30
0.0
 10
218.6247340475331
 20
180.3082830673925
 30
0.0
 10
217.6013690144471
 20
180.9239552285674
 30
0.0
 10
217.280415438541
 20
181.1575271924404
 30
0.0
 10
216.6903185283103
 20
181.6679833504087
 30
0.0
 10
216.4219641998486
 20
181.9427546596784
 30
0.0
 10
215.6751792207126
 20
182.8496396513524
 30
0.0
 10
215.270494750992
 20
183.5572424491449
 30
0.0
 10
214.7323338516234
 20
185.0642943374827
 30
0.0
 10
214.5995317059788
 20
185.8610632566132
 30
0.0
 10
214.5995317059788
 20
186.6312145131603
 30
0.0
  0
CIRCLE
  5
1A2
330
1F
100
AcDbEntity
  8
0
  6
SLD-Durchgehend
 62
     7
370
    25
100
AcDbCircle
 10
213.0142503317
 20
195.1164958874
 30
0.0
 40
1.899999999999949
  0
CIRCLE
  5
1A3
330
1F
100
AcDbEntity
  8
0
  6
SLD-Durchgehend
 62
     7
370
    25
100
AcDbCircle
 10
213.0142503317
 20
195.1164958874
 30
0.0
 40
1.999999999999972
  0
CIRCLE
  5
1A4
330
1F
100
AcDbEntity
  8
0
  6
SLD-Durchgehend
 62
     7
370
    25
100
AcDbCircle
 10
229.9848130802
 20
195.1164958874
 30
0.0
 40
1.900000000000006
  0
CIRCLE
  5
1A5
330
1F
100
AcDbEntity
  8
0
  6
SLD-Durchgehend
 62
     7
370
    25
100
AcDbCircle
 10
229.9848130802
 20
195.1164958874
 30
0.0
 40
2.0
  0
CIRCLE
  5
1A6
330
1F
100
AcDbEntity
  8
0
  6
SLD-Durchgehend
 62
     7
370
    25
100
AcDbCircle
 10
213.0142503317
 20
178.1459331389
 30
0.0
 40
1.900000000000006
  0
CIRCLE
  5
1A7
330
1F
100
AcDbEntity
  8
0
  6
SLD-Durchgehend
 62
     7
370
    25
100
AcDbCircle
 10
229.9848130802
 20
178.1459331389
 30
0.0
 40
1.899999999999977
  0
CIRCLE
  5
1A8
330
1F
100
AcDbEntity
  8
0
  6
SLD-Durchgehend
 62
     7
370
    25
100
AcDbCircle
 10
229.9848130802
 20
178.1459331389
 30
0.0
 40
1.999999999999972
  0
CIRCLE
  5
1A9
330
1F
100
AcDbEntity
  8
0
  6
SLD-Durchgehend
 62
     7
370
    25
100
AcDbCircle
 10
213.0142503317
 20
178.1459331389
 30
0.0
 40
2.0
  0
CIRCLE
  5
1AA
330
1F
100
AcDbEntity
  8
0
  6
SLD-Durchgehend
 62
     7
370
    25
100
AcDbCircle
 10
221.499531706
 20
186.6312145132
 30
0.0
 40
7.400000000000006
  0
CIRCLE
  5
1AB
330
1F
100
AcDbEntity
  8
0
  6
SLD-Durchgehend
 62
     7
370
    25
100
AcDbCircle
 10
221.499531706
 20
186.6312145132
 30
0.0
 40
15.99999999999997
  0
CIRCLE
  5
1AC
330
1F
100
AcDbEntity
  8
0
  6
SLD-Durchgehend
 62
     7
370
    25
100
AcDbCircle
 10
221.499531706
 20
175.6312145132
 30
0.0
 40
0.75
  0
CIRCLE
  5
1AD
330
1F
100
AcDbEntity
  8
0
  6
SLD-Durchgehend
 62
     7
370
    25
100
AcDbCircle
 10
221.499531706
 20
196.6312145132
 30
0.0
 40
2.19999999999996
  0
CIRCLE
  5
1AE
330
1F
100
AcDbEntity
  8
0
  6
SLD-Durchgehend
 62
     7
370
    25
100
AcDbCircle
 10
221.499531706
 20
196.6312145132
 30
0.0
 40
1.700000000000017
  0
SPLINE
  5
1AF
330
1F
100
AcDbEntity
  8
0
  6
SLD-Durchgehend
 62
     8
370
    18
100
AcDbSpline
210
0.0
220
0.0
230
1.0
 70
     8
 71
     3
 72
    13
 73
     9
 74
     0
 42
0.00000001
 43
0.00000001
 40
0.0
 40
0.0
 40
0.0
 40
0.0
 40
0.1756650302627158
 40
0.3547759701201156
 40
0.5338869099775154
 40
0.7095519402402312
 40
0.885216970502947
 40
1.0
 40
1.0
 40
1.0
 40
1.0
 10
215.1407977059788
 20
186.6312145131603
 30
0.0
 10
215.164016812013
 20
187.043368375533
 30
0.0
 10
215.2109104985725
 20
187.8757610614498
 30
0.0
 10
215.5893951910459
 20
189.0801874367675
 30
0.0
 10
216.179110438905
 20
190.1916690868221
 30
0.0
 10
216.9778465386099
 20
191.1504465829137
 30
0.0
 10
217.8144120637699
 20
191.8712747684251
 30
0.0
 10
218.4259989087704
 20
192.17315068537
 30
0.0
 10
218.6676937265211
 20
192.2924499236153
 30
0.0
  0
DIMENSION
  5
1B0
330
1F
100
AcDbEntity
  8
0
  6
SLD-Durchgehend
 62
     1
370
    18
100
AcDbDimension
280
     0
  2
_D_5
 10
237.499531706
 20
209.4190116862
 30
0.0
 11
219.7015721088
 21
209.4190116862
 31
0.0
 70
   160
  1
%%c<>
 71
     2
 42
-1.0
 73
     0
 74
     0
 75
     0
  3
SLDDIMSTYLE0
100
AcDbAlignedDimension
 13
205.499531706
 23
186.6312145132
 33
0.0
 14
237.499531706
 24
186.6312145132
 34
0.0
100
AcDbRotatedDimension
  0
DIMENSION
  5
1BD
330
1F
100
AcDbEntity
  8
0
  6
SLD-Durchgehend
 62
     1
370
    18
100
AcDbDimension
280
     0
  2
_D_6
 10
223.599531706
 20
155.2528268187
 30
0.0
 11
249.0684737271
 21
155.2528268187
 31
0.0
 70
   160
  1
%%c<>
 71
     2
 42
-1.0
 73
     0
 74
     0
 75
     0
  3
SLDDIMSTYLE0
100
AcDbAlignedDimension
 13
219.399531706
 23
186.6312145132
 33
0.0
 14
223.599531706
 24
186.6312145132
 34
0.0
100
AcDbRotatedDimension
  0
ENDSEC
  0
SECTION
  2
OBJECTS
  0
DICTIONARY
  5
C
330
0
100
AcDbDictionary
281
     1
  3
ACAD_DETAILVIEWSTYLE
350
1D2
  3
ACAD_GROUP
350
D
  3
ACAD_LAYOUT
350
1A
  3
ACAD_MATERIAL
350
43
  3
ACAD_MLEADERSTYLE
350
6B
  3
ACAD_MLINESTYLE
350
17
  3
ACAD_PLOTSETTINGS
350
19
  3
ACAD_PLOTSTYLENAME
350
E
  3
ACAD_SCALELIST
350
47
  3
ACAD_SECTIONVIEWSTYLE
350
1D3
  3
ACAD_TABLESTYLE
350
69
  3
ACAD_VISUALSTYLE
350
2A
  3
ACDB_RECOMPOSE_DATA
350
1CF
  3
AcDbVariableDictionary
350
1CB
  0
SUN
  5
6D
330
29
100
AcDbSun
 90
        1
290
     0
 63
     7
421
 16777215
 40
1.0
291
     1
 91
  2455826
 92
 54000000
292
     0
 70
     2
 71
   256
280
     1
  0
DICTIONARY
  5
1D2
102
{ACAD_REACTORS
330
C
102
}
330
C
100
AcDbDictionary
281
     1
  0
DICTIONARY
  5
D
102
{ACAD_REACTORS
330
C
102
}
330
C
100
AcDbDictionary
281
     1
  0
DICTIONARY
  5
1A
102
{ACAD_REACTORS
330
C
102
}
330
C
100
AcDbDictionary
281
     1
  3
Layout1
350
1E
  3
Layout2
350
26
  3
Model
350
22
  0
DICTIONARY
  5
43
102
{ACAD_REACTORS
330
C
102
}
330
C
100
AcDbDictionary
281
     1
  3
ByBlock
350
45
  3
ByLayer
350
44
  3
Global
350
46
  0
DICTIONARY
  5
6B
102
{ACAD_REACTORS
330
C
102
}
330
C
100
AcDbDictionary
281
     1
  3
Standard
350
6C
  0
DICTIONARY
  5
17
102
{ACAD_REACTORS
330
C
102
}
330
C
100
AcDbDictionary
281
     1
  3
Standard
350
18
  0
DICTIONARY
  5
19
102
{ACAD_REACTORS
330
C
102
}
330
C
100
AcDbDictionary
281
     1
  0
ACDBDICTIONARYWDFLT
  5
E
102
{ACAD_REACTORS
330
C
102
}
330
C
100
AcDbDictionary
281
     1
  3
Normal
350
F
100
AcDbDictionaryWithDefault
340
F
  0
DICTIONARY
  5
47
102
{ACAD_REACTORS
330
C
102
}
330
C
100
AcDbDictionary
281
     1
  3
A0
350
48
  3
A1
350
49
  3
A2
350
4A
  3
A3
350
4B
  3
A4
350
4C
  3
A5
350
4D
  3
A6
350
4E
  3
A7
350
4F
  3
A8
350
50
  3
A9
350
51
  3
B0
350
52
  3
B1
350
53
  3
B2
350
54
  3
B3
350
55
  3
B4
350
56
  3
B5
350
57
  3
B6
350
58
  3
B7
350
59
  3
B8
350
5A
  3
B9
350
5B
  3
C0
350
5C
  3
C1
350
5D
  3
C2
350
5E
  3
C3
350
5F
  3
C4
350
60
  3
C5
350
61
  3
C6
350
62
  3
C7
350
63
  3
C8
350
64
  3
C9
350
65
  3
D0
350
66
  3
D1
350
67
  3
D2
350
68
  0
DICTIONARY
  5
1D3
102
{ACAD_REACTORS
330
C
102
}
330
C
100
AcDbDictionary
281
     1
  0
DICTIONARY
  5
69
102
{ACAD_REACTORS
330
C
102
}
330
C
100
AcDbDictionary
281
     1
  3
Standard
350
6A
  0
DICTIONARY
  5
2A
102
{ACAD_REACTORS
330
C
102
}
330
C
100
AcDbDictionary
281
     1
  3
2dWireframe
350
2F
  3
Basic
350
32
  3
Brighten
350
36
  3
ColorChange
350
3A
  3
Conceptual
350
34
  3
Dim
350
35
  3
EdgeColorOff
350
3D
  3
Facepattern
350
39
  3
Flat
350
2B
  3
FlatWithEdges
350
2C
  3
Gouraud
350
2D
  3
GouraudWithEdges
350
2E
  3
Hidden
350
31
  3
JitterOff
350
3B
  3
Linepattern
350
38
  3
OverhangOff
350
3C
  3
Realistic
350
33
  3
Shaded
350
42
  3
Shaded with edges
350
41
  3
Shades of Gray
350
3E
  3
Sketchy
350
3F
  3
Thicken
350
37
  3
Wireframe
350
30
  3
X-Ray
350
40
  0
XRECORD
  5
1CF
102
{ACAD_REACTORS
330
C
102
}
330
C
100
AcDbXrecord
280
     1
 90
        1
330
6A
  0
DICTIONARY
  5
1CB
102
{ACAD_REACTORS
330
C
102
}
330
C
100
AcDbDictionary
281
     1
  3
CANNOSCALE
350
1CC
  3
CENTEREXE
350
1D4
  3
CENTERLTYPEFILE
350
1D5
  3
CMLEADERSTYLE
350
1D1
  3
CTABLESTYLE
350
1D0
  0
LAYOUT
  5
1E
102
{ACAD_REACTORS
330
1A
102
}
330
1A
100
AcDbPlotSettings
  1

  2
none_device
  4

  6

 40
0.0
 41
0.0
 42
0.0
 43
0.0
 44
0.0
 45
0.0
 46
0.0
 47
0.0
 48
0.0
 49
0.0
140
0.0
141
0.0
142
1.0
143
1.0
 70
   688
 72
     1
 73
     0
 74
     5
  7

 75
    16
 76
     0
 77
     2
 78
   300
147
1.0
148
0.0
149
0.0
100
AcDbLayout
  1
Layout1
 70
     1
 71
     1
 10
0.0
 20
0.0
 11
420.0
 21
297.0
 12
0.0
 22
0.0
 32
0.0
 14
1.0000000000E+20
 24
1.0000000000E+20
 34
1.0000000000E+20
 15
-1.0000000000E+20
 25
-1.0000000000E+20
 35
-1.0000000000E+20
146
0.0
 13
0.0
 23
0.0
 33
0.0
 16
1.0
 26
0.0
 36
0.0
 17
0.0
 27
1.0
 37
0.0
 76
     0
330
1B
  0
LAYOUT
  5
26
102
{ACAD_REACTORS
330
1A
102
}
330
1A
100
AcDbPlotSettings
  1

  2
none_device
  4

  6

 40
0.0
 41
0.0
 42
0.0
 43
0.0
 44
0.0
 45
0.0
 46
0.0
 47
0.0
 48
0.0
 49
0.0
140
0.0
141
0.0
142
1.0
143
1.0
 70
   688
 72
     1
 73
     0
 74
     5
  7

 75
    16
 76
     0
 77
     2
 78
   300
147
1.0
148
0.0
149
0.0
100
AcDbLayout
  1
Layout2
 70
     1
 71
     2
 10
0.0
 20
0.0
 11
0.0
 21
0.0
 12
0.0
 22
0.0
 32
0.0
 14
0.0
 24
0.0
 34
0.0
 15
0.0
 25
0.0
 35
0.0
146
0.0
 13
0.0
 23
0.0
 33
0.0
 16
1.0
 26
0.0
 36
0.0
 17
0.0
 27
1.0
 37
0.0
 76
     0
330
23
  0
LAYOUT
  5
22
102
{ACAD_REACTORS
330
1A
102
}
330
1A
100
AcDbPlotSettings
  1

  2
none_device
  4
Letter_(8.50_x_11.00_Inches)
  6

 40
6.35
 41
6.35
 42
6.35000508
 43
6.35000508
 44
215.9
 45
279.4
 46
0.0
 47
0.0
 48
0.0
 49
0.0
140
0.0
141
0.0
142
1.0
143
1.0
 70
  1712
 72
     1
 73
     0
 74
     0
  7

 75
     0
 76
     0
 77
     2
 78
   300
147
1.0
148
0.0
149
0.0
100
AcDbLayout
  1
Model
 70
     1
 71
     0
 10
0.0
 20
0.0
 11
315.0
 21
445.5
 12
0.0
 22
0.0
 32
0.0
 14
0.0
 24
0.0
 34
0.0
 15
315.0
 25
445.5
 35
0.0
146
0.0
 13
0.0
 23
0.0
 33
0.0
 16
1.0
 26
0.0
 36
0.0
 17
0.0
 27
1.0
 37
0.0
 76
     0
330
1F
331
29
  0
MATERIAL
  5
45
102
{ACAD_REACTORS
330
43
102
}
330
43
100
AcDbMaterial
  1
ByBlock
 72
     1
 94
      127
  0
MATERIAL
  5
44
102
{ACAD_REACTORS
330
43
102
}
330
43
100
AcDbMaterial
  1
ByLayer
 72
     1
 94
      127
  0
MATERIAL
  5
46
102
{ACAD_REACTORS
330
43
102
}
330
43
100
AcDbMaterial
  1
Global
 72
     1
 94
      127
  0
MLEADERSTYLE
  5
6C
102
{ACAD_REACTORS
330
6B
102
}
330
6B
100
AcDbMLeaderStyle
179
     2
170
     2
171
     1
172
     0
 90
        2
 40
0.0
 41
0.0
173
     1
 91
-1056964608
340
14
 92
       -2
290
     1
 42
2.0
291
     1
 43
8.0
  3
Standard
341
0
 44
4.0
300

342
11
174
     1
178
     6
175
     1
176
     0
 93
-1056964608
 45
4.0
292
     0
297
     0
 46
4.0
343
0
 94
-1056964608
 47
1.0
 49
1.0
140
1.0
293
     1
141
0.0
294
     1
177
     0
142
1.0
295
     0
296
     0
143
3.75
271
     0
272
     9
273
     9
298
     0
  0
MLINESTYLE
  5
18
102
{ACAD_REACTORS
330
17
102
}
330
17
100
AcDbMlineStyle
  2
Standard
 70
     0
  3

 62
   256
 51
90.0
 52
90.0
 71
     2
 49
0.5
 62
   256
  6
BYLAYER
 49
-0.5
 62
   256
  6
BYLAYER
  0
ACDBPLACEHOLDER
  5
F
102
{ACAD_REACTORS
330
E
102
}
330
E
  0
SCALE
  5
48
102
{ACAD_REACTORS
330
47
102
}
330
47
100
AcDbScale
 70
     0
300
1:1
140
1.0
141
1.0
290
     1
  0
SCALE
  5
49
102
{ACAD_REACTORS
330
47
102
}
330
47
100
AcDbScale
 70
     0
300
1:2
140
1.0
141
2.0
290
     0
  0
SCALE
  5
4A
102
{ACAD_REACTORS
330
47
102
}
330
47
100
AcDbScale
 70
     0
300
1:4
140
1.0
141
4.0
290
     0
  0
SCALE
  5
4B
102
{ACAD_REACTORS
330
47
102
}
330
47
100
AcDbScale
 70
     0
300
1:5
140
1.0
141
5.0
290
     0
  0
SCALE
  5
4C
102
{ACAD_REACTORS
330
47
102
}
330
47
100
AcDbScale
 70
     0
300
1:8
140
1.0
141
8.0
290
     0
  0
SCALE
  5
4D
102
{ACAD_REACTORS
330
47
102
}
330
47
100
AcDbScale
 70
     0
300
1:10
140
1.0
141
10.0
290
     0
  0
SCALE
  5
4E
102
{ACAD_REACTORS
330
47
102
}
330
47
100
AcDbScale
 70
     0
300
1:16
140
1.0
141
16.0
290
     0
  0
SCALE
  5
4F
102
{ACAD_REACTORS
330
47
102
}
330
47
100
AcDbScale
 70
     0
300
1:20
140
1.0
141
20.0
290
     0
  0
SCALE
  5
50
102
{ACAD_REACTORS
330
47
102
}
330
47
100
AcDbScale
 70
     0
300
1:30
140
1.0
141
30.0
290
     0
  0
SCALE
  5
51
102
{ACAD_REACTORS
330
47
102
}
330
47
100
AcDbScale
 70
     0
300
1:40
140
1.0
141
40.0
290
     0
  0
SCALE
  5
52
102
{ACAD_REACTORS
330
47
102
}
330
47
100
AcDbScale
 70
     0
300
1:50
140
1.0
141
50.0
290
     0
  0
SCALE
  5
53
102
{ACAD_REACTORS
330
47
102
}
330
47
100
AcDbScale
 70
     0
300
1:100
140
1.0
141
100.0
290
     0
  0
SCALE
  5
54
102
{ACAD_REACTORS
330
47
102
}
330
47
100
AcDbScale
 70
     0
300
2:1
140
2.0
141
1.0
290
     0
  0
SCALE
  5
55
102
{ACAD_REACTORS
330
47
102
}
330
47
100
AcDbScale
 70
     0
300
4:1
140
4.0
141
1.0
290
     0
  0
SCALE
  5
56
102
{ACAD_REACTORS
330
47
102
}
330
47
100
AcDbScale
 70
     0
300
8:1
140
8.0
141
1.0
290
     0
  0
SCALE
  5
57
102
{ACAD_REACTORS
330
47
102
}
330
47
100
AcDbScale
 70
     0
300
10:1
140
10.0
141
1.0
290
     0
  0
SCALE
  5
58
102
{ACAD_REACTORS
330
47
102
}
330
47
100
AcDbScale
 70
     0
300
100:1
140
100.0
141
1.0
290
     0
  0
SCALE
  5
59
102
{ACAD_REACTORS
330
47
102
}
330
47
100
AcDbScale
 70
     0
300
1/128" = 1'-0"
140
0.0078125
141
12.0
290
     0
  0
SCALE
  5
5A
102
{ACAD_REACTORS
330
47
102
}
330
47
100
AcDbScale
 70
     0
300
1/64" = 1'-0"
140
0.015625
141
12.0
290
     0
  0
SCALE
  5
5B
102
{ACAD_REACTORS
330
47
102
}
330
47
100
AcDbScale
 70
     0
300
1/32" = 1'-0"
140
0.03125
141
12.0
290
     0
  0
SCALE
  5
5C
102
{ACAD_REACTORS
330
47
102
}
330
47
100
AcDbScale
 70
     0
300
1/16" = 1'-0"
140
0.0625
141
12.0
290
     0
  0
SCALE
  5
5D
102
{ACAD_REACTORS
330
47
102
}
330
47
100
AcDbScale
 70
     0
300
3/32" = 1'-0"
140
0.09375
141
12.0
290
     0
  0
SCALE
  5
5E
102
{ACAD_REACTORS
330
47
102
}
330
47
100
AcDbScale
 70
     0
300
1/8" = 1'-0"
140
0.125
141
12.0
290
     0
  0
SCALE
  5
5F
102
{ACAD_REACTORS
330
47
102
}
330
47
100
AcDbScale
 70
     0
300
3/16" = 1'-0"
140
0.1875
141
12.0
290
     0
  0
SCALE
  5
60
102
{ACAD_REACTORS
330
47
102
}
330
47
100
AcDbScale
 70
     0
300
1/4" = 1'-0"
140
0.25
141
12.0
290
     0
  0
SCALE
  5
61
102
{ACAD_REACTORS
330
47
102
}
330
47
100
AcDbScale
 70
     0
300
3/8" = 1'-0"
140
0.375
141
12.0
290
     0
  0
SCALE
  5
62
102
{ACAD_REACTORS
330
47
102
}
330
47
100
AcDbScale
 70
     0
300
1/2" = 1'-0"
140
0.5
141
12.0
290
     0
  0
SCALE
  5
63
102
{ACAD_REACTORS
330
47
102
}
330
47
100
AcDbScale
 70
     0
300
3/4" = 1'-0"
140
0.75
141
12.0
290
     0
  0
SCALE
  5
64
102
{ACAD_REACTORS
330
47
102
}
330
47
100
AcDbScale
 70
     0
300
1" = 1'-0"
140
1.0
141
12.0
290
     0
  0
SCALE
  5
65
102
{ACAD_REACTORS
330
47
102
}
330
47
100
AcDbScale
 70
     0
300
1-1/2" = 1'-0"
140
1.5
141
12.0
290
     0
  0
SCALE
  5
66
102
{ACAD_REACTORS
330
47
102
}
330
47
100
AcDbScale
 70
     0
300
3" = 1'-0"
140
3.0
141
12.0
290
     0
  0
SCALE
  5
67
102
{ACAD_REACTORS
330
47
102
}
330
47
100
AcDbScale
 70
     0
300
6" = 1'-0"
140
6.0
141
12.0
290
     0
  0
SCALE
  5
68
102
{ACAD_REACTORS
330
47
102
}
330
47
100
AcDbScale
 70
     0
300
1'-0" = 1'-0"
140
12.0
141
12.0
290
     0
  0
TABLESTYLE
  5
6A
102
{ACAD_REACTORS
330
69
102
}
102
{ACAD_XDICTIONARY
360
1CD
102
}
330
69
100
AcDbTableStyle
  3
Standard
 70
     0
 71
     0
 40
0.06
 41
0.06
280
     0
281
     0
  7
STANDARD
140
4.5
170
     2
 62
     0
 63
   257
283
     0
 90
        4
 91
        0
  1

274
    -2
284
     1
 64
     0
275
    -2
285
     1
 65
     0
276
    -2
286
     1
 66
     0
277
    -2
287
     1
 67
     0
278
    -2
288
     1
 68
     0
279
    -2
289
     1
 69
     0
  7
STANDARD
140
6.0
170
     5
 62
     0
 63
   257
283
     0
 90
        4
 91
        0
  1

274
    -2
284
     1
 64
     0
275
    -2
285
     1
 65
     0
276
    -2
286
     1
 66
     0
277
    -2
287
     1
 67
     0
278
    -2
288
     1
 68
     0
279
    -2
289
     1
 69
     0
  7
STANDARD
140
4.5
170
     5
 62
     0
 63
   257
283
     0
 90
        4
 91
        0
  1

274
    -2
284
     1
 64
     0
275
    -2
285
     1
 65
     0
276
    -2
286
     1
 66
     0
277
    -2
287
     1
 67
     0
278
    -2
288
     1
 68
     0
279
    -2
289
     1
 69
     0
  0
VISUALSTYLE
  5
2F
102
{ACAD_REACTORS
330
2A
102
}
330
2A
100
AcDbVisualStyle
  2
2dWireframe
 70
     4
177
     3
291
     0
 70
    58
 90
        0
176
     1
 90
        2
176
     1
 90
        0
176
     1
 90
        0
176
     1
 40
0.6
176
     1
 40
30.0
176
     1
 62
     7
420
 16777215
176
     1
 90
        1
176
     1
 90
        4
176
     1
 62
     7
176
     1
 62
   257
176
     1
 90
        1
176
     1
 90
        1
176
     1
 40
1.0
176
     1
 90
        0
176
     1
 62
   257
176
     1
 40
1.0
176
     1
 90
        1
176
     1
 90
        6
176
     1
 90
        2
176
     1
 62
     7
176
     1
 90
        5
176
     1
 90
        0
176
     1
 90
        0
176
     1
290
     0
176
     1
 90
        1
176
     1
 40
0.0
176
     1
 90
        0
176
     1
290
     1
176
     1
290
     1
176
     1
290
     0
176
     1
290
     0
176
     1
290
     0
176
     1
290
     0
176
     1
290
     0
176
     1
290
     0
176
     1
290
     0
176
     1
 90
       50
176
     1
 40
0.0
176
     1
 40
1.0
176
     1
 90
        0
176
     1
 62
    18
420
        0
176
     1
 90
       50
176
     1
 90
        3
176
     1
 62
     5
420
      255
176
     1
290
     0
176
     1
 90
       50
176
     1
 90
       50
176
     1
 90
       50
176
     1
290
     0
176
     1
 90
       50
176
     1
 62
   256
176
     0
 40
1.0
176
     0
 90
        2
176
     1
  1
strokes_ogs.tif
176
     1
290
     0
176
     1
 40
1.0
176
     1
 40
1.0
176
     1
  0
VISUALSTYLE
  5
32
102
{ACAD_REACTORS
330
2A
102
}
330
2A
100
AcDbVisualStyle
  2
Basic
 70
     7
177
     3
291
     1
 70
    58
 90
        1
176
     1
 90
        0
176
     1
 90
        1
176
     1
 90
        0
176
     1
 40
0.6
176
     1
 40
30.0
176
     1
 62
     7
420
 16777215
176
     1
 90
        0
176
     1
 90
        4
176
     1
 62
     7
176
     1
 62
   257
176
     1
 90
        1
176
     1
 90
        1
176
     1
 40
1.0
176
     1
 90
        8
176
     1
 62
     7
176
     1
 40
1.0
176
     1
 90
        1
176
     1
 90
        6
176
     1
 90
        2
176
     1
 62
     7
176
     1
 90
        5
176
     1
 90
        0
176
     1
 90
        0
176
     1
290
     0
176
     1
 90
        1
176
     1
 40
0.0
176
     1
 90
        0
176
     1
290
     0
176
     1
290
     1
176
     1
290
     1
176
     1
290
     0
176
     1
290
     0
176
     1
290
     0
176
     1
290
     0
176
     1
290
     0
176
     1
290
     0
176
     1
 90
       50
176
     1
 40
0.0
176
     1
 40
1.0
176
     1
 90
        0
176
     1
 62
    18
420
        0
176
     1
 90
       50
176
     1
 90
        3
176
     1
 62
     5
420
      255
176
     1
290
     0
176
     1
 90
       50
176
     1
 90
       50
176
     1
 90
       50
176
     1
290
     0
176
     1
 90
       50
176
     1
 62
   256
176
     0
 40
1.0
176
     0
 90
        2
176
     1
  1
strokes_ogs.tif
176
     1
290
     0
176
     1
 40
1.0
176
     1
 40
1.0
176
     1
  0
VISUALSTYLE
  5
36
102
{ACAD_REACTORS
330
2A
102
}
330
2A
100
AcDbVisualStyle
  2
Brighten
 70
    12
177
     3
291
     1
 70
    58
 90
        2
176
     1
 90
        2
176
     1
 90
        0
176
     1
 90
        0
176
     1
 40
0.6
176
     1
 40
30.0
176
     1
 62
     7
420
 16777215
176
     1
 90
        1
176
     1
 90
        4
176
     1
 62
     7
176
     1
 62
   257
176
     1
 90
        1
176
     1
 90
        1
176
     1
 40
1.0
176
     1
 90
        8
176
     1
 62
     7
176
     1
 40
1.0
176
     1
 90
        1
176
     1
 90
        6
176
     1
 90
        2
176
     1
 62
     7
176
     1
 90
        5
176
     1
 90
        0
176
     1
 90
        0
176
     1
290
     0
176
     1
 90
        1
176
     1
 40
50.0
176
     1
 90
        0
176
     1
290
     0
176
     1
290
     1
176
     1
290
     1
176
     1
290
     0
176
     1
290
     0
176
     1
290
     0
176
     1
290
     0
176
     1
290
     0
176
     1
290
     0
176
     1
 90
       50
176
     1
 40
0.0
176
     1
 40
1.0
176
     1
 90
        0
176
     1
 62
    18
420
        0
176
     1
 90
       50
176
     1
 90
        3
176
     1
 62
     5
420
      255
176
     1
290
     0
176
     1
 90
       50
176
     1
 90
       50
176
     1
 90
       50
176
     1
290
     0
176
     1
 90
       50
176
     1
 62
   256
176
     0
 40
1.0
176
     0
 90
        2
176
     1
  1
strokes_ogs.tif
176
     1
290
     0
176
     1
 40
1.0
176
     1
 40
1.0
176
     1
  0
VISUALSTYLE
  5
3A
102
{ACAD_REACTORS
330
2A
102
}
330
2A
100
AcDbVisualStyle
  2
ColorChange
 70
    16
177
     3
291
     1
 70
    58
 90
        2
176
     1
 90
        2
176
     1
 90
        3
176
     1
 90
        0
176
     1
 40
0.6
176
     1
 40
30.0
176
     1
 62
     8
420
  8421504
176
     1
 90
        1
176
     1
 90
        4
176
     1
 62
     7
176
     1
 62
   257
176
     1
 90
        1
176
     1
 90
        1
176
     1
 40
1.0
176
     1
 90
        8
176
     1
 62
     8
420
  8421504
176
     1
 40
1.0
176
     1
 90
        1
176
     1
 90
        6
176
     1
 90
        2
176
     1
 62
     7
176
     1
 90
        5
176
     1
 90
        0
176
     1
 90
        0
176
     1
290
     0
176
     1
 90
        1
176
     1
 40
0.0
176
     1
 90
        0
176
     1
290
     0
176
     1
290
     1
176
     1
290
     1
176
     1
290
     0
176
     1
290
     0
176
     1
290
     0
176
     1
290
     0
176
     1
290
     0
176
     1
290
     0
176
     1
 90
       50
176
     1
 40
0.0
176
     1
 40
1.0
176
     1
 90
        0
176
     1
 62
    18
420
        0
176
     1
 90
       50
176
     1
 90
        3
176
     1
 62
     5
420
      255
176
     1
290
     0
176
     1
 90
       50
176
     1
 90
       50
176
     1
 90
       50
176
     1
290
     0
176
     1
 90
       50
176
     1
 62
   256
176
     0
 40
1.0
176
     0
 90
        2
176
     1
  1
strokes_ogs.tif
176
     1
290
     0
176
     1
 40
1.0
176
     1
 40
1.0
176
     1
  0
VISUALSTYLE
  5
34
102
{ACAD_REACTORS
330
2A
102
}
330
2A
100
AcDbVisualStyle
  2
Conceptual
 70
     9
177
     3
291
     0
 70
    58
 90
        3
176
     1
 90
        2
176
     1
 90
        0
176
     1
 90
        0
176
     1
 40
0.6
176
     1
 40
30.0
176
     1
 62
     7
420
 16777215
176
     1
 90
        2
176
     1
 90
        2
176
     1
 62
     7
176
     1
 62
   257
176
     1
 90
        1
176
     1
 90
        1
176
     1
 40
179.0
176
     1
 90
        8
176
     1
 62
     7
176
     1
 40
1.0
176
     1
 90
        1
176
     1
 90
        6
176
     1
 90
        2
176
     1
 62
     7
176
     1
 90
        3
176
     1
 90
        0
176
     1
 90
        0
176
     1
290
     0
176
     1
 90
        1
176
     1
 40
0.0
176
     1
 90
        0
176
     1
290
     0
176
     1
290
     1
176
     1
290
     1
176
     1
290
     0
176
     1
290
     0
176
     1
290
     0
176
     1
290
     0
176
     1
290
     0
176
     1
290
     0
176
     1
 90
       50
176
     1
 40
0.0
176
     1
 40
1.0
176
     1
 90
        0
176
     1
 62
    18
420
        0
176
     1
 90
       50
176
     1
 90
        3
176
     1
 62
     5
420
      255
176
     1
290
     0
176
     1
 90
       50
176
     1
 90
       50
176
     1
 90
       50
176
     1
290
     0
176
     1
 90
       50
176
     1
 62
   256
176
     0
 40
1.0
176
     0
 90
        2
176
     1
  1
strokes_ogs.tif
176
     1
290
     0
176
     1
 40
1.0
176
     1
 40
1.0
176
     1
  0
VISUALSTYLE
  5
35
102
{ACAD_REACTORS
330
2A
102
}
330
2A
100
AcDbVisualStyle
  2
Dim
 70
    11
177
     3
291
     1
 70
    58
 90
        2
176
     1
 90
        2
176
     1
 90
        0
176
     1
 90
        0
176
     1
 40
0.6
176
     1
 40
30.0
176
     1
 62
     7
420
 16777215
176
     1
 90
        1
176
     1
 90
        4
176
     1
 62
     7
176
     1
 62
   257
176
     1
 90
        1
176
     1
 90
        1
176
     1
 40
1.0
176
     1
 90
        8
176
     1
 62
     7
176
     1
 40
1.0
176
     1
 90
        1
176
     1
 90
        6
176
     1
 90
        2
176
     1
 62
     7
176
     1
 90
        5
176
     1
 90
        0
176
     1
 90
        0
176
     1
290
     0
176
     1
 90
        1
176
     1
 40
-50.0
176
     1
 90
        0
176
     1
290
     0
176
     1
290
     1
176
     1
290
     1
176
     1
290
     0
176
     1
290
     0
176
     1
290
     0
176
     1
290
     0
176
     1
290
     0
176
     1
290
     0
176
     1
 90
       50
176
     1
 40
0.0
176
     1
 40
1.0
176
     1
 90
        0
176
     1
 62
    18
420
        0
176
     1
 90
       50
176
     1
 90
        3
176
     1
 62
     5
420
      255
176
     1
290
     0
176
     1
 90
       50
176
     1
 90
       50
176
     1
 90
       50
176
     1
290
     0
176
     1
 90
       50
176
     1
 62
   256
176
     0
 40
1.0
176
     0
 90
        2
176
     1
  1
strokes_ogs.tif
176
     1
290
     0
176
     1
 40
1.0
176
     1
 40
1.0
176
     1
  0
VISUALSTYLE
  5
3D
102
{ACAD_REACTORS
330
2A
102
}
330
2A
100
AcDbVisualStyle
  2
EdgeColorOff
 70
    22
177
     3
291
     1
 70
    58
 90
        2
176
     0
 90
        2
176
     0
 90
        0
176
     0
 90
        0
176
     0
 40
0.6
176
     0
 40
30.0
176
     0
 62
     7
420
 16777215
176
     0
 90
        1
176
     0
 90
        4
176
     0
 62
     7
176
     0
 62
   257
176
     0
 90
        1
176
     0
 90
        1
176
     0
 40
1.0
176
     0
 90
        8
176
     2
 62
     7
176
     0
 40
1.0
176
     0
 90
        1
176
     0
 90
        6
176
     0
 90
        2
176
     0
 62
     7
176
     0
 90
        5
176
     0
 90
        0
176
     0
 90
        0
176
     0
290
     0
176
     0
 90
        1
176
     0
 40
0.0
176
     0
 90
        0
176
     0
290
     0
176
     0
290
     1
176
     0
290
     1
176
     0
290
     0
176
     0
290
     0
176
     0
290
     0
176
     0
290
     0
176
     0
290
     0
176
     0
290
     0
176
     0
 90
       50
176
     0
 40
0.0
176
     0
 40
1.0
176
     0
 90
        0
176
     0
 62
    18
420
        0
176
     0
 90
       50
176
     0
 90
        3
176
     0
 62
     5
420
      255
176
     0
290
     0
176
     0
 90
       50
176
     0
 90
       50
176
     0
 90
       50
176
     0
290
     0
176
     0
 90
       50
176
     0
 62
   256
176
     0
 40
1.0
176
     0
 90
        2
176
     0
  1
strokes_ogs.tif
176
     0
290
     0
176
     0
 40
1.0
176
     0
 40
1.0
176
     0
  0
VISUALSTYLE
  5
39
102
{ACAD_REACTORS
330
2A
102
}
330
2A
100
AcDbVisualStyle
  2
Facepattern
 70
    15
177
     3
291
     1
 70
    58
 90
        2
176
     1
 90
        2
176
     1
 90
        0
176
     1
 90
        0
176
     1
 40
0.6
176
     1
 40
30.0
176
     1
 62
     7
420
 16777215
176
     1
 90
        1
176
     1
 90
        4
176
     1
 62
     7
176
     1
 62
   257
176
     1
 90
        1
176
     1
 90
        1
176
     1
 40
1.0
176
     1
 90
        8
176
     1
 62
     7
176
     1
 40
1.0
176
     1
 90
        1
176
     1
 90
        6
176
     1
 90
        2
176
     1
 62
     7
176
     1
 90
        5
176
     1
 90
        0
176
     1
 90
        0
176
     1
290
     0
176
     1
 90
        1
176
     1
 40
0.0
176
     1
 90
        0
176
     1
290
     0
176
     1
290
     1
176
     1
290
     1
176
     1
290
     0
176
     1
290
     0
176
     1
290
     0
176
     1
290
     0
176
     1
290
     0
176
     1
290
     0
176
     1
 90
       50
176
     1
 40
0.0
176
     1
 40
1.0
176
     1
 90
        0
176
     1
 62
    18
420
        0
176
     1
 90
       50
176
     1
 90
        3
176
     1
 62
     5
420
      255
176
     1
290
     0
176
     1
 90
       50
176
     1
 90
       50
176
     1
 90
       50
176
     1
290
     0
176
     1
 90
       50
176
     1
 62
   256
176
     0
 40
1.0
176
     0
 90
        2
176
     1
  1
strokes_ogs.tif
176
     1
290
     0
176
     1
 40
1.0
176
     1
 40
1.0
176
     1
  0
VISUALSTYLE
  5
2B
102
{ACAD_REACTORS
330
2A
102
}
330
2A
100
AcDbVisualStyle
  2
Flat
 70
     0
177
     3
291
     1
 70
    58
 90
        2
176
     1
 90
        1
176
     1
 90
        1
176
     1
 90
        2
176
     1
 40
0.6
176
     1
 40
30.0
176
     1
 62
     7
420
 16777215
176
     1
 90
        0
176
     1
 90
        0
176
     1
 62
     7
176
     1
 62
   257
176
     1
 90
        1
176
     1
 90
        1
176
     1
 40
1.0
176
     1
 90
        8
176
     1
 62
     7
176
     1
 40
1.0
176
     1
 90
        1
176
     1
 90
        6
176
     1
 90
        2
176
     1
 62
     7
176
     1
 90
        5
176
     1
 90
        0
176
     1
 90
        0
176
     1
290
     0
176
     1
 90
       13
176
     1
 40
0.0
176
     1
 90
        0
176
     1
290
     0
176
     1
290
     1
176
     1
290
     1
176
     1
290
     0
176
     1
290
     0
176
     1
290
     0
176
     1
290
     0
176
     1
290
     0
176
     1
290
     0
176
     1
 90
       50
176
     1
 40
0.0
176
     1
 40
1.0
176
     1
 90
        0
176
     1
 62
    18
420
        0
176
     1
 90
       50
176
     1
 90
        3
176
     1
 62
     5
420
      255
176
     1
290
     0
176
     1
 90
       50
176
     1
 90
       50
176
     1
 90
       50
176
     1
290
     0
176
     1
 90
       50
176
     1
 62
   256
176
     0
 40
1.0
176
     0
 90
        2
176
     1
  1
strokes_ogs.tif
176
     1
290
     0
176
     1
 40
1.0
176
     1
 40
1.0
176
     1
  0
VISUALSTYLE
  5
2C
102
{ACAD_REACTORS
330
2A
102
}
330
2A
100
AcDbVisualStyle
  2
FlatWithEdges
 70
     1
177
     3
291
     1
 70
    58
 90
        2
176
     1
 90
        1
176
     1
 90
        1
176
     1
 90
        2
176
     1
 40
0.6
176
     1
 40
30.0
176
     1
 62
     7
420
 16777215
176
     1
 90
        1
176
     1
 90
        0
176
     1
 62
     7
176
     1
 62
   257
176
     1
 90
        1
176
     1
 90
        1
176
     1
 40
1.0
176
     1
 90
        0
176
     1
 62
   257
176
     1
 40
1.0
176
     1
 90
        1
176
     1
 90
        6
176
     1
 90
        2
176
     1
 62
     7
176
     1
 90
        5
176
     1
 90
        0
176
     1
 90
        0
176
     1
290
     0
176
     1
 90
       13
176
     1
 40
0.0
176
     1
 90
        0
176
     1
290
     0
176
     1
290
     1
176
     1
290
     1
176
     1
290
     0
176
     1
290
     0
176
     1
290
     0
176
     1
290
     0
176
     1
290
     0
176
     1
290
     0
176
     1
 90
       50
176
     1
 40
0.0
176
     1
 40
1.0
176
     1
 90
        0
176
     1
 62
    18
420
        0
176
     1
 90
       50
176
     1
 90
        3
176
     1
 62
     5
420
      255
176
     1
290
     0
176
     1
 90
       50
176
     1
 90
       50
176
     1
 90
       50
176
     1
290
     0
176
     1
 90
       50
176
     1
 62
   256
176
     0
 40
1.0
176
     0
 90
        2
176
     1
  1
strokes_ogs.tif
176
     1
290
     0
176
     1
 40
1.0
176
     1
 40
1.0
176
     1
  0
VISUALSTYLE
  5
2D
102
{ACAD_REACTORS
330
2A
102
}
330
2A
100
AcDbVisualStyle
  2
Gouraud
 70
     2
177
     3
291
     1
 70
    58
 90
        2
176
     1
 90
        2
176
     1
 90
        1
176
     1
 90
        2
176
     1
 40
0.6
176
     1
 40
30.0
176
     1
 62
     7
420
 16777215
176
     1
 90
        0
176
     1
 90
        0
176
     1
 62
     7
176
     1
 62
   257
176
     1
 90
        1
176
     1
 90
        1
176
     1
 40
1.0
176
     1
 90
        0
176
     1
 62
     7
176
     1
 40
1.0
176
     1
 90
        1
176
     1
 90
        6
176
     1
 90
        2
176
     1
 62
     7
176
     1
 90
        5
176
     1
 90
        0
176
     1
 90
        0
176
     1
290
     0
176
     1
 90
       13
176
     1
 40
0.0
176
     1
 90
        0
176
     1
290
     0
176
     1
290
     1
176
     1
290
     1
176
     1
290
     0
176
     1
290
     0
176
     1
290
     0
176
     1
290
     0
176
     1
290
     0
176
     1
290
     0
176
     1
 90
       50
176
     1
 40
0.0
176
     1
 40
1.0
176
     1
 90
        0
176
     1
 62
    18
420
        0
176
     1
 90
       50
176
     1
 90
        3
176
     1
 62
     5
420
      255
176
     1
290
     0
176
     1
 90
       50
176
     1
 90
       50
176
     1
 90
       50
176
     1
290
     0
176
     1
 90
       50
176
     1
 62
   256
176
     0
 40
1.0
176
     0
 90
        2
176
     1
  1
strokes_ogs.tif
176
     1
290
     0
176
     1
 40
1.0
176
     1
 40
1.0
176
     1
  0
VISUALSTYLE
  5
2E
102
{ACAD_REACTORS
330
2A
102
}
330
2A
100
AcDbVisualStyle
  2
GouraudWithEdges
 70
     3
177
     3
291
     1
 70
    58
 90
        2
176
     1
 90
        2
176
     1
 90
        1
176
     1
 90
        2
176
     1
 40
0.6
176
     1
 40
30.0
176
     1
 62
     7
420
 16777215
176
     1
 90
        1
176
     1
 90
        0
176
     1
 62
     7
176
     1
 62
   257
176
     1
 90
        1
176
     1
 90
        1
176
     1
 40
1.0
176
     1
 90
        0
176
     1
 62
   257
176
     1
 40
1.0
176
     1
 90
        1
176
     1
 90
        6
176
     1
 90
        2
176
     1
 62
     7
176
     1
 90
        5
176
     1
 90
        0
176
     1
 90
        0
176
     1
290
     0
176
     1
 90
       13
176
     1
 40
0.0
176
     1
 90
        0
176
     1
290
     0
176
     1
290
     1
176
     1
290
     1
176
     1
290
     0
176
     1
290
     0
176
     1
290
     0
176
     1
290
     0
176
     1
290
     0
176
     1
290
     0
176
     1
 90
       50
176
     1
 40
0.0
176
     1
 40
1.0
176
     1
 90
        0
176
     1
 62
    18
420
        0
176
     1
 90
       50
176
     1
 90
        3
176
     1
 62
     5
420
      255
176
     1
290
     0
176
     1
 90
       50
176
     1
 90
       50
176
     1
 90
       50
176
     1
290
     0
176
     1
 90
       50
176
     1
 62
   256
176
     0
 40
1.0
176
     0
 90
        2
176
     1
  1
strokes_ogs.tif
176
     1
290
     0
176
     1
 40
1.0
176
     1
 40
1.0
176
     1
  0
VISUALSTYLE
  5
31
102
{ACAD_REACTORS
330
2A
102
}
330
2A
100
AcDbVisualStyle
  2
Hidden
 70
     6
177
     3
291
     0
 70
    58
 90
        1
176
     1
 90
        2
176
     1
 90
        2
176
     1
 90
        0
176
     1
 40
0.6
176
     1
 40
30.0
176
     1
 62
     7
420
 16777215
176
     1
 90
        2
176
     1
 90
        2
176
     1
 62
     7
176
     1
 62
   257
176
     1
 90
        2
176
     1
 90
        1
176
     1
 40
40.0
176
     1
 90
        0
176
     1
 62
   257
176
     1
 40
1.0
176
     1
 90
        1
176
     1
 90
        6
176
     1
 90
        2
176
     1
 62
     7
176
     1
 90
        3
176
     1
 90
        0
176
     1
 90
        0
176
     1
290
     0
176
     1
 90
        1
176
     1
 40
0.0
176
     1
 90
        0
176
     1
290
     0
176
     1
290
     1
176
     1
290
     1
176
     1
290
     0
176
     1
290
     0
176
     1
290
     0
176
     1
290
     0
176
     1
290
     0
176
     1
290
     0
176
     1
 90
       50
176
     1
 40
0.0
176
     1
 40
1.0
176
     1
 90
        0
176
     1
 62
    18
420
        0
176
     1
 90
       50
176
     1
 90
        3
176
     1
 62
     5
420
      255
176
     1
290
     0
176
     1
 90
       50
176
     1
 90
       50
176
     1
 90
       50
176
     1
290
     0
176
     1
 90
       50
176
     1
 62
   256
176
     0
 40
1.0
176
     0
 90
        2
176
     1
  1
strokes_ogs.tif
176
     1
290
     0
176
     1
 40
1.0
176
     1
 40
1.0
176
     1
  0
VISUALSTYLE
  5
3B
102
{ACAD_REACTORS
330
2A
102
}
330
2A
100
AcDbVisualStyle
  2
JitterOff
 70
    20
177
     3
291
     1
 70
    58
 90
        2
176
     0
 90
        2
176
     0
 90
        0
176
     0
 90
        0
176
     0
 40
0.6
176
     0
 40
30.0
176
     0
 62
     7
420
 16777215
176
     0
 90
        1
176
     0
 90
        4
176
     0
 62
     7
176
     0
 62
   257
176
     0
 90
        1
176
     0
 90
        1
176
     0
 40
1.0
176
     0
 90
       10
176
     2
 62
     7
176
     0
 40
1.0
176
     0
 90
        1
176
     0
 90
        6
176
     0
 90
        2
176
     0
 62
     7
176
     0
 90
        5
176
     0
 90
        0
176
     0
 90
        0
176
     0
290
     0
176
     0
 90
        1
176
     0
 40
0.0
176
     0
 90
        0
176
     0
290
     0
176
     0
290
     1
176
     0
290
     1
176
     0
290
     0
176
     0
290
     0
176
     0
290
     0
176
     0
290
     0
176
     0
290
     0
176
     0
290
     0
176
     0
 90
       50
176
     0
 40
0.0
176
     0
 40
1.0
176
     0
 90
        0
176
     0
 62
    18
420
        0
176
     0
 90
       50
176
     0
 90
        3
176
     0
 62
     5
420
      255
176
     0
290
     0
176
     0
 90
       50
176
     0
 90
       50
176
     0
 90
       50
176
     0
290
     0
176
     0
 90
       50
176
     0
 62
   256
176
     0
 40
1.0
176
     0
 90
        2
176
     0
  1
strokes_ogs.tif
176
     0
290
     0
176
     0
 40
1.0
176
     0
 40
1.0
176
     0
  0
VISUALSTYLE
  5
38
102
{ACAD_REACTORS
330
2A
102
}
330
2A
100
AcDbVisualStyle
  2
Linepattern
 70
    14
177
     3
291
     1
 70
    58
 90
        2
176
     1
 90
        2
176
     1
 90
        0
176
     1
 90
        0
176
     1
 40
0.6
176
     1
 40
30.0
176
     1
 62
     7
420
 16777215
176
     1
 90
        1
176
     1
 90
        4
176
     1
 62
     7
176
     1
 62
   257
176
     1
 90
        7
176
     1
 90
        7
176
     1
 40
1.0
176
     1
 90
        8
176
     1
 62
     7
176
     1
 40
1.0
176
     1
 90
        1
176
     1
 90
        6
176
     1
 90
        2
176
     1
 62
     7
176
     1
 90
        5
176
     1
 90
        0
176
     1
 90
        0
176
     1
290
     0
176
     1
 90
        1
176
     1
 40
0.0
176
     1
 90
        0
176
     1
290
     0
176
     1
290
     1
176
     1
290
     1
176
     1
290
     0
176
     1
290
     0
176
     1
290
     0
176
     1
290
     0
176
     1
290
     0
176
     1
290
     0
176
     1
 90
       50
176
     1
 40
0.0
176
     1
 40
1.0
176
     1
 90
        0
176
     1
 62
    18
420
        0
176
     1
 90
       50
176
     1
 90
        3
176
     1
 62
     5
420
      255
176
     1
290
     0
176
     1
 90
       50
176
     1
 90
       50
176
     1
 90
       50
176
     1
290
     0
176
     1
 90
       50
176
     1
 62
   256
176
     0
 40
1.0
176
     0
 90
        2
176
     1
  1
strokes_ogs.tif
176
     1
290
     0
176
     1
 40
1.0
176
     1
 40
1.0
176
     1
  0
VISUALSTYLE
  5
3C
102
{ACAD_REACTORS
330
2A
102
}
330
2A
100
AcDbVisualStyle
  2
OverhangOff
 70
    21
177
     3
291
     1
 70
    58
 90
        2
176
     0
 90
        2
176
     0
 90
        0
176
     0
 90
        0
176
     0
 40
0.6
176
     0
 40
30.0
176
     0
 62
     7
420
 16777215
176
     0
 90
        1
176
     0
 90
        4
176
     0
 62
     7
176
     0
 62
   257
176
     0
 90
        1
176
     0
 90
        1
176
     0
 40
1.0
176
     0
 90
        9
176
     2
 62
     7
176
     0
 40
1.0
176
     0
 90
        1
176
     0
 90
        6
176
     0
 90
        2
176
     0
 62
     7
176
     0
 90
        5
176
     0
 90
        0
176
     0
 90
        0
176
     0
290
     0
176
     0
 90
        1
176
     0
 40
0.0
176
     0
 90
        0
176
     0
290
     0
176
     0
290
     1
176
     0
290
     1
176
     0
290
     0
176
     0
290
     0
176
     0
290
     0
176
     0
290
     0
176
     0
290
     0
176
     0
290
     0
176
     0
 90
       50
176
     0
 40
0.0
176
     0
 40
1.0
176
     0
 90
        0
176
     0
 62
    18
420
        0
176
     0
 90
       50
176
     0
 90
        3
176
     0
 62
     5
420
      255
176
     0
290
     0
176
     0
 90
       50
176
     0
 90
       50
176
     0
 90
       50
176
     0
290
     0
176
     0
 90
       50
176
     0
 62
   256
176
     0
 40
1.0
176
     0
 90
        2
176
     0
  1
strokes_ogs.tif
176
     0
290
     0
176
     0
 40
1.0
176
     0
 40
1.0
176
     0
  0
VISUALSTYLE
  5
33
102
{ACAD_REACTORS
330
2A
102
}
330
2A
100
AcDbVisualStyle
  2
Realistic
 70
     8
177
     3
291
     0
 70
    58
 90
        2
176
     1
 90
        3
176
     1
 90
        0
176
     1
 90
        2
176
     1
 40
0.6
176
     1
 40
30.0
176
     1
 62
     7
420
 16777215
176
     1
 90
        0
176
     1
 90
        0
176
     1
 62
     7
176
     1
 62
   257
176
     1
 90
        1
176
     1
 90
        1
176
     1
 40
1.0
176
     1
 90
        8
176
     1
 62
   257
176
     1
 40
1.0
176
     1
 90
        1
176
     1
 90
        6
176
     1
 90
        2
176
     1
 62
     7
176
     1
 90
        3
176
     1
 90
        0
176
     1
 90
        0
176
     1
290
     0
176
     1
 90
       13
176
     1
 40
0.0
176
     1
 90
        0
176
     1
290
     0
176
     1
290
     1
176
     1
290
     1
176
     1
290
     0
176
     1
290
     0
176
     1
290
     0
176
     1
290
     0
176
     1
290
     0
176
     1
290
     0
176
     1
 90
       50
176
     1
 40
0.0
176
     1
 40
1.0
176
     1
 90
        0
176
     1
 62
    18
420
        0
176
     1
 90
       50
176
     1
 90
        3
176
     1
 62
     5
420
      255
176
     1
290
     0
176
     1
 90
       50
176
     1
 90
       50
176
     1
 90
       50
176
     1
290
     0
176
     1
 90
       50
176
     1
 62
   256
176
     0
 40
1.0
176
     0
 90
        2
176
     1
  1
strokes_ogs.tif
176
     1
290
     0
176
     1
 40
1.0
176
     1
 40
1.0
176
     1
  0
VISUALSTYLE
  5
42
102
{ACAD_REACTORS
330
2A
102
}
330
2A
100
AcDbVisualStyle
  2
Shaded
 70
    27
177
     3
291
     0
 70
    58
 90
        2
176
     1
 90
        2
176
     1
 90
        1
176
     1
 90
        2
176
     1
 40
0.6
176
     1
 40
30.0
176
     1
 62
     7
420
 16777215
176
     1
 90
        0
176
     1
 90
        4
176
     1
 62
     7
176
     1
 62
   257
176
     1
 90
        1
176
     1
 90
        1
176
     1
 40
1.0
176
     1
 90
        8
176
     1
 62
   257
176
     1
 40
1.0
176
     1
 90
        1
176
     1
 90
        6
176
     1
 90
        2
176
     1
 62
     8
420
  7895160
176
     1
 90
        3
176
     1
 90
        0
176
     1
 90
        0
176
     1
290
     0
176
     1
 90
        5
176
     1
 40
0.0
176
     1
 90
        0
176
     1
290
     0
176
     1
290
     1
176
     1
290
     1
176
     1
290
     0
176
     1
290
     0
176
     1
290
     0
176
     1
290
     0
176
     1
290
     0
176
     1
290
     0
176
     1
 90
       50
176
     1
 40
0.0
176
     1
 40
1.0
176
     1
 90
        0
176
     1
 62
    18
420
        0
176
     1
 90
       50
176
     1
 90
        3
176
     1
 62
     5
420
      255
176
     1
290
     0
176
     1
 90
       50
176
     1
 90
       50
176
     1
 90
       50
176
     1
290
     0
176
     1
 90
       50
176
     1
 62
   256
176
     0
 40
1.0
176
     0
 90
        2
176
     1
  1
strokes_ogs.tif
176
     1
290
     0
176
     1
 40
1.0
176
     1
 40
1.0
176
     1
  0
VISUALSTYLE
  5
41
102
{ACAD_REACTORS
330
2A
102
}
330
2A
100
AcDbVisualStyle
  2
Shaded with edges
 70
    26
177
     3
291
     0
 70
    58
 90
        2
176
     1
 90
        2
176
     1
 90
        1
176
     1
 90
        2
176
     1
 40
0.6
176
     1
 40
30.0
176
     1
 62
     7
420
 16777215
176
     1
 90
        1
176
     1
 90
       10
176
     1
 62
     7
176
     1
 62
   257
176
     1
 90
        2
176
     1
 90
        1
176
     1
 40
1.0
176
     1
 90
        8
176
     1
 62
   257
176
     1
 40
1.0
176
     1
 90
        1
176
     1
 90
        6
176
     1
 90
        2
176
     1
 62
     7
176
     1
 90
        3
176
     1
 90
        0
176
     1
 90
        0
176
     1
290
     0
176
     1
 90
        5
176
     1
 40
0.0
176
     1
 90
        0
176
     1
290
     0
176
     1
290
     1
176
     1
290
     1
176
     1
290
     0
176
     1
290
     0
176
     1
290
     0
176
     1
290
     0
176
     1
290
     0
176
     1
290
     0
176
     1
 90
       50
176
     1
 40
0.0
176
     1
 40
1.0
176
     1
 90
        0
176
     1
 62
    18
420
        0
176
     1
 90
       50
176
     1
 90
        3
176
     1
 62
     5
420
      255
176
     1
290
     0
176
     1
 90
       50
176
     1
 90
       50
176
     1
 90
       50
176
     1
290
     0
176
     1
 90
       50
176
     1
 62
   256
176
     0
 40
1.0
176
     0
 90
        2
176
     1
  1
strokes_ogs.tif
176
     1
290
     0
176
     1
 40
1.0
176
     1
 40
1.0
176
     1
  0
VISUALSTYLE
  5
3E
102
{ACAD_REACTORS
330
2A
102
}
330
2A
100
AcDbVisualStyle
  2
Shades of Gray
 70
    23
177
     3
291
     0
 70
    58
 90
        2
176
     1
 90
        2
176
     1
 90
        3
176
     1
 90
        0
176
     1
 40
0.6
176
     1
 40
30.0
176
     1
 62
     7
420
 16777215
176
     1
 90
        2
176
     1
 90
        2
176
     1
 62
     7
176
     1
 62
     7
176
     1
 90
        1
176
     1
 90
        1
176
     1
 40
40.0
176
     1
 90
        8
176
     1
 62
     7
176
     1
 40
1.0
176
     1
 90
        1
176
     1
 90
        6
176
     1
 90
        2
176
     1
 62
     7
176
     1
 90
        3
176
     1
 90
        0
176
     1
 90
        0
176
     1
290
     0
176
     1
 90
        1
176
     1
 40
0.0
176
     1
 90
        0
176
     1
290
     0
176
     1
290
     1
176
     1
290
     1
176
     1
290
     0
176
     1
290
     0
176
     1
290
     0
176
     1
290
     0
176
     1
290
     0
176
     1
290
     0
176
     1
 90
       50
176
     1
 40
0.0
176
     1
 40
1.0
176
     1
 90
        0
176
     1
 62
    18
420
        0
176
     1
 90
       50
176
     1
 90
        3
176
     1
 62
     5
420
      255
176
     1
290
     0
176
     1
 90
       50
176
     1
 90
       50
176
     1
 90
       50
176
     1
290
     0
176
     1
 90
       50
176
     1
 62
   256
176
     0
 40
1.0
176
     0
 90
        2
176
     1
  1
strokes_ogs.tif
176
     1
290
     0
176
     1
 40
1.0
176
     1
 40
1.0
176
     1
  0
VISUALSTYLE
  5
3F
102
{ACAD_REACTORS
330
2A
102
}
330
2A
100
AcDbVisualStyle
  2
Sketchy
 70
    24
177
     3
291
     0
 70
    58
 90
        1
176
     1
 90
        2
176
     1
 90
        2
176
     1
 90
        0
176
     1
 40
0.6
176
     1
 40
30.0
176
     1
 62
     7
420
 16777215
176
     1
 90
        2
176
     1
 90
        2
176
     1
 62
     7
176
     1
 62
     7
176
     1
 90
        1
176
     1
 90
        1
176
     1
 40
40.0
176
     1
 90
       11
176
     1
 62
     7
176
     1
 40
1.0
176
     1
 90
        1
176
     1
 90
        6
176
     1
 90
        2
176
     1
 62
     7
176
     1
 90
        6
176
     1
 90
        0
176
     1
 90
        0
176
     1
290
     0
176
     1
 90
        1
176
     1
 40
0.0
176
     1
 90
        0
176
     1
290
     0
176
     1
290
     1
176
     1
290
     1
176
     1
290
     0
176
     1
290
     0
176
     1
290
     0
176
     1
290
     0
176
     1
290
     0
176
     1
290
     0
176
     1
 90
       50
176
     1
 40
0.0
176
     1
 40
1.0
176
     1
 90
        0
176
     1
 62
    18
420
        0
176
     1
 90
       50
176
     1
 90
        3
176
     1
 62
     5
420
      255
176
     1
290
     0
176
     1
 90
       50
176
     1
 90
       50
176
     1
 90
       50
176
     1
290
     0
176
     1
 90
       50
176
     1
 62
   256
176
     0
 40
1.0
176
     0
 90
        2
176
     1
  1
strokes_ogs.tif
176
     1
290
     0
176
     1
 40
1.0
176
     1
 40
1.0
176
     1
  0
VISUALSTYLE
  5
37
102
{ACAD_REACTORS
330
2A
102
}
330
2A
100
AcDbVisualStyle
  2
Thicken
 70
    13
177
     3
291
     1
 70
    58
 90
        2
176
     1
 90
        2
176
     1
 90
        0
176
     1
 90
        0
176
     1
 40
0.6
176
     1
 40
30.0
176
     1
 62
     7
420
 16777215
176
     1
 90
        1
176
     1
 90
        4
176
     1
 62
     7
176
     1
 62
   257
176
     1
 90
        1
176
     1
 90
        1
176
     1
 40
1.0
176
     1
 90
       12
176
     1
 62
     7
176
     1
 40
1.0
176
     1
 90
        1
176
     1
 90
        6
176
     1
 90
        2
176
     1
 62
     7
176
     1
 90
        5
176
     1
 90
        0
176
     1
 90
        0
176
     1
290
     0
176
     1
 90
        1
176
     1
 40
0.0
176
     1
 90
        0
176
     1
290
     0
176
     1
290
     1
176
     1
290
     1
176
     1
290
     0
176
     1
290
     0
176
     1
290
     0
176
     1
290
     0
176
     1
290
     0
176
     1
290
     0
176
     1
 90
       50
176
     1
 40
0.0
176
     1
 40
1.0
176
     1
 90
        0
176
     1
 62
    18
420
        0
176
     1
 90
       50
176
     1
 90
        3
176
     1
 62
     5
420
      255
176
     1
290
     0
176
     1
 90
       50
176
     1
 90
       50
176
     1
 90
       50
176
     1
290
     0
176
     1
 90
       50
176
     1
 62
   256
176
     0
 40
1.0
176
     0
 90
        2
176
     1
  1
strokes_ogs.tif
176
     1
290
     0
176
     1
 40
1.0
176
     1
 40
1.0
176
     1
  0
VISUALSTYLE
  5
30
102
{ACAD_REACTORS
330
2A
102
}
330
2A
100
AcDbVisualStyle
  2
Wireframe
 70
     5
177
     3
291
     0
 70
    58
 90
        0
176
     1
 90
        2
176
     1
 90
        0
176
     1
 90
        0
176
     1
 40
0.6
176
     1
 40
30.0
176
     1
 62
     7
420
 16777215
176
     1
 90
        1
176
     1
 90
        4
176
     1
 62
     7
176
     1
 62
   257
176
     1
 90
        1
176
     1
 90
        1
176
     1
 40
1.0
176
     1
 90
        0
176
     1
 62
   257
176
     1
 40
1.0
176
     1
 90
        1
176
     1
 90
        6
176
     1
 90
        2
176
     1
 62
     7
176
     1
 90
        3
176
     1
 90
        0
176
     1
 90
        0
176
     1
290
     0
176
     1
 90
        1
176
     1
 40
0.0
176
     1
 90
        0
176
     1
290
     0
176
     1
290
     1
176
     1
290
     1
176
     1
290
     0
176
     1
290
     0
176
     1
290
     0
176
     1
290
     0
176
     1
290
     0
176
     1
290
     0
176
     1
 90
       50
176
     1
 40
0.0
176
     1
 40
1.0
176
     1
 90
        0
176
     1
 62
    18
420
        0
176
     1
 90
       50
176
     1
 90
        3
176
     1
 62
     5
420
      255
176
     1
290
     0
176
     1
 90
       50
176
     1
 90
       50
176
     1
 90
       50
176
     1
290
     0
176
     1
 90
       50
176
     1
 62
   256
176
     0
 40
1.0
176
     0
 90
        2
176
     1
  1
strokes_ogs.tif
176
     1
290
     0
176
     1
 40
1.0
176
     1
 40
1.0
176
     1
  0
VISUALSTYLE
  5
40
102
{ACAD_REACTORS
330
2A
102
}
330
2A
100
AcDbVisualStyle
  2
X-Ray
 70
    25
177
     3
291
     0
 70
    58
 90
        2
176
     1
 90
        2
176
     1
 90
        1
176
     1
 90
        1
176
     1
 40
0.5
176
     1
 40
30.0
176
     1
 62
     7
420
 16777215
176
     1
 90
        1
176
     1
 90
        0
176
     1
 62
     7
176
     1
 62
   257
176
     1
 90
        1
176
     1
 90
        1
176
     1
 40
1.0
176
     1
 90
        8
176
     1
 62
     7
176
     1
 40
1.0
176
     1
 90
        1
176
     1
 90
        6
176
     1
 90
        2
176
     1
 62
     7
176
     1
 90
        3
176
     1
 90
        0
176
     1
 90
        0
176
     1
290
     0
176
     1
 90
       13
176
     1
 40
0.0
176
     1
 90
        0
176
     1
290
     0
176
     1
290
     1
176
     1
290
     1
176
     1
290
     0
176
     1
290
     0
176
     1
290
     0
176
     1
290
     0
176
     1
290
     0
176
     1
290
     0
176
     1
 90
       50
176
     1
 40
0.0
176
     1
 40
1.0
176
     1
 90
        0
176
     1
 62
    18
420
        0
176
     1
 90
       50
176
     1
 90
        3
176
     1
 62
     5
420
      255
176
     1
290
     0
176
     1
 90
       50
176
     1
 90
       50
176
     1
 90
       50
176
     1
290
     0
176
     1
 90
       50
176
     1
 62
   256
176
     0
 40
1.0
176
     0
 90
        2
176
     1
  1
strokes_ogs.tif
176
     1
290
     0
176
     1
 40
1.0
176
     1
 40
1.0
176
     1
  0
DICTIONARYVAR
  5
1CC
102
{ACAD_REACTORS
330
1CB
102
}
330
1CB
100
DictionaryVariables
280
     0
  1
1:1
  0
DICTIONARYVAR
  5
1D4
102
{ACAD_REACTORS
330
1CB
102
}
330
1CB
100
DictionaryVariables
280
     0
  1
3.500000
  0
DICTIONARYVAR
  5
1D5
102
{ACAD_REACTORS
330
1CB
102
}
330
1CB
100
DictionaryVariables
280
     0
  1
acadiso.lin
  0
DICTIONARYVAR
  5
1D1
102
{ACAD_REACTORS
330
1CB
102
}
330
1CB
100
DictionaryVariables
280
     0
  1
Standard
  0
DICTIONARYVAR
  5
1D0
102
{ACAD_REACTORS
330
1CB
102
}
330
1CB
100
DictionaryVariables
280
     0
  1
Standard
  0
DICTIONARY
  5
1CD
330
6A
100
AcDbDictionary
280
     1
281
     1
  3
ACAD_ROUNDTRIP_2008_TABLESTYLE_CELLSTYLEMAP
360
1CE
  0
CELLSTYLEMAP
  5
1CE
102
{ACAD_REACTORS
330
1CD
102
}
330
1CD
100
AcDbCellStyleMap
 90
        3
300
CELLSTYLE
  1
TABLEFORMAT_BEGIN
 90
        5
170
     1
 91
        0
 92
    32768
 62
   257
 93
        1
300
CONTENTFORMAT
  1
CONTENTFORMAT_BEGIN
 90
        0
 91
        0
 92
        4
 93
        0
300

 40
0.0
140
1.0
 94
        5
 62
     0
340
11
144
6.0
309
CONTENTFORMAT_END
171
     1
301
MARGIN
  1
CELLMARGIN_BEGIN
 40
1.5
 40
1.5
 40
1.5
 40
1.5
 40
1.5
 40
1.5
309
CELLMARGIN_END
 94
        6
 95
        1
302
GRIDFORMAT
  1
GRIDFORMAT_BEGIN
 90
        0
 91
        1
 62
     0
 92
       -2
340
14
 93
        0
 40
0.045
309
GRIDFORMAT_END
 95
        2
302
GRIDFORMAT
  1
GRIDFORMAT_BEGIN
 90
        0
 91
        1
 62
     0
 92
       -2
340
14
 93
        0
 40
0.045
309
GRIDFORMAT_END
 95
        4
302
GRIDFORMAT
  1
GRIDFORMAT_BEGIN
 90
        0
 91
        1
 62
     0
 92
       -2
340
14
 93
        0
 40
0.045
309
GRIDFORMAT_END
 95
        8
302
GRIDFORMAT
  1
GRIDFORMAT_BEGIN
 90
        0
 91
        1
 62
     0
 92
       -2
340
14
 93
        0
 40
0.045
309
GRIDFORMAT_END
 95
       16
302
GRIDFORMAT
  1
GRIDFORMAT_BEGIN
 90
        0
 91
        1
 62
     0
 92
       -2
340
14
 93
        0
 40
0.045
309
GRIDFORMAT_END
 95
       32
302
GRIDFORMAT
  1
GRIDFORMAT_BEGIN
 90
        0
 91
        1
 62
     0
 92
       -2
340
14
 93
        0
 40
0.045
309
GRIDFORMAT_END
309
TABLEFORMAT_END
  1
CELLSTYLE_BEGIN
 90
        1
 91
        1
300
_TITLE
309
CELLSTYLE_END
300
CELLSTYLE
  1
TABLEFORMAT_BEGIN
 90
        5
170
     1
 91
        0
 92
        0
 62
   257
 93
        1
300
CONTENTFORMAT
  1
CONTENTFORMAT_BEGIN
 90
        0
 91
        0
 92
        4
 93
        0
300

 40
0.0
140
1.0
 94
        5
 62
     0
340
11
144
4.5
309
CONTENTFORMAT_END
171
     1
301
MARGIN
  1
CELLMARGIN_BEGIN
 40
1.5
 40
1.5
 40
1.5
 40
1.5
 40
1.5
 40
1.5
309
CELLMARGIN_END
 94
        6
 95
        1
302
GRIDFORMAT
  1
GRIDFORMAT_BEGIN
 90
        0
 91
        1
 62
     0
 92
       -2
340
14
 93
        0
 40
0.045
309
GRIDFORMAT_END
 95
        2
302
GRIDFORMAT
  1
GRIDFORMAT_BEGIN
 90
        0
 91
        1
 62
     0
 92
       -2
340
14
 93
        0
 40
0.045
309
GRIDFORMAT_END
 95
        4
302
GRIDFORMAT
  1
GRIDFORMAT_BEGIN
 90
        0
 91
        1
 62
     0
 92
       -2
340
14
 93
        0
 40
0.045
309
GRIDFORMAT_END
 95
        8
302
GRIDFORMAT
  1
GRIDFORMAT_BEGIN
 90
        0
 91
        1
 62
     0
 92
       -2
340
14
 93
        0
 40
0.045
309
GRIDFORMAT_END
 95
       16
302
GRIDFORMAT
  1
GRIDFORMAT_BEGIN
 90
        0
 91
        1
 62
     0
 92
       -2
340
14
 93
        0
 40
0.045
309
GRIDFORMAT_END
 95
       32
302
GRIDFORMAT
  1
GRIDFORMAT_BEGIN
 90
        0
 91
        1
 62
     0
 92
       -2
340
14
 93
        0
 40
0.045
309
GRIDFORMAT_END
309
TABLEFORMAT_END
  1
CELLSTYLE_BEGIN
 90
        2
 91
        1
300
_HEADER
309
CELLSTYLE_END
300
CELLSTYLE
  1
TABLEFORMAT_BEGIN
 90
        5
170
     1
 91
        0
 92
        0
 62
   257
 93
        1
300
CONTENTFORMAT
  1
CONTENTFORMAT_BEGIN
 90
        0
 91
        0
 92
        4
 93
        0
300

 40
0.0
140
1.0
 94
        2
 62
     0
340
11
144
4.5
309
CONTENTFORMAT_END
171
     1
301
MARGIN
  1
CELLMARGIN_BEGIN
 40
1.5
 40
1.5
 40
1.5
 40
1.5
 40
1.5
 40
1.5
309
CELLMARGIN_END
 94
        6
 95
        1
302
GRIDFORMAT
  1
GRIDFORMAT_BEGIN
 90
        0
 91
        1
 62
     0
 92
       -2
340
14
 93
        0
 40
0.045
309
GRIDFORMAT_END
 95
        2
302
GRIDFORMAT
  1
GRIDFORMAT_BEGIN
 90
        0
 91
        1
 62
     0
 92
       -2
340
14
 93
        0
 40
0.045
309
GRIDFORMAT_END
 95
        4
302
GRIDFORMAT
  1
GRIDFORMAT_BEGIN
 90
        0
 91
        1
 62
     0
 92
       -2
340
14
 93
        0
 40
0.045
309
GRIDFORMAT_END
 95
        8
302
GRIDFORMAT
  1
GRIDFORMAT_BEGIN
 90
        0
 91
        1
 62
     0
 92
       -2
340
14
 93
        0
 40
0.045
309
GRIDFORMAT_END
 95
       16
302
GRIDFORMAT
  1
GRIDFORMAT_BEGIN
 90
        0
 91
        1
 62
     0
 92
       -2
340
14
 93
        0
 40
0.045
309
GRIDFORMAT_END
 95
       32
302
GRIDFORMAT
  1
GRIDFORMAT_BEGIN
 90
        0
 91
        1
 62
     0
 92
       -2
340
14
 93
        0
 40
0.045
309
GRIDFORMAT_END
309
TABLEFORMAT_END
  1
CELLSTYLE_BEGIN
 90
        3
 91
        2
300
_DATA
309
CELLSTYLE_END
  0
ENDSEC
  0
EOF
