  0
SECTION
  2
HEADER
  9
$ACADVER
  1
AC1015
  9
$ACADMAINTVER
 70
     6
  9
$DWGCODEPAGE
  3
ANSI_1252
  9
$INSBASE
 10
0.0
 20
0.0
 30
0.0
  9
$EXTMIN
 10
0.0
 20
0.0
 30
0.0
  9
$EXTMAX
 10
420.0
 20
297.0
 30
0.0
  9
$LIMMIN
 10
0.0
 20
0.0
  9
$LIMMAX
 10
420.0
 20
297.0
  9
$ORTHOMODE
 70
     0
  9
$REGENMODE
 70
     1
  9
$FILLMODE
 70
     1
  9
$QTEXTMODE
 70
     0
  9
$MIRRTEXT
 70
     1
  9
$LTSCALE
 40
1.0
  9
$ATTMODE
 70
     1
  9
$TEXTSIZE
 40
3.5
  9
$TRACEWID
 40
1.0
  9
$TEXTSTYLE
  7
Standard
  9
$CLAYER
  8
0
  9
$CELTYPE
  6
ByLayer
  9
$CECOLOR
 62
   256
  9
$CELTSCALE
 40
1.0
  9
$DISPSILH
 70
     0
  9
$DIMSCALE
 40
1.0
  9
$DIMASZ
 40
3.5
  9
$DIMEXO
 40
1.0
  9
$DIMDLI
 40
3.75
  9
$DIMRND
 40
0.0
  9
$DIMDLE
 40
0.0
  9
$DIMEXE
 40
1.0
  9
$DIMTP
 40
0.0
  9
$DIMTM
 40
0.0
  9
$DIMTXT
 40
3.5
  9
$DIMCEN
 40
2.5
  9
$DIMTSZ
 40
0.0
  9
$DIMTOL
 70
     0
  9
$DIMLIM
 70
     0
  9
$DIMTIH
 70
     1
  9
$DIMTOH
 70
     1
  9
$DIMSE1
 70
     0
  9
$DIMSE2
 70
     0
  9
$DIMTAD
 70
     1
  9
$DIMZIN
 70
     0
  9
$DIMBLK
  1

  9
$DIMASO
 70
     1
  9
$DIMSHO
 70
     1
  9
$DIMPOST
  1

  9
$DIMAPOST
  1

  9
$DIMALT
 70
     0
  9
$DIMALTD
 70
     3
  9
$DIMALTF
 40
0.0393700787
  9
$DIMLFAC
 40
1.0
  9
$DIMTOFL
 70
     1
  9
$DIMTVP
 40
0.0
  9
$DIMTIX
 70
     0
  9
$DIMSOXD
 70
     0
  9
$DIMSAH
 70
     0
  9
$DIMBLK1
  1

  9
$DIMBLK2
  1

  9
$DIMSTYLE
  2
ISO-25
  9
$DIMCLRD
 70
     0
  9
$DIMCLRE
 70
     0
  9
$DIMCLRT
 70
     0
  9
$DIMTFAC
 40
1.0
  9
$DIMGAP
 40
4.0
  9
$DIMJUST
 70
     0
  9
$DIMSD1
 70
     0
  9
$DIMSD2
 70
     0
  9
$DIMTOLJ
 70
     0
  9
$DIMTZIN
 70
     0
  9
$DIMALTZ
 70
     0
  9
$DIMALTTZ
 70
     0
  9
$DIMUPT
 70
     0
  9
$DIMDEC
 70
     1
  9
$DIMTDEC
 70
     2
  9
$DIMALTU
 70
     2
  9
$DIMALTTD
 70
     3
  9
$DIMTXSTY
  7
Standard
  9
$DIMAUNIT
 70
     0
  9
$DIMADEC
 70
     1
  9
$DIMALTRND
 40
0.0
  9
$DIMAZIN
 70
     0
  9
$DIMDSEP
 70
    44
  9
$DIMATFIT
 70
     3
  9
$DIMFRAC
 70
     0
  9
$DIMLDRBLK
  1

  9
$DIMLUNIT
 70
     2
  9
$DIMLWD
 70
    -2
  9
$DIMLWE
 70
    -2
  9
$DIMTMOVE
 70
     0
  9
$LUNITS
 70
     2
  9
$LUPREC
 70
     1
  9
$SKETCHINC
 40
1.0
  9
$FILLETRAD
 40
10.0
  9
$AUNITS
 70
     0
  9
$AUPREC
 70
     1
  9
$MENU
  1
.
  9
$ELEVATION
 40
0.0
  9
$PELEVATION
 40
0.0
  9
$THICKNESS
 40
0.0
  9
$LIMCHECK
 70
     0
  9
$CHAMFERA
 40
10.0
  9
$CHAMFERB
 40
10.0
  9
$CHAMFERC
 40
20.0
  9
$CHAMFERD
 40
0.0
  9
$SKPOLY
 70
     0
  9
$TDCREATE
 40
2456156.463768078
  9
$TDUCREATE
 40
2456156.380434745
  9
$TDUPDATE
 40
2456156.46376809
  9
$TDUUPDATE
 40
2456156.380434757
  9
$TDINDWG
 40
0.0000000116
  9
$TDUSRTIMER
 40
0.0000000116
  9
$USRTIMER
 70
     1
  9
$ANGBASE
 50
0.0
  9
$ANGDIR
 70
     0
  9
$PDMODE
 70
     0
  9
$PDSIZE
 40
-1.0
  9
$PLINEWID
 40
0.0
  9
$SPLFRAME
 70
     0
  9
$SPLINETYPE
 70
     6
  9
$SPLINESEGS
 70
     8
  9
$HANDSEED
  5
38A
  9
$SURFTAB1
 70
     6
  9
$SURFTAB2
 70
     6
  9
$SURFTYPE
 70
     6
  9
$SURFU
 70
     6
  9
$SURFV
 70
     6
  9
$UCSBASE
  2

  9
$UCSNAME
  2

  9
$UCSORG
 10
0.0
 20
0.0
 30
0.0
  9
$UCSXDIR
 10
1.0
 20
0.0
 30
0.0
  9
$UCSYDIR
 10
0.0
 20
1.0
 30
0.0
  9
$UCSORTHOREF
  2

  9
$UCSORTHOVIEW
 70
     0
  9
$UCSORGTOP
 10
0.0
 20
0.0
 30
0.0
  9
$UCSORGBOTTOM
 10
0.0
 20
0.0
 30
0.0
  9
$UCSORGLEFT
 10
0.0
 20
0.0
 30
0.0
  9
$UCSORGRIGHT
 10
0.0
 20
0.0
 30
0.0
  9
$UCSORGFRONT
 10
0.0
 20
0.0
 30
0.0
  9
$UCSORGBACK
 10
0.0
 20
0.0
 30
0.0
  9
$PUCSBASE
  2

  9
$PUCSNAME
  2

  9
$PUCSORG
 10
0.0
 20
0.0
 30
0.0
  9
$PUCSXDIR
 10
1.0
 20
0.0
 30
0.0
  9
$PUCSYDIR
 10
0.0
 20
1.0
 30
0.0
  9
$PUCSORTHOREF
  2

  9
$PUCSORTHOVIEW
 70
     0
  9
$PUCSORGTOP
 10
0.0
 20
0.0
 30
0.0
  9
$PUCSORGBOTTOM
 10
0.0
 20
0.0
 30
0.0
  9
$PUCSORGLEFT
 10
0.0
 20
0.0
 30
0.0
  9
$PUCSORGRIGHT
 10
0.0
 20
0.0
 30
0.0
  9
$PUCSORGFRONT
 10
0.0
 20
0.0
 30
0.0
  9
$PUCSORGBACK
 10
0.0
 20
0.0
 30
0.0
  9
$USERI1
 70
     0
  9
$USERI2
 70
     0
  9
$USERI3
 70
     0
  9
$USERI4
 70
     0
  9
$USERI5
 70
     0
  9
$USERR1
 40
0.0
  9
$USERR2
 40
0.0
  9
$USERR3
 40
0.0
  9
$USERR4
 40
0.0
  9
$USERR5
 40
0.0
  9
$WORLDVIEW
 70
     1
  9
$SHADEDGE
 70
     3
  9
$SHADEDIF
 70
    70
  9
$TILEMODE
 70
     1
  9
$MAXACTVP
 70
    64
  9
$PINSBASE
 10
0.0
 20
0.0
 30
0.0
  9
$PLIMCHECK
 70
     0
  9
$PEXTMIN
 10
1.0000000000E+20
 20
1.0000000000E+20
 30
1.0000000000E+20
  9
$PEXTMAX
 10
-1.0000000000E+20
 20
-1.0000000000E+20
 30
-1.0000000000E+20
  9
$PLIMMIN
 10
0.0
 20
0.0
  9
$PLIMMAX
 10
420.0
 20
297.0
  9
$UNITMODE
 70
     0
  9
$VISRETAIN
 70
     1
  9
$PLINEGEN
 70
     0
  9
$PSLTSCALE
 70
     1
  9
$TREEDEPTH
 70
  3020
  9
$CMLSTYLE
  2
Standard
  9
$CMLJUST
 70
     0
  9
$CMLSCALE
 40
20.0
  9
$PROXYGRAPHICS
 70
     1
  9
$MEASUREMENT
 70
     1
  9
$CELWEIGHT
370
    -1
  9
$ENDCAPS
280
     0
  9
$JOINSTYLE
280
     0
  9
$LWDISPLAY
290
     1
  9
$INSUNITS
 70
     4
  9
$HYPERLINKBASE
  1

  9
$STYLESHEET
  1

  9
$XEDIT
290
     1
  9
$CEPSNTYPE
380
     0
  9
$PSTYLEMODE
290
     1
  9
$FINGERPRINTGUID
  2
{2E598F14-0035-4801-A11B-4D69F71003FD}
  9
$VERSIONGUID
  2
{FAEB1C32-E019-11D5-929B-00C0DF256EC4}
  9
$EXTNAMES
290
     1
  9
$PSVPSCALE
 40
0.0
  9
$OLESTARTUP
290
     0
  0
ENDSEC
  0
SECTION
  2
CLASSES
  0
CLASS
  1
ACDBDICTIONARYWDFLT
  2
AcDbDictionaryWithDefault
  3
ObjectDBX Classes
 90
        0
280
     0
281
     0
  0
CLASS
  1
VISUALSTYLE
  2
AcDbVisualStyle
  3
ObjectDBX Classes
 90
     4095
280
     0
281
     0
  0
CLASS
  1
MATERIAL
  2
AcDbMaterial
  3
ObjectDBX Classes
 90
     1153
280
     0
281
     0
  0
CLASS
  1
ACDBPLACEHOLDER
  2
AcDbPlaceHolder
  3
ObjectDBX Classes
 90
        0
280
     0
281
     0
  0
CLASS
  1
LAYOUT
  2
AcDbLayout
  3
ObjectDBX Classes
 90
        0
280
     0
281
     0
  0
ENDSEC
  0
SECTION
  2
TABLES
  0
TABLE
  2
VPORT
  5
8
330
0
100
AcDbSymbolTable
 70
     1
  0
VPORT
  5
29
330
8
100
AcDbSymbolTableRecord
100
AcDbViewportTableRecord
  2
*Active
 70
     0
 10
0.0
 20
0.0
 11
1.0
 21
1.0
 12
210.0
 22
148.5
 13
0.0
 23
0.0
 14
10.0
 24
10.0
 15
10.0
 25
10.0
 16
0.0
 26
0.0
 36
1.0
 17
0.0
 27
0.0
 37
0.0
 40
297.0
 41
1.4141414141
 42
50.0
 43
0.0
 44
0.0
 50
0.0
 51
0.0
 71
     0
 72
  2000
 73
     1
 74
     3
 75
     0
 76
     0
 77
     0
 78
     0
281
     0
 65
     1
110
0.0
120
0.0
130
0.0
111
1.0
121
0.0
131
0.0
112
0.0
122
1.0
132
0.0
 79
     0
146
0.0
  0
ENDTAB
  0
TABLE
  2
LTYPE
  5
5
330
0
100
AcDbSymbolTable
 70
     6
  0
LTYPE
  5
14
330
5
100
AcDbSymbolTableRecord
100
AcDbLinetypeTableRecord
  2
ByBlock
 70
     0
  3

 72
    65
 73
     0
 40
0.0
  0
LTYPE
  5
15
330
5
100
AcDbSymbolTableRecord
100
AcDbLinetypeTableRecord
  2
ByLayer
 70
     0
  3

 72
    65
 73
     0
 40
0.0
  0
LTYPE
  5
16
330
5
100
AcDbSymbolTableRecord
100
AcDbLinetypeTableRecord
  2
Continuous
 70
     0
  3
Solid line
 72
    65
 73
     0
 40
0.0
  0
LTYPE
  5
3F
330
5
100
AcDbSymbolTableRecord
100
AcDbLinetypeTableRecord
  2
HIDDEN
 70
     0
  3
Hidden __ __ __ __ __ __ __ __ __ __ __ __ __ __
 72
    65
 73
     2
 40
1.905
 49
1.27
 74
     0
 49
-0.635
 74
     0
  0
LTYPE
  5
40
330
5
100
AcDbSymbolTableRecord
100
AcDbLinetypeTableRecord
  2
PHANTOM
 70
     0
  3
Phantom ______  __  __  ______  __  __  ______
 72
    65
 73
     6
 40
12.7
 49
6.35
 74
     0
 49
-1.27
 74
     0
 49
1.27
 74
     0
 49
-1.27
 74
     0
 49
1.27
 74
     0
 49
-1.27
 74
     0
  0
LTYPE
  5
41
330
5
100
AcDbSymbolTableRecord
100
AcDbLinetypeTableRecord
  2
CENTER
 70
     0
  3
Center ____ _ ____ _ ____ _ ____ _ ____ _ ____
 72
    65
 73
     4
 40
10.16
 49
6.35
 74
     0
 49
-1.27
 74
     0
 49
1.27
 74
     0
 49
-1.27
 74
     0
  0
LTYPE
  5
42
330
5
100
AcDbSymbolTableRecord
100
AcDbLinetypeTableRecord
  2
CENTERX2
 70
     0
  3
Center (2x) ________  __  ________  __  _____
 72
    65
 73
     4
 40
20.32
 49
12.7
 74
     0
 49
-2.54
 74
     0
 49
2.54
 74
     0
 49
-2.54
 74
     0
  0
LTYPE
  5
43
330
5
100
AcDbSymbolTableRecord
100
AcDbLinetypeTableRecord
  2
DOT2
 70
     0
  3
Dot (.5x) ........................................
 72
    65
 73
     2
 40
0.635
 49
0.0
 74
     0
 49
-0.635
 74
     0
  0
ENDTAB
  0
TABLE
  2
LAYER
  5
2
330
0
100
AcDbSymbolTable
 70
     5
  0
LAYER
  5
10
330
2
100
AcDbSymbolTableRecord
100
AcDbLayerTableRecord
  2
0
 70
     0
 62
     7
  6
Continuous
370
    -3
390
F
  0
LAYER
  5
44
330
2
100
AcDbSymbolTableRecord
100
AcDbLayerTableRecord
  2
VORLAGE
 70
     0
 62
    -1
  6
Continuous
370
    -3
390
F
  0
LAYER
  5
45
330
2
100
AcDbSymbolTableRecord
100
AcDbLayerTableRecord
  2
RAHMEN
 70
     0
 62
   179
  6
Continuous
370
    -3
390
F
  0
LAYER
  5
46
330
2
100
AcDbSymbolTableRecord
100
AcDbLayerTableRecord
  2
KOPF
 70
     0
 62
     7
  6
Continuous
370
    -3
390
F
  0
LAYER
  5
47
330
2
100
AcDbSymbolTableRecord
100
AcDbLayerTableRecord
  2
TEMP
 70
     0
 62
     7
  6
Continuous
370
    -3
390
F
  0
ENDTAB
  0
TABLE
  2
STYLE
  5
3
330
0
100
AcDbSymbolTable
 70
     2
  0
STYLE
  5
11
330
3
100
AcDbSymbolTableRecord
100
AcDbTextStyleTableRecord
  2
Standard
 70
     0
 40
0.0
 41
1.0
 50
0.0
 71
     0
 42
2.5
  3
txt
  4

  0
STYLE
  5
F1
330
3
100
AcDbSymbolTableRecord
100
AcDbTextStyleTableRecord
  2
SLDTEXTSTYLE0
 70
     0
 40
0.0
 41
0.605
 50
0.0
 71
     0
 42
0.2
  3
TXT
  4

  0
ENDTAB
  0
TABLE
  2
VIEW
  5
6
330
0
100
AcDbSymbolTable
 70
     0
  0
ENDTAB
  0
TABLE
  2
UCS
  5
7
330
0
100
AcDbSymbolTable
 70
     0
  0
ENDTAB
  0
TABLE
  2
APPID
  5
9
330
0
100
AcDbSymbolTable
 70
     1
  0
APPID
  5
12
330
9
100
AcDbSymbolTableRecord
100
AcDbRegAppTableRecord
  2
ACAD
 70
     0
  0
ENDTAB
  0
TABLE
  2
DIMSTYLE
  5
A
330
0
100
AcDbSymbolTable
 70
     3
100
AcDbDimStyleTable
  0
DIMSTYLE
105
27
330
A
100
AcDbSymbolTableRecord
100
AcDbDimStyleTableRecord
  2
ISO-25
 70
     0
 41
2.5
 42
0.625
 43
3.75
 44
1.25
 73
     0
 74
     0
 77
     1
 78
     8
140
2.5
141
2.5
143
0.0393700787
147
0.625
171
     3
172
     1
178
     0
271
     2
272
     2
274
     3
278
    44
283
     0
284
     8
340
11
  0
DIMSTYLE
105
F2
102
{ACAD_REACTORS
330
F0
330
FE
330
17F
102
}
330
A
100
AcDbSymbolTableRecord
100
AcDbDimStyleTableRecord
  2
SLDDIMSTYLE0
 70
     0
 41
3.5
 44
0.0
 45
0.000000001
 73
     0
 74
     0
 77
     1
 78
    12
 79
     3
140
3.5
147
0.875
173
     1
178
     0
271
     1
272
     2
276
     2
284
    12
340
F1
  0
DIMSTYLE
105
18C
102
{ACAD_REACTORS
330
18B
102
}
330
A
100
AcDbSymbolTableRecord
100
AcDbDimStyleTableRecord
  2
SLDDIMSTYLE1
 70
     0
 41
3.5
 44
0.0
 45
0.000000001
 73
     0
 74
     0
 77
     1
 78
    12
 79
     3
140
3.5
147
0.875
173
     1
178
     0
271
     0
272
     2
276
     2
284
    12
340
F1
  0
ENDTAB
  0
TABLE
  2
BLOCK_RECORD
  5
1
330
0
100
AcDbSymbolTable
 70
     5
  0
BLOCK_RECORD
  5
1F
330
1
100
AcDbSymbolTableRecord
100
AcDbBlockTableRecord
  2
*Model_Space
340
22
  0
BLOCK_RECORD
  5
1B
330
1
100
AcDbSymbolTableRecord
100
AcDbBlockTableRecord
  2
*Paper_Space
340
1E
  0
BLOCK_RECORD
  5
23
330
1
100
AcDbSymbolTableRecord
100
AcDbBlockTableRecord
  2
*Paper_Space0
340
26
  0
BLOCK_RECORD
  5
F3
330
1
100
AcDbSymbolTableRecord
100
AcDbBlockTableRecord
  2
*D1
340
0
  0
BLOCK_RECORD
  5
FF
330
1
100
AcDbSymbolTableRecord
100
AcDbBlockTableRecord
  2
*D2
340
0
  0
BLOCK_RECORD
  5
180
330
1
100
AcDbSymbolTableRecord
100
AcDbBlockTableRecord
  2
*D3
340
0
  0
BLOCK_RECORD
  5
18D
330
1
100
AcDbSymbolTableRecord
100
AcDbBlockTableRecord
  2
*D4
340
0
  0
ENDTAB
  0
ENDSEC
  0
SECTION
  2
BLOCKS
  0
BLOCK
  5
20
330
1F
100
AcDbEntity
  8
0
100
AcDbBlockBegin
  2
*Model_Space
 70
     0
 10
0.0
 20
0.0
 30
0.0
  3
*Model_Space
  1

  0
ENDBLK
  5
21
330
1F
100
AcDbEntity
  8
0
100
AcDbBlockEnd
  0
BLOCK
  5
1C
330
1B
100
AcDbEntity
 67
     1
  8
0
100
AcDbBlockBegin
  2
*Paper_Space
 70
     0
 10
0.0
 20
0.0
 30
0.0
  3
*Paper_Space
  1

  0
ENDBLK
  5
1D
330
1B
100
AcDbEntity
 67
     1
  8
0
100
AcDbBlockEnd
  0
BLOCK
  5
24
330
23
100
AcDbEntity
  8
0
100
AcDbBlockBegin
  2
*Paper_Space0
 70
     0
 10
0.0
 20
0.0
 30
0.0
  3
*Paper_Space0
  1

  0
ENDBLK
  5
25
330
23
100
AcDbEntity
  8
0
100
AcDbBlockEnd
  0
BLOCK
  5
F4
330
F3
100
AcDbEntity
  8
0
100
AcDbBlockBegin
  2
*D1
 70
     1
 10
0.0
 20
0.0
 30
0.0
  3
*D1
  1

  0
ARC
  5
F6
330
F3
100
AcDbEntity
  8
0
  6
Continuous
 62
     7
370
     0
100
AcDbCircle
 10
38.7213977888
 20
205.734668455
 30
0.0
 40
6.00465598302127
100
AcDbArc
 50
243.4349488229
 51
296.5650511771
  0
ARC
  5
F7
330
F3
100
AcDbEntity
  8
0
  6
Continuous
 62
     7
370
     0
100
AcDbCircle
 10
38.7213977888
 20
210.1966764113
 30
0.0
 40
6.004655983021264
100
AcDbArc
 50
63.4349488229
 51
116.5650511771
  0
SOLID
  5
F8
330
F3
100
AcDbEntity
  8
0
  6
Continuous
 62
     7
370
     0
100
AcDbTrace
 10
41.4067615807
 20
271.7764711447
 30
0.0
 11
40.5067615807
 21
268.2764711447
 31
0.0
 12
42.3067615807
 22
268.2764711447
 32
0.0
 13
42.3067615807
 23
268.2764711447
 33
0.0
  0
SOLID
  5
F9
330
F3
100
AcDbEntity
  8
0
  6
Continuous
 62
     7
370
     0
100
AcDbTrace
 10
41.4067615807
 20
148.9764711447
 30
0.0
 11
42.3067615807
 21
152.4764711447
 31
0.0
 12
40.5067615807
 22
152.4764711447
 32
0.0
 13
40.5067615807
 23
152.4764711447
 33
0.0
  0
LINE
  5
FA
330
F3
100
AcDbEntity
  8
0
  6
Continuous
 62
     7
370
     0
100
AcDbLine
 10
65.8289216414
 20
271.7764711447
 30
0.0
 11
40.4067615807
 21
271.7764711447
 31
0.0
  0
LINE
  5
FB
330
F3
100
AcDbEntity
  8
0
  6
Continuous
 62
     7
370
     0
100
AcDbLine
 10
59.8289216414
 20
148.9764711447
 30
0.0
 11
40.4067615807
 21
148.9764711447
 31
0.0
  0
LINE
  5
FC
330
F3
100
AcDbEntity
  8
0
  6
Continuous
 62
     7
370
     0
100
AcDbLine
 10
41.4067615807
 20
271.7764711447
 30
0.0
 11
41.4067615807
 21
148.9764711447
 31
0.0
  0
MTEXT
  5
FD
330
F3
100
AcDbEntity
  8
0
  6
Continuous
 62
     7
370
     0
100
AcDbMText
 10
36.8950242587
 20
201.9514408712
 30
0.0
 40
3.5
 41
0.0
 71
     1
 72
     1
  1
122.8
  7
SLDTEXTSTYLE0
 11
-7.044195017643634E-15
 21
1.0
 31
0.0
 73
     1
 44
1.0
  0
ENDBLK
  5
F5
330
F3
100
AcDbEntity
  8
0
100
AcDbBlockEnd
  0
BLOCK
  5
100
330
FF
100
AcDbEntity
  8
0
100
AcDbBlockBegin
  2
*D2
 70
     1
 10
0.0
 20
0.0
 30
0.0
  3
*D2
  1

  0
SOLID
  5
102
330
FF
100
AcDbEntity
  8
0
  6
Continuous
 62
     7
370
     0
100
AcDbTrace
 10
53.0289216414
 20
211.6845308429
 30
0.0
 11
56.5289216414
 21
210.7845308429
 31
0.0
 12
56.5289216414
 22
212.5845308429
 32
0.0
 13
56.5289216414
 23
212.5845308429
 33
0.0
  0
SOLID
  5
103
330
FF
100
AcDbEntity
  8
0
  6
Continuous
 62
     7
370
     0
100
AcDbTrace
 10
120.0289216414
 20
211.6845308429
 30
0.0
 11
116.5289216414
 21
212.5845308429
 31
0.0
 12
116.5289216414
 22
210.7845308429
 32
0.0
 13
116.5289216414
 23
210.7845308429
 33
0.0
  0
LINE
  5
104
330
FF
100
AcDbEntity
  8
0
  6
Continuous
 62
     7
370
     0
100
AcDbLine
 10
53.0289216414
 20
229.2764711447
 30
0.0
 11
53.0289216414
 21
210.6845308429
 31
0.0
  0
LINE
  5
105
330
FF
100
AcDbEntity
  8
0
  6
Continuous
 62
     7
370
     0
100
AcDbLine
 10
120.0289216414
 20
229.2764711447
 30
0.0
 11
120.0289216414
 21
210.6845308429
 31
0.0
  0
LINE
  5
106
330
FF
100
AcDbEntity
  8
0
  6
Continuous
 62
     7
370
     0
100
AcDbLine
 10
53.0289216414
 20
211.6845308429
 30
0.0
 11
120.0289216414
 21
211.6845308429
 31
0.0
  0
MTEXT
  5
107
330
FF
100
AcDbEntity
  8
0
  6
Continuous
 62
     7
370
     0
100
AcDbMText
 10
90.4201874293
 20
216.1962681649
 30
0.0
 40
3.5
 41
0.0
 71
     1
 72
     1
  1
67
  7
SLDTEXTSTYLE0
 73
     1
 44
1.0
  0
ENDBLK
  5
101
330
FF
100
AcDbEntity
  8
0
100
AcDbBlockEnd
  0
BLOCK
  5
181
330
180
100
AcDbEntity
  8
0
100
AcDbBlockBegin
  2
*D3
 70
     1
 10
0.0
 20
0.0
 30
0.0
  3
*D3
  1

  0
ARC
  5
183
330
180
100
AcDbEntity
  8
0
  6
Continuous
 62
     7
370
     0
100
AcDbCircle
 10
38.9254717597
 20
91.173014707
 30
0.0
 40
6.004655983021292
100
AcDbArc
 50
243.4349488229
 51
296.5650511771
  0
ARC
  5
184
330
180
100
AcDbEntity
  8
0
  6
Continuous
 62
     7
370
     0
100
AcDbCircle
 10
38.9254717597
 20
88.9512577488
 30
0.0
 40
6.00465598302129
100
AcDbArc
 50
63.4349488229
 51
116.5650511771
  0
SOLID
  5
185
330
180
100
AcDbEntity
  8
0
  6
Continuous
 62
     7
370
     0
100
AcDbTrace
 10
41.6108355516
 20
129.1594998959
 30
0.0
 11
40.7108355516
 21
125.6594998959
 31
0.0
 12
42.5108355516
 22
125.6594998959
 32
0.0
 13
42.5108355516
 23
125.6594998959
 33
0.0
  0
SOLID
  5
186
330
180
100
AcDbEntity
  8
0
  6
Continuous
 62
     7
370
     0
100
AcDbTrace
 10
41.6108355516
 20
39.1594998959
 30
0.0
 11
42.5108355516
 21
42.6594998959
 31
0.0
 12
40.7108355516
 22
42.6594998959
 32
0.0
 13
40.7108355516
 23
42.6594998959
 33
0.0
  0
LINE
  5
187
330
180
100
AcDbEntity
  8
0
  6
Continuous
 62
     7
370
     0
100
AcDbLine
 10
59.8289216414
 20
129.1594998959
 30
0.0
 11
40.6108355516
 21
129.1594998959
 31
0.0
  0
LINE
  5
188
330
180
100
AcDbEntity
  8
0
  6
Continuous
 62
     7
370
     0
100
AcDbLine
 10
58.0289216414
 20
39.1594998959
 30
0.0
 11
40.6108355516
 21
39.1594998959
 31
0.0
  0
LINE
  5
189
330
180
100
AcDbEntity
  8
0
  6
Continuous
 62
     7
370
     0
100
AcDbLine
 10
41.6108355516
 20
129.1594998959
 30
0.0
 11
41.6108355516
 21
39.1594998959
 31
0.0
  0
MTEXT
  5
18A
330
180
100
AcDbEntity
  8
0
  6
Continuous
 62
     7
370
     0
100
AcDbMText
 10
37.0990982296
 20
87.3897871232
 30
0.0
 40
3.5
 41
0.0
 71
     1
 72
     1
  1
90
  7
SLDTEXTSTYLE0
 11
-7.044195017643634E-15
 21
1.0
 31
0.0
 73
     1
 44
1.0
  0
ENDBLK
  5
182
330
180
100
AcDbEntity
  8
0
100
AcDbBlockEnd
  0
BLOCK
  5
18E
330
18D
100
AcDbEntity
  8
0
100
AcDbBlockBegin
  2
*D4
 70
     1
 10
0.0
 20
0.0
 30
0.0
  3
*D4
  1

  0
ARC
  5
190
330
18D
100
AcDbEntity
  8
0
  6
Continuous
 62
     7
370
     0
100
AcDbCircle
 10
28.6386374115
 20
78.86564479
 30
0.0
 40
6.004655983021296
100
AcDbArc
 50
243.4349488229
 51
296.5650511771
  0
ARC
  5
191
330
18D
100
AcDbEntity
  8
0
  6
Continuous
 62
     7
370
     0
100
AcDbCircle
 10
28.6386374115
 20
79.3191290892
 30
0.0
 40
6.004655983021312
100
AcDbArc
 50
63.4349488229
 51
116.5650511771
  0
SOLID
  5
192
330
18D
100
AcDbEntity
  8
0
  6
Continuous
 62
     7
370
     0
100
AcDbTrace
 10
31.3240012035
 20
129.8594998959
 30
0.0
 11
30.4240012035
 21
126.3594998959
 31
0.0
 12
32.2240012035
 22
126.3594998959
 32
0.0
 13
32.2240012035
 23
126.3594998959
 33
0.0
  0
SOLID
  5
193
330
18D
100
AcDbEntity
  8
0
  6
Continuous
 62
     7
370
     0
100
AcDbTrace
 10
31.3240012035
 20
7.9594998959
 30
0.0
 11
32.2240012035
 21
11.4594998959
 31
0.0
 12
30.4240012035
 22
11.4594998959
 32
0.0
 13
30.4240012035
 23
11.4594998959
 33
0.0
  0
LINE
  5
194
330
18D
100
AcDbEntity
  8
0
  6
Continuous
 62
     7
370
     0
100
AcDbLine
 10
101.0289216414
 20
129.8594998959
 30
0.0
 11
30.3240012035
 21
129.8594998959
 31
0.0
  0
LINE
  5
195
330
18D
100
AcDbEntity
  8
0
  6
Continuous
 62
     7
370
     0
100
AcDbLine
 10
88.5289216414
 20
7.9594998959
 30
0.0
 11
30.3240012035
 21
7.9594998959
 31
0.0
  0
LINE
  5
196
330
18D
100
AcDbEntity
  8
0
  6
Continuous
 62
     7
370
     0
100
AcDbLine
 10
31.3240012035
 20
129.8594998959
 30
0.0
 11
31.3240012035
 21
7.9594998959
 31
0.0
  0
MTEXT
  5
197
330
18D
100
AcDbEntity
  8
0
  6
Continuous
 62
     7
370
     0
100
AcDbMText
 10
26.8122638814
 20
75.0824172061
 30
0.0
 40
3.5
 41
0.0
 71
     1
 72
     1
  1
122
  7
SLDTEXTSTYLE0
 11
-7.044195017643634E-15
 21
1.0
 31
0.0
 73
     1
 44
1.0
  0
ENDBLK
  5
18F
330
18D
100
AcDbEntity
  8
0
100
AcDbBlockEnd
  0
ENDSEC
  0
SECTION
  2
ENTITIES
  0
LINE
  5
48
330
1F
100
AcDbEntity
  8
0
  6
Continuous
 62
     7
370
    30
100
AcDbLine
 10
77.5289220289
 20
263.7764719911
 30
0.0
 11
77.5289220289
 21
252.9764679857
 31
0.0
  0
LINE
  5
49
330
1F
100
AcDbEntity
  8
0
  6
Continuous
 62
     7
370
    30
100
AcDbLine
 10
95.528921254
 20
252.9764679857
 30
0.0
 11
95.528921254
 21
263.7764719911
 31
0.0
  0
LINE
  5
4A
330
1F
100
AcDbEntity
  8
0
  6
Continuous
 62
     7
370
    30
100
AcDbLine
 10
73.5289213732
 20
252.9764679857
 30
0.0
 11
73.5289213732
 21
251.9764734097
 31
0.0
  0
LINE
  5
4B
330
1F
100
AcDbEntity
  8
0
  6
Continuous
 62
     7
370
    30
100
AcDbLine
 10
99.5289219096
 20
251.9764734097
 30
0.0
 11
99.5289219096
 21
252.9764679857
 31
0.0
  0
SPLINE
  5
4C
330
1F
100
AcDbEntity
  8
0
  6
Continuous
 62
     7
370
    30
100
AcDbSpline
210
0.0
220
0.0
230
1.0
 70
     8
 71
     3
 72
    15
 73
    11
 74
     0
 42
0.00000001
 43
0.00000001
 40
0.0
 40
0.0
 40
0.0
 40
0.0
 40
0.0959717335884673
 40
0.2663164071865693
 40
0.4014878063531658
 40
0.4887341096872746
 40
0.589065767446358
 40
0.7064377488856022
 40
0.842931650859583
 40
0.9999999999999999
 40
0.9999999999999999
 40
0.9999999999999999
 40
0.9999999999999999
 10
63.84467347712651
 20
155.4764706306592
 30
0.0
 10
63.86779294661693
 20
155.4764668879158
 30
0.0
 10
63.93194823297607
 20
155.4764565020039
 30
0.0
 10
64.0318768781711
 20
155.4764522638922
 30
0.0
 10
64.12645965983275
 20
155.4764524307032
 30
0.0
 10
64.23144308295149
 20
155.4764508121738
 30
0.0
 10
64.40745119257294
 20
155.476457747653
 30
0.0
 10
64.65152359189683
 20
155.4764818486859
 30
0.0
 10
64.96838678104132
 20
155.4765263966806
 30
0.0
 10
65.21741734151018
 20
155.4765604461543
 30
0.0
 10
65.35065933318272
 20
155.4765786640778
 30
0.0
  0
SPLINE
  5
4D
330
1F
100
AcDbEntity
  8
0
  6
Continuous
 62
     7
370
    30
100
AcDbSpline
210
0.0
220
0.0
230
1.0
 70
     8
 71
     3
 72
    14
 73
    10
 74
     0
 42
0.00000001
 43
0.00000001
 40
0.0
 40
0.0
 40
0.0
 40
0.0
 40
0.1127147703118547
 40
0.2722828134216058
 40
0.4224662221710634
 40
0.5690026693080759
 40
0.9110864183199119
 40
0.9946898031801239
 40
0.9999999999999999
 40
0.9999999999999999
 40
0.9999999999999999
 40
0.9999999999999999
 10
108.4475704953207
 20
155.4764715619817
 30
0.0
 10
108.5042246792864
 20
155.4764666718721
 30
0.0
 10
108.6410830569382
 20
155.4764548589324
 30
0.0
 10
108.8094798215475
 20
155.4764513050874
 30
0.0
 10
108.9499399794238
 20
155.4764517856621
 30
0.0
 10
109.0492959687242
 20
155.4764542627771
 30
0.0
 10
109.1353296599833
 20
155.4764611999852
 30
0.0
 10
109.1827044174138
 20
155.4764631563717
 30
0.0
 10
109.2114528589919
 20
155.4764684517571
 30
0.0
 10
109.2131698057188
 20
155.476468768014
 30
0.0
  0
SPLINE
  5
4E
330
1F
100
AcDbEntity
  8
0
  6
Continuous
 62
     7
370
    30
100
AcDbSpline
210
0.0
220
0.0
230
1.0
 70
     8
 71
     3
 72
    12
 73
     8
 74
     0
 42
0.00000001
 43
0.00000001
 40
0.0
 40
0.0
 40
0.0
 40
0.0
 40
0.1585698384424888
 40
0.3455148179346017
 40
0.528756023713729
 40
0.8370742515570989
 40
1.0
 40
1.0
 40
1.0
 40
1.0
 10
66.85943356902733
 20
155.4764715619817
 30
0.0
 10
66.99545758106996
 20
155.4764666290218
 30
0.0
 10
67.29184630301901
 20
155.4764558803777
 30
0.0
 10
67.78868917123809
 20
155.4764589884079
 30
0.0
 10
68.41928473547141
 20
155.4764594786723
 30
0.0
 10
69.03350099928379
 20
155.4764605886723
 30
0.0
 10
69.4769605805299
 20
155.4764625143155
 30
0.0
 10
69.63028027863636
 20
155.4764631800786
 30
0.0
  0
LINE
  5
4F
330
1F
100
AcDbEntity
  8
0
  6
Continuous
 62
     7
370
    30
100
AcDbLine
 10
80.5289215893
 20
264.0764696189
 30
0.0
 11
80.5289215893
 21
271.4764682241
 31
0.0
  0
LINE
  5
50
330
1F
100
AcDbEntity
  8
0
  6
Continuous
 62
     7
370
    30
100
AcDbLine
 10
85.0439974126
 20
263.7764719911
 30
0.0
 11
83.5289216153
 21
263.7764719911
 31
0.0
  0
SPLINE
  5
51
330
1F
100
AcDbEntity
  8
0
  6
Continuous
 62
     7
370
    30
100
AcDbSpline
210
0.0
220
0.0
230
1.0
 70
     8
 71
     3
 72
    12
 73
     8
 74
     0
 42
0.00000001
 43
0.00000001
 40
0.0
 40
0.0
 40
0.0
 40
0.0
 40
0.2145459050338236
 40
0.429195137910219
 40
0.6411055608089316
 40
0.8513371304975054
 40
1.0
 40
1.0
 40
1.0
 40
1.0
 10
85.04399741256073
 20
264.0764696188703
 30
0.0
 10
85.04061158272458
 20
264.0428511406759
 30
0.0
 10
85.03383829239662
 20
263.9755979932305
 30
0.0
 10
85.02815871013459
 20
263.8858992329332
 30
0.0
 10
85.02933722504525
 20
263.818474576176
 30
0.0
 10
85.0359940252245
 20
263.7819188040845
 30
0.0
 10
85.0416532309151
 20
263.7780673554986
 30
0.0
 10
85.04399741256073
 20
263.7764719911352
 30
0.0
  0
LINE
  5
52
330
1F
100
AcDbEntity
  8
0
  6
Continuous
 62
     7
370
    30
100
AcDbLine
 10
83.5289216153
 20
263.7764719911
 30
0.0
 11
80.8289215453
 21
263.7764719911
 31
0.0
  0
ARC
  5
53
330
1F
100
AcDbEntity
  8
0
  6
Continuous
 62
     7
370
    30
100
AcDbCircle
 10
80.8289216414
 20
264.0764711447
 30
0.0
 40
0.2999999999999972
100
AcDbArc
 50
180.0
 51
270.0
  0
LINE
  5
54
330
1F
100
AcDbEntity
  8
0
  6
Continuous
 62
     7
370
    30
100
AcDbLine
 10
83.5289216153
 20
271.7764733024
 30
0.0
 11
89.5289216675
 21
271.7764733024
 31
0.0
  0
LINE
  5
55
330
1F
100
AcDbEntity
  8
0
  6
Continuous
 62
     7
370
    30
100
AcDbLine
 10
80.8289215453
 20
271.7764733024
 30
0.0
 11
83.5289216153
 21
271.7764733024
 31
0.0
  0
ARC
  5
56
330
1F
100
AcDbEntity
  8
0
  6
Continuous
 62
     7
370
    30
100
AcDbCircle
 10
80.8289216414
 20
271.4764711447
 30
0.0
 40
0.3000000000000114
100
AcDbArc
 50
90.0
 51
180.0
  0
ELLIPSE
  5
57
330
1F
100
AcDbEntity
  8
0
  6
Continuous
 62
     7
370
    30
100
AcDbEllipse
 10
86.5289216414
 20
263.7764711447
 30
0.0
 11
0.0
 21
-2.12132034355966
 31
0.0
210
0.0
220
0.0
230
1.0
 40
0.7071067812
 41
1.712693381399038
 42
4.570491925780557
  0
SPLINE
  5
58
330
1F
100
AcDbEntity
  8
0
  6
Continuous
 62
     7
370
    30
100
AcDbSpline
210
0.0
220
0.0
230
1.0
 70
     8
 71
     3
 72
    12
 73
     8
 74
     0
 42
0.00000001
 43
0.00000001
 40
0.0
 40
0.0
 40
0.0
 40
0.0
 40
0.2145468256584635
 40
0.4291969796028823
 40
0.6411083118172807
 40
0.8513346638792164
 40
1.0
 40
1.0
 40
1.0
 40
1.0
 10
88.01384587028458
 20
263.7764719911352
 30
0.0
 10
88.0172317024609
 20
263.7797596387537
 30
0.0
 10
88.02400499747033
 20
263.7863365173606
 30
0.0
 10
88.02968454475781
 20
263.8377691837708
 30
0.0
 10
88.02850617210878
 20
263.9131163321532
 30
0.0
 10
88.02184906608582
 20
263.9971727619802
 30
0.0
 10
88.01619003603713
 20
264.0532432751918
 30
0.0
 10
88.01384587028458
 20
264.0764696188703
 30
0.0
  0
LINE
  5
59
330
1F
100
AcDbEntity
  8
0
  6
Continuous
 62
     7
370
    30
100
AcDbLine
 10
88.0138458703
 20
263.7764719911
 30
0.0
 11
85.0439974126
 21
263.7764719911
 31
0.0
  0
LINE
  5
5A
330
1F
100
AcDbEntity
  8
0
  6
Continuous
 62
     7
370
    30
100
AcDbLine
 10
89.5289216675
 20
271.7764733024
 30
0.0
 11
92.2289217375
 21
271.7764733024
 31
0.0
  0
ARC
  5
5B
330
1F
100
AcDbEntity
  8
0
  6
Continuous
 62
     7
370
    30
100
AcDbCircle
 10
92.2289216414
 20
271.4764711447
 30
0.0
 40
0.3000000000000114
100
AcDbArc
 50
0.0
 51
90.0
  0
LINE
  5
5C
330
1F
100
AcDbEntity
  8
0
  6
Continuous
 62
     7
370
    30
100
AcDbLine
 10
92.5289216936
 20
271.4764682241
 30
0.0
 11
92.5289216936
 21
264.0764696189
 31
0.0
  0
LINE
  5
5D
330
1F
100
AcDbEntity
  8
0
  6
Continuous
 62
     7
370
    30
100
AcDbLine
 10
89.5289216675
 20
263.7764719911
 30
0.0
 11
88.0138458703
 21
263.7764719911
 31
0.0
  0
LINE
  5
5E
330
1F
100
AcDbEntity
  8
0
  6
Continuous
 62
     7
370
    30
100
AcDbLine
 10
92.2289217375
 20
263.7764719911
 30
0.0
 11
89.5289216675
 21
263.7764719911
 31
0.0
  0
ARC
  5
5F
330
1F
100
AcDbEntity
  8
0
  6
Continuous
 62
     7
370
    30
100
AcDbCircle
 10
92.2289216414
 20
264.0764711447
 30
0.0
 40
0.3000000000000114
100
AcDbArc
 50
270.0
 51
0.0
  0
LINE
  5
60
330
1F
100
AcDbEntity
  8
0
  6
Continuous
 62
     7
370
    30
100
AcDbLine
 10
98.5289217457
 20
263.7764719911
 30
0.0
 11
92.2289217375
 21
263.7764719911
 31
0.0
  0
LINE
  5
61
330
1F
100
AcDbEntity
  8
0
  6
Continuous
 62
     7
370
    30
100
AcDbLine
 10
80.8289215453
 20
263.7764719911
 30
0.0
 11
74.5289215371
 21
263.7764719911
 31
0.0
  0
LINE
  5
62
330
1F
100
AcDbEntity
  8
0
  6
Continuous
 62
     7
370
    30
100
AcDbLine
 10
92.2289217375
 20
271.7764733024
 30
0.0
 11
98.5289217457
 21
271.7764733024
 31
0.0
  0
LINE
  5
63
330
1F
100
AcDbEntity
  8
0
  6
Continuous
 62
     7
370
    30
100
AcDbLine
 10
74.5289215371
 20
271.7764733024
 30
0.0
 11
80.8289215453
 21
271.7764733024
 31
0.0
  0
LINE
  5
64
330
1F
100
AcDbEntity
  8
0
  6
Continuous
 62
     7
370
    30
100
AcDbLine
 10
74.5289215371
 20
263.7764719911
 30
0.0
 11
72.5289212093
 21
263.7764719911
 31
0.0
  0
LINE
  5
65
330
1F
100
AcDbEntity
  8
0
  6
Continuous
 62
     7
370
    30
100
AcDbLine
 10
98.5289217457
 20
271.7764733024
 30
0.0
 11
100.5289220736
 21
271.7764733024
 31
0.0
  0
LINE
  5
66
330
1F
100
AcDbEntity
  8
0
  6
Continuous
 62
     7
370
    30
100
AcDbLine
 10
106.5289211944
 20
271.4764682241
 30
0.0
 11
106.5289211944
 21
264.0764696189
 31
0.0
  0
ARC
  5
67
330
1F
100
AcDbEntity
  8
0
  6
Continuous
 62
     7
370
    30
100
AcDbCircle
 10
66.8289216414
 20
264.0764711447
 30
0.0
 40
0.3000000000000114
100
AcDbArc
 50
180.0
 51
270.0
  0
LINE
  5
68
330
1F
100
AcDbEntity
  8
0
  6
Continuous
 62
     7
370
    30
100
AcDbLine
 10
72.5289212093
 20
263.7764719911
 30
0.0
 11
66.8289215788
 21
263.7764719911
 31
0.0
  0
ARC
  5
69
330
1F
100
AcDbEntity
  8
0
  6
Continuous
 62
     7
370
    30
100
AcDbCircle
 10
66.8289216414
 20
271.4764711447
 30
0.0
 40
0.3000000000000114
100
AcDbArc
 50
90.0
 51
180.0
  0
LINE
  5
6A
330
1F
100
AcDbEntity
  8
0
  6
Continuous
 62
     7
370
    30
100
AcDbLine
 10
66.8289215788
 20
271.7764733024
 30
0.0
 11
72.5289212093
 21
271.7764733024
 31
0.0
  0
LINE
  5
6B
330
1F
100
AcDbEntity
  8
0
  6
Continuous
 62
     7
370
    30
100
AcDbLine
 10
100.5289220736
 20
263.7764719911
 30
0.0
 11
98.5289217457
 21
263.7764719911
 31
0.0
  0
ARC
  5
6C
330
1F
100
AcDbEntity
  8
0
  6
Continuous
 62
     7
370
    30
100
AcDbCircle
 10
106.2289216414
 20
264.0764711447
 30
0.0
 40
0.2999999999999972
100
AcDbArc
 50
270.0
 51
0.0
  0
LINE
  5
6D
330
1F
100
AcDbEntity
  8
0
  6
Continuous
 62
     7
370
    30
100
AcDbLine
 10
106.228921704
 20
263.7764719911
 30
0.0
 11
100.5289220736
 21
263.7764719911
 31
0.0
  0
LINE
  5
6E
330
1F
100
AcDbEntity
  8
0
  6
Continuous
 62
     7
370
    30
100
AcDbLine
 10
66.5289220885
 20
264.0764696189
 30
0.0
 11
66.5289220885
 21
271.4764682241
 31
0.0
  0
LINE
  5
6F
330
1F
100
AcDbEntity
  8
0
  6
Continuous
 62
     7
370
    30
100
AcDbLine
 10
72.5289212093
 20
271.7764733024
 30
0.0
 11
74.5289215371
 21
271.7764733024
 31
0.0
  0
ARC
  5
70
330
1F
100
AcDbEntity
  8
0
  6
Continuous
 62
     7
370
    30
100
AcDbCircle
 10
106.2289216414
 20
271.4764711447
 30
0.0
 40
0.3000000000000114
100
AcDbArc
 50
0.0
 51
90.0
  0
LINE
  5
71
330
1F
100
AcDbEntity
  8
0
  6
Continuous
 62
     7
370
    30
100
AcDbLine
 10
100.5289220736
 20
271.7764733024
 30
0.0
 11
106.228921704
 21
271.7764733024
 31
0.0
  0
LINE
  5
72
330
1F
100
AcDbEntity
  8
0
  6
Continuous
 62
     7
370
    30
100
AcDbLine
 10
73.5289213732
 20
252.9764679857
 30
0.0
 11
99.5289219096
 21
252.9764679857
 31
0.0
  0
LINE
  5
73
330
1F
100
AcDbEntity
  8
0
  6
Continuous
 62
     7
370
    30
100
AcDbLine
 10
114.0289214924
 20
251.9764734097
 30
0.0
 11
119.7289211229
 21
251.9764734097
 31
0.0
  0
ARC
  5
74
330
1F
100
AcDbEntity
  8
0
  6
Continuous
 62
     7
370
    30
100
AcDbCircle
 10
119.7289216414
 20
251.6764711447
 30
0.0
 40
0.2999999999999829
100
AcDbArc
 50
0.0
 51
90.0
  0
LINE
  5
75
330
1F
100
AcDbEntity
  8
0
  6
Continuous
 62
     7
370
    30
100
AcDbLine
 10
53.32892216
 20
251.9764734097
 30
0.0
 11
59.0289217904
 21
251.9764734097
 31
0.0
  0
ARC
  5
76
330
1F
100
AcDbEntity
  8
0
  6
Continuous
 62
     7
370
    30
100
AcDbCircle
 10
53.3289216414
 20
251.6764711447
 30
0.0
 40
0.3000000000000114
100
AcDbArc
 50
90.0
 51
180.0
  0
LINE
  5
77
330
1F
100
AcDbEntity
  8
0
  6
Continuous
 62
     7
370
    30
100
AcDbLine
 10
120.0289224759
 20
251.6764683314
 30
0.0
 11
120.0289224759
 21
230.2764711567
 31
0.0
  0
LINE
  5
78
330
1F
100
AcDbEntity
  8
0
  6
Continuous
 62
     7
370
    30
100
AcDbLine
 10
114.0289214924
 20
229.9764698036
 30
0.0
 11
59.0289217904
 21
229.9764698036
 31
0.0
  0
LINE
  5
79
330
1F
100
AcDbEntity
  8
0
  6
Continuous
 62
     7
370
    30
100
AcDbLine
 10
53.028920807
 20
230.2764711567
 30
0.0
 11
53.028920807
 21
251.6764683314
 31
0.0
  0
LINE
  5
7A
330
1F
100
AcDbEntity
  8
0
  6
Continuous
 62
     7
370
    30
100
AcDbLine
 10
59.0289217904
 20
251.9764734097
 30
0.0
 11
114.0289214924
 21
251.9764734097
 31
0.0
  0
LINE
  5
7B
330
1F
100
AcDbEntity
  8
0
  6
Continuous
 62
     7
370
    30
100
AcDbLine
 10
119.7289211229
 20
229.9764698036
 30
0.0
 11
114.0289214924
 21
229.9764698036
 31
0.0
  0
ARC
  5
7C
330
1F
100
AcDbEntity
  8
0
  6
Continuous
 62
     7
370
    30
100
AcDbCircle
 10
119.7289216414
 20
230.2764711447
 30
0.0
 40
0.2999999999999829
100
AcDbArc
 50
270.0
 51
0.0
  0
LINE
  5
7D
330
1F
100
AcDbEntity
  8
0
  6
Continuous
 62
     7
370
    30
100
AcDbLine
 10
59.0289217904
 20
229.9764698036
 30
0.0
 11
53.32892216
 21
229.9764698036
 31
0.0
  0
ARC
  5
7E
330
1F
100
AcDbEntity
  8
0
  6
Continuous
 62
     7
370
    30
100
AcDbCircle
 10
53.3289216414
 20
230.2764711447
 30
0.0
 40
0.3000000000000114
100
AcDbArc
 50
180.0
 51
270.0
  0
SPLINE
  5
7F
330
1F
100
AcDbEntity
  8
0
  6
Continuous
 62
     7
370
    30
100
AcDbSpline
210
0.0
220
0.0
230
1.0
 70
    24
 71
     3
 72
    15
 73
    11
 74
     0
 42
0.00000001
 43
0.00000001
 40
0.0
 40
0.0
 40
0.0
 40
0.0
 40
0.1250759991823432
 40
0.2500905710110397
 40
0.3750583581323111
 40
0.4999997766526594
 40
0.624941802165577
 40
0.7499090468989776
 40
0.8749237049481597
 40
1.0
 40
1.0
 40
1.0
 40
1.0
 10
67.83919050545826
 20
155.4764715619817
 30
0.0
 10
67.5775601949333
 20
155.4764715619817
 30
0.0
 10
67.05442806582197
 20
155.4764715619817
 30
0.0
 10
66.29998000696177
 20
155.4764715619817
 30
0.0
 10
65.60483573924523
 20
155.4764715619817
 30
0.0
 10
64.99588515984753
 20
155.4764715619817
 30
0.0
 10
64.49548795990115
 20
155.4764715619817
 30
0.0
 10
64.12653098144835
 20
155.4764715619817
 30
0.0
 10
63.88920548418356
 20
155.4764715619817
 30
0.0
 10
63.85951991823069
 20
155.4764715619817
 30
0.0
 10
63.84467347712651
 20
155.4764715619817
 30
0.0
  0
LINE
  5
80
330
1F
100
AcDbEntity
  8
0
  6
Continuous
 62
     7
370
    30
100
AcDbLine
 10
105.2186527774
 20
155.476471562
 30
0.0
 11
67.8391905055
 21
155.476471562
 31
0.0
  0
SPLINE
  5
81
330
1F
100
AcDbEntity
  8
0
  6
Continuous
 62
     7
370
    30
100
AcDbSpline
210
0.0
220
0.0
230
1.0
 70
    24
 71
     3
 72
    15
 73
    11
 74
     0
 42
0.00000001
 43
0.00000001
 40
0.0
 40
0.0
 40
0.0
 40
0.0
 40
0.1250762950518403
 40
0.2500909531010224
 40
0.375058197834423
 40
0.5000002233473406
 40
0.6249416418676889
 40
0.7499094289889603
 40
0.874924000817657
 40
1.0
 40
1.0
 40
1.0
 40
1.0
 10
109.2131698057188
 20
155.4764715619817
 30
0.0
 10
109.1983233646146
 20
155.4764715619817
 30
0.0
 10
109.1686377986618
 20
155.4764715619817
 30
0.0
 10
108.931312301397
 20
155.4764715619818
 30
0.0
 10
108.5623553229442
 20
155.4764715619817
 30
0.0
 10
108.0619581229978
 20
155.4764715619817
 30
0.0
 10
107.4530075436001
 20
155.4764715619817
 30
0.0
 10
106.7578632758836
 20
155.4764715619818
 30
0.0
 10
106.0034152170233
 20
155.4764715619817
 30
0.0
 10
105.480283087912
 20
155.4764715619817
 30
0.0
 10
105.218652777387
 20
155.4764715619817
 30
0.0
  0
LINE
  5
82
330
1F
100
AcDbEntity
  8
0
  6
Continuous
 62
     7
370
    30
100
AcDbLine
 10
58.0225662813
 20
192.9764711895
 30
0.0
 11
55.9539442435
 21
229.9764698036
 31
0.0
  0
LINE
  5
83
330
1F
100
AcDbEntity
  8
0
  6
Continuous
 62
     7
370
    30
100
AcDbLine
 10
117.1038990393
 20
229.9764698036
 30
0.0
 11
115.0352770016
 21
192.9764711895
 31
0.0
  0
LINE
  5
84
330
1F
100
AcDbEntity
  8
0
  6
Continuous
 62
     7
370
    30
100
AcDbLine
 10
61.3480994031
 20
157.8456313946
 30
0.0
 11
60.6599414274
 21
170.9764711922
 31
0.0
  0
LINE
  5
85
330
1F
100
AcDbEntity
  8
0
  6
Continuous
 62
     7
370
    30
100
AcDbLine
 10
112.3979018554
 20
170.9764711922
 30
0.0
 11
111.7097438797
 21
157.8456313946
 31
0.0
  0
ARC
  5
86
330
1F
100
AcDbEntity
  8
0
  6
Continuous
 62
     7
370
    30
100
AcDbCircle
 10
109.2131701975
 20
157.9764711447
 30
0.0
 40
2.500000000000005
100
AcDbArc
 50
270.0
 51
357.0
  0
ARC
  5
87
330
1F
100
AcDbEntity
  8
0
  6
Continuous
 62
     7
370
    30
100
AcDbCircle
 10
63.8446730853
 20
157.9764711447
 30
0.0
 40
2.5
100
AcDbArc
 50
183.0
 51
270.0
  0
LINE
  5
88
330
1F
100
AcDbEntity
  8
0
  6
Continuous
 62
     7
370
    30
100
AcDbLine
 10
119.0289204493
 20
192.9764711895
 30
0.0
 11
119.0289204493
 21
170.9764711922
 31
0.0
  0
LINE
  5
89
330
1F
100
AcDbEntity
  8
0
  6
Continuous
 62
     7
370
    30
100
AcDbLine
 10
113.0289213285
 20
170.9764711922
 30
0.0
 11
119.0289204493
 21
170.9764711922
 31
0.0
  0
LINE
  5
8A
330
1F
100
AcDbEntity
  8
0
  6
Continuous
 62
     7
370
    30
100
AcDbLine
 10
113.0289213285
 20
192.9764711895
 30
0.0
 11
119.0289204493
 21
192.9764711895
 31
0.0
  0
LINE
  5
8B
330
1F
100
AcDbEntity
  8
0
  6
Continuous
 62
     7
370
    30
100
AcDbLine
 10
54.0289228335
 20
192.9764711895
 30
0.0
 11
54.0289228335
 21
170.9764711922
 31
0.0
  0
LINE
  5
8C
330
1F
100
AcDbEntity
  8
0
  6
Continuous
 62
     7
370
    30
100
AcDbLine
 10
54.0289228335
 20
170.9764711922
 30
0.0
 11
60.0289219543
 21
170.9764711922
 31
0.0
  0
LINE
  5
8D
330
1F
100
AcDbEntity
  8
0
  6
Continuous
 62
     7
370
    30
100
AcDbLine
 10
54.0289228335
 20
192.9764711895
 30
0.0
 11
60.0289219543
 21
192.9764711895
 31
0.0
  0
LINE
  5
8E
330
1F
100
AcDbEntity
  8
0
  6
Continuous
 62
     7
370
    30
100
AcDbLine
 10
60.0289219543
 20
170.9764711922
 30
0.0
 11
113.0289213285
 21
170.9764711922
 31
0.0
  0
LINE
  5
8F
330
1F
100
AcDbEntity
  8
0
  6
Continuous
 62
     7
370
    30
100
AcDbLine
 10
60.0289219543
 20
192.9764711895
 30
0.0
 11
113.0289213285
 21
192.9764711895
 31
0.0
  0
ELLIPSE
  5
90
330
1F
100
AcDbEntity
  8
0
  6
Continuous
 62
     7
370
    30
100
AcDbEllipse
 10
60.8289216414
 20
170.2259157948
 30
0.0
 11
0.3000000000000043
 21
0.0
 31
0.0
210
0.0
220
0.0
230
1.0
 40
0.5773502692
 41
2.047703340546891
 42
3.141592653589793
  0
LINE
  5
91
330
1F
100
AcDbEntity
  8
0
  6
Continuous
 62
     7
370
    30
100
AcDbLine
 10
60.528921105
 20
170.2259157973
 30
0.0
 11
60.528921105
 21
170.6764711198
 31
0.0
  0
ARC
  5
92
330
1F
100
AcDbEntity
  8
0
  6
Continuous
 62
     7
370
    30
100
AcDbCircle
 10
60.8289216414
 20
170.6764711447
 30
0.0
 40
0.3000000000000145
100
AcDbArc
 50
123.6745284732
 51
180.0
  0
ARC
  5
93
330
1F
100
AcDbEntity
  8
0
  6
Continuous
 62
     7
370
    30
100
AcDbCircle
 10
112.2289216414
 20
170.6764711447
 30
0.0
 40
0.3000000000000264
100
AcDbArc
 50
0.0
 51
56.3254715268
  0
LINE
  5
94
330
1F
100
AcDbEntity
  8
0
  6
Continuous
 62
     7
370
    30
100
AcDbLine
 10
112.5289221779
 20
170.6764711198
 30
0.0
 11
112.5289221779
 21
170.2259157973
 31
0.0
  0
ELLIPSE
  5
95
330
1F
100
AcDbEntity
  8
0
  6
Continuous
 62
     7
370
    30
100
AcDbEllipse
 10
112.2289216414
 20
170.2259157948
 30
0.0
 11
0.2999999999999972
 21
0.0
 31
0.0
210
0.0
220
0.0
230
1.0
 40
0.5773502692
 41
0.0
 42
1.09388931304285
  0
LINE
  5
96
330
1F
100
AcDbEntity
  8
0
  6
Continuous
 62
     7
370
    30
100
AcDbLine
 10
112.5289221779
 20
170.2259157973
 30
0.0
 11
112.5289221779
 21
167.7764711567
 31
0.0
  0
ARC
  5
97
330
1F
100
AcDbEntity
  8
0
  6
Continuous
 62
     7
370
    30
100
AcDbCircle
 10
112.2289216414
 20
167.7764711447
 30
0.0
 40
0.2999999999999972
100
AcDbArc
 50
270.0
 51
0.0
  0
ARC
  5
98
330
1F
100
AcDbEntity
  8
0
  6
Continuous
 62
     7
370
    30
100
AcDbCircle
 10
60.8289216414
 20
167.7764711447
 30
0.0
 40
0.2999999999999972
100
AcDbArc
 50
180.0
 51
270.0
  0
LINE
  5
99
330
1F
100
AcDbEntity
  8
0
  6
Continuous
 62
     7
370
    30
100
AcDbLine
 10
60.528921105
 20
167.7764711567
 30
0.0
 11
60.528921105
 21
170.2259157973
 31
0.0
  0
LINE
  5
9A
330
1F
100
AcDbEntity
  8
0
  6
Continuous
 62
     7
370
    30
100
AcDbLine
 10
60.828922458
 20
167.4764712006
 30
0.0
 11
60.8433691338
 21
167.4764712006
 31
0.0
  0
LINE
  5
9B
330
1F
100
AcDbEntity
  8
0
  6
Continuous
 62
     7
370
    30
100
AcDbLine
 10
112.2144741491
 20
167.4764712006
 30
0.0
 11
112.2289208248
 21
167.4764712006
 31
0.0
  0
LINE
  5
9C
330
1F
100
AcDbEntity
  8
0
  6
Continuous
 62
     7
370
    30
100
AcDbLine
 10
112.5289221779
 20
167.7764711567
 30
0.0
 11
112.5289221779
 21
164.4764711746
 31
0.0
  0
LINE
  5
9D
330
1F
100
AcDbEntity
  8
0
  6
Continuous
 62
     7
370
    30
100
AcDbLine
 10
60.528921105
 20
164.4764711746
 30
0.0
 11
60.528921105
 21
167.7764711567
 31
0.0
  0
LINE
  5
9E
330
1F
100
AcDbEntity
  8
0
  6
Continuous
 62
     7
370
    30
100
AcDbLine
 10
60.528921105
 20
170.6764711198
 30
0.0
 11
60.528921105
 21
170.9764711922
 31
0.0
  0
ARC
  5
9F
330
1F
100
AcDbEntity
  8
0
  6
Continuous
 62
     7
370
    30
100
AcDbCircle
 10
112.2289216414
 20
149.2764711447
 30
0.0
 40
0.2999999999999972
100
AcDbArc
 50
270.0
 51
0.0
  0
LINE
  5
A0
330
1F
100
AcDbEntity
  8
0
  6
Continuous
 62
     7
370
    30
100
AcDbLine
 10
112.5289221779
 20
170.9764711922
 30
0.0
 11
112.5289221779
 21
170.6764711198
 31
0.0
  0
LINE
  5
A1
330
1F
100
AcDbEntity
  8
0
  6
Continuous
 62
     7
370
    30
100
AcDbLine
 10
112.5289221779
 20
164.4764711746
 30
0.0
 11
112.5289221779
 21
149.2764709183
 31
0.0
  0
LINE
  5
A2
330
1F
100
AcDbEntity
  8
0
  6
Continuous
 62
     7
370
    30
100
AcDbLine
 10
60.528921105
 20
149.2764709183
 30
0.0
 11
60.528921105
 21
164.4764711746
 31
0.0
  0
ARC
  5
A3
330
1F
100
AcDbEntity
  8
0
  6
Continuous
 62
     7
370
    30
100
AcDbCircle
 10
60.8289216414
 20
149.2764711447
 30
0.0
 40
0.2999999999999972
100
AcDbArc
 50
180.0
 51
270.0
  0
LINE
  5
A4
330
1F
100
AcDbEntity
  8
0
  6
Continuous
 62
     7
370
    30
100
AcDbLine
 10
112.2289208248
 20
148.9764714279
 30
0.0
 11
60.828922458
 21
148.9764714279
 31
0.0
  0
LINE
  5
A5
330
1F
100
AcDbEntity
  8
0
  6
Continuous
 62
     8
370
     0
100
AcDbLine
 10
83.5289216153
 20
271.4764682241
 30
0.0
 11
80.5289215893
 21
271.4764682241
 31
0.0
  0
LINE
  5
A6
330
1F
100
AcDbEntity
  8
0
  6
Continuous
 62
     8
370
     0
100
AcDbLine
 10
83.5289216153
 20
271.4764682241
 30
0.0
 11
83.5289216153
 21
264.0764696189
 31
0.0
  0
LINE
  5
A7
330
1F
100
AcDbEntity
  8
0
  6
Continuous
 62
     8
370
     0
100
AcDbLine
 10
80.5289215893
 20
264.0764696189
 30
0.0
 11
83.5289216153
 21
264.0764696189
 31
0.0
  0
LINE
  5
A8
330
1F
100
AcDbEntity
  8
0
  6
Continuous
 62
     8
370
     0
100
AcDbLine
 10
83.5289216153
 20
263.7764719911
 30
0.0
 11
83.5289216153
 21
264.0764696189
 31
0.0
  0
LINE
  5
A9
330
1F
100
AcDbEntity
  8
0
  6
Continuous
 62
     8
370
     0
100
AcDbLine
 10
83.5289216153
 20
264.0764696189
 30
0.0
 11
85.0439974126
 21
264.0764696189
 31
0.0
  0
LINE
  5
AA
330
1F
100
AcDbEntity
  8
0
  6
Continuous
 62
     8
370
     0
100
AcDbLine
 10
89.5289216675
 20
271.4764682241
 30
0.0
 11
83.5289216153
 21
271.4764682241
 31
0.0
  0
LINE
  5
AB
330
1F
100
AcDbEntity
  8
0
  6
Continuous
 62
     8
370
     0
100
AcDbLine
 10
83.5289216153
 20
271.4764682241
 30
0.0
 11
83.5289216153
 21
271.7764733024
 31
0.0
  0
LINE
  5
AC
330
1F
100
AcDbEntity
  8
0
  6
Continuous
 62
     8
370
     0
100
AcDbLine
 10
89.5289216675
 20
271.4764682241
 30
0.0
 11
89.5289216675
 21
271.7764733024
 31
0.0
  0
LINE
  5
AD
330
1F
100
AcDbEntity
  8
0
  6
Continuous
 62
     8
370
     0
100
AcDbLine
 10
92.5289216936
 20
271.4764682241
 30
0.0
 11
89.5289216675
 21
271.4764682241
 31
0.0
  0
LINE
  5
AE
330
1F
100
AcDbEntity
  8
0
  6
Continuous
 62
     8
370
     0
100
AcDbLine
 10
89.5289216675
 20
264.0764696189
 30
0.0
 11
89.5289216675
 21
271.4764682241
 31
0.0
  0
LINE
  5
AF
330
1F
100
AcDbEntity
  8
0
  6
Continuous
 62
     8
370
     0
100
AcDbLine
 10
88.0138458703
 20
264.0764696189
 30
0.0
 11
89.5289216675
 21
264.0764696189
 31
0.0
  0
LINE
  5
B0
330
1F
100
AcDbEntity
  8
0
  6
Continuous
 62
     8
370
     0
100
AcDbLine
 10
89.5289216675
 20
264.0764696189
 30
0.0
 11
92.5289216936
 21
264.0764696189
 31
0.0
  0
LINE
  5
B1
330
1F
100
AcDbEntity
  8
0
  6
Continuous
 62
     8
370
     0
100
AcDbLine
 10
89.5289216675
 20
263.7764719911
 30
0.0
 11
89.5289216675
 21
264.0764696189
 31
0.0
  0
LINE
  5
B2
330
1F
100
AcDbEntity
  8
0
  6
Continuous
 62
     8
370
     0
100
AcDbLine
 10
92.5289216936
 20
264.0764696189
 30
0.0
 11
98.5289217457
 21
264.0764696189
 31
0.0
  0
LINE
  5
B3
330
1F
100
AcDbEntity
  8
0
  6
Continuous
 62
     8
370
     0
100
AcDbLine
 10
98.5289217457
 20
263.7764719911
 30
0.0
 11
98.5289217457
 21
264.0764696189
 31
0.0
  0
LINE
  5
B4
330
1F
100
AcDbEntity
  8
0
  6
Continuous
 62
     8
370
     0
100
AcDbLine
 10
98.5289217457
 20
271.4764682241
 30
0.0
 11
92.5289216936
 21
271.4764682241
 31
0.0
  0
LINE
  5
B5
330
1F
100
AcDbEntity
  8
0
  6
Continuous
 62
     8
370
     0
100
AcDbLine
 10
98.5289217457
 20
271.4764682241
 30
0.0
 11
98.5289217457
 21
264.0764696189
 31
0.0
  0
LINE
  5
B6
330
1F
100
AcDbEntity
  8
0
  6
Continuous
 62
     8
370
     0
100
AcDbLine
 10
74.5289215371
 20
263.7764719911
 30
0.0
 11
74.5289215371
 21
264.0764696189
 31
0.0
  0
LINE
  5
B7
330
1F
100
AcDbEntity
  8
0
  6
Continuous
 62
     8
370
     0
100
AcDbLine
 10
74.5289215371
 20
264.0764696189
 30
0.0
 11
80.5289215893
 21
264.0764696189
 31
0.0
  0
LINE
  5
B8
330
1F
100
AcDbEntity
  8
0
  6
Continuous
 62
     8
370
     0
100
AcDbLine
 10
80.5289215893
 20
271.4764682241
 30
0.0
 11
74.5289215371
 21
271.4764682241
 31
0.0
  0
LINE
  5
B9
330
1F
100
AcDbEntity
  8
0
  6
Continuous
 62
     8
370
     0
100
AcDbLine
 10
74.5289215371
 20
264.0764696189
 30
0.0
 11
74.5289215371
 21
271.4764682241
 31
0.0
  0
LINE
  5
BA
330
1F
100
AcDbEntity
  8
0
  6
Continuous
 62
     8
370
     0
100
AcDbLine
 10
98.5289217457
 20
271.4764682241
 30
0.0
 11
98.5289217457
 21
271.7764733024
 31
0.0
  0
LINE
  5
BB
330
1F
100
AcDbEntity
  8
0
  6
Continuous
 62
     8
370
     0
100
AcDbLine
 10
74.5289215371
 20
271.7764733024
 30
0.0
 11
74.5289215371
 21
271.4764682241
 31
0.0
  0
LINE
  5
BC
330
1F
100
AcDbEntity
  8
0
  6
Continuous
 62
     8
370
     0
100
AcDbLine
 10
72.5289212093
 20
263.7764719911
 30
0.0
 11
72.5289212093
 21
264.0764696189
 31
0.0
  0
LINE
  5
BD
330
1F
100
AcDbEntity
  8
0
  6
Continuous
 62
     8
370
     0
100
AcDbLine
 10
72.5289212093
 20
264.0764696189
 30
0.0
 11
74.5289215371
 21
264.0764696189
 31
0.0
  0
LINE
  5
BE
330
1F
100
AcDbEntity
  8
0
  6
Continuous
 62
     8
370
     0
100
AcDbLine
 10
74.5289215371
 20
271.4764682241
 30
0.0
 11
72.5289212093
 21
271.4764682241
 31
0.0
  0
LINE
  5
BF
330
1F
100
AcDbEntity
  8
0
  6
Continuous
 62
     8
370
     0
100
AcDbLine
 10
72.5289212093
 20
271.4764682241
 30
0.0
 11
72.5289212093
 21
264.0764696189
 31
0.0
  0
LINE
  5
C0
330
1F
100
AcDbEntity
  8
0
  6
Continuous
 62
     8
370
     0
100
AcDbLine
 10
100.5289220736
 20
271.4764682241
 30
0.0
 11
98.5289217457
 21
271.4764682241
 31
0.0
  0
LINE
  5
C1
330
1F
100
AcDbEntity
  8
0
  6
Continuous
 62
     8
370
     0
100
AcDbLine
 10
100.5289220736
 20
271.4764682241
 30
0.0
 11
100.5289220736
 21
271.7764733024
 31
0.0
  0
LINE
  5
C2
330
1F
100
AcDbEntity
  8
0
  6
Continuous
 62
     8
370
     0
100
AcDbLine
 10
106.5289211944
 20
271.4764682241
 30
0.0
 11
100.5289220736
 21
271.4764682241
 31
0.0
  0
LINE
  5
C3
330
1F
100
AcDbEntity
  8
0
  6
Continuous
 62
     8
370
     0
100
AcDbLine
 10
100.5289220736
 20
264.0764696189
 30
0.0
 11
106.5289211944
 21
264.0764696189
 31
0.0
  0
LINE
  5
C4
330
1F
100
AcDbEntity
  8
0
  6
Continuous
 62
     8
370
     0
100
AcDbLine
 10
100.5289220736
 20
264.0764696189
 30
0.0
 11
100.5289220736
 21
271.4764682241
 31
0.0
  0
LINE
  5
C5
330
1F
100
AcDbEntity
  8
0
  6
Continuous
 62
     8
370
     0
100
AcDbLine
 10
66.5289220885
 20
264.0764696189
 30
0.0
 11
72.5289212093
 21
264.0764696189
 31
0.0
  0
LINE
  5
C6
330
1F
100
AcDbEntity
  8
0
  6
Continuous
 62
     8
370
     0
100
AcDbLine
 10
72.5289212093
 20
271.7764733024
 30
0.0
 11
72.5289212093
 21
271.4764682241
 31
0.0
  0
LINE
  5
C7
330
1F
100
AcDbEntity
  8
0
  6
Continuous
 62
     8
370
     0
100
AcDbLine
 10
72.5289212093
 20
271.4764682241
 30
0.0
 11
66.5289220885
 21
271.4764682241
 31
0.0
  0
LINE
  5
C8
330
1F
100
AcDbEntity
  8
0
  6
Continuous
 62
     8
370
     0
100
AcDbLine
 10
98.5289217457
 20
264.0764696189
 30
0.0
 11
100.5289220736
 21
264.0764696189
 31
0.0
  0
LINE
  5
C9
330
1F
100
AcDbEntity
  8
0
  6
Continuous
 62
     8
370
     0
100
AcDbLine
 10
100.5289220736
 20
263.7764719911
 30
0.0
 11
100.5289220736
 21
264.0764696189
 31
0.0
  0
LINE
  5
CA
330
1F
100
AcDbEntity
  8
0
  6
Continuous
 62
     8
370
     0
100
AcDbLine
 10
120.0289224759
 20
251.6764683314
 30
0.0
 11
114.0289214924
 21
251.6764683314
 31
0.0
  0
LINE
  5
CB
330
1F
100
AcDbEntity
  8
0
  6
Continuous
 62
     8
370
     0
100
AcDbLine
 10
114.0289214924
 20
251.6764683314
 30
0.0
 11
114.0289214924
 21
251.9764734097
 31
0.0
  0
LINE
  5
CC
330
1F
100
AcDbEntity
  8
0
  6
Continuous
 62
     8
370
     0
100
AcDbLine
 10
114.0289214924
 20
251.6764683314
 30
0.0
 11
59.0289217904
 21
251.6764683314
 31
0.0
  0
LINE
  5
CD
330
1F
100
AcDbEntity
  8
0
  6
Continuous
 62
     8
370
     0
100
AcDbLine
 10
114.0289214924
 20
230.2764711567
 30
0.0
 11
114.0289214924
 21
251.6764683314
 31
0.0
  0
LINE
  5
CE
330
1F
100
AcDbEntity
  8
0
  6
Continuous
 62
     8
370
     0
100
AcDbLine
 10
59.0289217904
 20
230.2764711567
 30
0.0
 11
114.0289214924
 21
230.2764711567
 31
0.0
  0
LINE
  5
CF
330
1F
100
AcDbEntity
  8
0
  6
Continuous
 62
     8
370
     0
100
AcDbLine
 10
59.0289217904
 20
251.6764683314
 30
0.0
 11
59.0289217904
 21
230.2764711567
 31
0.0
  0
LINE
  5
D0
330
1F
100
AcDbEntity
  8
0
  6
Continuous
 62
     8
370
     0
100
AcDbLine
 10
59.0289217904
 20
251.6764683314
 30
0.0
 11
59.0289217904
 21
251.9764734097
 31
0.0
  0
LINE
  5
D1
330
1F
100
AcDbEntity
  8
0
  6
Continuous
 62
     8
370
     0
100
AcDbLine
 10
59.0289217904
 20
251.6764683314
 30
0.0
 11
53.028920807
 21
251.6764683314
 31
0.0
  0
LINE
  5
D2
330
1F
100
AcDbEntity
  8
0
  6
Continuous
 62
     8
370
     0
100
AcDbLine
 10
114.0289214924
 20
230.2764711567
 30
0.0
 11
120.0289224759
 21
230.2764711567
 31
0.0
  0
LINE
  5
D3
330
1F
100
AcDbEntity
  8
0
  6
Continuous
 62
     8
370
     0
100
AcDbLine
 10
114.0289214924
 20
230.2764711567
 30
0.0
 11
114.0289214924
 21
229.9764698036
 31
0.0
  0
LINE
  5
D4
330
1F
100
AcDbEntity
  8
0
  6
Continuous
 62
     8
370
     0
100
AcDbLine
 10
59.0289217904
 20
230.2764711567
 30
0.0
 11
59.0289217904
 21
229.9764698036
 31
0.0
  0
LINE
  5
D5
330
1F
100
AcDbEntity
  8
0
  6
Continuous
 62
     8
370
     0
100
AcDbLine
 10
53.028920807
 20
230.2764711567
 30
0.0
 11
59.0289217904
 21
230.2764711567
 31
0.0
  0
LINE
  5
D6
330
1F
100
AcDbEntity
  8
0
  6
Continuous
 62
     8
370
     0
100
AcDbLine
 10
62.4438097254
 20
229.9764698036
 30
0.0
 11
64.5124299005
 21
192.9764711895
 31
0.0
  0
LINE
  5
D7
330
1F
100
AcDbEntity
  8
0
  6
Continuous
 62
     8
370
     0
100
AcDbLine
 10
108.5454133824
 20
192.9764711895
 30
0.0
 11
110.6140335575
 21
229.9764698036
 31
0.0
  0
ELLIPSE
  5
D8
330
1F
100
AcDbEntity
  8
0
  6
Continuous
 62
     8
370
     0
100
AcDbEllipse
 10
67.8501624693
 20
157.9764711447
 30
0.0
 11
6.502066286658675
 21
0.1307553256390008
 31
0.0
210
0.0
220
0.0
230
1.0
 40
0.020080808
 41
3.142240539980972
 42
4.710297811034359
  0
LINE
  5
D9
330
1F
100
AcDbEntity
  8
0
  6
Continuous
 62
     8
370
     0
100
AcDbLine
 10
67.1510325298
 20
170.9764711922
 30
0.0
 11
67.8391905055
 21
157.8456313946
 31
0.0
  0
ELLIPSE
  5
DA
330
1F
100
AcDbEntity
  8
0
  6
Continuous
 62
     8
370
     0
100
AcDbEllipse
 10
105.2076808135
 20
157.9764711447
 30
0.0
 11
6.502066286658675
 21
-0.1307553256390293
 31
0.0
210
0.0
220
0.0
230
0.9999999999999999
 40
0.020080808
 41
4.71448014973502
 42
6.282537420790003
  0
LINE
  5
DB
330
1F
100
AcDbEntity
  8
0
  6
Continuous
 62
     8
370
     0
100
AcDbLine
 10
105.2186527774
 20
157.8456313946
 30
0.0
 11
105.9068107531
 21
170.9764711922
 31
0.0
  0
LINE
  5
DC
330
1F
100
AcDbEntity
  8
0
  6
Continuous
 62
     8
370
     0
100
AcDbLine
 10
67.8391905055
 20
157.8456313946
 30
0.0
 11
105.2186527774
 21
157.8456313946
 31
0.0
  0
LINE
  5
DD
330
1F
100
AcDbEntity
  8
0
  6
Continuous
 62
     8
370
     0
100
AcDbLine
 10
105.2186527774
 20
157.8456313946
 30
0.0
 11
105.2186527774
 21
155.476471562
 31
0.0
  0
LINE
  5
DE
330
1F
100
AcDbEntity
  8
0
  6
Continuous
 62
     8
370
     0
100
AcDbLine
 10
67.8391905055
 20
157.8456313946
 30
0.0
 11
67.8391905055
 21
155.476471562
 31
0.0
  0
LINE
  5
DF
330
1F
100
AcDbEntity
  8
0
  6
Continuous
 62
     8
370
     0
100
AcDbLine
 10
113.0289213285
 20
192.9764711895
 30
0.0
 11
113.0289213285
 21
170.9764711922
 31
0.0
  0
LINE
  5
E0
330
1F
100
AcDbEntity
  8
0
  6
Continuous
 62
     8
370
     0
100
AcDbLine
 10
60.0289219543
 20
192.9764711895
 30
0.0
 11
60.0289219543
 21
170.9764711922
 31
0.0
  0
LINE
  5
E1
330
1F
100
AcDbEntity
  8
0
  6
Continuous
 62
     8
370
     0
100
AcDbLine
 10
112.2289208248
 20
167.4764712006
 30
0.0
 11
112.2289208248
 21
167.7521301099
 31
0.0
  0
LINE
  5
E2
330
1F
100
AcDbEntity
  8
0
  6
Continuous
 62
     8
370
     0
100
AcDbLine
 10
60.828922458
 20
167.7521301099
 30
0.0
 11
60.828922458
 21
167.4764712006
 31
0.0
  0
LINE
  5
E3
330
1F
100
AcDbEntity
  8
0
  6
Continuous
 62
     8
370
     0
100
AcDbLine
 10
112.2289208248
 20
164.4764711746
 30
0.0
 11
112.2289208248
 21
167.4764712006
 31
0.0
  0
LINE
  5
E4
330
1F
100
AcDbEntity
  8
0
  6
Continuous
 62
     8
370
     0
100
AcDbLine
 10
112.2289208248
 20
164.4764711746
 30
0.0
 11
112.0572519973
 21
164.4764711746
 31
0.0
  0
LINE
  5
E5
330
1F
100
AcDbEntity
  8
0
  6
Continuous
 62
     8
370
     0
100
AcDbLine
 10
61.0005912855
 20
164.4764711746
 30
0.0
 11
60.828922458
 21
164.4764711746
 31
0.0
  0
LINE
  5
E6
330
1F
100
AcDbEntity
  8
0
  6
Continuous
 62
     8
370
     0
100
AcDbLine
 10
60.828922458
 20
167.4764712006
 30
0.0
 11
60.828922458
 21
164.4764711746
 31
0.0
  0
LINE
  5
E7
330
1F
100
AcDbEntity
  8
0
  6
Continuous
 62
     8
370
     0
100
AcDbLine
 10
112.5289221779
 20
164.4764711746
 30
0.0
 11
112.2289208248
 21
164.4764711746
 31
0.0
  0
LINE
  5
E8
330
1F
100
AcDbEntity
  8
0
  6
Continuous
 62
     8
370
     0
100
AcDbLine
 10
60.528921105
 20
164.4764711746
 30
0.0
 11
60.828922458
 21
164.4764711746
 31
0.0
  0
LINE
  5
E9
330
1F
100
AcDbEntity
  8
0
  6
Continuous
 62
     8
370
     0
100
AcDbLine
 10
112.2289208248
 20
148.9764714279
 30
0.0
 11
112.2289208248
 21
149.2764709183
 31
0.0
  0
LINE
  5
EA
330
1F
100
AcDbEntity
  8
0
  6
Continuous
 62
     8
370
     0
100
AcDbLine
 10
112.5289221779
 20
149.2764709183
 30
0.0
 11
112.2289208248
 21
149.2764709183
 31
0.0
  0
LINE
  5
EB
330
1F
100
AcDbEntity
  8
0
  6
Continuous
 62
     8
370
     0
100
AcDbLine
 10
112.2289208248
 20
149.2764709183
 30
0.0
 11
112.2289208248
 21
164.4764711746
 31
0.0
  0
LINE
  5
EC
330
1F
100
AcDbEntity
  8
0
  6
Continuous
 62
     8
370
     0
100
AcDbLine
 10
60.828922458
 20
164.4764711746
 30
0.0
 11
60.828922458
 21
149.2764709183
 31
0.0
  0
LINE
  5
ED
330
1F
100
AcDbEntity
  8
0
  6
Continuous
 62
     8
370
     0
100
AcDbLine
 10
60.528921105
 20
149.2764709183
 30
0.0
 11
60.828922458
 21
149.2764709183
 31
0.0
  0
LINE
  5
EE
330
1F
100
AcDbEntity
  8
0
  6
Continuous
 62
     8
370
     0
100
AcDbLine
 10
60.828922458
 20
148.9764714279
 30
0.0
 11
60.828922458
 21
149.2764709183
 31
0.0
  0
LINE
  5
EF
330
1F
100
AcDbEntity
  8
0
  6
Continuous
 62
     8
370
     0
100
AcDbLine
 10
60.828922458
 20
149.2764709183
 30
0.0
 11
112.2289208248
 21
149.2764709183
 31
0.0
  0
DIMENSION
  5
F0
330
1F
100
AcDbEntity
  8
0
  6
Continuous
 62
     7
370
     0
100
AcDbDimension
  2
*D1
 10
41.4067615807
 20
148.9764711447
 30
0.0
 11
41.4067615807
 21
207.9656724332
 31
0.0
 70
   160
  1
(<>)
 71
     2
 42
-1.0
  3
SLDDIMSTYLE0
100
AcDbAlignedDimension
 13
66.8289216414
 23
271.7764711447
 33
0.0
 14
60.8289216414
 24
148.9764711447
 34
0.0
 50
90.0
100
AcDbRotatedDimension
  0
DIMENSION
  5
FE
330
1F
100
AcDbEntity
  8
0
  6
Continuous
 62
     7
370
     0
100
AcDbDimension
  2
*D2
 10
120.0289216414
 20
211.6845308429
 30
0.0
 11
93.092536534
 21
211.6845308429
 31
0.0
 70
   160
 71
     2
 42
-1.0
  3
SLDDIMSTYLE0
100
AcDbAlignedDimension
 13
53.0289216414
 23
230.2764711447
 33
0.0
 14
120.0289216414
 24
230.2764711447
 34
0.0
100
AcDbRotatedDimension
  0
LINE
  5
108
330
1F
100
AcDbEntity
  8
0
  6
CENTER
 62
     7
370
     0
100
AcDbLine
 10
86.5289216414
 20
281.9139735099
 30
0.0
 11
86.5289216414
 21
137.7523651845
 31
0.0
  0
LINE
  5
109
330
1F
100
AcDbEntity
  8
0
  6
Continuous
 62
     7
370
     0
100
AcDbLine
 10
74.5289216414
 20
279.9139735099
 30
0.0
 11
86.5289216414
 21
279.9139735099
 31
0.0
  0
SOLID
  5
10A
330
1F
100
AcDbEntity
  8
0
  6
Continuous
 62
     7
370
     0
100
AcDbTrace
 10
86.5289216414
 20
279.9139735099
 30
0.0
 11
80.5289216414
 21
281.4139735099
 31
0.0
 12
80.5289216414
 22
278.4139735099
 32
0.0
 13
80.5289216414
 23
278.4139735099
 33
0.0
  0
LINE
  5
10B
330
1F
100
AcDbEntity
  8
0
  6
Continuous
 62
     7
370
     0
100
AcDbLine
 10
74.5289216414
 20
139.7523651845
 30
0.0
 11
86.5289216414
 21
139.7523651845
 31
0.0
  0
SOLID
  5
10C
330
1F
100
AcDbEntity
  8
0
  6
Continuous
 62
     7
370
     0
100
AcDbTrace
 10
86.5289216414
 20
139.7523651845
 30
0.0
 11
80.5289216414
 21
141.2523651845
 31
0.0
 12
80.5289216414
 22
138.2523651845
 32
0.0
 13
80.5289216414
 23
138.2523651845
 33
0.0
  0
MTEXT
  5
10D
330
1F
100
AcDbEntity
  8
0
  6
Continuous
 62
     7
100
AcDbMText
 10
69.251171633
 20
282.8126506306
 30
0.0
 40
5.0
 41
0.0
 71
     1
 72
     1
  1
A
  7
SLDTEXTSTYLE0
 73
     1
 44
1.0
  0
MTEXT
  5
10E
330
1F
100
AcDbEntity
  8
0
  6
Continuous
 62
     7
100
AcDbMText
 10
68.5987880568
 20
142.240660476
 30
0.0
 40
5.0
 41
0.0
 71
     1
 72
     1
  1
A
  7
SLDTEXTSTYLE0
 73
     1
 44
1.0
  0
LINE
  5
10F
330
1F
100
AcDbEntity
  8
0
  6
Continuous
 62
     7
370
    30
100
AcDbLine
 10
102.0289213881
 20
129.8594998709
 30
0.0
 11
71.0289218947
 21
129.8594998709
 31
0.0
  0
LINE
  5
110
330
1F
100
AcDbEntity
  8
0
  6
Continuous
 62
     7
370
    30
100
AcDbLine
 10
64.0289207474
 20
129.1594998959
 30
0.0
 11
64.0289207474
 21
129.8594998709
 31
0.0
  0
LINE
  5
111
330
1F
100
AcDbEntity
  8
0
  6
Continuous
 62
     7
370
    30
100
AcDbLine
 10
64.0289207474
 20
129.8594998709
 30
0.0
 11
71.0289218947
 21
129.8594998709
 31
0.0
  0
LINE
  5
112
330
1F
100
AcDbEntity
  8
0
  6
Continuous
 62
     7
370
    30
100
AcDbLine
 10
109.0289225355
 20
129.8594998709
 30
0.0
 11
109.0289225355
 21
129.1594998959
 31
0.0
  0
LINE
  5
113
330
1F
100
AcDbEntity
  8
0
  6
Continuous
 62
     7
370
    30
100
AcDbLine
 10
102.0289213881
 20
129.8594998709
 30
0.0
 11
109.0289225355
 21
129.8594998709
 31
0.0
  0
LINE
  5
114
330
1F
100
AcDbEntity
  8
0
  6
Continuous
 62
     7
370
    30
100
AcDbLine
 10
72.5289212093
 20
92.6595004323
 30
0.0
 11
100.5289220736
 21
92.6595004323
 31
0.0
  0
ARC
  5
115
330
1F
100
AcDbEntity
  8
0
  6
Continuous
 62
     7
370
    30
100
AcDbCircle
 10
72.5289216414
 20
86.6594998959
 30
0.0
 40
6.0
100
AcDbArc
 50
90.0
 51
180.0
  0
ARC
  5
116
330
1F
100
AcDbEntity
  8
0
  6
Continuous
 62
     7
370
    30
100
AcDbCircle
 10
100.5289216414
 20
86.6594998959
 30
0.0
 40
6.000000000000014
100
AcDbArc
 50
0.0
 51
90.0
  0
LINE
  5
117
330
1F
100
AcDbEntity
  8
0
  6
Continuous
 62
     7
370
    30
100
AcDbLine
 10
106.5289211944
 20
86.6594994489
 30
0.0
 11
106.5289211944
 21
58.6594985846
 31
0.0
  0
LINE
  5
118
330
1F
100
AcDbEntity
  8
0
  6
Continuous
 62
     7
370
    30
100
AcDbLine
 10
66.5289220885
 20
58.6594985846
 30
0.0
 11
66.5289220885
 21
86.6594994489
 31
0.0
  0
ARC
  5
119
330
1F
100
AcDbEntity
  8
0
  6
Continuous
 62
     7
370
    30
100
AcDbCircle
 10
100.5289216414
 20
58.6594998959
 30
0.0
 40
6.000000000000014
100
AcDbArc
 50
270.0
 51
0.0
  0
ARC
  5
11A
330
1F
100
AcDbEntity
  8
0
  6
Continuous
 62
     7
370
    30
100
AcDbCircle
 10
72.5289216414
 20
58.6594998959
 30
0.0
 40
6.0
100
AcDbArc
 50
180.0
 51
270.0
  0
LINE
  5
11B
330
1F
100
AcDbEntity
  8
0
  6
Continuous
 62
     7
370
    30
100
AcDbLine
 10
100.5289220736
 20
52.6595013264
 30
0.0
 11
98.5289217457
 21
52.6595013264
 31
0.0
  0
LINE
  5
11C
330
1F
100
AcDbEntity
  8
0
  6
Continuous
 62
     7
370
    30
100
AcDbLine
 10
74.5289215371
 20
52.6595013264
 30
0.0
 11
72.5289212093
 21
52.6595013264
 31
0.0
  0
ARC
  5
11D
330
1F
100
AcDbEntity
  8
0
  6
Continuous
 62
     7
370
    30
100
AcDbCircle
 10
98.5289216414
 20
46.6594998959
 30
0.0
 40
6.000000000000007
100
AcDbArc
 50
90.0
 51
180.0
  0
ARC
  5
11E
330
1F
100
AcDbEntity
  8
0
  6
Continuous
 62
     7
370
    30
100
AcDbCircle
 10
74.5289216414
 20
46.6594998959
 30
0.0
 40
6.000000000000007
100
AcDbArc
 50
0.0
 51
90.0
  0
LINE
  5
11F
330
1F
100
AcDbEntity
  8
0
  6
Continuous
 62
     7
370
    30
100
AcDbLine
 10
92.5289216936
 20
46.6594966176
 30
0.0
 11
92.5289216936
 21
10.6594981674
 31
0.0
  0
LINE
  5
120
330
1F
100
AcDbEntity
  8
0
  6
Continuous
 62
     7
370
    30
100
AcDbLine
 10
80.5289215893
 20
10.6594981674
 30
0.0
 11
80.5289215893
 21
46.6594966176
 31
0.0
  0
LINE
  5
121
330
1F
100
AcDbEntity
  8
0
  6
Continuous
 62
     7
370
    30
100
AcDbLine
 10
89.5289216675
 20
7.6594995383
 30
0.0
 11
83.5289216153
 21
7.6594995383
 31
0.0
  0
ARC
  5
122
330
1F
100
AcDbEntity
  8
0
  6
Continuous
 62
     7
370
    30
100
AcDbCircle
 10
83.5289216414
 20
10.6594998959
 30
0.0
 40
3.000000000000004
100
AcDbArc
 50
180.0
 51
270.0
  0
ARC
  5
123
330
1F
100
AcDbEntity
  8
0
  6
Continuous
 62
     7
370
    30
100
AcDbCircle
 10
89.5289216414
 20
10.6594998959
 30
0.0
 40
3.000000000000014
100
AcDbArc
 50
270.0
 51
0.0
  0
ARC
  5
124
330
1F
100
AcDbEntity
  8
0
  6
Continuous
 62
     7
370
    30
100
AcDbCircle
 10
59.0289216414
 20
100.1594998959
 30
0.0
 40
6.000000000000007
100
AcDbArc
 50
90.0
 51
180.0
  0
LINE
  5
125
330
1F
100
AcDbEntity
  8
0
  6
Continuous
 62
     7
370
    30
100
AcDbLine
 10
59.0289217904
 20
106.1594998512
 30
0.0
 11
114.0289214924
 21
106.1594998512
 31
0.0
  0
ARC
  5
126
330
1F
100
AcDbEntity
  8
0
  6
Continuous
 62
     7
370
    30
100
AcDbCircle
 10
114.0289216414
 20
100.1594998959
 30
0.0
 40
5.999999999999986
100
AcDbArc
 50
0.0
 51
90.0
  0
LINE
  5
127
330
1F
100
AcDbEntity
  8
0
  6
Continuous
 62
     7
370
    30
100
AcDbLine
 10
120.0289224759
 20
100.1595007304
 30
0.0
 11
120.0289224759
 21
45.1595010284
 31
0.0
  0
LINE
  5
128
330
1F
100
AcDbEntity
  8
0
  6
Continuous
 62
     7
370
    30
100
AcDbLine
 10
53.028920807
 20
45.1595010284
 30
0.0
 11
53.028920807
 21
100.1595007304
 31
0.0
  0
ARC
  5
129
330
1F
100
AcDbEntity
  8
0
  6
Continuous
 62
     7
370
    30
100
AcDbCircle
 10
114.0289216414
 20
45.1594998959
 30
0.0
 40
5.999999999999993
100
AcDbArc
 50
270.0
 51
0.0
  0
ARC
  5
12A
330
1F
100
AcDbEntity
  8
0
  6
Continuous
 62
     7
370
    30
100
AcDbCircle
 10
59.0289216414
 20
45.1594998959
 30
0.0
 40
6.000000000000007
100
AcDbArc
 50
180.0
 51
270.0
  0
LINE
  5
12B
330
1F
100
AcDbEntity
  8
0
  6
Continuous
 62
     7
370
    30
100
AcDbLine
 10
114.0289214924
 20
39.1594963196
 30
0.0
 11
92.5289216936
 21
39.1594963196
 31
0.0
  0
LINE
  5
12C
330
1F
100
AcDbEntity
  8
0
  6
Continuous
 62
     7
370
    30
100
AcDbLine
 10
80.5289215893
 20
39.1594963196
 30
0.0
 11
59.0289217904
 21
39.1594963196
 31
0.0
  0
LINE
  5
12D
330
1F
100
AcDbEntity
  8
0
  6
Continuous
 62
     7
370
    30
100
AcDbLine
 10
113.0289213285
 20
107.6594991657
 30
0.0
 11
60.0289219543
 21
107.6594991657
 31
0.0
  0
ARC
  5
12E
330
1F
100
AcDbEntity
  8
0
  6
Continuous
 62
     7
370
    30
100
AcDbCircle
 10
113.0289216414
 20
101.6594998959
 30
0.0
 40
6.0
100
AcDbArc
 50
25.0497363784
 51
90.0
  0
ARC
  5
12F
330
1F
100
AcDbEntity
  8
0
  6
Continuous
 62
     7
370
    30
100
AcDbCircle
 10
60.0289216414
 20
101.6594998959
 30
0.0
 40
6.0
100
AcDbArc
 50
90.0
 51
154.9502636215
  0
LINE
  5
130
330
1F
100
AcDbEntity
  8
0
  6
Continuous
 62
     7
370
    30
100
AcDbLine
 10
60.528921105
 20
107.6594991657
 30
0.0
 11
60.528921105
 21
109.1595003429
 31
0.0
  0
LINE
  5
131
330
1F
100
AcDbEntity
  8
0
  6
Continuous
 62
     7
370
    30
100
AcDbLine
 10
60.528921105
 20
109.1595003429
 30
0.0
 11
60.828922458
 21
109.1595003429
 31
0.0
  0
LINE
  5
132
330
1F
100
AcDbEntity
  8
0
  6
Continuous
 62
     7
370
    30
100
AcDbLine
 10
112.2289208248
 20
109.1595003429
 30
0.0
 11
60.828922458
 21
109.1595003429
 31
0.0
  0
LINE
  5
133
330
1F
100
AcDbEntity
  8
0
  6
Continuous
 62
     7
370
    30
100
AcDbLine
 10
112.5289221779
 20
109.1595003429
 30
0.0
 11
112.5289221779
 21
107.6594991657
 31
0.0
  0
LINE
  5
134
330
1F
100
AcDbEntity
  8
0
  6
Continuous
 62
     7
370
    30
100
AcDbLine
 10
112.2289208248
 20
109.1595003429
 30
0.0
 11
112.5289221779
 21
109.1595003429
 31
0.0
  0
LINE
  5
135
330
1F
100
AcDbEntity
  8
0
  6
Continuous
 62
     7
370
    30
100
AcDbLine
 10
60.528921105
 20
109.4594998333
 30
0.0
 11
60.528921105
 21
128.8594998817
 31
0.0
  0
ARC
  5
136
330
1F
100
AcDbEntity
  8
0
  6
Continuous
 62
     7
370
    30
100
AcDbCircle
 10
112.2289216414
 20
128.8594998959
 30
0.0
 40
0.2999999999999972
100
AcDbArc
 50
0.0
 51
90.0
  0
ARC
  5
137
330
1F
100
AcDbEntity
  8
0
  6
Continuous
 62
     7
370
    30
100
AcDbCircle
 10
60.8289216414
 20
128.8594998959
 30
0.0
 40
0.2999999999999972
100
AcDbArc
 50
90.0
 51
180.0
  0
LINE
  5
138
330
1F
100
AcDbEntity
  8
0
  6
Continuous
 62
     7
370
    30
100
AcDbLine
 10
60.828922458
 20
129.1594998959
 30
0.0
 11
112.2289208248
 21
129.1594998959
 31
0.0
  0
LINE
  5
139
330
1F
100
AcDbEntity
  8
0
  6
Continuous
 62
     7
370
    30
100
AcDbLine
 10
112.5289221779
 20
128.8594998817
 30
0.0
 11
112.5289221779
 21
109.4594998333
 31
0.0
  0
ARC
  5
13A
330
1F
100
AcDbEntity
  8
0
  6
Continuous
 62
     7
370
    30
100
AcDbCircle
 10
112.2289216414
 20
109.4594998959
 30
0.0
 40
0.2999999999999972
100
AcDbArc
 50
270.0
 51
0.0
  0
ARC
  5
13B
330
1F
100
AcDbEntity
  8
0
  6
Continuous
 62
     7
370
    30
100
AcDbCircle
 10
60.8289216414
 20
109.4594998959
 30
0.0
 40
0.2999999999999972
100
AcDbArc
 50
180.0
 51
270.0
  0
LINE
  5
13C
330
1F
100
AcDbEntity
  8
0
  6
Continuous
 62
     7
370
    30
100
AcDbLine
 10
60.528921105
 20
109.1595003429
 30
0.0
 11
60.528921105
 21
109.4594998333
 31
0.0
  0
LINE
  5
13D
330
1F
100
AcDbEntity
  8
0
  6
Continuous
 62
     7
370
    30
100
AcDbLine
 10
112.5289221779
 20
109.4594998333
 30
0.0
 11
112.5289221779
 21
109.1595003429
 31
0.0
  0
LINE
  5
13E
330
1F
100
AcDbEntity
  8
0
  6
Continuous
 62
     8
370
     0
100
AcDbLine
 10
71.0289218947
 20
129.8594998709
 30
0.0
 11
71.0289218947
 21
129.1594998959
 31
0.0
  0
LINE
  5
13F
330
1F
100
AcDbEntity
  8
0
  6
Continuous
 62
     8
370
     0
100
AcDbLine
 10
102.0289213881
 20
129.1594998959
 30
0.0
 11
102.0289213881
 21
129.8594998709
 31
0.0
  0
LINE
  5
140
330
1F
100
AcDbEntity
  8
0
  6
Continuous
 62
     8
370
     0
100
AcDbLine
 10
100.5289220736
 20
92.3594990793
 30
0.0
 11
72.5289212093
 21
92.3594990793
 31
0.0
  0
LINE
  5
141
330
1F
100
AcDbEntity
  8
0
  6
Continuous
 62
     8
370
     0
100
AcDbLine
 10
72.5289212093
 20
92.3594990793
 30
0.0
 11
72.5289212093
 21
92.6595004323
 31
0.0
  0
LINE
  5
142
330
1F
100
AcDbEntity
  8
0
  6
Continuous
 62
     8
370
     0
100
AcDbLine
 10
100.5289220736
 20
92.3594990793
 30
0.0
 11
100.5289220736
 21
92.6595004323
 31
0.0
  0
ARC
  5
143
330
1F
100
AcDbEntity
  8
0
  6
Continuous
 62
     8
370
     0
100
AcDbCircle
 10
72.5289216414
 20
86.6594998959
 30
0.0
 40
5.699999999999989
100
AcDbArc
 50
90.0
 51
180.0
  0
LINE
  5
144
330
1F
100
AcDbEntity
  8
0
  6
Continuous
 62
     8
370
     0
100
AcDbLine
 10
66.8289215788
 20
86.6594994489
 30
0.0
 11
66.5289220885
 21
86.6594994489
 31
0.0
  0
ARC
  5
145
330
1F
100
AcDbEntity
  8
0
  6
Continuous
 62
     8
370
     0
100
AcDbCircle
 10
100.5289216414
 20
86.6594998959
 30
0.0
 40
5.700000000000017
100
AcDbArc
 50
0.0
 51
90.0
  0
LINE
  5
146
330
1F
100
AcDbEntity
  8
0
  6
Continuous
 62
     8
370
     0
100
AcDbLine
 10
106.5289211944
 20
86.6594994489
 30
0.0
 11
106.228921704
 21
86.6594994489
 31
0.0
  0
ARC
  5
147
330
1F
100
AcDbEntity
  8
0
  6
Continuous
 62
     8
370
     0
100
AcDbCircle
 10
74.5289216414
 20
46.6594998959
 30
0.0
 40
6.300000000000004
100
AcDbArc
 50
0.0
 51
90.0
  0
LINE
  5
148
330
1F
100
AcDbEntity
  8
0
  6
Continuous
 62
     8
370
     0
100
AcDbLine
 10
72.5289212093
 20
52.9594989541
 30
0.0
 11
74.5289215371
 21
52.9594989541
 31
0.0
  0
ARC
  5
149
330
1F
100
AcDbEntity
  8
0
  6
Continuous
 62
     8
370
     0
100
AcDbCircle
 10
72.5289216414
 20
58.6594998959
 30
0.0
 40
5.699999999999996
100
AcDbArc
 50
180.0
 51
270.0
  0
LINE
  5
14A
330
1F
100
AcDbEntity
  8
0
  6
Continuous
 62
     8
370
     0
100
AcDbLine
 10
66.8289215788
 20
86.6594994489
 30
0.0
 11
66.8289215788
 21
58.6594985846
 31
0.0
  0
LINE
  5
14B
330
1F
100
AcDbEntity
  8
0
  6
Continuous
 62
     8
370
     0
100
AcDbLine
 10
106.228921704
 20
58.6594985846
 30
0.0
 11
106.228921704
 21
86.6594994489
 31
0.0
  0
ARC
  5
14C
330
1F
100
AcDbEntity
  8
0
  6
Continuous
 62
     8
370
     0
100
AcDbCircle
 10
100.5289216414
 20
58.6594998959
 30
0.0
 40
5.700000000000017
100
AcDbArc
 50
270.0
 51
0.0
  0
LINE
  5
14D
330
1F
100
AcDbEntity
  8
0
  6
Continuous
 62
     8
370
     0
100
AcDbLine
 10
98.5289217457
 20
52.9594989541
 30
0.0
 11
100.5289220736
 21
52.9594989541
 31
0.0
  0
ARC
  5
14E
330
1F
100
AcDbEntity
  8
0
  6
Continuous
 62
     8
370
     0
100
AcDbCircle
 10
98.5289216414
 20
46.6594998959
 30
0.0
 40
6.300000000000004
100
AcDbArc
 50
90.0
 51
180.0
  0
LINE
  5
14F
330
1F
100
AcDbEntity
  8
0
  6
Continuous
 62
     8
370
     0
100
AcDbLine
 10
92.2289217375
 20
10.6594981674
 30
0.0
 11
92.2289217375
 21
46.6594966176
 31
0.0
  0
ARC
  5
150
330
1F
100
AcDbEntity
  8
0
  6
Continuous
 62
     8
370
     0
100
AcDbCircle
 10
89.5289216414
 20
10.6594998959
 30
0.0
 40
2.700000000000017
100
AcDbArc
 50
270.0
 51
0.0
  0
LINE
  5
151
330
1F
100
AcDbEntity
  8
0
  6
Continuous
 62
     8
370
     0
100
AcDbLine
 10
83.5289216153
 20
7.959497166
 30
0.0
 11
89.5289216675
 21
7.959497166
 31
0.0
  0
ARC
  5
152
330
1F
100
AcDbEntity
  8
0
  6
Continuous
 62
     8
370
     0
100
AcDbCircle
 10
83.5289216414
 20
10.6594998959
 30
0.0
 40
2.700000000000009
100
AcDbArc
 50
180.0
 51
270.0
  0
LINE
  5
153
330
1F
100
AcDbEntity
  8
0
  6
Continuous
 62
     8
370
     0
100
AcDbLine
 10
80.8289215453
 20
46.6594966176
 30
0.0
 11
80.8289215453
 21
10.6594981674
 31
0.0
  0
LINE
  5
154
330
1F
100
AcDbEntity
  8
0
  6
Continuous
 62
     8
370
     0
100
AcDbLine
 10
106.5289211944
 20
58.6594985846
 30
0.0
 11
106.228921704
 21
58.6594985846
 31
0.0
  0
LINE
  5
155
330
1F
100
AcDbEntity
  8
0
  6
Continuous
 62
     8
370
     0
100
AcDbLine
 10
66.8289215788
 20
58.6594985846
 30
0.0
 11
66.5289220885
 21
58.6594985846
 31
0.0
  0
LINE
  5
156
330
1F
100
AcDbEntity
  8
0
  6
Continuous
 62
     8
370
     0
100
AcDbLine
 10
100.5289220736
 20
52.6595013264
 30
0.0
 11
100.5289220736
 21
52.9594989541
 31
0.0
  0
LINE
  5
157
330
1F
100
AcDbEntity
  8
0
  6
Continuous
 62
     8
370
     0
100
AcDbLine
 10
72.5289212093
 20
52.9594989541
 30
0.0
 11
72.5289212093
 21
52.6595013264
 31
0.0
  0
LINE
  5
158
330
1F
100
AcDbEntity
  8
0
  6
Continuous
 62
     8
370
     0
100
AcDbLine
 10
98.5289217457
 20
52.6595013264
 30
0.0
 11
98.5289217457
 21
52.9594989541
 31
0.0
  0
LINE
  5
159
330
1F
100
AcDbEntity
  8
0
  6
Continuous
 62
     8
370
     0
100
AcDbLine
 10
74.5289215371
 20
52.9594989541
 30
0.0
 11
74.5289215371
 21
52.6595013264
 31
0.0
  0
LINE
  5
15A
330
1F
100
AcDbEntity
  8
0
  6
Continuous
 62
     8
370
     0
100
AcDbLine
 10
92.5289216936
 20
46.6594966176
 30
0.0
 11
92.2289217375
 21
46.6594966176
 31
0.0
  0
LINE
  5
15B
330
1F
100
AcDbEntity
  8
0
  6
Continuous
 62
     8
370
     0
100
AcDbLine
 10
80.8289215453
 20
46.6594966176
 30
0.0
 11
80.5289215893
 21
46.6594966176
 31
0.0
  0
LINE
  5
15C
330
1F
100
AcDbEntity
  8
0
  6
Continuous
 62
     8
370
     0
100
AcDbLine
 10
92.5289216936
 20
10.6594981674
 30
0.0
 11
92.2289217375
 21
10.6594981674
 31
0.0
  0
LINE
  5
15D
330
1F
100
AcDbEntity
  8
0
  6
Continuous
 62
     8
370
     0
100
AcDbLine
 10
80.8289215453
 20
10.6594981674
 30
0.0
 11
80.5289215893
 21
10.6594981674
 31
0.0
  0
LINE
  5
15E
330
1F
100
AcDbEntity
  8
0
  6
Continuous
 62
     8
370
     0
100
AcDbLine
 10
83.5289216153
 20
7.6594995383
 30
0.0
 11
83.5289216153
 21
7.959497166
 31
0.0
  0
LINE
  5
15F
330
1F
100
AcDbEntity
  8
0
  6
Continuous
 62
     8
370
     0
100
AcDbLine
 10
89.5289216675
 20
7.6594995383
 30
0.0
 11
89.5289216675
 21
7.959497166
 31
0.0
  0
ARC
  5
160
330
1F
100
AcDbEntity
  8
0
  6
Continuous
 62
     8
370
     0
100
AcDbCircle
 10
59.0289216414
 20
100.1594998959
 30
0.0
 40
5.699999999999996
100
AcDbArc
 50
90.0
 51
180.0
  0
LINE
  5
161
330
1F
100
AcDbEntity
  8
0
  6
Continuous
 62
     8
370
     0
100
AcDbLine
 10
114.0289214924
 20
105.8595003608
 30
0.0
 11
59.0289217904
 21
105.8595003608
 31
0.0
  0
ARC
  5
162
330
1F
100
AcDbEntity
  8
0
  6
Continuous
 62
     8
370
     0
100
AcDbCircle
 10
114.0289216414
 20
100.1594998959
 30
0.0
 40
5.700000000000003
100
AcDbArc
 50
0.0
 51
90.0
  0
LINE
  5
163
330
1F
100
AcDbEntity
  8
0
  6
Continuous
 62
     8
370
     0
100
AcDbLine
 10
119.7289211229
 20
45.1595010284
 30
0.0
 11
119.7289211229
 21
100.1595007304
 31
0.0
  0
ARC
  5
164
330
1F
100
AcDbEntity
  8
0
  6
Continuous
 62
     8
370
     0
100
AcDbCircle
 10
114.0289216414
 20
45.1594998959
 30
0.0
 40
5.700000000000003
100
AcDbArc
 50
270.0
 51
0.0
  0
LINE
  5
165
330
1F
100
AcDbEntity
  8
0
  6
Continuous
 62
     8
370
     0
100
AcDbLine
 10
59.0289217904
 20
39.4595013979
 30
0.0
 11
80.5289215893
 21
39.4595013979
 31
0.0
  0
LINE
  5
166
330
1F
100
AcDbEntity
  8
0
  6
Continuous
 62
     8
370
     0
100
AcDbLine
 10
92.5289216936
 20
39.4595013979
 30
0.0
 11
114.0289214924
 21
39.4595013979
 31
0.0
  0
ARC
  5
167
330
1F
100
AcDbEntity
  8
0
  6
Continuous
 62
     8
370
     0
100
AcDbCircle
 10
59.0289216414
 20
45.1594998959
 30
0.0
 40
5.699999999999996
100
AcDbArc
 50
180.0
 51
270.0
  0
LINE
  5
168
330
1F
100
AcDbEntity
  8
0
  6
Continuous
 62
     8
370
     0
100
AcDbLine
 10
53.32892216
 20
100.1595007304
 30
0.0
 11
53.32892216
 21
45.1595010284
 31
0.0
  0
LINE
  5
169
330
1F
100
AcDbEntity
  8
0
  6
Continuous
 62
     8
370
     0
100
AcDbLine
 10
53.32892216
 20
100.1595007304
 30
0.0
 11
53.028920807
 21
100.1595007304
 31
0.0
  0
LINE
  5
16A
330
1F
100
AcDbEntity
  8
0
  6
Continuous
 62
     8
370
     0
100
AcDbLine
 10
59.0289217904
 20
105.8595003608
 30
0.0
 11
59.0289217904
 21
106.1594998512
 31
0.0
  0
LINE
  5
16B
330
1F
100
AcDbEntity
  8
0
  6
Continuous
 62
     8
370
     0
100
AcDbLine
 10
114.0289214924
 20
105.8595003608
 30
0.0
 11
114.0289214924
 21
106.1594998512
 31
0.0
  0
LINE
  5
16C
330
1F
100
AcDbEntity
  8
0
  6
Continuous
 62
     8
370
     0
100
AcDbLine
 10
120.0289224759
 20
100.1595007304
 30
0.0
 11
119.7289211229
 21
100.1595007304
 31
0.0
  0
LINE
  5
16D
330
1F
100
AcDbEntity
  8
0
  6
Continuous
 62
     8
370
     0
100
AcDbLine
 10
120.0289224759
 20
45.1595010284
 30
0.0
 11
119.7289211229
 21
45.1595010284
 31
0.0
  0
LINE
  5
16E
330
1F
100
AcDbEntity
  8
0
  6
Continuous
 62
     8
370
     0
100
AcDbLine
 10
53.32892216
 20
45.1595010284
 30
0.0
 11
53.028920807
 21
45.1595010284
 31
0.0
  0
LINE
  5
16F
330
1F
100
AcDbEntity
  8
0
  6
Continuous
 62
     8
370
     0
100
AcDbLine
 10
114.0289214924
 20
39.1594963196
 30
0.0
 11
114.0289214924
 21
39.4595013979
 31
0.0
  0
LINE
  5
170
330
1F
100
AcDbEntity
  8
0
  6
Continuous
 62
     8
370
     0
100
AcDbLine
 10
59.0289217904
 20
39.1594963196
 30
0.0
 11
59.0289217904
 21
39.4595013979
 31
0.0
  0
LINE
  5
171
330
1F
100
AcDbEntity
  8
0
  6
Continuous
 62
     8
370
     0
100
AcDbLine
 10
60.828922458
 20
109.1595003429
 30
0.0
 11
60.828922458
 21
107.6594991657
 31
0.0
  0
LINE
  5
172
330
1F
100
AcDbEntity
  8
0
  6
Continuous
 62
     8
370
     0
100
AcDbLine
 10
112.2289208248
 20
107.6594991657
 30
0.0
 11
112.2289208248
 21
109.1595003429
 31
0.0
  0
LINE
  5
173
330
1F
100
AcDbEntity
  8
0
  6
Continuous
 62
     8
370
     0
100
AcDbLine
 10
60.828922458
 20
128.8594998817
 30
0.0
 11
60.828922458
 21
109.4594998333
 31
0.0
  0
LINE
  5
174
330
1F
100
AcDbEntity
  8
0
  6
Continuous
 62
     8
370
     0
100
AcDbLine
 10
60.828922458
 20
109.4594998333
 30
0.0
 11
60.528921105
 21
109.4594998333
 31
0.0
  0
LINE
  5
175
330
1F
100
AcDbEntity
  8
0
  6
Continuous
 62
     8
370
     0
100
AcDbLine
 10
60.828922458
 20
128.8594998817
 30
0.0
 11
60.528921105
 21
128.8594998817
 31
0.0
  0
LINE
  5
176
330
1F
100
AcDbEntity
  8
0
  6
Continuous
 62
     8
370
     0
100
AcDbLine
 10
112.5289221779
 20
128.8594998817
 30
0.0
 11
112.2289208248
 21
128.8594998817
 31
0.0
  0
LINE
  5
177
330
1F
100
AcDbEntity
  8
0
  6
Continuous
 62
     8
370
     0
100
AcDbLine
 10
112.2289208248
 20
128.8594998817
 30
0.0
 11
112.2289208248
 21
129.1594998959
 31
0.0
  0
LINE
  5
178
330
1F
100
AcDbEntity
  8
0
  6
Continuous
 62
     8
370
     0
100
AcDbLine
 10
60.828922458
 20
128.8594998817
 30
0.0
 11
60.828922458
 21
129.1594998959
 31
0.0
  0
LINE
  5
179
330
1F
100
AcDbEntity
  8
0
  6
Continuous
 62
     8
370
     0
100
AcDbLine
 10
112.2289208248
 20
128.8594998817
 30
0.0
 11
60.828922458
 21
128.8594998817
 31
0.0
  0
LINE
  5
17A
330
1F
100
AcDbEntity
  8
0
  6
Continuous
 62
     8
370
     0
100
AcDbLine
 10
112.5289221779
 20
109.4594998333
 30
0.0
 11
112.2289208248
 21
109.4594998333
 31
0.0
  0
LINE
  5
17B
330
1F
100
AcDbEntity
  8
0
  6
Continuous
 62
     8
370
     0
100
AcDbLine
 10
112.2289208248
 20
109.4594998333
 30
0.0
 11
112.2289208248
 21
128.8594998817
 31
0.0
  0
LINE
  5
17C
330
1F
100
AcDbEntity
  8
0
  6
Continuous
 62
     8
370
     0
100
AcDbLine
 10
60.828922458
 20
109.4594998333
 30
0.0
 11
112.2289208248
 21
109.4594998333
 31
0.0
  0
LINE
  5
17D
330
1F
100
AcDbEntity
  8
0
  6
Continuous
 62
     8
370
     0
100
AcDbLine
 10
112.2289208248
 20
109.1595003429
 30
0.0
 11
112.2289208248
 21
109.4594998333
 31
0.0
  0
LINE
  5
17E
330
1F
100
AcDbEntity
  8
0
  6
Continuous
 62
     8
370
     0
100
AcDbLine
 10
60.828922458
 20
109.1595003429
 30
0.0
 11
60.828922458
 21
109.4594998333
 31
0.0
  0
DIMENSION
  5
17F
330
1F
100
AcDbEntity
  8
0
  6
Continuous
 62
     7
370
     0
100
AcDbDimension
  2
*D3
 10
41.6108355516
 20
39.1594998959
 30
0.0
 11
41.6108355516
 21
90.0621362279
 31
0.0
 70
   160
  1
(<>)
 71
     2
 42
-1.0
  3
SLDDIMSTYLE0
100
AcDbAlignedDimension
 13
60.8289216414
 23
129.1594998959
 33
0.0
 14
59.0289216414
 24
39.1594998959
 34
0.0
 50
90.0
100
AcDbRotatedDimension
  0
DIMENSION
  5
18B
330
1F
100
AcDbEntity
  8
0
  6
Continuous
 62
     7
370
     0
100
AcDbDimension
  2
*D4
 10
31.3240012035
 20
7.9594998959
 30
0.0
 11
31.3240012035
 21
79.0923869396
 31
0.0
 70
   160
  1
(<>)
 71
     2
 42
-1.0
  3
SLDDIMSTYLE1
100
AcDbAlignedDimension
 13
102.0289216414
 23
129.8594998959
 33
0.0
 14
89.5289216414
 24
7.9594998959
 34
0.0
 50
90.0
100
AcDbRotatedDimension
  0
LINE
  5
198
330
1F
100
AcDbEntity
  8
0
  6
CENTERX2
 62
     7
370
     0
100
AcDbLine
 10
86.6789216414
 20
132.0537853533
 30
0.0
 11
86.6789216414
 21
5.7388024725
 31
0.0
  0
SPLINE
  5
199
330
1F
100
AcDbEntity
  8
0
  6
Continuous
 62
     7
370
    30
100
AcDbSpline
210
0.0
220
0.0
230
1.0
 70
     8
 71
     3
 72
    20
 73
    16
 74
     0
 42
0.00000001
 43
0.00000001
 40
0.0
 40
0.0
 40
0.0
 40
0.0
 40
0.0497291867779269
 40
0.1041768244791301
 40
0.1534640281078898
 40
0.2173204121140807
 40
0.2974900723569033
 40
0.3823949263321085
 40
0.4571158038385295
 40
0.5235078869736493
 40
0.5953607037305538
 40
0.6963865551085218
 40
0.8274572098721522
 40
0.9886746167499844
 40
1.0
 40
1.0
 40
1.0
 40
1.0
 10
209.8747395032167
 20
155.4764659740463
 30
0.0
 10
209.9902085208963
 20
155.476465284523
 30
0.0
 10
210.2321025949198
 20
155.4764638400525
 30
0.0
 10
210.5877666493949
 20
155.4764630434483
 30
0.0
 10
210.9738957888969
 20
155.476463131843
 30
0.0
 10
211.4205003309819
 20
155.4764637372932
 30
0.0
 10
211.9498059402125
 20
155.4764603617647
 30
0.0
 10
212.5036221671628
 20
155.4764565459791
 30
0.0
 10
213.0110577456124
 20
155.4764589962363
 30
0.0
 10
213.4576582935683
 20
155.4764733130831
 30
0.0
 10
213.8908061449207
 20
155.4765139567653
 30
0.0
 10
214.4230606033216
 20
155.4765447321519
 30
0.0
 10
215.0882923293127
 20
155.47656540148
 30
0.0
 10
215.5952808385973
 20
155.4763357233633
 30
0.0
 10
215.8780301808612
 20
155.4764885397566
 30
0.0
 10
215.8965893142939
 20
155.4764985703364
 30
0.0
  0
SPLINE
  5
19A
330
1F
100
AcDbEntity
  8
0
  6
Continuous
 62
     7
370
    30
100
AcDbSpline
210
0.0
220
0.0
230
1.0
 70
     8
 71
     3
 72
    22
 73
    18
 74
     0
 42
0.00000001
 43
0.00000001
 40
0.0
 40
0.0
 40
0.0
 40
0.0
 40
0.0063676073219704
 40
0.0378578186071094
 40
0.0989623345137523
 40
0.1300934107477887
 40
0.1682193382038633
 40
0.2326271346101055
 40
0.3141370529078887
 40
0.4136086775095707
 40
0.5238430501597919
 40
0.6242934582331537
 40
0.714073830488042
 40
0.793583723365153
 40
0.8633987638059001
 40
0.9247618876739502
 40
1.0
 40
1.0
 40
1.0
 40
1.0
 10
170.7014009409666
 20
155.4764678366914
 30
0.0
 10
170.706183184713
 20
155.4764668438028
 30
0.0
 10
170.7346154210514
 20
155.4764609407066
 30
0.0
 10
170.7627546468192
 20
155.476462575858
 30
0.0
 10
170.8125200752335
 20
155.4764557346535
 30
0.0
 10
170.8838783721454
 20
155.4764538470959
 30
0.0
 10
171.0582594319434
 20
155.4764511329913
 30
0.0
 10
171.357298099973
 20
155.4764880498353
 30
0.0
 10
171.8144130681784
 20
155.4766014187773
 30
0.0
 10
172.3944479667995
 20
155.4767468751984
 30
0.0
 10
173.0368080161701
 20
155.4768109224145
 30
0.0
 10
173.6786299271997
 20
155.476748984032
 30
0.0
 10
174.2770991634575
 20
155.4766388288292
 30
0.0
 10
174.8295982394125
 20
155.4765407263642
 30
0.0
 10
175.3374206411382
 20
155.4764867560798
 30
0.0
 10
175.856416945765
 20
155.4764701491507
 30
0.0
 10
176.2069761830121
 20
155.4764698590952
 30
0.0
 10
176.4000594669103
 20
155.4764696993366
 30
0.0
  0
LINE
  5
19B
330
1F
100
AcDbEntity
  8
0
  6
Continuous
 62
     7
370
    30
100
AcDbLine
 10
152.8856489861
 20
186.9764720686
 30
0.0
 11
150.4366096162
 21
186.7190675475
 31
0.0
  0
LINE
  5
19C
330
1F
100
AcDbEntity
  8
0
  6
Continuous
 62
     7
370
    30
100
AcDbLine
 10
150.4366096162
 20
177.2338754163
 30
0.0
 11
152.8856489861
 21
176.9764713608
 31
0.0
  0
ARC
  5
19D
330
1F
100
AcDbEntity
  8
0
  6
Continuous
 62
     7
370
    30
100
AcDbCircle
 10
158.0856482261
 20
181.9764711447
 30
0.0
 40
9.000000000000023
100
AcDbArc
 50
194.4775121859
 51
211.7999516825
  0
ARC
  5
19E
330
1F
100
AcDbEntity
  8
0
  6
Continuous
 62
     7
370
    30
100
AcDbCircle
 10
158.0856482261
 20
181.9764711447
 30
0.0
 40
9.000000000000044
100
AcDbArc
 50
148.2000483175
 51
165.5224878141
  0
LINE
  5
19F
330
1F
100
AcDbEntity
  8
0
  6
Continuous
 62
     7
370
    30
100
AcDbLine
 10
184.7056500667
 20
225.9264720269
 30
0.0
 11
184.7056500667
 21
225.9764728733
 31
0.0
  0
LINE
  5
1A0
330
1F
100
AcDbEntity
  8
0
  6
Continuous
 62
     7
370
    30
100
AcDbLine
 10
177.065649634
 20
225.9764728733
 30
0.0
 11
177.065649634
 21
225.9264720269
 31
0.0
  0
LINE
  5
1A1
330
1F
100
AcDbEntity
  8
0
  6
Continuous
 62
     7
370
    30
100
AcDbLine
 10
139.3856481702
 20
155.9764707126
 30
0.0
 11
136.1856482511
 21
155.9764707126
 31
0.0
  0
LINE
  5
1A2
330
1F
100
AcDbEntity
  8
0
  6
Continuous
 62
     7
370
    30
100
AcDbLine
 10
136.1856482511
 20
187.9764703699
 30
0.0
 11
139.3856481702
 21
187.9764703699
 31
0.0
  0
LINE
  5
1A3
330
1F
100
AcDbEntity
  8
0
  6
Continuous
 62
     7
370
    30
100
AcDbLine
 10
139.3856481702
 20
187.9764703699
 30
0.0
 11
139.3856481702
 21
155.9764707126
 31
0.0
  0
LINE
  5
1A4
330
1F
100
AcDbEntity
  8
0
  6
Continuous
 62
     7
370
    30
100
AcDbLine
 10
136.1856482511
 20
187.9764703699
 30
0.0
 11
136.1856482511
 21
155.9764707126
 31
0.0
  0
LINE
  5
1A5
330
1F
100
AcDbEntity
  8
0
  6
Continuous
 62
     7
370
    30
100
AcDbLine
 10
143.8856484422
 20
184.9764708095
 30
0.0
 11
145.8856478387
 21
186.9764720686
 31
0.0
  0
LINE
  5
1A6
330
1F
100
AcDbEntity
  8
0
  6
Continuous
 62
     7
370
    30
100
AcDbLine
 10
147.8856481665
 20
186.9764720686
 30
0.0
 11
145.8856478387
 21
186.9764720686
 31
0.0
  0
LINE
  5
1A7
330
1F
100
AcDbEntity
  8
0
  6
Continuous
 62
     7
370
    30
100
AcDbLine
 10
147.8856481665
 20
186.9764720686
 30
0.0
 11
147.8856481665
 21
185.7693643906
 31
0.0
  0
ARC
  5
1A8
330
1F
100
AcDbEntity
  8
0
  6
Continuous
 62
     7
370
    30
100
AcDbCircle
 10
145.3856482261
 20
185.7693643636
 30
0.0
 40
2.5
100
AcDbArc
 50
315.0
 51
0.0
  0
LINE
  5
1A9
330
1F
100
AcDbEntity
  8
0
  6
Continuous
 62
     7
370
    30
100
AcDbLine
 10
147.15341535
 20
184.0015977286
 30
0.0
 11
145.471434673
 21
182.3196170517
 31
0.0
  0
ARC
  5
1AA
330
1F
100
AcDbEntity
  8
0
  6
Continuous
 62
     7
370
    30
100
AcDbCircle
 10
146.8856482261
 20
180.9054033329
 30
0.0
 40
2.000000000000028
100
AcDbArc
 50
135.0
 51
180.0
  0
LINE
  5
1AB
330
1F
100
AcDbEntity
  8
0
  6
Continuous
 62
     7
370
    30
100
AcDbLine
 10
144.8856486061
 20
180.9054037221
 30
0.0
 11
144.8856486061
 21
166.8785306756
 31
0.0
  0
LINE
  5
1AC
330
1F
100
AcDbEntity
  8
0
  6
Continuous
 62
     7
370
    30
100
AcDbLine
 10
144.7856478446
 20
166.8785306756
 30
0.0
 11
144.8856486061
 21
166.8785306756
 31
0.0
  0
LINE
  5
1AD
330
1F
100
AcDbEntity
  8
0
  6
Continuous
 62
     7
370
    30
100
AcDbLine
 10
144.8856486061
 20
166.6651858613
 30
0.0
 11
144.8856486061
 21
165.9595539459
 31
0.0
  0
LINE
  5
1AE
330
1F
100
AcDbEntity
  8
0
  6
Continuous
 62
     7
370
    30
100
AcDbLine
 10
144.7856478446
 20
165.9595539459
 30
0.0
 11
144.8856486061
 21
165.9595539459
 31
0.0
  0
LINE
  5
1AF
330
1F
100
AcDbEntity
  8
0
  6
Continuous
 62
     7
370
    30
100
AcDbLine
 10
144.7856478446
 20
165.8016407527
 30
0.0
 11
144.7856478446
 21
165.9595539459
 31
0.0
  0
LINE
  5
1B0
330
1F
100
AcDbEntity
  8
0
  6
Continuous
 62
     7
370
    30
100
AcDbLine
 10
144.8856486061
 20
165.8016407527
 30
0.0
 11
144.7856478446
 21
165.8016407527
 31
0.0
  0
LINE
  5
1B1
330
1F
100
AcDbEntity
  8
0
  6
Continuous
 62
     7
370
    30
100
AcDbLine
 10
144.8856486061
 20
165.8016407527
 30
0.0
 11
144.8856486061
 21
165.2237918824
 31
0.0
  0
LINE
  5
1B2
330
1F
100
AcDbEntity
  8
0
  6
Continuous
 62
     7
370
    30
100
AcDbLine
 10
144.7856478446
 20
165.2237923481
 30
0.0
 11
144.8856486061
 21
165.2237918824
 31
0.0
  0
LINE
  5
1B3
330
1F
100
AcDbEntity
  8
0
  6
Continuous
 62
     7
370
    30
100
AcDbLine
 10
144.7856478446
 20
165.0670437739
 30
0.0
 11
144.7856478446
 21
165.2237923481
 31
0.0
  0
LINE
  5
1B4
330
1F
100
AcDbEntity
  8
0
  6
Continuous
 62
     7
370
    30
100
AcDbLine
 10
144.8856486061
 20
165.0670437739
 30
0.0
 11
144.7856478446
 21
165.0670437739
 31
0.0
  0
LINE
  5
1B5
330
1F
100
AcDbEntity
  8
0
  6
Continuous
 62
     7
370
    30
100
AcDbLine
 10
144.8856486061
 20
165.0670437739
 30
0.0
 11
144.8856486061
 21
163.0475387574
 31
0.0
  0
ARC
  5
1B6
330
1F
100
AcDbEntity
  8
0
  6
Continuous
 62
     7
370
    30
100
AcDbCircle
 10
146.8856482261
 20
163.0475389566
 30
0.0
 40
2.000000000000028
100
AcDbArc
 50
180.0
 51
225.0
  0
LINE
  5
1B7
330
1F
100
AcDbEntity
  8
0
  6
Continuous
 62
     7
370
    30
100
AcDbLine
 10
145.471434673
 20
161.6333249622
 30
0.0
 11
147.15341535
 21
159.9513452165
 31
0.0
  0
ARC
  5
1B8
330
1F
100
AcDbEntity
  8
0
  6
Continuous
 62
     7
370
    30
100
AcDbCircle
 10
145.3856482261
 20
158.1835779259
 30
0.0
 40
2.5
100
AcDbArc
 50
0.0
 51
45.0
  0
LINE
  5
1B9
330
1F
100
AcDbEntity
  8
0
  6
Continuous
 62
     7
370
    30
100
AcDbLine
 10
147.8856481665
 20
158.1835776233
 30
0.0
 11
147.8856481665
 21
156.9764708765
 31
0.0
  0
LINE
  5
1BA
330
1F
100
AcDbEntity
  8
0
  6
Continuous
 62
     7
370
    30
100
AcDbLine
 10
147.8856481665
 20
156.9764708765
 30
0.0
 11
145.8856478387
 21
156.9764708765
 31
0.0
  0
LINE
  5
1BB
330
1F
100
AcDbEntity
  8
0
  6
Continuous
 62
     7
370
    30
100
AcDbLine
 10
145.8856478387
 20
156.9764708765
 30
0.0
 11
143.8856484422
 21
158.9764712044
 31
0.0
  0
LINE
  5
1BC
330
1F
100
AcDbEntity
  8
0
  6
Continuous
 62
     7
370
    30
100
AcDbLine
 10
143.8856484422
 20
158.9764712044
 30
0.0
 11
141.8856481143
 21
156.9764708765
 31
0.0
  0
LINE
  5
1BD
330
1F
100
AcDbEntity
  8
0
  6
Continuous
 62
     7
370
    30
100
AcDbLine
 10
141.8856481143
 20
156.9764708765
 30
0.0
 11
139.3856481702
 21
156.9764708765
 31
0.0
  0
LINE
  5
1BE
330
1F
100
AcDbEntity
  8
0
  6
Continuous
 62
     7
370
    30
100
AcDbLine
 10
139.3856481702
 20
156.9764708765
 30
0.0
 11
139.3856481702
 21
186.9764720686
 31
0.0
  0
LINE
  5
1BF
330
1F
100
AcDbEntity
  8
0
  6
Continuous
 62
     7
370
    30
100
AcDbLine
 10
141.8856481143
 20
186.9764720686
 30
0.0
 11
139.3856481702
 21
186.9764720686
 31
0.0
  0
LINE
  5
1C0
330
1F
100
AcDbEntity
  8
0
  6
Continuous
 62
     7
370
    30
100
AcDbLine
 10
141.8856481143
 20
186.9764720686
 30
0.0
 11
143.8856484422
 21
184.9764708095
 31
0.0
  0
LINE
  5
1C1
330
1F
100
AcDbEntity
  8
0
  6
Continuous
 62
     7
370
    30
100
AcDbLine
 10
144.7856478446
 20
166.6651858613
 30
0.0
 11
144.7856478446
 21
166.8785306756
 31
0.0
  0
LINE
  5
1C2
330
1F
100
AcDbEntity
  8
0
  6
Continuous
 62
     7
370
    30
100
AcDbLine
 10
144.8856486061
 20
166.6651858613
 30
0.0
 11
144.7856478446
 21
166.6651858613
 31
0.0
  0
SPLINE
  5
1C3
330
1F
100
AcDbEntity
  8
0
  6
Continuous
 62
     7
370
    30
100
AcDbSpline
210
0.0
220
0.0
230
1.0
 70
    24
 71
     3
 72
     9
 73
     5
 74
     0
 42
0.00000001
 43
0.00000001
 40
0.0
 40
0.0
 40
0.0
 40
0.0
 40
0.5597370966284435
 40
1.0
 40
1.0
 40
1.0
 40
1.0
 10
144.8856486060738
 20
166.8785306755885
 30
0.0
 10
144.8856486060738
 20
166.8700471917692
 30
0.0
 10
144.8856486060738
 20
166.8548909981374
 30
0.0
 10
144.8856486060738
 20
166.8385181741243
 30
0.0
 10
144.8856486060738
 20
166.8313098270878
 30
0.0
  0
LINE
  5
1C4
330
1F
100
AcDbEntity
  8
0
  6
Continuous
 62
     7
370
    30
100
AcDbLine
 10
144.7856478446
 20
166.8313098271
 30
0.0
 11
144.8856486061
 21
166.8313098271
 31
0.0
  0
LINE
  5
1C5
330
1F
100
AcDbEntity
  8
0
  6
Continuous
 62
     7
370
    30
100
AcDbLine
 10
144.8856486061
 20
165.196333699
 30
0.0
 11
144.8856486061
 21
165.0670437739
 31
0.0
  0
SPLINE
  5
1C6
330
1F
100
AcDbEntity
  8
0
  6
Continuous
 62
     7
370
    30
100
AcDbSpline
210
0.0
220
0.0
230
1.0
 70
    24
 71
     3
 72
     9
 73
     5
 74
     0
 42
0.00000001
 43
0.00000001
 40
0.0
 40
0.0
 40
0.0
 40
0.0
 40
0.7263444451458441
 40
0.9999999999999999
 40
0.9999999999999999
 40
0.9999999999999999
 40
0.9999999999999999
 10
144.8856486060738
 20
165.9595539458528
 30
0.0
 10
144.8856486060738
 20
165.9358131176864
 30
0.0
 10
144.8856486060738
 20
165.9031277597614
 30
0.0
 10
144.8856486060738
 20
165.8450126919022
 30
0.0
 10
144.8856486060738
 20
165.8291091807619
 30
0.0
  0
LINE
  5
1C7
330
1F
100
AcDbEntity
  8
0
  6
Continuous
 62
     7
370
    30
100
AcDbLine
 10
140.8856484161
 20
187.9764703699
 30
0.0
 11
139.3856481702
 21
187.9764703699
 31
0.0
  0
LINE
  5
1C8
330
1F
100
AcDbEntity
  8
0
  6
Continuous
 62
     7
370
    30
100
AcDbLine
 10
139.3856481702
 20
155.9764707126
 30
0.0
 11
140.8856484161
 21
155.9764707126
 31
0.0
  0
LINE
  5
1C9
330
1F
100
AcDbEntity
  8
0
  6
Continuous
 62
     7
370
    30
100
AcDbLine
 10
147.8856481665
 20
187.9764703699
 30
0.0
 11
146.8856480026
 21
187.9764703699
 31
0.0
  0
LINE
  5
1CA
330
1F
100
AcDbEntity
  8
0
  6
Continuous
 62
     7
370
    30
100
AcDbLine
 10
147.8856481665
 20
186.9764720686
 30
0.0
 11
147.8856481665
 21
187.9764703699
 31
0.0
  0
LINE
  5
1CB
330
1F
100
AcDbEntity
  8
0
  6
Continuous
 62
     7
370
    30
100
AcDbLine
 10
147.8856481665
 20
155.9764707126
 30
0.0
 11
147.8856481665
 21
156.9764708765
 31
0.0
  0
LINE
  5
1CC
330
1F
100
AcDbEntity
  8
0
  6
Continuous
 62
     7
370
    30
100
AcDbLine
 10
147.8856481665
 20
155.9764707126
 30
0.0
 11
146.8856480026
 21
155.9764707126
 31
0.0
  0
LINE
  5
1CD
330
1F
100
AcDbEntity
  8
0
  6
Continuous
 62
     7
370
    30
100
AcDbLine
 10
144.8856486061
 20
166.8258271311
 30
0.0
 11
144.8856486061
 21
166.6651858613
 31
0.0
  0
LINE
  5
1CE
330
1F
100
AcDbEntity
  8
0
  6
Continuous
 62
     7
370
    30
100
AcDbLine
 10
146.3311478549
 20
148.9764714279
 30
0.0
 11
146.8856480026
 21
149.2966117003
 31
0.0
  0
LINE
  5
1CF
330
1F
100
AcDbEntity
  8
0
  6
Continuous
 62
     7
370
    30
100
AcDbLine
 10
145.385648688
 20
148.9764714279
 30
0.0
 11
146.3311478549
 21
148.9764714279
 31
0.0
  0
LINE
  5
1D0
330
1F
100
AcDbEntity
  8
0
  6
Continuous
 62
     7
370
    30
100
AcDbLine
 10
145.385648688
 20
152.4764710702
 30
0.0
 11
145.385648688
 21
148.9764714279
 31
0.0
  0
LINE
  5
1D1
330
1F
100
AcDbEntity
  8
0
  6
Continuous
 62
     7
370
    30
100
AcDbLine
 10
145.385648688
 20
152.4764710702
 30
0.0
 11
142.3856481963
 21
152.4764710702
 31
0.0
  0
LINE
  5
1D2
330
1F
100
AcDbEntity
  8
0
  6
Continuous
 62
     7
370
    30
100
AcDbLine
 10
142.3856481963
 20
152.4764710702
 30
0.0
 11
142.3856481963
 21
148.9764714279
 31
0.0
  0
LINE
  5
1D3
330
1F
100
AcDbEntity
  8
0
  6
Continuous
 62
     7
370
    30
100
AcDbLine
 10
141.4401480981
 20
148.9764714279
 30
0.0
 11
142.3856481963
 21
148.9764714279
 31
0.0
  0
LINE
  5
1D4
330
1F
100
AcDbEntity
  8
0
  6
Continuous
 62
     7
370
    30
100
AcDbLine
 10
140.8856484161
 20
149.2966117003
 30
0.0
 11
141.4401480981
 21
148.9764714279
 31
0.0
  0
LINE
  5
1D5
330
1F
100
AcDbEntity
  8
0
  6
Continuous
 62
     7
370
    30
100
AcDbLine
 10
140.8856484161
 20
155.9764707126
 30
0.0
 11
140.8856484161
 21
149.2966117003
 31
0.0
  0
LINE
  5
1D6
330
1F
100
AcDbEntity
  8
0
  6
Continuous
 62
     7
370
    30
100
AcDbLine
 10
143.8856484422
 20
158.9764712044
 30
0.0
 11
140.8856484161
 21
155.9764707126
 31
0.0
  0
LINE
  5
1D7
330
1F
100
AcDbEntity
  8
0
  6
Continuous
 62
     7
370
    30
100
AcDbLine
 10
146.8856480026
 20
155.9764707126
 30
0.0
 11
143.8856484422
 21
158.9764712044
 31
0.0
  0
LINE
  5
1D8
330
1F
100
AcDbEntity
  8
0
  6
Continuous
 62
     7
370
    30
100
AcDbLine
 10
146.8856480026
 20
149.2966117003
 30
0.0
 11
146.8856480026
 21
155.9764707126
 31
0.0
  0
LINE
  5
1D9
330
1F
100
AcDbEntity
  8
0
  6
Continuous
 62
     7
370
    30
100
AcDbLine
 10
143.8856484422
 20
152.4764710702
 30
0.0
 11
143.8856484422
 21
148.9764714279
 31
0.0
  0
LINE
  5
1DA
330
1F
100
AcDbEntity
  8
0
  6
Continuous
 62
     7
370
    30
100
AcDbLine
 10
142.3856481963
 20
148.9764714279
 30
0.0
 11
143.8856484422
 21
148.9764714279
 31
0.0
  0
LINE
  5
1DB
330
1F
100
AcDbEntity
  8
0
  6
Continuous
 62
     7
370
    30
100
AcDbLine
 10
145.385648688
 20
148.9764714279
 30
0.0
 11
143.8856484422
 21
148.9764714279
 31
0.0
  0
LINE
  5
1DC
330
1F
100
AcDbEntity
  8
0
  6
Continuous
 62
     7
370
    30
100
AcDbLine
 10
186.8856489712
 20
226.276470501
 30
0.0
 11
186.8856489712
 21
227.9764694758
 31
0.0
  0
ARC
  5
1DD
330
1F
100
AcDbEntity
  8
0
  6
Continuous
 62
     7
370
    30
100
AcDbCircle
 10
186.5856482261
 20
226.2764711447
 30
0.0
 40
0.3000000000000114
100
AcDbArc
 50
270.0
 51
0.0
  0
LINE
  5
1DE
330
1F
100
AcDbEntity
  8
0
  6
Continuous
 62
     7
370
    30
100
AcDbLine
 10
173.6856490427
 20
225.9764728733
 30
0.0
 11
186.5856476181
 21
225.9764728733
 31
0.0
  0
LINE
  5
1DF
330
1F
100
AcDbEntity
  8
0
  6
Continuous
 62
     7
370
    30
100
AcDbLine
 10
173.3856476897
 20
226.276470501
 30
0.0
 11
173.3856476897
 21
227.9764694758
 31
0.0
  0
LINE
  5
1E0
330
1F
100
AcDbEntity
  8
0
  6
Continuous
 62
     7
370
    30
100
AcDbLine
 10
173.3856476897
 20
227.9764694758
 30
0.0
 11
186.8856489712
 21
227.9764694758
 31
0.0
  0
ARC
  5
1E1
330
1F
100
AcDbEntity
  8
0
  6
Continuous
 62
     7
370
    30
100
AcDbCircle
 10
173.6856482261
 20
226.2764711447
 30
0.0
 40
0.3000000000000398
100
AcDbArc
 50
180.0
 51
270.0
  0
LINE
  5
1E2
330
1F
100
AcDbEntity
  8
0
  6
Continuous
 62
     7
370
    30
100
AcDbLine
 10
199.8856492394
 20
227.9764694758
 30
0.0
 11
199.8856492394
 21
226.276470501
 31
0.0
  0
ARC
  5
1E3
330
1F
100
AcDbEntity
  8
0
  6
Continuous
 62
     7
370
    30
100
AcDbCircle
 10
200.1856482261
 20
226.2764711447
 30
0.0
 40
0.3000000000000114
100
AcDbArc
 50
180.0
 51
270.0
  0
LINE
  5
1E4
330
1F
100
AcDbEntity
  8
0
  6
Continuous
 62
     7
370
    30
100
AcDbLine
 10
200.1856468671
 20
225.9764728733
 30
0.0
 11
199.6856458538
 21
225.9764728733
 31
0.0
  0
LINE
  5
1E5
330
1F
100
AcDbEntity
  8
0
  6
Continuous
 62
     7
370
    30
100
AcDbLine
 10
187.0856486314
 20
225.9764728733
 30
0.0
 11
186.5856476181
 21
225.9764728733
 31
0.0
  0
ARC
  5
1E6
330
1F
100
AcDbEntity
  8
0
  6
Continuous
 62
     7
370
    30
100
AcDbCircle
 10
213.0856482261
 20
226.2764711447
 30
0.0
 40
0.3000000000000114
100
AcDbArc
 50
270.0
 51
0.0
  0
LINE
  5
1E7
330
1F
100
AcDbEntity
  8
0
  6
Continuous
 62
     7
370
    30
100
AcDbLine
 10
213.3856467956
 20
227.9764694758
 30
0.0
 11
213.3856467956
 21
226.276470501
 31
0.0
  0
LINE
  5
1E8
330
1F
100
AcDbEntity
  8
0
  6
Continuous
 62
     7
370
    30
100
AcDbLine
 10
200.1856468671
 20
225.9764728733
 30
0.0
 11
213.0856491678
 21
225.9764728733
 31
0.0
  0
LINE
  5
1E9
330
1F
100
AcDbEntity
  8
0
  6
Continuous
 62
     7
370
    30
100
AcDbLine
 10
199.8856492394
 20
227.9764694758
 30
0.0
 11
213.3856467956
 21
227.9764694758
 31
0.0
  0
LINE
  5
1EA
330
1F
100
AcDbEntity
  8
0
  6
Continuous
 62
     7
370
    30
100
AcDbLine
 10
189.1356498056
 20
198.4764711597
 30
0.0
 11
190.785647934
 21
196.8264711686
 31
0.0
  0
LINE
  5
1EB
330
1F
100
AcDbEntity
  8
0
  6
Continuous
 62
     7
370
    30
100
AcDbLine
 10
189.1356498056
 20
203.9764729925
 30
0.0
 11
189.1356498056
 21
198.4764711597
 31
0.0
  0
LINE
  5
1EC
330
1F
100
AcDbEntity
  8
0
  6
Continuous
 62
     7
370
    30
100
AcDbLine
 10
187.0856486314
 20
206.0264704414
 30
0.0
 11
189.1356498056
 21
203.9764729925
 31
0.0
  0
LINE
  5
1ED
330
1F
100
AcDbEntity
  8
0
  6
Continuous
 62
     7
370
    30
100
AcDbLine
 10
187.0856486314
 20
227.9764694758
 30
0.0
 11
187.0856486314
 21
206.0264704414
 31
0.0
  0
LINE
  5
1EE
330
1F
100
AcDbEntity
  8
0
  6
Continuous
 62
     7
370
    30
100
AcDbLine
 10
185.635646438
 20
227.9764694758
 30
0.0
 11
187.0856486314
 21
227.9764694758
 31
0.0
  0
LINE
  5
1EF
330
1F
100
AcDbEntity
  8
0
  6
Continuous
 62
     7
370
    30
100
AcDbLine
 10
185.635646438
 20
233.5764748641
 30
0.0
 11
185.635646438
 21
227.9764694758
 31
0.0
  0
LINE
  5
1F0
330
1F
100
AcDbEntity
  8
0
  6
Continuous
 62
     7
370
    30
100
AcDbLine
 10
188.3856482857
 20
237.0764745065
 30
0.0
 11
188.3856482857
 21
233.5764748641
 31
0.0
  0
LINE
  5
1F1
330
1F
100
AcDbEntity
  8
0
  6
Continuous
 62
     7
370
    30
100
AcDbLine
 10
190.3856486135
 20
237.0764745065
 30
0.0
 11
188.3856482857
 21
237.0764745065
 31
0.0
  0
LINE
  5
1F2
330
1F
100
AcDbEntity
  8
0
  6
Continuous
 62
     7
370
    30
100
AcDbLine
 10
190.3856486135
 20
245.4764676877
 30
0.0
 11
190.3856486135
 21
237.0764745065
 31
0.0
  0
LINE
  5
1F3
330
1F
100
AcDbEntity
  8
0
  6
Continuous
 62
     7
370
    30
100
AcDbLine
 10
189.1356498056
 20
245.4764676877
 30
0.0
 11
190.3856486135
 21
245.4764676877
 31
0.0
  0
LINE
  5
1F4
330
1F
100
AcDbEntity
  8
0
  6
Continuous
 62
     7
370
    30
100
AcDbLine
 10
189.1356498056
 20
247.0764724203
 30
0.0
 11
189.1356498056
 21
245.4764676877
 31
0.0
  0
LINE
  5
1F5
330
1F
100
AcDbEntity
  8
0
  6
Continuous
 62
     7
370
    30
100
AcDbLine
 10
190.3856486135
 20
247.0764724203
 30
0.0
 11
189.1356498056
 21
247.0764724203
 31
0.0
  0
LINE
  5
1F6
330
1F
100
AcDbEntity
  8
0
  6
Continuous
 62
     7
370
    30
100
AcDbLine
 10
190.3856486135
 20
254.076471705
 30
0.0
 11
190.3856486135
 21
247.0764724203
 31
0.0
  0
LINE
  5
1F7
330
1F
100
AcDbEntity
  8
0
  6
Continuous
 62
     7
370
    30
100
AcDbLine
 10
196.385649597
 20
254.076471705
 30
0.0
 11
190.3856486135
 21
254.076471705
 31
0.0
  0
LINE
  5
1F8
330
1F
100
AcDbEntity
  8
0
  6
Continuous
 62
     7
370
    30
100
AcDbLine
 10
196.385649597
 20
247.0764724203
 30
0.0
 11
196.385649597
 21
254.076471705
 31
0.0
  0
LINE
  5
1F9
330
1F
100
AcDbEntity
  8
0
  6
Continuous
 62
     7
370
    30
100
AcDbLine
 10
197.6356484049
 20
247.0764724203
 30
0.0
 11
196.385649597
 21
247.0764724203
 31
0.0
  0
LINE
  5
1FA
330
1F
100
AcDbEntity
  8
0
  6
Continuous
 62
     7
370
    30
100
AcDbLine
 10
197.6356484049
 20
245.4764676877
 30
0.0
 11
197.6356484049
 21
247.0764724203
 31
0.0
  0
LINE
  5
1FB
330
1F
100
AcDbEntity
  8
0
  6
Continuous
 62
     7
370
    30
100
AcDbLine
 10
196.385649597
 20
245.4764676877
 30
0.0
 11
197.6356484049
 21
245.4764676877
 31
0.0
  0
LINE
  5
1FC
330
1F
100
AcDbEntity
  8
0
  6
Continuous
 62
     7
370
    30
100
AcDbLine
 10
196.385649597
 20
237.0764745065
 30
0.0
 11
196.385649597
 21
245.4764676877
 31
0.0
  0
LINE
  5
1FD
330
1F
100
AcDbEntity
  8
0
  6
Continuous
 62
     7
370
    30
100
AcDbLine
 10
198.3856499248
 20
237.0764745065
 30
0.0
 11
196.385649597
 21
237.0764745065
 31
0.0
  0
LINE
  5
1FE
330
1F
100
AcDbEntity
  8
0
  6
Continuous
 62
     7
370
    30
100
AcDbLine
 10
198.3856499248
 20
233.5764748641
 30
0.0
 11
198.3856499248
 21
237.0764745065
 31
0.0
  0
LINE
  5
1FF
330
1F
100
AcDbEntity
  8
0
  6
Continuous
 62
     7
370
    30
100
AcDbLine
 10
201.1356480473
 20
227.9764694758
 30
0.0
 11
201.1356480473
 21
233.5764748641
 31
0.0
  0
LINE
  5
200
330
1F
100
AcDbEntity
  8
0
  6
Continuous
 62
     7
370
    30
100
AcDbLine
 10
199.6856458538
 20
227.9764694758
 30
0.0
 11
201.1356480473
 21
227.9764694758
 31
0.0
  0
LINE
  5
201
330
1F
100
AcDbEntity
  8
0
  6
Continuous
 62
     7
370
    30
100
AcDbLine
 10
199.6856458538
 20
206.0264704414
 30
0.0
 11
199.6856458538
 21
227.9764694758
 31
0.0
  0
LINE
  5
202
330
1F
100
AcDbEntity
  8
0
  6
Continuous
 62
     7
370
    30
100
AcDbLine
 10
197.6356484049
 20
203.9764729925
 30
0.0
 11
199.6856458538
 21
206.0264704414
 31
0.0
  0
LINE
  5
203
330
1F
100
AcDbEntity
  8
0
  6
Continuous
 62
     7
370
    30
100
AcDbLine
 10
197.6356484049
 20
198.4764711597
 30
0.0
 11
197.6356484049
 21
203.9764729925
 31
0.0
  0
LINE
  5
204
330
1F
100
AcDbEntity
  8
0
  6
Continuous
 62
     7
370
    30
100
AcDbLine
 10
195.9856465512
 20
196.8264711686
 30
0.0
 11
197.6356484049
 21
198.4764711597
 31
0.0
  0
LINE
  5
205
330
1F
100
AcDbEntity
  8
0
  6
Continuous
 62
     7
370
    30
100
AcDbLine
 10
195.9856465512
 20
179.5764716007
 30
0.0
 11
195.9856465512
 21
196.8264711686
 31
0.0
  0
LINE
  5
206
330
1F
100
AcDbEntity
  8
0
  6
Continuous
 62
     7
370
    30
100
AcDbLine
 10
190.785647934
 20
179.5764716007
 30
0.0
 11
195.9856465512
 21
179.5764716007
 31
0.0
  0
LINE
  5
207
330
1F
100
AcDbEntity
  8
0
  6
Continuous
 62
     7
370
    30
100
AcDbLine
 10
190.785647934
 20
196.8264711686
 30
0.0
 11
190.785647934
 21
179.5764716007
 31
0.0
  0
LINE
  5
208
330
1F
100
AcDbEntity
  8
0
  6
Continuous
 62
     7
370
    30
100
AcDbLine
 10
188.3856482857
 20
233.5764748641
 30
0.0
 11
185.635646438
 21
233.5764748641
 31
0.0
  0
LINE
  5
209
330
1F
100
AcDbEntity
  8
0
  6
Continuous
 62
     7
370
    30
100
AcDbLine
 10
201.1356480473
 20
233.5764748641
 30
0.0
 11
198.3856499248
 21
233.5764748641
 31
0.0
  0
LINE
  5
20A
330
1F
100
AcDbEntity
  8
0
  6
Continuous
 62
     7
370
    30
100
AcDbLine
 10
182.485648995
 20
241.9764680453
 30
0.0
 11
182.485648995
 21
240.7764700838
 31
0.0
  0
LINE
  5
20B
330
1F
100
AcDbEntity
  8
0
  6
Continuous
 62
     7
370
    30
100
AcDbLine
 10
184.8856486433
 20
240.7764700838
 30
0.0
 11
184.8856486433
 21
241.9764680453
 31
0.0
  0
LINE
  5
20C
330
1F
100
AcDbEntity
  8
0
  6
Continuous
 62
     7
370
    30
100
AcDbLine
 10
184.8856486433
 20
241.9764680453
 30
0.0
 11
182.485648995
 21
241.9764680453
 31
0.0
  0
LINE
  5
20D
330
1F
100
AcDbEntity
  8
0
  6
Continuous
 62
     7
370
    30
100
AcDbLine
 10
184.8856486433
 20
240.7764700838
 30
0.0
 11
182.485648995
 21
240.7764700838
 31
0.0
  0
LINE
  5
20E
330
1F
100
AcDbEntity
  8
0
  6
Continuous
 62
     7
370
    30
100
AcDbLine
 10
205.782016372
 20
240.7764700838
 30
0.0
 11
205.782016372
 21
241.9764680453
 31
0.0
  0
LINE
  5
20F
330
1F
100
AcDbEntity
  8
0
  6
Continuous
 62
     7
370
    30
100
AcDbLine
 10
201.8856458419
 20
240.7764700838
 30
0.0
 11
205.782016372
 21
240.7764700838
 31
0.0
  0
LINE
  5
210
330
1F
100
AcDbEntity
  8
0
  6
Continuous
 62
     7
370
    30
100
AcDbLine
 10
173.3856476897
 20
266.221469421
 30
0.0
 11
173.6425697857
 21
265.7764685937
 31
0.0
  0
LINE
  5
211
330
1F
100
AcDbEntity
  8
0
  6
Continuous
 62
     7
370
    30
100
AcDbLine
 10
173.3856476897
 20
267.0264748522
 30
0.0
 11
173.3856476897
 21
266.221469421
 31
0.0
  0
LINE
  5
212
330
1F
100
AcDbEntity
  8
0
  6
Continuous
 62
     7
370
    30
100
AcDbLine
 10
176.385650044
 20
267.0264748522
 30
0.0
 11
173.3856476897
 21
267.0264748522
 31
0.0
  0
LINE
  5
213
330
1F
100
AcDbEntity
  8
0
  6
Continuous
 62
     7
370
    30
100
AcDbLine
 10
176.385650044
 20
267.0264748522
 30
0.0
 11
176.385650044
 21
269.526472468
 31
0.0
  0
LINE
  5
214
330
1F
100
AcDbEntity
  8
0
  6
Continuous
 62
     7
370
    30
100
AcDbLine
 10
176.385650044
 20
269.526472468
 30
0.0
 11
173.3856476897
 21
269.526472468
 31
0.0
  0
LINE
  5
215
330
1F
100
AcDbEntity
  8
0
  6
Continuous
 62
     7
370
    30
100
AcDbLine
 10
173.3856476897
 20
270.3314704486
 30
0.0
 11
173.3856476897
 21
269.526472468
 31
0.0
  0
LINE
  5
216
330
1F
100
AcDbEntity
  8
0
  6
Continuous
 62
     7
370
    30
100
AcDbLine
 10
173.6425697857
 20
270.7764712759
 30
0.0
 11
173.3856476897
 21
270.3314704486
 31
0.0
  0
LINE
  5
217
330
1F
100
AcDbEntity
  8
0
  6
Continuous
 62
     7
370
    30
100
AcDbLine
 10
176.885647332
 20
270.7764712759
 30
0.0
 11
173.6425697857
 21
270.7764712759
 31
0.0
  0
LINE
  5
218
330
1F
100
AcDbEntity
  8
0
  6
Continuous
 62
     7
370
    30
100
AcDbLine
 10
179.3856486731
 20
268.2764736601
 30
0.0
 11
176.885647332
 21
270.7764712759
 31
0.0
  0
LINE
  5
219
330
1F
100
AcDbEntity
  8
0
  6
Continuous
 62
     7
370
    30
100
AcDbLine
 10
176.885647332
 20
265.7764685937
 30
0.0
 11
179.3856486731
 21
268.2764736601
 31
0.0
  0
LINE
  5
21A
330
1F
100
AcDbEntity
  8
0
  6
Continuous
 62
     7
370
    30
100
AcDbLine
 10
173.6425697857
 20
265.7764685937
 30
0.0
 11
176.885647332
 21
265.7764685937
 31
0.0
  0
LINE
  5
21B
330
1F
100
AcDbEntity
  8
0
  6
Continuous
 62
     7
370
    30
100
AcDbLine
 10
176.385650044
 20
268.2764736601
 30
0.0
 11
173.3856476897
 21
268.2764736601
 31
0.0
  0
LINE
  5
21C
330
1F
100
AcDbEntity
  8
0
  6
Continuous
 62
     7
370
    30
100
AcDbLine
 10
173.3856476897
 20
267.0264748522
 30
0.0
 11
173.3856476897
 21
268.2764736601
 31
0.0
  0
LINE
  5
21D
330
1F
100
AcDbEntity
  8
0
  6
Continuous
 62
     7
370
    30
100
AcDbLine
 10
173.3856476897
 20
269.526472468
 30
0.0
 11
173.3856476897
 21
268.2764736601
 31
0.0
  0
LINE
  5
21E
330
1F
100
AcDbEntity
  8
0
  6
Continuous
 62
     7
370
    30
100
AcDbLine
 10
202.09697411
 20
239.2764744945
 30
0.0
 11
202.3856468552
 21
239.7764680572
 31
0.0
  0
LINE
  5
21F
330
1F
100
AcDbEntity
  8
0
  6
Continuous
 62
     7
370
    30
100
AcDbLine
 10
184.38564763
 20
239.7764680572
 30
0.0
 11
184.6743241006
 21
239.2764744945
 31
0.0
  0
LINE
  5
220
330
1F
100
AcDbEntity
  8
0
  6
Continuous
 62
     7
370
    30
100
AcDbLine
 10
190.2856469208
 20
250.7764679976
 30
0.0
 11
190.2856469208
 21
264.7764740177
 31
0.0
  0
LINE
  5
221
330
1F
100
AcDbEntity
  8
0
  6
Continuous
 62
     7
370
    30
100
AcDbLine
 10
189.708297705
 20
249.7764734216
 30
0.0
 11
190.2856469208
 21
250.7764679976
 31
0.0
  0
LINE
  5
222
330
1F
100
AcDbEntity
  8
0
  6
Continuous
 62
     7
370
    30
100
AcDbLine
 10
185.3856496566
 20
249.7764734216
 30
0.0
 11
189.708297705
 21
249.7764734216
 31
0.0
  0
LINE
  5
223
330
1F
100
AcDbEntity
  8
0
  6
Continuous
 62
     7
370
    30
100
AcDbLine
 10
185.3856496566
 20
239.7764680572
 30
0.0
 11
185.3856496566
 21
249.7764734216
 31
0.0
  0
LINE
  5
224
330
1F
100
AcDbEntity
  8
0
  6
Continuous
 62
     7
370
    30
100
AcDbLine
 10
184.8856486433
 20
239.2764744945
 30
0.0
 11
185.3856496566
 21
239.7764680572
 31
0.0
  0
LINE
  5
225
330
1F
100
AcDbEntity
  8
0
  6
Continuous
 62
     7
370
    30
100
AcDbLine
 10
184.6743241006
 20
239.2764744945
 30
0.0
 11
184.8856486433
 21
239.2764744945
 31
0.0
  0
LINE
  5
226
330
1F
100
AcDbEntity
  8
0
  6
Continuous
 62
     7
370
    30
100
AcDbLine
 10
184.38564763
 20
240.4764724561
 30
0.0
 11
184.38564763
 21
239.7764680572
 31
0.0
  0
LINE
  5
227
330
1F
100
AcDbEntity
  8
0
  6
Continuous
 62
     7
370
    30
100
AcDbLine
 10
184.38564763
 20
240.4764724561
 30
0.0
 11
184.8856486433
 21
240.4764724561
 31
0.0
  0
LINE
  5
228
330
1F
100
AcDbEntity
  8
0
  6
Continuous
 62
     7
370
    30
100
AcDbLine
 10
184.8856486433
 20
240.4764724561
 30
0.0
 11
184.8856486433
 21
241.9764680453
 31
0.0
  0
LINE
  5
229
330
1F
100
AcDbEntity
  8
0
  6
Continuous
 62
     7
370
    30
100
AcDbLine
 10
184.8856486433
 20
241.9764680453
 30
0.0
 11
184.38564763
 21
241.9764680453
 31
0.0
  0
LINE
  5
22A
330
1F
100
AcDbEntity
  8
0
  6
Continuous
 62
     7
370
    30
100
AcDbLine
 10
184.38564763
 20
264.2764730044
 30
0.0
 11
184.38564763
 21
241.9764680453
 31
0.0
  0
LINE
  5
22B
330
1F
100
AcDbEntity
  8
0
  6
Continuous
 62
     7
370
    30
100
AcDbLine
 10
184.6743241006
 20
264.7764740177
 30
0.0
 11
184.38564763
 21
264.2764730044
 31
0.0
  0
LINE
  5
22C
330
1F
100
AcDbEntity
  8
0
  6
Continuous
 62
     7
370
    30
100
AcDbLine
 10
190.2856469208
 20
264.7764740177
 30
0.0
 11
184.6743241006
 21
264.7764740177
 31
0.0
  0
LINE
  5
22D
330
1F
100
AcDbEntity
  8
0
  6
Continuous
 62
     7
370
    30
100
AcDbLine
 10
202.3856468552
 20
241.9764680453
 30
0.0
 11
202.3856468552
 21
264.2764730044
 31
0.0
  0
LINE
  5
22E
330
1F
100
AcDbEntity
  8
0
  6
Continuous
 62
     7
370
    30
100
AcDbLine
 10
202.3856468552
 20
239.7764680572
 30
0.0
 11
202.3856468552
 21
240.4764724561
 31
0.0
  0
LINE
  5
22F
330
1F
100
AcDbEntity
  8
0
  6
Continuous
 62
     7
370
    30
100
AcDbLine
 10
202.3856468552
 20
264.2764730044
 30
0.0
 11
202.09697411
 21
264.7764740177
 31
0.0
  0
LINE
  5
230
330
1F
100
AcDbEntity
  8
0
  6
Continuous
 62
     7
370
    30
100
AcDbLine
 10
201.8856458419
 20
241.9764680453
 30
0.0
 11
201.8856458419
 21
240.4764724561
 31
0.0
  0
LINE
  5
231
330
1F
100
AcDbEntity
  8
0
  6
Continuous
 62
     7
370
    30
100
AcDbLine
 10
185.3856496566
 20
239.7764680572
 30
0.0
 11
190.3856486135
 21
239.7764680572
 31
0.0
  0
LINE
  5
232
330
1F
100
AcDbEntity
  8
0
  6
Continuous
 62
     7
370
    30
100
AcDbLine
 10
196.385649597
 20
239.7764680572
 30
0.0
 11
201.3856448286
 21
239.7764680572
 31
0.0
  0
LINE
  5
233
330
1F
100
AcDbEntity
  8
0
  6
Continuous
 62
     7
370
    30
100
AcDbLine
 10
201.3856448286
 20
239.7764680572
 30
0.0
 11
201.8856458419
 21
239.2764744945
 31
0.0
  0
LINE
  5
234
330
1F
100
AcDbEntity
  8
0
  6
Continuous
 62
     7
370
    30
100
AcDbLine
 10
201.8856458419
 20
239.2764744945
 30
0.0
 11
196.385649597
 21
239.2764744945
 31
0.0
  0
LINE
  5
235
330
1F
100
AcDbEntity
  8
0
  6
Continuous
 62
     7
370
    30
100
AcDbLine
 10
190.3856486135
 20
239.2764744945
 30
0.0
 11
184.8856486433
 21
239.2764744945
 31
0.0
  0
LINE
  5
236
330
1F
100
AcDbEntity
  8
0
  6
Continuous
 62
     7
370
    30
100
AcDbLine
 10
201.3856448286
 20
249.7764734216
 30
0.0
 11
201.3856448286
 21
239.7764680572
 31
0.0
  0
LINE
  5
237
330
1F
100
AcDbEntity
  8
0
  6
Continuous
 62
     7
370
    30
100
AcDbLine
 10
190.2856469208
 20
250.7764679976
 30
0.0
 11
190.3856486135
 21
250.7764679976
 31
0.0
  0
LINE
  5
238
330
1F
100
AcDbEntity
  8
0
  6
Continuous
 62
     7
370
    30
100
AcDbLine
 10
196.385649597
 20
250.7764679976
 30
0.0
 11
196.4856475645
 21
250.7764679976
 31
0.0
  0
LINE
  5
239
330
1F
100
AcDbEntity
  8
0
  6
Continuous
 62
     7
370
    30
100
AcDbLine
 10
196.4856475645
 20
250.7764679976
 30
0.0
 11
197.0629967802
 21
249.7764734216
 31
0.0
  0
LINE
  5
23A
330
1F
100
AcDbEntity
  8
0
  6
Continuous
 62
     7
370
    30
100
AcDbLine
 10
197.0629967802
 20
249.7764734216
 30
0.0
 11
196.385649597
 21
249.7764734216
 31
0.0
  0
LINE
  5
23B
330
1F
100
AcDbEntity
  8
0
  6
Continuous
 62
     7
370
    30
100
AcDbLine
 10
190.3856486135
 20
249.7764734216
 30
0.0
 11
189.708297705
 21
249.7764734216
 31
0.0
  0
LINE
  5
23C
330
1F
100
AcDbEntity
  8
0
  6
Continuous
 62
     7
370
    30
100
AcDbLine
 10
196.4856475645
 20
264.7764740177
 30
0.0
 11
196.4856475645
 21
250.7764679976
 31
0.0
  0
LINE
  5
23D
330
1F
100
AcDbEntity
  8
0
  6
Continuous
 62
     7
370
    30
100
AcDbLine
 10
197.0629967802
 20
249.7764734216
 30
0.0
 11
201.3856448286
 21
249.7764734216
 31
0.0
  0
LINE
  5
23E
330
1F
100
AcDbEntity
  8
0
  6
Continuous
 62
     7
370
    30
100
AcDbLine
 10
201.8856458419
 20
239.2764744945
 30
0.0
 11
202.09697411
 21
239.2764744945
 31
0.0
  0
LINE
  5
23F
330
1F
100
AcDbEntity
  8
0
  6
Continuous
 62
     7
370
    30
100
AcDbLine
 10
202.09697411
 20
264.7764740177
 30
0.0
 11
196.4856475645
 21
264.7764740177
 31
0.0
  0
LINE
  5
240
330
1F
100
AcDbEntity
  8
0
  6
Continuous
 62
     7
370
    30
100
AcDbLine
 10
201.8856458419
 20
240.4764724561
 30
0.0
 11
202.3856468552
 21
240.4764724561
 31
0.0
  0
LINE
  5
241
330
1F
100
AcDbEntity
  8
0
  6
Continuous
 62
     7
370
    30
100
AcDbLine
 10
202.3856468552
 20
241.9764680453
 30
0.0
 11
201.8856458419
 21
241.9764680453
 31
0.0
  0
LINE
  5
242
330
1F
100
AcDbEntity
  8
0
  6
Continuous
 62
     7
370
    30
100
AcDbLine
 10
255.3856499546
 20
270.0764743276
 30
0.0
 11
181.5659046226
 21
270.0764743276
 31
0.0
  0
LINE
  5
243
330
1F
100
AcDbEntity
  8
0
  6
Continuous
 62
     7
370
    30
100
AcDbLine
 10
255.3856499546
 20
270.0764743276
 30
0.0
 11
255.3856499546
 21
267.2308889814
 31
0.0
  0
SPLINE
  5
244
330
1F
100
AcDbEntity
  8
0
  6
Continuous
 62
     7
370
    30
100
AcDbSpline
210
0.0
220
0.0
230
1.0
 70
     8
 71
     3
 72
    15
 73
    11
 74
     0
 42
0.00000001
 43
0.00000001
 40
0.0
 40
0.0
 40
0.0
 40
0.0
 40
0.1070298593667897
 40
0.2161313439354753
 40
0.3363223354778828
 40
0.4571224114042548
 40
0.5980897405969
 40
0.7418043437051582
 40
0.9095410661617989
 40
1.0
 40
1.0
 40
1.0
 40
1.0
 10
255.3856499546289
 20
267.2308889814153
 30
0.0
 10
255.2814912672471
 20
267.2472845875564
 30
0.0
 10
255.0711578404859
 20
267.280393146335
 30
0.0
 10
254.7364742039376
 20
267.2876739227079
 30
0.0
 10
254.3918929777732
 20
267.2232842299932
 30
0.0
 10
254.0728385557094
 20
267.0504718173185
 30
0.0
 10
253.8327949393819
 20
266.8240697028334
 30
0.0
 10
253.6587619592619
 20
266.6105013569304
 30
0.0
 10
253.5751296767488
 20
266.4919408488427
 30
0.0
 10
253.567128826076
 20
266.4804861500243
 30
0.0
 10
253.5643257253886
 20
266.4764729924932
 30
0.0
  0
LINE
  5
245
330
1F
100
AcDbEntity
  8
0
  6
Continuous
 62
     7
370
    30
100
AcDbLine
 10
195.3856475704
 20
266.4764729925
 30
0.0
 11
253.5643257254
 21
266.4764729925
 31
0.0
  0
SPLINE
  5
246
330
1F
100
AcDbEntity
  8
0
  6
Continuous
 62
     7
370
    30
100
AcDbSpline
210
0.0
220
0.0
230
1.0
 70
     8
 71
     3
 72
    15
 73
    11
 74
     0
 42
0.00000001
 43
0.00000001
 40
0.0
 40
0.0
 40
0.0
 40
0.0
 40
0.1047591875111635
 40
0.2608302244111921
 40
0.3929888594018839
 40
0.5289314624901386
 40
0.6290617535292643
 40
0.7316800617731773
 40
0.8939723567257172
 40
1.0
 40
1.0
 40
1.0
 40
1.0
 10
194.2574285023927
 20
268.2764736600652
 30
0.0
 10
194.2703540049757
 20
268.1688113229601
 30
0.0
 10
194.3025360199325
 20
267.9007528145379
 30
0.0
 10
194.5087840372547
 20
267.5576654477542
 30
0.0
 10
194.7381567249903
 20
267.2361464080192
 30
0.0
 10
194.9381377625282
 20
266.9902318532747
 30
0.0
 10
195.1039059802249
 20
266.795005502097
 30
0.0
 10
195.255932116425
 20
266.6211547383611
 30
0.0
 10
195.3668009303844
 20
266.4973838752037
 30
0.0
 10
195.3803095772844
 20
266.4823956475927
 30
0.0
 10
195.3856475704432
 20
266.4764729924932
 30
0.0
  0
LINE
  5
247
330
1F
100
AcDbEntity
  8
0
  6
Continuous
 62
     7
370
    30
100
AcDbLine
 10
192.5138697081
 20
268.2764736601
 30
0.0
 11
194.2574285024
 21
268.2764736601
 31
0.0
  0
SPLINE
  5
248
330
1F
100
AcDbEntity
  8
0
  6
Continuous
 62
     7
370
    30
100
AcDbSpline
210
0.0
220
0.0
230
1.0
 70
     8
 71
     3
 72
    16
 73
    12
 74
     0
 42
0.00000001
 43
0.00000001
 40
0.0
 40
0.0
 40
0.0
 40
0.0
 40
0.0576281346950577
 40
0.204919814985876
 40
0.3604848708565638
 40
0.4780048315766861
 40
0.5988826747723611
 40
0.7193268358952235
 40
0.8429972112351177
 40
0.9501302022751386
 40
0.9999999999999999
 40
0.9999999999999999
 40
0.9999999999999999
 40
0.9999999999999999
 10
191.385646914792
 20
266.4764729924932
 30
0.0
 10
191.3872538893976
 20
266.4782567317875
 30
0.0
 10
191.3929681284683
 20
266.4845995282028
 30
0.0
 10
191.4706278972613
 20
266.5709594640162
 30
0.0
 10
191.6346346726985
 20
266.7566326438485
 30
0.0
 10
191.8279085229287
 20
266.9835762232827
 30
0.0
 10
192.0213396715635
 20
267.2229799152544
 30
0.0
 10
192.2225050204334
 20
267.496700386405
 30
0.0
 10
192.3998433033056
 20
267.7918260611256
 30
0.0
 10
192.5022206797873
 20
268.0637343998655
 30
0.0
 10
192.5110615318677
 20
268.2251896110072
 30
0.0
 10
192.5138697081327
 20
268.2764736600652
 30
0.0
  0
LINE
  5
249
330
1F
100
AcDbEntity
  8
0
  6
Continuous
 62
     7
370
    30
100
AcDbLine
 10
181.5659046226
 20
266.4764729925
 30
0.0
 11
191.3856469148
 21
266.4764729925
 31
0.0
  0
LINE
  5
24A
330
1F
100
AcDbEntity
  8
0
  6
Continuous
 62
     7
370
    30
100
AcDbLine
 10
181.5659046226
 20
270.0764743276
 30
0.0
 11
181.5659046226
 21
266.4764729925
 31
0.0
  0
LINE
  5
24B
330
1F
100
AcDbEntity
  8
0
  6
Continuous
 62
     7
370
    30
100
AcDbLine
 10
191.3856469148
 20
266.4764729925
 30
0.0
 11
191.3856469148
 21
265.7764685937
 31
0.0
  0
LINE
  5
24C
330
1F
100
AcDbEntity
  8
0
  6
Continuous
 62
     7
370
    30
100
AcDbLine
 10
195.3856475704
 20
265.7764685937
 30
0.0
 11
195.3856475704
 21
266.4764729925
 31
0.0
  0
LINE
  5
24D
330
1F
100
AcDbEntity
  8
0
  6
Continuous
 62
     7
370
    30
100
AcDbLine
 10
191.3856469148
 20
265.7764685937
 30
0.0
 11
195.3856475704
 21
265.7764685937
 31
0.0
  0
LINE
  5
24E
330
1F
100
AcDbEntity
  8
0
  6
Continuous
 62
     7
370
    30
100
AcDbLine
 10
258.3856485837
 20
264.0764696189
 30
0.0
 11
258.3856485837
 21
265.8977938481
 31
0.0
  0
SPLINE
  5
24F
330
1F
100
AcDbEntity
  8
0
  6
Continuous
 62
     7
370
    30
100
AcDbSpline
210
0.0
220
0.0
230
1.0
 70
     8
 71
     3
 72
    12
 73
     8
 74
     0
 42
0.00000001
 43
0.00000001
 40
0.0
 40
0.0
 40
0.0
 40
0.0
 40
0.2145468256584635
 40
0.4291969796028823
 40
0.6411083118172807
 40
0.8513346638792164
 40
1.0
 40
1.0
 40
1.0
 40
1.0
 10
258.085650955987
 20
263.7764719911352
 30
0.0
 10
258.1192695112211
 20
263.7797596387537
 30
0.0
 10
258.1865228127827
 20
263.7863365173606
 30
0.0
 10
258.2762204216997
 20
263.8377691837708
 30
0.0
 10
258.3436487409666
 20
263.9131163321532
 30
0.0
 10
258.3801901957695
 20
263.9971727619802
 30
0.0
 10
258.3840498016331
 20
264.0532432751918
 30
0.0
 10
258.3856485837222
 20
264.0764696188703
 30
0.0
  0
LINE
  5
250
330
1F
100
AcDbEntity
  8
0
  6
Continuous
 62
     7
370
    30
100
AcDbLine
 10
258.085650956
 20
263.7764719911
 30
0.0
 11
256.2643267267
 21
263.7764719911
 31
0.0
  0
LINE
  5
251
330
1F
100
AcDbEntity
  8
0
  6
Continuous
 62
     7
370
    30
100
AcDbLine
 10
256.2643267267
 20
263.7764719911
 30
0.0
 11
253.5643257254
 21
266.4764729925
 31
0.0
  0
SPLINE
  5
252
330
1F
100
AcDbEntity
  8
0
  6
Continuous
 62
     7
370
    30
100
AcDbSpline
210
0.0
220
0.0
230
1.0
 70
     8
 71
     3
 72
    14
 73
    10
 74
     0
 42
0.00000001
 43
0.00000001
 40
0.0
 40
0.0
 40
0.0
 40
0.0
 40
0.072360427348259
 40
0.1822940892865019
 40
0.2949765017353774
 40
0.4883113119412312
 40
0.6824115166177938
 40
0.8647730199333229
 40
1.0
 40
1.0
 40
1.0
 40
1.0
 10
256.2944568746806
 20
267.9889855571523
 30
0.0
 10
256.2904565804101
 20
267.9907894792828
 30
0.0
 10
256.2803788344978
 20
267.9953340121714
 30
0.0
 10
256.2016146862725
 20
268.0238552374488
 30
0.0
 10
256.0679168849364
 20
268.0393863232277
 30
0.0
 10
255.8843772538893
 20
267.9824913563527
 30
0.0
 10
255.6829336898898
 20
267.7760195366254
 30
0.0
 10
255.5174336257446
 20
267.5069755059743
 30
0.0
 10
255.425005297601
 20
267.3133383453766
 30
0.0
 10
255.3856499546289
 20
267.2308889814153
 30
0.0
  0
LINE
  5
253
330
1F
100
AcDbEntity
  8
0
  6
Continuous
 62
     7
370
    30
100
AcDbLine
 10
256.2944568747
 20
267.9889855572
 30
0.0
 11
258.3856485837
 21
265.8977938481
 31
0.0
  0
LINE
  5
254
330
1F
100
AcDbEntity
  8
0
  6
Continuous
 62
     7
370
    30
100
AcDbLine
 10
256.4671985858
 20
268.2764736601
 30
0.0
 11
255.3856499546
 21
270.0764743276
 31
0.0
  0
LINE
  5
255
330
1F
100
AcDbEntity
  8
0
  6
Continuous
 62
     7
370
    30
100
AcDbLine
 10
256.2944568747
 20
267.9889855572
 30
0.0
 11
256.4671985858
 21
268.2764736601
 31
0.0
  0
LINE
  5
256
330
1F
100
AcDbEntity
  8
0
  6
Continuous
 62
     7
370
    30
100
AcDbLine
 10
181.5659046226
 20
270.0764743276
 30
0.0
 11
181.385649001
 21
270.3764719554
 31
0.0
  0
LINE
  5
257
330
1F
100
AcDbEntity
  8
0
  6
Continuous
 62
     7
370
    30
100
AcDbLine
 10
181.385649001
 20
270.3764719554
 30
0.0
 11
173.8856487029
 21
270.3764719554
 31
0.0
  0
LINE
  5
258
330
1F
100
AcDbEntity
  8
0
  6
Continuous
 62
     7
370
    30
100
AcDbLine
 10
173.3856476897
 20
270.8764729687
 30
0.0
 11
173.8856487029
 21
270.3764719554
 31
0.0
  0
LINE
  5
259
330
1F
100
AcDbEntity
  8
0
  6
Continuous
 62
     7
370
    30
100
AcDbLine
 10
173.3856476897
 20
270.8764729687
 30
0.0
 11
173.3856476897
 21
271.4764682241
 31
0.0
  0
ARC
  5
25A
330
1F
100
AcDbEntity
  8
0
  6
Continuous
 62
     7
370
    30
100
AcDbCircle
 10
173.6856482261
 20
271.4764711447
 30
0.0
 40
0.3000000000000398
100
AcDbArc
 50
90.0
 51
180.0
  0
LINE
  5
25B
330
1F
100
AcDbEntity
  8
0
  6
Continuous
 62
     7
370
    30
100
AcDbLine
 10
173.6856490427
 20
271.7764733024
 30
0.0
 11
258.085650956
 21
271.7764733024
 31
0.0
  0
ARC
  5
25C
330
1F
100
AcDbEntity
  8
0
  6
Continuous
 62
     7
370
    30
100
AcDbCircle
 10
258.0856482261
 20
271.4764711447
 30
0.0
 40
0.3000000000000682
100
AcDbArc
 50
0.0
 51
90.0
  0
LINE
  5
25D
330
1F
100
AcDbEntity
  8
0
  6
Continuous
 62
     7
370
    30
100
AcDbLine
 10
258.3856485837
 20
271.4764682241
 30
0.0
 11
258.3856485837
 21
265.8977938481
 31
0.0
  0
LINE
  5
25E
330
1F
100
AcDbEntity
  8
0
  6
Continuous
 62
     7
370
    30
100
AcDbLine
 10
173.3856476897
 20
265.6764743515
 30
0.0
 11
173.3856476897
 21
266.221469421
 31
0.0
  0
LINE
  5
25F
330
1F
100
AcDbEntity
  8
0
  6
Continuous
 62
     7
370
    30
100
AcDbLine
 10
173.3856476897
 20
270.3314704486
 30
0.0
 11
173.3856476897
 21
270.8764729687
 31
0.0
  0
LINE
  5
260
330
1F
100
AcDbEntity
  8
0
  6
Continuous
 62
     7
370
    30
100
AcDbLine
 10
173.8856487029
 20
266.1764679142
 30
0.0
 11
173.3856476897
 21
265.6764743515
 31
0.0
  0
LINE
  5
261
330
1F
100
AcDbEntity
  8
0
  6
Continuous
 62
     7
370
    30
100
AcDbLine
 10
173.6856490427
 20
263.7764719911
 30
0.0
 11
184.38564763
 21
263.7764719911
 31
0.0
  0
ARC
  5
262
330
1F
100
AcDbEntity
  8
0
  6
Continuous
 62
     7
370
    30
100
AcDbCircle
 10
173.6856482261
 20
264.0764711447
 30
0.0
 40
0.3000000000000398
100
AcDbArc
 50
180.0
 51
270.0
  0
LINE
  5
263
330
1F
100
AcDbEntity
  8
0
  6
Continuous
 62
     7
370
    30
100
AcDbLine
 10
173.8856487029
 20
266.1764679142
 30
0.0
 11
181.385649001
 21
266.1764679142
 31
0.0
  0
LINE
  5
264
330
1F
100
AcDbEntity
  8
0
  6
Continuous
 62
     7
370
    30
100
AcDbLine
 10
181.385649001
 20
266.1764679142
 30
0.0
 11
181.5659046226
 21
266.4764729925
 31
0.0
  0
LINE
  5
265
330
1F
100
AcDbEntity
  8
0
  6
Continuous
 62
     7
370
    30
100
AcDbLine
 10
191.3856469148
 20
265.7764685937
 30
0.0
 11
190.3856486135
 21
264.7764740177
 31
0.0
  0
LINE
  5
266
330
1F
100
AcDbEntity
  8
0
  6
Continuous
 62
     7
370
    30
100
AcDbLine
 10
184.38564763
 20
264.7764740177
 30
0.0
 11
190.3856486135
 21
264.7764740177
 31
0.0
  0
LINE
  5
267
330
1F
100
AcDbEntity
  8
0
  6
Continuous
 62
     7
370
    30
100
AcDbLine
 10
184.38564763
 20
264.7764740177
 30
0.0
 11
184.38564763
 21
263.7764719911
 31
0.0
  0
LINE
  5
268
330
1F
100
AcDbEntity
  8
0
  6
Continuous
 62
     7
370
    30
100
AcDbLine
 10
173.3856476897
 20
264.0764696189
 30
0.0
 11
173.3856476897
 21
265.6764743515
 31
0.0
  0
LINE
  5
269
330
1F
100
AcDbEntity
  8
0
  6
Continuous
 62
     7
370
    30
100
AcDbLine
 10
181.385649001
 20
270.3764719554
 30
0.0
 11
181.385649001
 21
266.1764679142
 31
0.0
  0
LINE
  5
26A
330
1F
100
AcDbEntity
  8
0
  6
Continuous
 62
     7
370
    30
100
AcDbLine
 10
202.3856468552
 20
263.7764719911
 30
0.0
 11
202.3856468552
 21
264.7764740177
 31
0.0
  0
LINE
  5
26B
330
1F
100
AcDbEntity
  8
0
  6
Continuous
 62
     7
370
    30
100
AcDbLine
 10
196.385649597
 20
264.7764740177
 30
0.0
 11
195.3856475704
 21
265.7764685937
 31
0.0
  0
LINE
  5
26C
330
1F
100
AcDbEntity
  8
0
  6
Continuous
 62
     7
370
    30
100
AcDbLine
 10
190.3856486135
 20
264.7764740177
 30
0.0
 11
196.385649597
 21
264.7764740177
 31
0.0
  0
LINE
  5
26D
330
1F
100
AcDbEntity
  8
0
  6
Continuous
 62
     7
370
    30
100
AcDbLine
 10
196.385649597
 20
264.7764740177
 30
0.0
 11
202.3856468552
 21
264.7764740177
 31
0.0
  0
LINE
  5
26E
330
1F
100
AcDbEntity
  8
0
  6
Continuous
 62
     7
370
    30
100
AcDbLine
 10
202.3856468552
 20
263.7764719911
 30
0.0
 11
256.2643267267
 21
263.7764719911
 31
0.0
  0
LINE
  5
26F
330
1F
100
AcDbEntity
  8
0
  6
Continuous
 62
     7
370
    30
100
AcDbLine
 10
161.8856485986
 20
243.9764720984
 30
0.0
 11
166.4350438916
 21
243.9764720984
 31
0.0
  0
ARC
  5
270
330
1F
100
AcDbEntity
  8
0
  6
Continuous
 62
     7
370
    30
100
AcDbCircle
 10
166.4350433472
 20
241.9764711447
 30
0.0
 40
2.0
100
AcDbArc
 50
4.5
 51
90.0
  0
LINE
  5
271
330
1F
100
AcDbEntity
  8
0
  6
Continuous
 62
     7
370
    30
100
AcDbLine
 10
168.4288770014
 20
242.1333921738
 30
0.0
 11
169.3131230825
 21
230.8980134912
 31
0.0
  0
ARC
  5
272
330
1F
100
AcDbEntity
  8
0
  6
Continuous
 62
     7
370
    30
100
AcDbCircle
 10
170.3100387178
 20
230.9764711447
 30
0.0
 40
1.0
100
AcDbArc
 50
184.5
 51
270.0
  0
LINE
  5
273
330
1F
100
AcDbEntity
  8
0
  6
Continuous
 62
     7
370
    30
100
AcDbLine
 10
170.3100405687
 20
229.9764698036
 30
0.0
 11
179.3856486731
 21
229.9764698036
 31
0.0
  0
LINE
  5
274
330
1F
100
AcDbEntity
  8
0
  6
Continuous
 62
     7
370
    30
100
AcDbLine
 10
179.3856486731
 20
229.9764698036
 30
0.0
 11
179.3856486731
 21
227.9764694758
 31
0.0
  0
LINE
  5
275
330
1F
100
AcDbEntity
  8
0
  6
Continuous
 62
     7
370
    30
100
AcDbLine
 10
168.8100375288
 20
227.9764694758
 30
0.0
 11
179.3856486731
 21
227.9764694758
 31
0.0
  0
ARC
  5
276
330
1F
100
AcDbEntity
  8
0
  6
Continuous
 62
     7
370
    30
100
AcDbCircle
 10
168.8100387178
 20
228.9764711447
 30
0.0
 40
1.0
100
AcDbArc
 50
184.5
 51
270.0
  0
LINE
  5
277
330
1F
100
AcDbEntity
  8
0
  6
Continuous
 62
     7
370
    30
100
AcDbLine
 10
166.8563518726
 20
241.054928083
 30
0.0
 11
167.8131219053
 21
228.8980131634
 31
0.0
  0
ARC
  5
278
330
1F
100
AcDbEntity
  8
0
  6
Continuous
 62
     7
370
    30
100
AcDbCircle
 10
165.8594338389
 20
240.9764711447
 30
0.0
 40
1.000000000000009
100
AcDbArc
 50
4.5
 51
90.0
  0
LINE
  5
279
330
1F
100
AcDbEntity
  8
0
  6
Continuous
 62
     7
370
    30
100
AcDbLine
 10
161.8856485986
 20
241.9764680453
 30
0.0
 11
165.8594343864
 21
241.9764680453
 31
0.0
  0
LINE
  5
27A
330
1F
100
AcDbEntity
  8
0
  6
Continuous
 62
     7
370
    30
100
AcDbLine
 10
161.8856485986
 20
243.9764720984
 30
0.0
 11
161.8856485986
 21
241.9764680453
 31
0.0
  0
LINE
  5
27B
330
1F
100
AcDbEntity
  8
0
  6
Continuous
 62
     7
370
    30
100
AcDbLine
 10
207.3856495374
 20
227.9764694758
 30
0.0
 11
207.3856495374
 21
229.9764698036
 31
0.0
  0
LINE
  5
27C
330
1F
100
AcDbEntity
  8
0
  6
Continuous
 62
     7
370
    30
100
AcDbLine
 10
207.3856495374
 20
229.9764698036
 30
0.0
 11
201.1356480473
 21
229.9764698036
 31
0.0
  0
LINE
  5
27D
330
1F
100
AcDbEntity
  8
0
  6
Continuous
 62
     7
370
    30
100
AcDbLine
 10
185.635646438
 20
229.9764698036
 30
0.0
 11
179.3856486731
 21
229.9764698036
 31
0.0
  0
LINE
  5
27E
330
1F
100
AcDbEntity
  8
0
  6
Continuous
 62
     7
370
    30
100
AcDbLine
 10
218.9581744426
 20
228.8980131634
 30
0.0
 11
219.9149482005
 21
241.054928083
 31
0.0
  0
ARC
  5
27F
330
1F
100
AcDbEntity
  8
0
  6
Continuous
 62
     7
370
    30
100
AcDbCircle
 10
217.9612577344
 20
228.9764711447
 30
0.0
 40
1.0
100
AcDbArc
 50
270.0
 51
355.5
  0
ARC
  5
280
330
1F
100
AcDbEntity
  8
0
  6
Continuous
 62
     7
370
    30
100
AcDbCircle
 10
216.4612577344
 20
230.9764711447
 30
0.0
 40
1.0
100
AcDbArc
 50
270.0
 51
355.5
  0
LINE
  5
281
330
1F
100
AcDbEntity
  8
0
  6
Continuous
 62
     7
370
    30
100
AcDbLine
 10
217.4581714028
 20
230.8980134912
 30
0.0
 11
218.3424212092
 21
242.1333921738
 31
0.0
  0
ARC
  5
282
330
1F
100
AcDbEntity
  8
0
  6
Continuous
 62
     7
370
    30
100
AcDbCircle
 10
220.336253105
 20
241.9764711447
 30
0.0
 40
2.000000000000019
100
AcDbArc
 50
90.0
 51
175.5
  0
LINE
  5
283
330
1F
100
AcDbEntity
  8
0
  6
Continuous
 62
     7
370
    30
100
AcDbLine
 10
224.8856477493
 20
241.9764680453
 30
0.0
 11
224.8856477493
 21
243.9764720984
 31
0.0
  0
ARC
  5
284
330
1F
100
AcDbEntity
  8
0
  6
Continuous
 62
     7
370
    30
100
AcDbCircle
 10
220.9118626133
 20
240.9764711447
 30
0.0
 40
1.000000000000009
100
AcDbArc
 50
90.0
 51
175.5
  0
LINE
  5
285
330
1F
100
AcDbEntity
  8
0
  6
Continuous
 62
     7
370
    30
100
AcDbLine
 10
207.3856495374
 20
229.9764698036
 30
0.0
 11
216.4612613672
 21
229.9764698036
 31
0.0
  0
LINE
  5
286
330
1F
100
AcDbEntity
  8
0
  6
Continuous
 62
     7
370
    30
100
AcDbLine
 10
207.3856495374
 20
227.9764694758
 30
0.0
 11
217.9612569564
 21
227.9764694758
 31
0.0
  0
LINE
  5
287
330
1F
100
AcDbEntity
  8
0
  6
Continuous
 62
     7
370
    30
100
AcDbLine
 10
220.3362561815
 20
243.9764720984
 30
0.0
 11
224.8856477493
 21
243.9764720984
 31
0.0
  0
LINE
  5
288
330
1F
100
AcDbEntity
  8
0
  6
Continuous
 62
     7
370
    30
100
AcDbLine
 10
220.9118656867
 20
241.9764680453
 30
0.0
 11
224.8856477493
 21
241.9764680453
 31
0.0
  0
LINE
  5
289
330
1F
100
AcDbEntity
  8
0
  6
Continuous
 62
     7
370
    30
100
AcDbLine
 10
166.4350438916
 20
243.9764720984
 30
0.0
 11
172.3856493884
 21
243.9764720984
 31
0.0
  0
LINE
  5
28A
330
1F
100
AcDbEntity
  8
0
  6
Continuous
 62
     7
370
    30
100
AcDbLine
 10
214.3856488221
 20
243.9764720984
 30
0.0
 11
220.3362561815
 21
243.9764720984
 31
0.0
  0
LINE
  5
28B
330
1F
100
AcDbEntity
  8
0
  6
Continuous
 62
     7
370
    30
100
AcDbLine
 10
172.3856493884
 20
243.9764720984
 30
0.0
 11
177.3856483453
 21
243.9764720984
 31
0.0
  0
LINE
  5
28C
330
1F
100
AcDbEntity
  8
0
  6
Continuous
 62
     7
370
    30
100
AcDbLine
 10
209.3856461399
 20
243.9764720984
 30
0.0
 11
214.3856488221
 21
243.9764720984
 31
0.0
  0
LINE
  5
28D
330
1F
100
AcDbEntity
  8
0
  6
Continuous
 62
     7
370
    30
100
AcDbLine
 10
180.3856469744
 20
251.9764734097
 30
0.0
 11
183.3856493288
 21
251.9764734097
 31
0.0
  0
LINE
  5
28E
330
1F
100
AcDbEntity
  8
0
  6
Continuous
 62
     7
370
    30
100
AcDbLine
 10
180.3856469744
 20
252.9764679857
 30
0.0
 11
180.3856469744
 21
251.9764734097
 31
0.0
  0
LINE
  5
28F
330
1F
100
AcDbEntity
  8
0
  6
Continuous
 62
     7
370
    30
100
AcDbLine
 10
184.38564763
 20
252.9764679857
 30
0.0
 11
180.3856469744
 21
252.9764679857
 31
0.0
  0
LINE
  5
290
330
1F
100
AcDbEntity
  8
0
  6
Continuous
 62
     7
370
    30
100
AcDbLine
 10
184.38564763
 20
241.9764680453
 30
0.0
 11
184.38564763
 21
252.9764679857
 31
0.0
  0
LINE
  5
291
330
1F
100
AcDbEntity
  8
0
  6
Continuous
 62
     7
370
    30
100
AcDbLine
 10
183.3856493288
 20
241.9764680453
 30
0.0
 11
184.38564763
 21
241.9764680453
 31
0.0
  0
LINE
  5
292
330
1F
100
AcDbEntity
  8
0
  6
Continuous
 62
     7
370
    30
100
AcDbLine
 10
183.3856493288
 20
251.9764734097
 30
0.0
 11
183.3856493288
 21
241.9764680453
 31
0.0
  0
LINE
  5
293
330
1F
100
AcDbEntity
  8
0
  6
Continuous
 62
     7
370
    30
100
AcDbLine
 10
206.3856475108
 20
251.9764734097
 30
0.0
 11
206.3856475108
 21
252.9764679857
 31
0.0
  0
LINE
  5
294
330
1F
100
AcDbEntity
  8
0
  6
Continuous
 62
     7
370
    30
100
AcDbLine
 10
203.3856488817
 20
241.9764680453
 30
0.0
 11
203.3856488817
 21
251.9764734097
 31
0.0
  0
LINE
  5
295
330
1F
100
AcDbEntity
  8
0
  6
Continuous
 62
     7
370
    30
100
AcDbLine
 10
202.3856468552
 20
252.9764679857
 30
0.0
 11
202.3856468552
 21
241.9764680453
 31
0.0
  0
LINE
  5
296
330
1F
100
AcDbEntity
  8
0
  6
Continuous
 62
     7
370
    30
100
AcDbLine
 10
202.3856468552
 20
241.9764680453
 30
0.0
 11
203.3856488817
 21
241.9764680453
 31
0.0
  0
LINE
  5
297
330
1F
100
AcDbEntity
  8
0
  6
Continuous
 62
     7
370
    30
100
AcDbLine
 10
203.3856488817
 20
251.9764734097
 30
0.0
 11
206.3856475108
 21
251.9764734097
 31
0.0
  0
LINE
  5
298
330
1F
100
AcDbEntity
  8
0
  6
Continuous
 62
     7
370
    30
100
AcDbLine
 10
206.3856475108
 20
252.9764679857
 30
0.0
 11
202.3856468552
 21
252.9764679857
 31
0.0
  0
ARC
  5
299
330
1F
100
AcDbEntity
  8
0
  6
Continuous
 62
     7
370
    30
100
AcDbCircle
 10
166.8856482261
 20
247.9764711447
 30
0.0
 40
2.0
100
AcDbArc
 50
90.0
 51
180.0
  0
LINE
  5
29A
330
1F
100
AcDbEntity
  8
0
  6
Continuous
 62
     7
370
    30
100
AcDbLine
 10
164.8856490904
 20
247.9764727541
 30
0.0
 11
164.8856490904
 21
243.9764720984
 31
0.0
  0
LINE
  5
29B
330
1F
100
AcDbEntity
  8
0
  6
Continuous
 62
     7
370
    30
100
AcDbLine
 10
161.8856485986
 20
243.9764720984
 30
0.0
 11
164.8856490904
 21
243.9764720984
 31
0.0
  0
LINE
  5
29C
330
1F
100
AcDbEntity
  8
0
  6
Continuous
 62
     7
370
    30
100
AcDbLine
 10
161.8856485986
 20
243.9764720984
 30
0.0
 11
161.8856485986
 21
230.2764711567
 31
0.0
  0
ARC
  5
29D
330
1F
100
AcDbEntity
  8
0
  6
Continuous
 62
     7
370
    30
100
AcDbCircle
 10
161.5856482261
 20
230.2764711447
 30
0.0
 40
0.2999999999999829
100
AcDbArc
 50
270.0
 51
0.0
  0
LINE
  5
29E
330
1F
100
AcDbEntity
  8
0
  6
Continuous
 62
     7
370
    30
100
AcDbLine
 10
160.1856477612
 20
229.9764698036
 30
0.0
 11
161.5856491082
 21
229.9764698036
 31
0.0
  0
ARC
  5
29F
330
1F
100
AcDbEntity
  8
0
  6
Continuous
 62
     7
370
    30
100
AcDbCircle
 10
160.1856482261
 20
230.2764711447
 30
0.0
 40
0.2999999999999829
100
AcDbArc
 50
180.0
 51
270.0
  0
LINE
  5
2A0
330
1F
100
AcDbEntity
  8
0
  6
Continuous
 62
     7
370
    30
100
AcDbLine
 10
159.8856482708
 20
230.2764711567
 30
0.0
 11
159.8856482708
 21
251.6764683314
 31
0.0
  0
ARC
  5
2A1
330
1F
100
AcDbEntity
  8
0
  6
Continuous
 62
     7
370
    30
100
AcDbCircle
 10
160.1856482261
 20
251.6764711447
 30
0.0
 40
0.2999999999999829
100
AcDbArc
 50
90.0
 51
180.0
  0
LINE
  5
2A2
330
1F
100
AcDbEntity
  8
0
  6
Continuous
 62
     7
370
    30
100
AcDbLine
 10
160.1856477612
 20
251.9764734097
 30
0.0
 11
183.0856479758
 21
251.9764734097
 31
0.0
  0
ARC
  5
2A3
330
1F
100
AcDbEntity
  8
0
  6
Continuous
 62
     7
370
    30
100
AcDbCircle
 10
183.0856482261
 20
251.6764711447
 30
0.0
 40
0.3000000000000114
100
AcDbArc
 50
0.0
 51
90.0
  0
LINE
  5
2A4
330
1F
100
AcDbEntity
  8
0
  6
Continuous
 62
     7
370
    30
100
AcDbLine
 10
183.3856493288
 20
241.9764680453
 30
0.0
 11
183.3856493288
 21
251.6764683314
 31
0.0
  0
LINE
  5
2A5
330
1F
100
AcDbEntity
  8
0
  6
Continuous
 62
     7
370
    30
100
AcDbLine
 10
180.3856469744
 20
241.9764680453
 30
0.0
 11
183.3856493288
 21
241.9764680453
 31
0.0
  0
ARC
  5
2A6
330
1F
100
AcDbEntity
  8
0
  6
Continuous
 62
     7
370
    30
100
AcDbCircle
 10
180.3856482261
 20
240.9764711447
 30
0.0
 40
1.0
100
AcDbArc
 50
90.0
 51
180.0
  0
LINE
  5
2A7
330
1F
100
AcDbEntity
  8
0
  6
Continuous
 62
     7
370
    30
100
AcDbLine
 10
179.3856486731
 20
229.9764698036
 30
0.0
 11
179.3856486731
 21
240.9764734693
 31
0.0
  0
LINE
  5
2A8
330
1F
100
AcDbEntity
  8
0
  6
Continuous
 62
     7
370
    30
100
AcDbLine
 10
177.3856483453
 20
229.9764698036
 30
0.0
 11
179.3856486731
 21
229.9764698036
 31
0.0
  0
LINE
  5
2A9
330
1F
100
AcDbEntity
  8
0
  6
Continuous
 62
     7
370
    30
100
AcDbLine
 10
177.3856483453
 20
247.9764727541
 30
0.0
 11
177.3856483453
 21
229.9764698036
 31
0.0
  0
ARC
  5
2AA
330
1F
100
AcDbEntity
  8
0
  6
Continuous
 62
     7
370
    30
100
AcDbCircle
 10
175.3856482261
 20
247.9764711447
 30
0.0
 40
2.0
100
AcDbArc
 50
0.0
 51
90.0
  0
LINE
  5
2AB
330
1F
100
AcDbEntity
  8
0
  6
Continuous
 62
     7
370
    30
100
AcDbLine
 10
175.3856480175
 20
249.9764693566
 30
0.0
 11
166.8856475555
 21
249.9764693566
 31
0.0
  0
LINE
  5
2AC
330
1F
100
AcDbEntity
  8
0
  6
Continuous
 62
     7
370
    30
100
AcDbLine
 10
207.3856495374
 20
240.9764734693
 30
0.0
 11
207.3856495374
 21
229.9764698036
 31
0.0
  0
ARC
  5
2AD
330
1F
100
AcDbEntity
  8
0
  6
Continuous
 62
     7
370
    30
100
AcDbCircle
 10
206.3856482261
 20
240.9764711447
 30
0.0
 40
1.0
100
AcDbArc
 50
0.0
 51
90.0
  0
LINE
  5
2AE
330
1F
100
AcDbEntity
  8
0
  6
Continuous
 62
     7
370
    30
100
AcDbLine
 10
203.3856488817
 20
251.6764683314
 30
0.0
 11
203.3856488817
 21
241.9764680453
 31
0.0
  0
ARC
  5
2AF
330
1F
100
AcDbEntity
  8
0
  6
Continuous
 62
     7
370
    30
100
AcDbCircle
 10
203.6856482261
 20
251.6764711447
 30
0.0
 40
0.2999999999999829
100
AcDbArc
 50
90.0
 51
180.0
  0
ARC
  5
2B0
330
1F
100
AcDbEntity
  8
0
  6
Continuous
 62
     7
370
    30
100
AcDbCircle
 10
211.3856482261
 20
247.9764711447
 30
0.0
 40
2.0
100
AcDbArc
 50
90.0
 51
180.0
  0
LINE
  5
2B1
330
1F
100
AcDbEntity
  8
0
  6
Continuous
 62
     7
370
    30
100
AcDbLine
 10
209.3856461399
 20
229.9764698036
 30
0.0
 11
209.3856461399
 21
247.9764727541
 31
0.0
  0
ARC
  5
2B2
330
1F
100
AcDbEntity
  8
0
  6
Continuous
 62
     7
370
    30
100
AcDbCircle
 10
226.5856482261
 20
251.6764711447
 30
0.0
 40
0.2999999999999545
100
AcDbArc
 50
0.0
 51
90.0
  0
LINE
  5
2B3
330
1F
100
AcDbEntity
  8
0
  6
Continuous
 62
     7
370
    30
100
AcDbLine
 10
226.8856518024
 20
251.6764683314
 30
0.0
 11
226.8856518024
 21
230.2764711567
 31
0.0
  0
ARC
  5
2B4
330
1F
100
AcDbEntity
  8
0
  6
Continuous
 62
     7
370
    30
100
AcDbCircle
 10
226.5856482261
 20
230.2764711447
 30
0.0
 40
0.2999999999999829
100
AcDbArc
 50
270.0
 51
0.0
  0
ARC
  5
2B5
330
1F
100
AcDbEntity
  8
0
  6
Continuous
 62
     7
370
    30
100
AcDbCircle
 10
225.1856482261
 20
230.2764711447
 30
0.0
 40
0.3000000000000114
100
AcDbArc
 50
180.0
 51
270.0
  0
LINE
  5
2B6
330
1F
100
AcDbEntity
  8
0
  6
Continuous
 62
     7
370
    30
100
AcDbLine
 10
224.8856477493
 20
230.2764711567
 30
0.0
 11
224.8856477493
 21
243.9764720984
 31
0.0
  0
LINE
  5
2B7
330
1F
100
AcDbEntity
  8
0
  6
Continuous
 62
     7
370
    30
100
AcDbLine
 10
221.8856491202
 20
243.9764720984
 30
0.0
 11
221.8856491202
 21
247.9764727541
 31
0.0
  0
ARC
  5
2B8
330
1F
100
AcDbEntity
  8
0
  6
Continuous
 62
     7
370
    30
100
AcDbCircle
 10
219.8856482261
 20
247.9764711447
 30
0.0
 40
2.0
100
AcDbArc
 50
0.0
 51
90.0
  0
LINE
  5
2B9
330
1F
100
AcDbEntity
  8
0
  6
Continuous
 62
     7
370
    30
100
AcDbLine
 10
203.3856488817
 20
241.9764680453
 30
0.0
 11
206.3856475108
 21
241.9764680453
 31
0.0
  0
LINE
  5
2BA
330
1F
100
AcDbEntity
  8
0
  6
Continuous
 62
     7
370
    30
100
AcDbLine
 10
207.3856495374
 20
229.9764698036
 30
0.0
 11
209.3856461399
 21
229.9764698036
 31
0.0
  0
LINE
  5
2BB
330
1F
100
AcDbEntity
  8
0
  6
Continuous
 62
     7
370
    30
100
AcDbLine
 10
219.885645067
 20
249.9764693566
 30
0.0
 11
211.385650193
 21
249.9764693566
 31
0.0
  0
LINE
  5
2BC
330
1F
100
AcDbEntity
  8
0
  6
Continuous
 62
     7
370
    30
100
AcDbLine
 10
221.8856491202
 20
243.9764720984
 30
0.0
 11
224.8856477493
 21
243.9764720984
 31
0.0
  0
LINE
  5
2BD
330
1F
100
AcDbEntity
  8
0
  6
Continuous
 62
     7
370
    30
100
AcDbLine
 10
225.185645377
 20
229.9764698036
 30
0.0
 11
226.5856467241
 21
229.9764698036
 31
0.0
  0
LINE
  5
2BE
330
1F
100
AcDbEntity
  8
0
  6
Continuous
 62
     7
370
    30
100
AcDbLine
 10
203.6856465095
 20
251.9764734097
 30
0.0
 11
226.5856467241
 21
251.9764734097
 31
0.0
  0
LINE
  5
2BF
330
1F
100
AcDbEntity
  8
0
  6
Continuous
 62
     7
370
    30
100
AcDbLine
 10
162.8106717073
 20
229.9764698036
 30
0.0
 11
161.5856491082
 21
229.9764698036
 31
0.0
  0
LINE
  5
2C0
330
1F
100
AcDbEntity
  8
0
  6
Continuous
 62
     7
370
    30
100
AcDbLine
 10
225.185645377
 20
229.9764698036
 30
0.0
 11
223.9606283658
 21
229.9764698036
 31
0.0
  0
SPLINE
  5
2C1
330
1F
100
AcDbEntity
  8
0
  6
Continuous
 62
     7
370
    30
100
AcDbSpline
210
0.0
220
0.0
230
1.0
 70
    24
 71
     3
 72
     9
 73
     5
 74
     0
 42
0.00000001
 43
0.00000001
 40
0.0
 40
0.0
 40
0.0
 40
0.0
 40
0.2982918540575331
 40
1.0
 40
1.0
 40
1.0
 40
1.0
 10
215.8965893142938
 20
155.4764715619817
 30
0.0
 10
215.9319754124535
 20
155.4764715619817
 30
0.0
 10
216.0506045257808
 20
155.4764715619818
 30
0.0
 10
216.061941806985
 20
155.4764715619817
 30
0.0
 10
216.0698972695589
 20
155.4764715619817
 30
0.0
  0
LINE
  5
2C2
330
1F
100
AcDbEntity
  8
0
  6
Continuous
 62
     7
370
    30
100
AcDbLine
 10
176.4000594669
 20
155.476471562
 30
0.0
 11
209.8747395032
 21
155.476471562
 31
0.0
  0
SPLINE
  5
2C3
330
1F
100
AcDbEntity
  8
0
  6
Continuous
 62
     7
370
    30
100
AcDbSpline
210
0.0
220
0.0
230
1.0
 70
     8
 71
     3
 72
    19
 73
    15
 74
     0
 42
0.00000001
 43
0.00000001
 40
0.0
 40
0.0
 40
0.0
 40
0.0
 40
0.0834508393777763
 40
0.1669247317162543
 40
0.2503966036660205
 40
0.3338912169647749
 40
0.4173839479750955
 40
0.5008427775276969
 40
0.5840217876576375
 40
0.6672340587498837
 40
0.7504482067074628
 40
0.8336384299030034
 40
0.9168306945294551
 40
1.0
 40
1.0
 40
1.0
 40
1.0
 10
216.0698972695589
 20
155.4764715619817
 30
0.0
 10
214.8064091014673
 20
155.4906581438327
 30
0.0
 10
212.2790837317296
 20
155.5190352265213
 30
0.0
 10
208.4917766117048
 20
155.702718816299
 30
0.0
 10
204.7080651710529
 20
155.9484045145794
 30
0.0
 10
200.925329042549
 20
156.214297493217
 30
0.0
 10
197.1387383854114
 20
156.4183186432216
 30
0.0
 10
193.3515827444843
 20
156.505981284387
 30
0.0
 10
189.5687489642676
 20
156.4158023034842
 30
0.0
 10
185.7949565335119
 20
156.2110398337847
 30
0.0
 10
182.0249707738479
 20
155.9457084920863
 30
0.0
 10
178.2539769933937
 20
155.7012680508151
 30
0.0
 10
174.4794258616404
 20
155.5187118664948
 30
0.0
 10
171.9606267100751
 20
155.4905503679861
 30
0.0
 10
170.7014009409666
 20
155.4764715619817
 30
0.0
  0
ARC
  5
2C4
330
1F
100
AcDbEntity
  8
0
  6
Continuous
 62
     7
370
    30
100
AcDbCircle
 10
163.7259722048
 20
240.4764711447
 30
0.0
 40
1.500000000000002
100
AcDbArc
 50
90.0
 51
183.2
  0
LINE
  5
2C5
330
1F
100
AcDbEntity
  8
0
  6
Continuous
 62
     7
370
    30
100
AcDbLine
 10
163.7259718084
 20
241.9764680453
 30
0.0
 11
165.4990628415
 21
241.9764680453
 31
0.0
  0
ARC
  5
2C6
330
1F
100
AcDbEntity
  8
0
  6
Continuous
 62
     7
370
    30
100
AcDbCircle
 10
165.4990624886
 20
240.4764711447
 30
0.0
 40
1.5
100
AcDbArc
 50
4.5
 51
90.0
  0
LINE
  5
2C7
330
1F
100
AcDbEntity
  8
0
  6
Continuous
 62
     7
370
    30
100
AcDbLine
 10
166.9944390708
 20
240.5941618272
 30
0.0
 11
172.5105173939
 21
170.50571656
 31
0.0
  0
ARC
  5
2C8
330
1F
100
AcDbEntity
  8
0
  6
Continuous
 62
     7
370
    30
100
AcDbCircle
 10
178.4920226015
 20
170.9764711447
 30
0.0
 40
6.000000000000026
100
AcDbArc
 50
184.5
 51
270.0
  0
LINE
  5
2C9
330
1F
100
AcDbEntity
  8
0
  6
Continuous
 62
     7
370
    30
100
AcDbLine
 10
178.492022311
 20
164.9764712565
 30
0.0
 11
208.2792721742
 21
164.9764712565
 31
0.0
  0
ARC
  5
2CA
330
1F
100
AcDbEntity
  8
0
  6
Continuous
 62
     7
370
    30
100
AcDbCircle
 10
208.2792738506
 20
170.9764711447
 30
0.0
 40
6.000000000000026
100
AcDbArc
 50
270.0
 51
355.5
  0
LINE
  5
2CB
330
1F
100
AcDbEntity
  8
0
  6
Continuous
 62
     7
370
    30
100
AcDbLine
 10
214.2607770913
 20
170.50571656
 30
0.0
 11
219.7768591398
 21
240.5941618272
 31
0.0
  0
ARC
  5
2CC
330
1F
100
AcDbEntity
  8
0
  6
Continuous
 62
     7
370
    30
100
AcDbCircle
 10
221.2722339636
 20
240.4764711447
 30
0.0
 40
1.500000000000028
100
AcDbArc
 50
90.0
 51
175.5
  0
LINE
  5
2CD
330
1F
100
AcDbEntity
  8
0
  6
Continuous
 62
     7
370
    30
100
AcDbLine
 10
221.272235369
 20
241.9764680453
 30
0.0
 11
223.0453245395
 21
241.9764680453
 31
0.0
  0
ARC
  5
2CE
330
1F
100
AcDbEntity
  8
0
  6
Continuous
 62
     7
370
    30
100
AcDbCircle
 10
223.0453242474
 20
240.4764711447
 30
0.0
 40
1.500000000000002
100
AcDbArc
 50
356.8
 51
90.0
  0
LINE
  5
2CF
330
1F
100
AcDbEntity
  8
0
  6
Continuous
 62
     7
370
    30
100
AcDbLine
 10
224.542988097
 20
240.3927353807
 30
0.0
 11
220.9282793158
 21
175.7390058265
 31
0.0
  0
ARC
  5
2D0
330
1F
100
AcDbEntity
  8
0
  6
Continuous
 62
     7
370
    30
100
AcDbCircle
 10
218.9313990177
 20
175.8506490611
 30
0.0
 40
2.000000000000025
100
AcDbArc
 50
315.0
 51
356.8
  0
LINE
  5
2D1
330
1F
100
AcDbEntity
  8
0
  6
Continuous
 62
     7
370
    30
100
AcDbLine
 10
219.9285157078
 20
174.0193368532
 30
0.0
 11
220.3456141108
 21
174.4364357219
 31
0.0
  0
ARC
  5
2D2
330
1F
100
AcDbEntity
  8
0
  6
Continuous
 62
     7
370
    30
100
AcDbCircle
 10
221.3427275129
 20
172.6051233068
 30
0.0
 40
1.999999999999993
100
AcDbArc
 50
135.0
 51
177.0
  0
LINE
  5
2D3
330
1F
100
AcDbEntity
  8
0
  6
Continuous
 62
     7
370
    30
100
AcDbLine
 10
218.5664676183
 20
157.8456313946
 30
0.0
 11
219.3454705232
 21
172.7097953335
 31
0.0
  0
ARC
  5
2D4
330
1F
100
AcDbEntity
  8
0
  6
Continuous
 62
     7
370
    30
100
AcDbCircle
 10
216.0698967822
 20
157.9764711447
 30
0.0
 40
2.5
100
AcDbArc
 50
270.0
 51
357.0
  0
ARC
  5
2D5
330
1F
100
AcDbEntity
  8
0
  6
Continuous
 62
     7
370
    30
100
AcDbCircle
 10
170.70139967
 20
157.9764711447
 30
0.0
 40
2.50000000000002
100
AcDbArc
 50
183.0
 51
270.0
  0
LINE
  5
2D6
330
1F
100
AcDbEntity
  8
0
  6
Continuous
 62
     7
370
    30
100
AcDbLine
 10
167.4258276873
 20
172.7097953335
 30
0.0
 11
168.2048268669
 21
157.8456313946
 31
0.0
  0
ARC
  5
2D7
330
1F
100
AcDbEntity
  8
0
  6
Continuous
 62
     7
370
    30
100
AcDbCircle
 10
165.4285689393
 20
172.6051233068
 30
0.0
 40
1.999999999999996
100
AcDbArc
 50
3.0
 51
45.0
  0
LINE
  5
2D8
330
1F
100
AcDbEntity
  8
0
  6
Continuous
 62
     7
370
    30
100
AcDbLine
 10
166.4256840997
 20
174.4364357219
 30
0.0
 11
166.8427825027
 21
174.0193368532
 31
0.0
  0
ARC
  5
2D9
330
1F
100
AcDbEntity
  8
0
  6
Continuous
 62
     7
370
    30
100
AcDbCircle
 10
167.8398974345
 20
175.8506490611
 30
0.0
 40
2.000000000000023
100
AcDbArc
 50
183.2
 51
225.0
  0
LINE
  5
2DA
330
1F
100
AcDbEntity
  8
0
  6
Continuous
 62
     7
370
    30
100
AcDbLine
 10
165.8430151695
 20
175.7390058265
 30
0.0
 11
162.2283119761
 21
240.3927353807
 31
0.0
  0
LWPOLYLINE
  5
2DB
330
1F
100
AcDbEntity
  8
0
  6
Continuous
 62
     7
370
    30
100
AcDbPolyline
 90
        2
 70
   128
 43
0.0
 10
166.4256840997
 20
174.4364357219
 10
166.4256840997
 20
174.4364357219
  0
LWPOLYLINE
  5
2DC
330
1F
100
AcDbEntity
  8
0
  6
Continuous
 62
     7
370
    30
100
AcDbPolyline
 90
        2
 70
   128
 43
0.0
 10
220.3456141108
 20
174.4364357219
 10
220.3456141108
 20
174.4364357219
  0
ARC
  5
2DD
330
1F
100
AcDbEntity
  8
0
  6
Continuous
 62
     7
370
    30
100
AcDbCircle
 10
166.2287454784
 20
172.9764711447
 30
0.0
 40
1.000000000000008
100
AcDbArc
 50
270.0
 51
60.0
  0
LINE
  5
2DE
330
1F
100
AcDbEntity
  8
0
  6
Continuous
 62
     7
370
    30
100
AcDbLine
 10
163.8796772861
 20
171.9764712397
 30
0.0
 11
166.2287447655
 21
171.9764712397
 31
0.0
  0
LINE
  5
2DF
330
1F
100
AcDbEntity
  8
0
  6
Continuous
 62
     7
370
    30
100
AcDbLine
 10
163.4707335436
 20
173.4764568173
 30
0.0
 11
163.8796772861
 21
171.9764712397
 31
0.0
  0
LINE
  5
2E0
330
1F
100
AcDbEntity
  8
0
  6
Continuous
 62
     7
370
    30
100
AcDbLine
 10
163.3987385833
 20
189.9764706977
 30
0.0
 11
163.4707335436
 21
173.4764568173
 31
0.0
  0
LINE
  5
2E1
330
1F
100
AcDbEntity
  8
0
  6
Continuous
 62
     7
370
    30
100
AcDbLine
 10
160.1743228787
 20
189.9764706977
 30
0.0
 11
163.3987385833
 21
189.9764706977
 31
0.0
  0
LINE
  5
2E2
330
1F
100
AcDbEntity
  8
0
  6
Continuous
 62
     7
370
    30
100
AcDbLine
 10
159.8856482708
 20
190.476471711
 30
0.0
 11
160.1743228787
 21
189.9764706977
 31
0.0
  0
LINE
  5
2E3
330
1F
100
AcDbEntity
  8
0
  6
Continuous
 62
     7
370
    30
100
AcDbLine
 10
159.8856482708
 20
190.476471711
 30
0.0
 11
159.8856482708
 21
192.9764711895
 31
0.0
  0
ARC
  5
2E4
330
1F
100
AcDbEntity
  8
0
  6
Continuous
 62
     7
370
    30
100
AcDbCircle
 10
166.8856482261
 20
176.0613097817
 30
0.0
 40
2.0
100
AcDbArc
 50
180.0
 51
240.0
  0
LINE
  5
2E5
330
1F
100
AcDbEntity
  8
0
  6
Continuous
 62
     7
370
    30
100
AcDbLine
 10
165.8856473916
 20
174.32925912
 30
0.0
 11
166.7287457788
 21
173.8424966243
 31
0.0
  0
LINE
  5
2E6
330
1F
100
AcDbEntity
  8
0
  6
Continuous
 62
     7
370
    30
100
AcDbLine
 10
164.8856490904
 20
192.9764711895
 30
0.0
 11
164.8856490904
 21
176.0613095612
 31
0.0
  0
LINE
  5
2E7
330
1F
100
AcDbEntity
  8
0
  6
Continuous
 62
     7
370
    30
100
AcDbLine
 10
159.8856482708
 20
192.9764711895
 30
0.0
 11
164.8856490904
 21
192.9764711895
 31
0.0
  0
ARC
  5
2E8
330
1F
100
AcDbEntity
  8
0
  6
Continuous
 62
     7
370
    30
100
AcDbCircle
 10
219.8856482261
 20
176.0613097817
 30
0.0
 40
2.0
100
AcDbArc
 50
300.0
 51
0.0
  0
LINE
  5
2E9
330
1F
100
AcDbEntity
  8
0
  6
Continuous
 62
     7
370
    30
100
AcDbLine
 10
224.385646736
 20
192.9764711895
 30
0.0
 11
224.385646736
 21
190.476471711
 31
0.0
  0
LINE
  5
2EA
330
1F
100
AcDbEntity
  8
0
  6
Continuous
 62
     7
370
    30
100
AcDbLine
 10
224.0969739908
 20
189.9764706977
 30
0.0
 11
224.385646736
 21
190.476471711
 31
0.0
  0
LINE
  5
2EB
330
1F
100
AcDbEntity
  8
0
  6
Continuous
 62
     7
370
    30
100
AcDbLine
 10
223.3005665296
 20
173.4764568173
 30
0.0
 11
223.3725614899
 21
189.9764706977
 31
0.0
  0
LINE
  5
2EC
330
1F
100
AcDbEntity
  8
0
  6
Continuous
 62
     7
370
    30
100
AcDbLine
 10
222.8916190618
 20
171.9764712397
 30
0.0
 11
223.3005665296
 21
173.4764568173
 31
0.0
  0
LINE
  5
2ED
330
1F
100
AcDbEntity
  8
0
  6
Continuous
 62
     7
370
    30
100
AcDbLine
 10
220.0425542944
 20
173.8424966243
 30
0.0
 11
220.8856470936
 21
174.32925912
 31
0.0
  0
ARC
  5
2EE
330
1F
100
AcDbEntity
  8
0
  6
Continuous
 62
     7
370
    30
100
AcDbCircle
 10
220.5425509738
 20
172.9764711447
 30
0.0
 40
1.000000000000008
100
AcDbArc
 50
120.0
 51
270.0
  0
LINE
  5
2EF
330
1F
100
AcDbEntity
  8
0
  6
Continuous
 62
     7
370
    30
100
AcDbLine
 10
220.5425478571
 20
171.9764712397
 30
0.0
 11
222.8916190618
 21
171.9764712397
 31
0.0
  0
LINE
  5
2F0
330
1F
100
AcDbEntity
  8
0
  6
Continuous
 62
     7
370
    30
100
AcDbLine
 10
223.3725614899
 20
189.9764706977
 30
0.0
 11
224.0969739908
 21
189.9764706977
 31
0.0
  0
LINE
  5
2F1
330
1F
100
AcDbEntity
  8
0
  6
Continuous
 62
     7
370
    30
100
AcDbLine
 10
221.8856491202
 20
176.0613095612
 30
0.0
 11
221.8856491202
 21
192.9764711895
 31
0.0
  0
LINE
  5
2F2
330
1F
100
AcDbEntity
  8
0
  6
Continuous
 62
     7
370
    30
100
AcDbLine
 10
221.8856491202
 20
192.9764711895
 30
0.0
 11
224.385646736
 21
192.9764711895
 31
0.0
  0
LINE
  5
2F3
330
1F
100
AcDbEntity
  8
0
  6
Continuous
 62
     7
370
    30
100
AcDbLine
 10
166.2287447655
 20
171.9764712397
 30
0.0
 11
167.4642596447
 21
171.9764712397
 31
0.0
  0
LINE
  5
2F4
330
1F
100
AcDbEntity
  8
0
  6
Continuous
 62
     7
370
    30
100
AcDbLine
 10
219.3070329779
 20
171.9764712397
 30
0.0
 11
220.5425478571
 21
171.9764712397
 31
0.0
  0
LINE
  5
2F5
330
1F
100
AcDbEntity
  8
0
  6
Continuous
 62
     7
370
    30
100
AcDbLine
 10
158.3856489563
 20
170.9764711922
 30
0.0
 11
158.3856489563
 21
192.9764711895
 31
0.0
  0
LINE
  5
2F6
330
1F
100
AcDbEntity
  8
0
  6
Continuous
 62
     7
370
    30
100
AcDbLine
 10
159.8856482708
 20
192.9764711895
 30
0.0
 11
159.8856482708
 21
189.9764706977
 31
0.0
  0
LINE
  5
2F7
330
1F
100
AcDbEntity
  8
0
  6
Continuous
 62
     7
370
    30
100
AcDbLine
 10
163.3987385833
 20
189.9764706977
 30
0.0
 11
159.8856482708
 21
189.9764706977
 31
0.0
  0
LINE
  5
2F8
330
1F
100
AcDbEntity
  8
0
  6
Continuous
 62
     7
370
    30
100
AcDbLine
 10
163.3987385833
 20
189.9764706977
 30
0.0
 11
163.4816411936
 21
170.9764711922
 31
0.0
  0
LINE
  5
2F9
330
1F
100
AcDbEntity
  8
0
  6
Continuous
 62
     7
370
    30
100
AcDbLine
 10
163.4816411936
 20
170.9764711922
 30
0.0
 11
158.3856489563
 21
170.9764711922
 31
0.0
  0
LINE
  5
2FA
330
1F
100
AcDbEntity
  8
0
  6
Continuous
 62
     7
370
    30
100
AcDbLine
 10
159.8856482708
 20
192.9764711895
 30
0.0
 11
158.3856489563
 21
192.9764711895
 31
0.0
  0
LINE
  5
2FB
330
1F
100
AcDbEntity
  8
0
  6
Continuous
 62
     7
370
    30
100
AcDbLine
 10
224.385646736
 20
189.9764706977
 30
0.0
 11
224.385646736
 21
192.9764711895
 31
0.0
  0
LINE
  5
2FC
330
1F
100
AcDbEntity
  8
0
  6
Continuous
 62
     7
370
    30
100
AcDbLine
 10
225.8856497758
 20
192.9764711895
 30
0.0
 11
225.8856497758
 21
170.9764711922
 31
0.0
  0
LINE
  5
2FD
330
1F
100
AcDbEntity
  8
0
  6
Continuous
 62
     7
370
    30
100
AcDbLine
 10
223.289651429
 20
170.9764711922
 30
0.0
 11
223.3725614899
 21
189.9764706977
 31
0.0
  0
LINE
  5
2FE
330
1F
100
AcDbEntity
  8
0
  6
Continuous
 62
     7
370
    30
100
AcDbLine
 10
224.385646736
 20
189.9764706977
 30
0.0
 11
223.3725614899
 21
189.9764706977
 31
0.0
  0
LINE
  5
2FF
330
1F
100
AcDbEntity
  8
0
  6
Continuous
 62
     7
370
    30
100
AcDbLine
 10
225.8856497758
 20
170.9764711922
 30
0.0
 11
223.289651429
 21
170.9764711922
 31
0.0
  0
LINE
  5
300
330
1F
100
AcDbEntity
  8
0
  6
Continuous
 62
     7
370
    30
100
AcDbLine
 10
225.8856497758
 20
192.9764711895
 30
0.0
 11
224.385646736
 21
192.9764711895
 31
0.0
  0
LINE
  5
301
330
1F
100
AcDbEntity
  8
0
  6
Continuous
 62
     7
370
    30
100
AcDbLine
 10
166.8856475555
 20
170.9764711922
 30
0.0
 11
163.4816411936
 21
170.9764711922
 31
0.0
  0
LINE
  5
302
330
1F
100
AcDbEntity
  8
0
  6
Continuous
 62
     7
370
    30
100
AcDbLine
 10
223.289651429
 20
170.9764711922
 30
0.0
 11
219.885645067
 21
170.9764711922
 31
0.0
  0
LINE
  5
303
330
1F
100
AcDbEntity
  8
0
  6
Continuous
 62
     7
370
    30
100
AcDbLine
 10
219.885645067
 20
170.9764711922
 30
0.0
 11
219.254625594
 21
170.9764711922
 31
0.0
  0
LINE
  5
304
330
1F
100
AcDbEntity
  8
0
  6
Continuous
 62
     7
370
    30
100
AcDbLine
 10
167.5166670286
 20
170.9764711922
 30
0.0
 11
166.8856475555
 21
170.9764711922
 31
0.0
  0
LINE
  5
305
330
1F
100
AcDbEntity
  8
0
  6
Continuous
 62
     7
370
    30
100
AcDbLine
 10
156.8856477791
 20
190.9764708616
 30
0.0
 11
156.8856477791
 21
170.9764711922
 31
0.0
  0
LINE
  5
306
330
1F
100
AcDbEntity
  8
0
  6
Continuous
 62
     7
370
    30
100
AcDbLine
 10
158.3856489563
 20
190.9764708616
 30
0.0
 11
158.3856489563
 21
170.9764711922
 31
0.0
  0
LINE
  5
307
330
1F
100
AcDbEntity
  8
0
  6
Continuous
 62
     7
370
    30
100
AcDbLine
 10
158.3856489563
 20
170.9764711922
 30
0.0
 11
156.8856477791
 21
170.9764711922
 31
0.0
  0
LINE
  5
308
330
1F
100
AcDbEntity
  8
0
  6
Continuous
 62
     7
370
    30
100
AcDbLine
 10
156.8856477791
 20
190.9764708616
 30
0.0
 11
158.3856489563
 21
190.9764708616
 31
0.0
  0
LINE
  5
309
330
1F
100
AcDbEntity
  8
0
  6
Continuous
 62
     7
370
    30
100
AcDbLine
 10
136.8856482261
 20
153.4764712342
 30
0.0
 11
141.3856480324
 21
153.4764712342
 31
0.0
  0
LINE
  5
30A
330
1F
100
AcDbEntity
  8
0
  6
Continuous
 62
     7
370
    30
100
AcDbLine
 10
141.3856480324
 20
153.4764712342
 30
0.0
 11
141.3856480324
 21
149.9764715918
 31
0.0
  0
LINE
  5
30B
330
1F
100
AcDbEntity
  8
0
  6
Continuous
 62
     7
370
    30
100
AcDbLine
 10
141.3856480324
 20
149.9764715918
 30
0.0
 11
140.3856483341
 21
148.9764714279
 31
0.0
  0
LINE
  5
30C
330
1F
100
AcDbEntity
  8
0
  6
Continuous
 62
     7
370
    30
100
AcDbLine
 10
140.3856483341
 20
148.9764714279
 30
0.0
 11
137.1856482403
 21
148.9764714279
 31
0.0
  0
ARC
  5
30D
330
1F
100
AcDbEntity
  8
0
  6
Continuous
 62
     7
370
    30
100
AcDbCircle
 10
137.1856482261
 20
149.2764711447
 30
0.0
 40
0.3000000000000398
100
AcDbArc
 50
180.0
 51
270.0
  0
LINE
  5
30E
330
1F
100
AcDbEntity
  8
0
  6
Continuous
 62
     7
370
    30
100
AcDbLine
 10
136.8856482261
 20
149.2764709183
 30
0.0
 11
136.8856482261
 21
153.4764712342
 31
0.0
  0
LINE
  5
30F
330
1F
100
AcDbEntity
  8
0
  6
Continuous
 62
     7
370
    30
100
AcDbLine
 10
156.8856477791
 20
170.9764711922
 30
0.0
 11
159.8856482708
 21
170.9764711922
 31
0.0
  0
LINE
  5
310
330
1F
100
AcDbEntity
  8
0
  6
Continuous
 62
     7
370
    30
100
AcDbLine
 10
160.8856484347
 20
170.3991208706
 30
0.0
 11
159.8856482708
 21
170.9764711922
 31
0.0
  0
LINE
  5
311
330
1F
100
AcDbEntity
  8
0
  6
Continuous
 62
     7
370
    30
100
AcDbLine
 10
160.8856484347
 20
170.3991208706
 30
0.0
 11
160.8856484347
 21
167.4764712006
 31
0.0
  0
LINE
  5
312
330
1F
100
AcDbEntity
  8
0
  6
Continuous
 62
     7
370
    30
100
AcDbLine
 10
160.8856484347
 20
167.4764712006
 30
0.0
 11
159.8856482708
 21
167.4764712006
 31
0.0
  0
ARC
  5
313
330
1F
100
AcDbEntity
  8
0
  6
Continuous
 62
     7
370
    30
100
AcDbCircle
 10
159.8856482261
 20
164.4764711447
 30
0.0
 40
3.0
100
AcDbArc
 50
90.0
 51
180.0
  0
LINE
  5
314
330
1F
100
AcDbEntity
  8
0
  6
Continuous
 62
     7
370
    30
100
AcDbLine
 10
156.8856477791
 20
164.4764711746
 30
0.0
 11
156.8856477791
 21
149.2764709183
 31
0.0
  0
ARC
  5
315
330
1F
100
AcDbEntity
  8
0
  6
Continuous
 62
     7
370
    30
100
AcDbCircle
 10
156.5856482261
 20
149.2764711447
 30
0.0
 40
0.3000000000000398
100
AcDbArc
 50
270.0
 51
0.0
  0
LINE
  5
316
330
1F
100
AcDbEntity
  8
0
  6
Continuous
 62
     7
370
    30
100
AcDbLine
 10
156.5856482887
 20
148.9764714279
 30
0.0
 11
147.3856480845
 21
148.9764714279
 31
0.0
  0
LINE
  5
317
330
1F
100
AcDbEntity
  8
0
  6
Continuous
 62
     7
370
    30
100
AcDbLine
 10
147.3856480845
 20
148.9764714279
 30
0.0
 11
146.3856479206
 21
149.9764715918
 31
0.0
  0
LINE
  5
318
330
1F
100
AcDbEntity
  8
0
  6
Continuous
 62
     7
370
    30
100
AcDbLine
 10
146.3856479206
 20
149.9764715918
 30
0.0
 11
146.3856479206
 21
153.4764712342
 31
0.0
  0
ARC
  5
319
330
1F
100
AcDbEntity
  8
0
  6
Continuous
 62
     7
370
    30
100
AcDbCircle
 10
151.8856482261
 20
154.4764711447
 30
0.0
 40
1.0
100
AcDbArc
 50
270.0
 51
0.0
  0
LINE
  5
31A
330
1F
100
AcDbEntity
  8
0
  6
Continuous
 62
     7
370
    30
100
AcDbLine
 10
152.8856489861
 20
154.4764713981
 30
0.0
 11
152.8856489861
 21
187.9764703699
 31
0.0
  0
ARC
  5
31B
330
1F
100
AcDbEntity
  8
0
  6
Continuous
 62
     7
370
    30
100
AcDbCircle
 10
151.8856482261
 20
187.9764711447
 30
0.0
 40
1.0
100
AcDbArc
 50
0.0
 51
90.0
  0
LINE
  5
31C
330
1F
100
AcDbEntity
  8
0
  6
Continuous
 62
     7
370
    30
100
AcDbLine
 10
151.8856478908
 20
188.9764705338
 30
0.0
 11
147.8856481665
 21
188.9764705338
 31
0.0
  0
LINE
  5
31D
330
1F
100
AcDbEntity
  8
0
  6
Continuous
 62
     7
370
    30
100
AcDbLine
 10
147.8856481665
 20
188.9764705338
 30
0.0
 11
144.8856486061
 21
185.9764719047
 31
0.0
  0
LINE
  5
31E
330
1F
100
AcDbEntity
  8
0
  6
Continuous
 62
     7
370
    30
100
AcDbLine
 10
144.8856486061
 20
185.9764719047
 30
0.0
 11
142.8856482782
 21
185.9764719047
 31
0.0
  0
LINE
  5
31F
330
1F
100
AcDbEntity
  8
0
  6
Continuous
 62
     7
370
    30
100
AcDbLine
 10
142.8856482782
 20
185.9764719047
 30
0.0
 11
139.8856482522
 21
188.9764705338
 31
0.0
  0
LINE
  5
320
330
1F
100
AcDbEntity
  8
0
  6
Continuous
 62
     7
370
    30
100
AcDbLine
 10
136.8856482261
 20
188.9764705338
 30
0.0
 11
136.8856482261
 21
190.6764713712
 31
0.0
  0
LINE
  5
321
330
1F
100
AcDbEntity
  8
0
  6
Continuous
 62
     7
370
    30
100
AcDbLine
 10
137.1856482403
 20
190.9764708616
 30
0.0
 11
156.5856482887
 21
190.9764708616
 31
0.0
  0
ARC
  5
322
330
1F
100
AcDbEntity
  8
0
  6
Continuous
 62
     7
370
    30
100
AcDbCircle
 10
156.5856482261
 20
190.6764711447
 30
0.0
 40
0.3000000000000114
100
AcDbArc
 50
0.0
 51
90.0
  0
LINE
  5
323
330
1F
100
AcDbEntity
  8
0
  6
Continuous
 62
     7
370
    30
100
AcDbLine
 10
156.8856477791
 20
190.6764713712
 30
0.0
 11
156.8856477791
 21
170.9764711922
 31
0.0
  0
LINE
  5
324
330
1F
100
AcDbEntity
  8
0
  6
Continuous
 62
     7
370
    30
100
AcDbLine
 10
146.3856479206
 20
153.4764712342
 30
0.0
 11
151.8856478908
 21
153.4764712342
 31
0.0
  0
ARC
  5
325
330
1F
100
AcDbEntity
  8
0
  6
Continuous
 62
     7
370
    30
100
AcDbCircle
 10
137.1856482261
 20
190.6764711447
 30
0.0
 40
0.3000000000000114
100
AcDbArc
 50
90.0
 51
180.0
  0
LINE
  5
326
330
1F
100
AcDbEntity
  8
0
  6
Continuous
 62
     7
370
    30
100
AcDbLine
 10
139.8856482522
 20
188.9764705338
 30
0.0
 11
136.8856482261
 21
188.9764705338
 31
0.0
  0
LINE
  5
327
330
1F
100
AcDbEntity
  8
0
  6
Continuous
 62
     7
370
    30
100
AcDbLine
 10
140.3856483341
 20
148.9764714279
 30
0.0
 11
141.4401480981
 21
148.9764714279
 31
0.0
  0
LINE
  5
328
330
1F
100
AcDbEntity
  8
0
  6
Continuous
 62
     7
370
    30
100
AcDbLine
 10
146.3311478549
 20
148.9764714279
 30
0.0
 11
147.3856480845
 21
148.9764714279
 31
0.0
  0
LINE
  5
329
330
1F
100
AcDbEntity
  8
0
  6
Continuous
 62
     7
370
    30
100
AcDbLine
 10
139.8856482522
 20
188.9764705338
 30
0.0
 11
139.8856482522
 21
187.9764703699
 31
0.0
  0
LINE
  5
32A
330
1F
100
AcDbEntity
  8
0
  6
Continuous
 62
     7
370
    30
100
AcDbLine
 10
136.8856482261
 20
187.9764703699
 30
0.0
 11
136.8856482261
 21
188.9764705338
 31
0.0
  0
LINE
  5
32B
330
1F
100
AcDbEntity
  8
0
  6
Continuous
 62
     7
370
    30
100
AcDbLine
 10
136.8856482261
 20
153.4764712342
 30
0.0
 11
136.8856482261
 21
155.9764707126
 31
0.0
  0
LINE
  5
32C
330
1F
100
AcDbEntity
  8
0
  6
Continuous
 62
     7
370
    30
100
AcDbLine
 10
150.4366096162
 20
181.9764712491
 30
0.0
 11
150.4366096162
 21
186.7190675475
 31
0.0
  0
LINE
  5
32D
330
1F
100
AcDbEntity
  8
0
  6
Continuous
 62
     7
370
    30
100
AcDbLine
 10
150.4366096162
 20
177.2338754163
 30
0.0
 11
150.4366096162
 21
181.9764712491
 31
0.0
  0
LINE
  5
32E
330
1F
100
AcDbEntity
  8
0
  6
Continuous
 62
     7
370
    30
100
AcDbLine
 10
149.3714354985
 20
179.7264713459
 30
0.0
 11
149.3714354985
 21
180.8514708318
 31
0.0
  0
LINE
  5
32F
330
1F
100
AcDbEntity
  8
0
  6
Continuous
 62
     7
370
    30
100
AcDbLine
 10
149.3714354985
 20
180.8514708318
 30
0.0
 11
149.3714354985
 21
183.101470735
 31
0.0
  0
LINE
  5
330
330
1F
100
AcDbEntity
  8
0
  6
Continuous
 62
     7
370
    30
100
AcDbLine
 10
149.3714354985
 20
183.101470735
 30
0.0
 11
149.3714354985
 21
184.2264711522
 31
0.0
  0
LINE
  5
331
330
1F
100
AcDbEntity
  8
0
  6
Continuous
 62
     7
370
    30
100
AcDbLine
 10
184.7056500667
 20
225.9264720269
 30
0.0
 11
177.065649634
 21
225.9264720269
 31
0.0
  0
LINE
  5
332
330
1F
100
AcDbEntity
  8
0
  6
Continuous
 62
     8
370
     0
100
AcDbLine
 10
186.8856489712
 20
226.276470501
 30
0.0
 11
187.0856486314
 21
226.276470501
 31
0.0
  0
LINE
  5
333
330
1F
100
AcDbEntity
  8
0
  6
Continuous
 62
     8
370
     0
100
AcDbLine
 10
199.6856458538
 20
226.276470501
 30
0.0
 11
199.8856492394
 21
226.276470501
 31
0.0
  0
LINE
  5
334
330
1F
100
AcDbEntity
  8
0
  6
Continuous
 62
     8
370
     0
100
AcDbLine
 10
172.3856493884
 20
242.1333921738
 30
0.0
 11
168.4288770014
 21
242.1333921738
 31
0.0
  0
LINE
  5
335
330
1F
100
AcDbEntity
  8
0
  6
Continuous
 62
     8
370
     0
100
AcDbLine
 10
172.3856493884
 20
242.1333921738
 30
0.0
 11
172.3856493884
 21
243.9764720984
 31
0.0
  0
LINE
  5
336
330
1F
100
AcDbEntity
  8
0
  6
Continuous
 62
     8
370
     0
100
AcDbLine
 10
172.3856493884
 20
230.8980134912
 30
0.0
 11
172.3856493884
 21
242.1333921738
 31
0.0
  0
LINE
  5
337
330
1F
100
AcDbEntity
  8
0
  6
Continuous
 62
     8
370
     0
100
AcDbLine
 10
169.3131230825
 20
230.8980134912
 30
0.0
 11
172.3856493884
 21
230.8980134912
 31
0.0
  0
LINE
  5
338
330
1F
100
AcDbEntity
  8
0
  6
Continuous
 62
     8
370
     0
100
AcDbLine
 10
172.3856493884
 20
229.9764698036
 30
0.0
 11
172.3856493884
 21
230.8980134912
 31
0.0
  0
LINE
  5
339
330
1F
100
AcDbEntity
  8
0
  6
Continuous
 62
     8
370
     0
100
AcDbLine
 10
218.3424212092
 20
242.1333921738
 30
0.0
 11
214.3856488221
 21
242.1333921738
 31
0.0
  0
LINE
  5
33A
330
1F
100
AcDbEntity
  8
0
  6
Continuous
 62
     8
370
     0
100
AcDbLine
 10
214.3856488221
 20
230.8980134912
 30
0.0
 11
217.4581714028
 21
230.8980134912
 31
0.0
  0
LINE
  5
33B
330
1F
100
AcDbEntity
  8
0
  6
Continuous
 62
     8
370
     0
100
AcDbLine
 10
214.3856488221
 20
230.8980134912
 30
0.0
 11
214.3856488221
 21
242.1333921738
 31
0.0
  0
LINE
  5
33C
330
1F
100
AcDbEntity
  8
0
  6
Continuous
 62
     8
370
     0
100
AcDbLine
 10
214.3856488221
 20
229.9764698036
 30
0.0
 11
214.3856488221
 21
230.8980134912
 31
0.0
  0
LINE
  5
33D
330
1F
100
AcDbEntity
  8
0
  6
Continuous
 62
     8
370
     0
100
AcDbLine
 10
214.3856488221
 20
243.9764720984
 30
0.0
 11
214.3856488221
 21
242.1333921738
 31
0.0
  0
LINE
  5
33E
330
1F
100
AcDbEntity
  8
0
  6
Continuous
 62
     8
370
     0
100
AcDbLine
 10
172.3856493884
 20
230.8980134912
 30
0.0
 11
177.3856483453
 21
230.8980134912
 31
0.0
  0
LINE
  5
33F
330
1F
100
AcDbEntity
  8
0
  6
Continuous
 62
     8
370
     0
100
AcDbLine
 10
209.3856461399
 20
230.8980134912
 30
0.0
 11
214.3856488221
 21
230.8980134912
 31
0.0
  0
LINE
  5
340
330
1F
100
AcDbEntity
  8
0
  6
Continuous
 62
     8
370
     0
100
AcDbLine
 10
214.3856488221
 20
242.1333921738
 30
0.0
 11
209.3856461399
 21
242.1333921738
 31
0.0
  0
LINE
  5
341
330
1F
100
AcDbEntity
  8
0
  6
Continuous
 62
     8
370
     0
100
AcDbLine
 10
177.3856483453
 20
242.1333921738
 30
0.0
 11
172.3856493884
 21
242.1333921738
 31
0.0
  0
LINE
  5
342
330
1F
100
AcDbEntity
  8
0
  6
Continuous
 62
     8
370
     0
100
AcDbLine
 10
207.3856495374
 20
240.9764734693
 30
0.0
 11
205.782016372
 21
240.9764734693
 31
0.0
  0
LINE
  5
343
330
1F
100
AcDbEntity
  8
0
  6
Continuous
 62
     8
370
     0
100
AcDbLine
 10
182.485648995
 20
240.9764734693
 30
0.0
 11
179.3856486731
 21
240.9764734693
 31
0.0
  0
LINE
  5
344
330
1F
100
AcDbEntity
  8
0
  6
Continuous
 62
     8
370
     0
100
AcDbLine
 10
166.8856475555
 20
249.9764693566
 30
0.0
 11
166.8856475555
 21
247.9764727541
 31
0.0
  0
LINE
  5
345
330
1F
100
AcDbEntity
  8
0
  6
Continuous
 62
     8
370
     0
100
AcDbLine
 10
166.8856475555
 20
247.9764727541
 30
0.0
 11
164.8856490904
 21
247.9764727541
 31
0.0
  0
LINE
  5
346
330
1F
100
AcDbEntity
  8
0
  6
Continuous
 62
     8
370
     0
100
AcDbLine
 10
166.8856475555
 20
247.9764727541
 30
0.0
 11
166.8856475555
 21
243.9764720984
 31
0.0
  0
LINE
  5
347
330
1F
100
AcDbEntity
  8
0
  6
Continuous
 62
     8
370
     0
100
AcDbLine
 10
219.885645067
 20
249.9764693566
 30
0.0
 11
219.885645067
 21
247.9764727541
 31
0.0
  0
LINE
  5
348
330
1F
100
AcDbEntity
  8
0
  6
Continuous
 62
     8
370
     0
100
AcDbLine
 10
219.885645067
 20
247.9764727541
 30
0.0
 11
209.3856461399
 21
247.9764727541
 31
0.0
  0
LINE
  5
349
330
1F
100
AcDbEntity
  8
0
  6
Continuous
 62
     8
370
     0
100
AcDbLine
 10
177.3856483453
 20
247.9764727541
 30
0.0
 11
166.8856475555
 21
247.9764727541
 31
0.0
  0
LINE
  5
34A
330
1F
100
AcDbEntity
  8
0
  6
Continuous
 62
     8
370
     0
100
AcDbLine
 10
219.885645067
 20
247.9764727541
 30
0.0
 11
219.885645067
 21
243.9764720984
 31
0.0
  0
LINE
  5
34B
330
1F
100
AcDbEntity
  8
0
  6
Continuous
 62
     8
370
     0
100
AcDbLine
 10
221.8856491202
 20
247.9764727541
 30
0.0
 11
219.885645067
 21
247.9764727541
 31
0.0
  0
LINE
  5
34C
330
1F
100
AcDbEntity
  8
0
  6
Continuous
 62
     8
370
     0
100
AcDbLine
 10
161.8856485986
 20
230.2764711567
 30
0.0
 11
162.7938985878
 21
230.2764711567
 31
0.0
  0
LINE
  5
34D
330
1F
100
AcDbEntity
  8
0
  6
Continuous
 62
     8
370
     0
100
AcDbLine
 10
223.9773996228
 20
230.2764711567
 30
0.0
 11
224.8856477493
 21
230.2764711567
 31
0.0
  0
LWPOLYLINE
  5
34E
330
1F
100
AcDbEntity
  8
0
  6
Continuous
 62
     8
370
     0
100
AcDbPolyline
 90
        2
 70
   128
 43
0.0
 10
219.9285157078
 20
174.0193368532
 10
219.9285157078
 20
174.0193368532
  0
ELLIPSE
  5
34F
330
1F
100
AcDbEntity
  8
0
  6
Continuous
 62
     8
370
     0
100
AcDbEllipse
 10
178.4920226015
 20
170.9764711447
 30
0.0
 11
0.0
 21
5.999999999999972
 31
0.0
210
0.0
220
0.0
230
1.0
 40
0.25
 41
1.649336143134643
 42
3.141592653589793
  0
ARC
  5
350
330
1F
100
AcDbEntity
  8
0
  6
Continuous
 62
     8
370
     0
100
AcDbCircle
 10
174.7535817378
 20
184.9046716228
 30
0.0
 40
14.57261968737236
100
AcDbArc
 50
261.1456489121
 51
278.8543510879
  0
LINE
  5
351
330
1F
100
AcDbEntity
  8
0
  6
Continuous
 62
     8
370
     0
100
AcDbLine
 10
176.9966460818
 20
170.50571656
 30
0.0
 11
209.7746484035
 21
170.50571656
 31
0.0
  0
ELLIPSE
  5
352
330
1F
100
AcDbEntity
  8
0
  6
Continuous
 62
     8
370
     0
100
AcDbEllipse
 10
208.2792738506
 20
170.9764711447
 30
0.0
 11
0.0
 21
5.999999999999972
 31
0.0
210
0.0
220
0.0
230
1.0
 40
0.25
 41
3.141592653589793
 42
4.633849164044942
  0
ARC
  5
353
330
1F
100
AcDbEntity
  8
0
  6
Continuous
 62
     8
370
     0
100
AcDbCircle
 10
212.0177127474
 20
184.9046716228
 30
0.0
 40
14.57261968737236
100
AcDbArc
 50
261.1456489121
 51
278.8543510879
  0
LINE
  5
354
330
1F
100
AcDbEntity
  8
0
  6
Continuous
 62
     8
370
     0
100
AcDbLine
 10
172.473599767
 20
227.9764694758
 30
0.0
 11
176.9966460818
 21
170.50571656
 31
0.0
  0
LINE
  5
355
330
1F
100
AcDbEntity
  8
0
  6
Continuous
 62
     8
370
     0
100
AcDbLine
 10
209.7746484035
 20
170.50571656
 30
0.0
 11
214.2976947182
 21
227.9764694758
 31
0.0
  0
SPLINE
  5
356
330
1F
100
AcDbEntity
  8
0
  6
Continuous
 62
     8
370
     0
100
AcDbSpline
210
0.0
220
0.0
230
1.0
 70
     8
 71
     3
 72
    11
 73
     7
 74
     0
 42
0.00000001
 43
0.00000001
 40
0.0
 40
0.0
 40
0.0
 40
0.0
 40
0.1030186659819639
 40
0.4477994347924581
 40
0.7236230748952438
 40
1.0
 40
1.0
 40
1.0
 40
1.0
 10
166.4297334903002
 20
174.3822886273697
 30
0.0
 10
166.3857754059071
 20
174.3812082850773
 30
0.0
 10
166.1946993018038
 20
174.3765122752497
 30
0.0
 10
166.0161335505548
 20
174.3662373085141
 30
0.0
 10
165.8951007620619
 20
174.3394349176034
 30
0.0
 10
165.8888006192786
 20
174.3326533174879
 30
0.0
 10
165.8856473916292
 20
174.3292591199711
 30
0.0
  0
SPLINE
  5
357
330
1F
100
AcDbEntity
  8
0
  6
Continuous
 62
     8
370
     0
100
AcDbSpline
210
0.0
220
0.0
230
1.0
 70
     8
 71
     3
 72
    12
 73
     8
 74
     0
 42
0.00000001
 43
0.00000001
 40
0.0
 40
0.0
 40
0.0
 40
0.0
 40
0.0000167174578122
 40
0.196727103039454
 40
0.3934478928656741
 40
0.7098801360693318
 40
1.0
 40
1.0
 40
1.0
 40
1.0
 10
164.8856490903616
 20
176.0661198422745
 30
0.0
 10
164.8856490903312
 20
176.0661187557273
 30
0.0
 10
164.8856487329463
 20
176.0533325245996
 30
0.0
 10
164.9108790752711
 20
176.0312316969893
 30
0.0
 10
165.0472540713132
 20
175.9948607721047
 30
0.0
 10
165.3200404921571
 20
175.9615698401733
 30
0.0
 10
165.666244594301
 20
175.9462618103399
 30
0.0
 10
165.8318374359131
 20
175.9389398284688
 30
0.0
  0
LINE
  5
358
330
1F
100
AcDbEntity
  8
0
  6
Continuous
 62
     8
370
     0
100
AcDbLine
 10
166.7287457788
 20
173.8424966243
 30
0.0
 11
166.999844467
 21
173.8424966243
 31
0.0
  0
SPLINE
  5
359
330
1F
100
AcDbEntity
  8
0
  6
Continuous
 62
     8
370
     0
100
AcDbSpline
210
0.0
220
0.0
230
1.0
 70
     8
 71
     3
 72
    11
 73
     7
 74
     0
 42
0.00000001
 43
0.00000001
 40
0.0
 40
0.0
 40
0.0
 40
0.0
 40
0.2129406030287883
 40
0.4255917151906525
 40
0.7612895045845206
 40
1.0
 40
1.0
 40
1.0
 40
1.0
 10
220.885647093606
 20
174.3292591199711
 30
0.0
 10
220.8843984065648
 20
174.3318610269901
 30
0.0
 10
220.8819027300613
 20
174.3370613037587
 30
0.0
 10
220.8087510804183
 20
174.3605257127542
 30
0.0
 10
220.6365506802273
 20
174.3730467196203
 30
0.0
 10
220.4053669994155
 20
174.3802343413585
 30
0.0
 10
220.3092925303698
 20
174.3832213469282
 30
0.0
  0
LWPOLYLINE
  5
35A
330
1F
100
AcDbEntity
  8
0
  6
Continuous
 62
     8
370
     0
100
AcDbPolyline
 90
        7
 70
   128
 43
0.0
 10
220.9394998902
 20
175.9396774359
 10
221.0845403426
 20
175.9439866655
 10
221.534443652
 20
175.9744595401
 10
221.8051903003
 20
176.0171467103
 10
221.8856491202
 20
176.0661165826
 10
221.8856491202
 20
176.0661198423
 10
221.8856491202
 20
176.0661198423
  0
LINE
  5
35B
330
1F
100
AcDbEntity
  8
0
  6
Continuous
 62
     8
370
     0
100
AcDbLine
 10
219.7714500182
 20
173.8424966243
 30
0.0
 11
220.0425542944
 21
173.8424966243
 31
0.0
  0
LINE
  5
35C
330
1F
100
AcDbEntity
  8
0
  6
Continuous
 62
     8
370
     0
100
AcDbLine
 10
166.8856475555
 20
170.9764711922
 30
0.0
 11
166.8856475555
 21
171.9764712397
 31
0.0
  0
LINE
  5
35D
330
1F
100
AcDbEntity
  8
0
  6
Continuous
 62
     8
370
     0
100
AcDbLine
 10
219.885645067
 20
170.9764711922
 30
0.0
 11
219.885645067
 21
171.9764712397
 31
0.0
  0
LINE
  5
35E
330
1F
100
AcDbEntity
  8
0
  6
Continuous
 62
     8
370
     0
100
AcDbLine
 10
151.8856478908
 20
186.8713667281
 30
0.0
 11
151.8856478908
 21
188.9764705338
 31
0.0
  0
LINE
  5
35F
330
1F
100
AcDbEntity
  8
0
  6
Continuous
 62
     8
370
     0
100
AcDbLine
 10
149.3714354985
 20
181.9764712491
 30
0.0
 11
145.196620939
 21
181.9764712491
 31
0.0
  0
LINE
  5
360
330
1F
100
AcDbEntity
  8
0
  6
Continuous
 62
     8
370
     0
100
AcDbLine
 10
147.8856481665
 20
155.9764707126
 30
0.0
 11
151.8856478908
 21
155.9764707126
 31
0.0
  0
LINE
  5
361
330
1F
100
AcDbEntity
  8
0
  6
Continuous
 62
     8
370
     0
100
AcDbLine
 10
151.8856478908
 20
153.4764712342
 30
0.0
 11
151.8856478908
 21
155.9764707126
 31
0.0
  0
LINE
  5
362
330
1F
100
AcDbEntity
  8
0
  6
Continuous
 62
     8
370
     0
100
AcDbLine
 10
151.8856478908
 20
155.9764707126
 30
0.0
 11
152.8856489861
 21
155.9764707126
 31
0.0
  0
LINE
  5
363
330
1F
100
AcDbEntity
  8
0
  6
Continuous
 62
     8
370
     0
100
AcDbLine
 10
151.8856478908
 20
155.9764707126
 30
0.0
 11
151.8856478908
 21
177.0815753043
 31
0.0
  0
HATCH
  5
364
330
1F
100
AcDbEntity
  8
0
  6
Continuous
 62
     7
370
     0
100
AcDbHatch
 10
0.0
 20
0.0
 30
0.0
210
0.0
220
0.0
230
1.0
  2
ANSI31
 70
     0
 71
     0
 91
        1
 92
        0
 93
       24
 72
     1
 10
156.8856482260942
 20
170.9764711447492
 11
156.8856482260942
 21
190.6764711447492
 72
     2
 10
156.5856482260942
 20
190.6764711447492
 40
0.3
 50
0.0
 51
90.0
 73
     1
 72
     1
 10
156.5856482260942
 20
190.9764711447492
 11
137.1856482260942
 21
190.9764711447492
 72
     2
 10
137.1856482260942
 20
190.6764711447492
 40
0.3
 50
90.0
 51
180.0
 73
     1
 72
     1
 10
136.8856482260942
 20
190.6764711447492
 11
136.8856482260942
 21
188.9764711447492
 72
     1
 10
136.8856482260942
 20
188.9764711447492
 11
139.8856482260942
 21
188.9764711447492
 72
     1
 10
139.8856482260942
 20
188.9764711447492
 11
142.8856482260942
 21
185.9764711447492
 72
     1
 10
142.8856482260942
 20
185.9764711447492
 11
144.8856482260942
 21
185.9764711447492
 72
     1
 10
144.8856482260942
 20
185.9764711447492
 11
147.8856482260942
 21
188.9764711447492
 72
     1
 10
147.8856482260942
 20
188.9764711447492
 11
151.8856482260942
 21
188.9764711447492
 72
     2
 10
151.8856482260942
 20
187.9764711447492
 40
1.0
 50
270.0000000000008
 51
360.0000000000008
 73
     0
 72
     1
 10
152.8856482260942
 20
187.9764711447492
 11
152.8856482260942
 21
154.4764711447492
 72
     2
 10
151.8856482260942
 20
154.4764711447492
 40
1.0
 50
0.0
 51
90.0
 73
     0
 72
     1
 10
151.8856482260942
 20
153.4764711447492
 11
146.3856482260942
 21
153.4764711447492
 72
     1
 10
146.3856482260942
 20
153.4764711447492
 11
146.3856482260942
 21
149.9764711447492
 72
     1
 10
146.3856482260942
 20
149.9764711447492
 11
147.3856482260942
 21
148.9764711447492
 72
     1
 10
147.3856482260942
 20
148.9764711447492
 11
156.5856482260942
 21
148.9764711447492
 72
     2
 10
156.5856482260942
 20
149.2764711447492
 40
0.3
 50
270.0000000000008
 51
360.0000000000008
 73
     1
 72
     1
 10
156.8856482260942
 20
149.2764711447492
 11
156.8856482260942
 21
164.4764711447492
 72
     2
 10
159.8856482260942
 20
164.4764711447492
 40
3.0
 50
180.0
 51
270.0000000000008
 73
     0
 72
     1
 10
159.8856482260942
 20
167.4764711447492
 11
160.8856482260942
 21
167.4764711447492
 72
     1
 10
160.8856482260942
 20
167.4764711447492
 11
160.8856482260942
 21
170.3991208755596
 72
     1
 10
160.8856482260942
 20
170.3991208755596
 11
159.8856482260942
 21
170.9764711447492
 72
     1
 10
159.8856482260942
 20
170.9764711447492
 11
156.8856482260942
 21
170.9764711447492
 97
        0
 75
     0
 76
     1
 52
0.0
 41
1.0
 77
     0
 78
     1
 53
45.0
 43
0.0
 44
0.0
 45
-2.245064030267288
 46
2.245064030267288
 79
     0
 98
        1
 10
0.0
 20
0.0
  0
HATCH
  5
365
330
1F
100
AcDbEntity
  8
0
  6
Continuous
 62
     7
370
     0
100
AcDbHatch
 10
0.0
 20
0.0
 30
0.0
210
0.0
220
0.0
230
1.0
  2
ANSI31
 70
     0
 71
     0
 91
        1
 92
        0
 93
        6
 72
     1
 10
136.8856482260942
 20
153.4764711447492
 11
136.8856482260942
 21
149.2764711447492
 72
     2
 10
137.1856482260942
 20
149.2764711447492
 40
0.3
 50
180.0
 51
270.0000000000008
 73
     1
 72
     1
 10
137.1856482260942
 20
148.9764711447492
 11
140.3856482260942
 21
148.9764711447492
 72
     1
 10
140.3856482260942
 20
148.9764711447492
 11
141.3856482260942
 21
149.9764711447492
 72
     1
 10
141.3856482260942
 20
149.9764711447492
 11
141.3856482260942
 21
153.4764711447492
 72
     1
 10
141.3856482260942
 20
153.4764711447492
 11
136.8856482260942
 21
153.4764711447492
 97
        0
 75
     0
 76
     1
 52
0.0
 41
1.0
 77
     0
 78
     1
 53
45.0
 43
0.0
 44
0.0
 45
-2.245064030267288
 46
2.245064030267288
 79
     0
 98
        1
 10
0.0
 20
0.0
  0
HATCH
  5
366
330
1F
100
AcDbEntity
  8
0
  6
Continuous
 62
     7
370
     0
100
AcDbHatch
 10
0.0
 20
0.0
 30
0.0
210
0.0
220
0.0
230
1.0
  2
NET
 70
     0
 71
     0
 91
        1
 92
        0
 93
        4
 72
     1
 10
156.8856482260942
 20
170.9764711447492
 11
158.3856482260942
 21
170.9764711447492
 72
     1
 10
158.3856482260942
 20
170.9764711447492
 11
158.3856482260942
 21
190.9764711447492
 72
     1
 10
158.3856482260942
 20
190.9764711447492
 11
156.8856482260942
 21
190.9764711447492
 72
     1
 10
156.8856482260942
 20
190.9764711447492
 11
156.8856482260942
 21
170.9764711447492
 97
        0
 75
     0
 76
     1
 52
134.999991007
 41
1.0
 77
     0
 78
     2
 53
134.9999910069555
 43
0.0
 44
0.0
 45
-2.24506438264855
 46
-2.245063677885971
 79
     0
 53
224.9999910069555
 43
0.0
 44
0.0
 45
2.245063677885971
 46
-2.24506438264855
 79
     0
 98
        1
 10
0.0
 20
0.0
  0
HATCH
  5
367
330
1F
100
AcDbEntity
  8
0
  6
Continuous
 62
     7
370
     0
100
AcDbHatch
 10
0.0
 20
0.0
 30
0.0
210
0.0
220
0.0
230
1.0
  2
ANSI31
 70
     0
 71
     0
 91
        1
 92
        0
 93
        6
 72
     1
 10
158.3856482260942
 20
170.9764711447492
 11
163.4816419441497
 21
170.9764711447492
 72
     1
 10
163.4816419441497
 20
170.9764711447492
 11
163.3987382785563
 21
189.9764711447492
 72
     1
 10
163.3987382785563
 20
189.9764711447492
 11
159.8856482260942
 21
189.9764711447492
 72
     1
 10
159.8856482260942
 20
189.9764711447492
 11
159.8856482260942
 21
192.9764711447492
 72
     1
 10
159.8856482260942
 20
192.9764711447492
 11
158.3856482260942
 21
192.9764711447492
 72
     1
 10
158.3856482260942
 20
192.9764711447492
 11
158.3856482260942
 21
170.9764711447492
 97
        0
 75
     0
 76
     1
 52
0.0
 41
1.0
 77
     0
 78
     1
 53
45.0
 43
0.0
 44
0.0
 45
-2.245064030267288
 46
2.245064030267288
 79
     0
 98
        1
 10
0.0
 20
0.0
  0
HATCH
  5
368
330
1F
100
AcDbEntity
  8
0
  6
Continuous
 62
     7
370
     0
100
AcDbHatch
 10
0.0
 20
0.0
 30
0.0
210
0.0
220
0.0
230
1.0
  2
ANSI31
 70
     0
 71
     0
 91
        1
 92
        0
 93
        6
 72
     1
 10
223.2896545080388
 20
170.9764711447492
 11
225.8856482260942
 21
170.9764711447492
 72
     1
 10
225.8856482260942
 20
170.9764711447492
 11
225.8856482260942
 21
192.9764711447492
 72
     1
 10
225.8856482260942
 20
192.9764711447492
 11
224.3856482260942
 21
192.9764711447492
 72
     1
 10
224.3856482260942
 20
192.9764711447492
 11
224.3856482260942
 21
189.9764711447492
 72
     1
 10
224.3856482260942
 20
189.9764711447492
 11
223.3725581736321
 21
189.9764711447492
 72
     1
 10
223.3725581736321
 20
189.9764711447492
 11
223.2896545080388
 21
170.9764711447492
 97
        0
 75
     0
 76
     1
 52
0.0
 41
1.0
 77
     0
 78
     1
 53
45.0
 43
0.0
 44
0.0
 45
-2.245064030267288
 46
2.245064030267288
 79
     0
 98
        1
 10
0.0
 20
0.0
  0
HATCH
  5
369
330
1F
100
AcDbEntity
  8
0
  6
Continuous
 62
     7
370
     0
100
AcDbHatch
 10
0.0
 20
0.0
 30
0.0
210
0.0
220
0.0
230
1.0
  2
NET
 70
     0
 71
     0
 91
        1
 92
        0
 93
       11
 72
     1
 10
166.7287454784177
 20
173.8424965485335
 11
165.8856482260942
 21
174.3292589741155
 72
     2
 10
166.8856482260942
 20
176.0613097816844
 40
2.0
 50
119.9999999999994
 51
180.0
 73
     0
 72
     1
 10
164.8856482260942
 20
176.0613097816844
 11
164.8856482260942
 21
192.9764711447491
 72
     1
 10
164.8856482260942
 20
192.9764711447491
 11
159.8856482260942
 21
192.9764711447491
 72
     1
 10
159.8856482260942
 20
192.9764711447491
 11
159.8856482260942
 21
190.4764711447491
 72
     1
 10
159.8856482260942
 20
190.4764711447491
 11
160.174323360689
 21
189.9764711447491
 72
     1
 10
160.174323360689
 20
189.9764711447491
 11
163.3987382785563
 21
189.9764711447491
 72
     1
 10
163.3987382785563
 20
189.9764711447491
 11
163.4707336294018
 21
173.4764568658303
 72
     1
 10
163.4707336294018
 20
173.4764568658303
 11
163.8796766742999
 21
171.9764711447491
 72
     1
 10
163.8796766742999
 20
171.9764711447491
 11
166.2287454784177
 21
171.9764711447491
 72
     2
 10
166.2287454784177
 20
172.9764711447491
 40
1.000000000000002
 50
270.0000000000008
 51
420.0000000000011
 73
     1
 97
        0
 75
     0
 76
     1
 52
44.999991007
 41
1.0
 77
     0
 78
     2
 53
44.99999100695533
 43
0.0
 44
0.0
 45
-2.245063677885963
 46
2.245064382648558
 79
     0
 53
134.9999910069553
 43
0.0
 44
0.0
 45
-2.245064382648558
 46
-2.245063677885963
 79
     0
 98
        1
 10
0.0
 20
0.0
  0
HATCH
  5
36A
330
1F
100
AcDbEntity
  8
0
  6
Continuous
 62
     7
370
     0
100
AcDbHatch
 10
0.0
 20
0.0
 30
0.0
210
0.0
220
0.0
230
1.0
  2
NET
 70
     0
 71
     0
 91
        1
 92
        0
 93
       11
 72
     1
 10
220.8856482260942
 20
174.3292589741155
 11
220.0425509737708
 21
173.8424965485335
 72
     2
 10
220.5425509737708
 20
172.9764711447491
 40
1.000000000000002
 50
119.9999999999997
 51
270.0000000000008
 73
     1
 72
     1
 10
220.5425509737708
 20
171.9764711447491
 11
222.8916197778886
 21
171.9764711447491
 72
     1
 10
222.8916197778886
 20
171.9764711447491
 11
223.3005628227866
 21
173.4764568658303
 72
     1
 10
223.3005628227866
 20
173.4764568658303
 11
223.3725581736321
 21
189.9764711447491
 72
     1
 10
223.3725581736321
 20
189.9764711447491
 11
224.0969730914994
 21
189.9764711447491
 72
     1
 10
224.0969730914994
 20
189.9764711447491
 11
224.3856482260942
 21
190.4764711447491
 72
     1
 10
224.3856482260942
 20
190.4764711447491
 11
224.3856482260942
 21
192.9764711447491
 72
     1
 10
224.3856482260942
 20
192.9764711447491
 11
221.8856482260942
 21
192.9764711447491
 72
     1
 10
221.8856482260942
 20
192.9764711447491
 11
221.8856482260942
 21
176.0613097816844
 72
     2
 10
219.8856482260942
 20
176.0613097816844
 40
2.0
 50
0.0
 51
59.99999999999986
 73
     0
 97
        0
 75
     0
 76
     1
 52
44.999991007
 41
1.0
 77
     0
 78
     2
 53
44.99999100695533
 43
0.0
 44
0.0
 45
-2.245063677885963
 46
2.245064382648558
 79
     0
 53
134.9999910069553
 43
0.0
 44
0.0
 45
-2.245064382648558
 46
-2.245063677885963
 79
     0
 98
        1
 10
0.0
 20
0.0
  0
HATCH
  5
36B
330
1F
100
AcDbEntity
  8
0
  6
Continuous
 62
     7
370
     0
100
AcDbHatch
 10
0.0
 20
0.0
 30
0.0
210
0.0
220
0.0
230
1.0
  2
ANSI35
 70
     0
 71
     0
 91
        1
 92
        0
 93
       24
 72
     1
 10
162.2283110585614
 20
240.3927388872594
 11
165.8430159061736
 21
175.7390060510657
 72
     2
 10
167.8398974345376
 20
175.850649061052
 40
2.0
 50
183.2000000000015
 51
225.0000000000008
 73
     1
 72
     1
 10
166.4256838721645
 20
174.4364354986789
 11
166.8427825016399
 21
174.0193368692035
 72
     2
 10
165.4285689392668
 20
172.6051233068304
 40
2.0
 50
315.000000000002
 51
357.0000000000009
 73
     0
 72
     1
 10
167.4258280087759
 20
172.7097952193163
 11
168.2048258330898
 21
157.8456312541418
 72
     2
 10
170.7013996699762
 20
157.9764711447492
 40
2.5
 50
183.0000000000005
 51
270.0000000000008
 73
     1
 72
     4
 94
        3
 73
     1
 74
     0
 95
       11
 96
        7
 40
0.0098240675016233
 40
0.0098240675016233
 40
0.0098240675016233
 40
0.0098240675016233
 40
0.0324865820226782
 40
0.0324865820226782
 40
0.0324865820226782
 40
0.0552260191258435
 40
0.0552260191258435
 40
0.0552260191258435
 40
0.0552260191258435
 10
170.7013996699763
 20
155.476471216359
 42
1.0
 10
178.2574058965584
 20
155.479969548171
 42
1.0
 10
185.7913517784745
 20
156.4732874958868
 42
1.0
 10
193.3473581971418
 20
156.4763429062081
 42
1.0
 10
200.9288665270291
 20
156.4794086286967
 42
1.0
 10
208.4883886630471
 20
155.4800207725769
 42
1.0
 10
216.0698967822123
 20
155.4764719929252
 42
1.0
 72
     2
 10
216.0698967822123
 20
157.9764711447492
 40
2.5
 50
270.0000000000008
 51
357.0000000000005
 73
     1
 72
     1
 10
218.5664706190987
 20
157.8456312541418
 11
219.3454684434126
 21
172.7097952193163
 72
     2
 10
221.3427275129217
 20
172.6051233068304
 40
2.0
 50
183.0000000000007
 51
225.000000000002
 73
     0
 72
     1
 10
219.9285139505486
 20
174.0193368692035
 11
220.345612580024
 21
174.4364354986789
 72
     2
 10
218.9313990176509
 20
175.850649061052
 40
2.0
 50
315.0000000000014
 51
356.800000000001
 73
     1
 72
     1
 10
220.9282805460149
 20
175.7390060510657
 11
224.5429853936271
 21
240.3927388872594
 72
     2
 10
223.0453242473541
 20
240.4764711447492
 40
1.5
 50
356.800000000002
 51
450.0000000000008
 73
     1
 72
     1
 10
223.0453242473541
 20
241.9764711447492
 11
221.2722339635816
 21
241.9764711447492
 72
     2
 10
221.2722339635816
 20
240.4764711447492
 40
1.5
 50
90.0
 51
175.4999999999996
 73
     1
 72
     1
 10
219.7768579629819
 20
240.5941597883409
 11
214.2607778530482
 21
170.5057165703821
 72
     2
 10
208.2792738506494
 20
170.9764711447492
 40
6.0
 50
4.500000000000059
 51
90.0
 73
     0
 72
     1
 10
208.2792738506494
 20
164.9764711447492
 11
178.4920226015391
 21
164.9764711447492
 72
     2
 10
178.4920226015391
 20
170.9764711447492
 40
6.0
 50
90.0
 51
175.4999999999999
 73
     0
 72
     1
 10
172.5105185991403
 20
170.5057165703821
 11
166.9944384892066
 21
240.5941597883409
 72
     2
 10
165.4990624886069
 20
240.4764711447492
 40
1.5
 50
4.500000000000435
 51
90.0
 73
     1
 72
     1
 10
165.4990624886069
 20
241.9764711447492
 11
163.7259722048343
 21
241.9764711447492
 72
     2
 10
163.7259722048343
 20
240.4764711447492
 40
1.5
 50
90.0
 51
183.1999999999996
 73
     1
 97
        0
 75
     0
 76
     1
 52
90.0
 41
1.0
 77
     0
 78
     2
 53
135.0000000000002
 43
0.0
 44
0.0
 45
-4.490128060534562
 46
-4.490128060534592
 79
     0
 53
135.0000000000002
 43
-0.0000000000000157
 44
4.49013
 45
-4.490128060534562
 46
-4.490128060534592
 79
     4
 49
7.9375
 49
-1.5875
 49
0.0
 49
-1.5875
 98
        1
 10
0.0
 20
0.0
  0
HATCH
  5
36C
330
1F
100
AcDbEntity
  8
0
  6
Continuous
 62
     7
370
     0
100
AcDbHatch
 10
0.0
 20
0.0
 30
0.0
210
0.0
220
0.0
230
1.0
  2
ANSI31
 70
     0
 71
     0
 91
        1
 92
        0
 93
       19
 72
     1
 10
166.8856482260942
 20
249.9764711447492
 11
175.3856482260942
 21
249.9764711447492
 72
     2
 10
175.3856482260942
 20
247.9764711447492
 40
2.0
 50
270.0000000000008
 51
360.0000000000008
 73
     0
 72
     1
 10
177.3856482260942
 20
247.9764711447492
 11
177.3856482260942
 21
229.9764711447492
 72
     1
 10
177.3856482260942
 20
229.9764711447492
 11
179.3856482260943
 21
229.9764711447492
 72
     1
 10
179.3856482260943
 20
229.9764711447492
 11
179.3856482260943
 21
240.9764711447492
 72
     2
 10
180.3856482260943
 20
240.9764711447492
 40
1.0
 50
180.0
 51
270.0000000000008
 73
     0
 72
     1
 10
180.3856482260943
 20
241.9764711447492
 11
183.3856482260943
 21
241.9764711447492
 72
     1
 10
183.3856482260943
 20
241.9764711447492
 11
183.3856482260943
 21
251.6764711447492
 72
     2
 10
183.0856482260942
 20
251.6764711447492
 40
0.3
 50
0.0
 51
90.0
 73
     1
 72
     1
 10
183.0856482260942
 20
251.9764711447492
 11
160.1856482260942
 21
251.9764711447492
 72
     2
 10
160.1856482260942
 20
251.6764711447492
 40
0.3
 50
90.0
 51
180.0
 73
     1
 72
     1
 10
159.8856482260942
 20
251.6764711447492
 11
159.8856482260942
 21
230.2764711447492
 72
     2
 10
160.1856482260942
 20
230.2764711447492
 40
0.3
 50
180.0
 51
270.0000000000008
 73
     1
 72
     1
 10
160.1856482260942
 20
229.9764711447492
 11
161.5856482260943
 21
229.9764711447492
 72
     2
 10
161.5856482260943
 20
230.2764711447492
 40
0.3
 50
270.0000000000008
 51
360.0000000000008
 73
     1
 72
     1
 10
161.8856482260942
 20
230.2764711447492
 11
161.8856482260942
 21
243.9764711447492
 72
     1
 10
161.8856482260942
 20
243.9764711447492
 11
164.8856482260942
 21
243.9764711447492
 72
     1
 10
164.8856482260942
 20
243.9764711447492
 11
164.8856482260942
 21
247.9764711447492
 72
     2
 10
166.8856482260942
 20
247.9764711447492
 40
2.0
 50
180.0
 51
270.0000000000008
 73
     0
 97
        0
 75
     0
 76
     1
 52
0.0
 41
1.0
 77
     0
 78
     1
 53
45.0
 43
0.0
 44
0.0
 45
-2.245064030267288
 46
2.245064030267288
 79
     0
 98
        1
 10
0.0
 20
0.0
  0
HATCH
  5
36D
330
1F
100
AcDbEntity
  8
0
  6
Continuous
 62
     7
370
     0
100
AcDbHatch
 10
0.0
 20
0.0
 30
0.0
210
0.0
220
0.0
230
1.0
  2
ANSI31
 70
     0
 71
     0
 91
        1
 92
        0
 93
       19
 72
     1
 10
211.3856482260943
 20
249.9764711447492
 11
219.8856482260942
 21
249.9764711447492
 72
     2
 10
219.8856482260942
 20
247.9764711447492
 40
2.0
 50
270.0000000000008
 51
360.0000000000008
 73
     0
 72
     1
 10
221.8856482260942
 20
247.9764711447492
 11
221.8856482260942
 21
243.9764711447492
 72
     1
 10
221.8856482260942
 20
243.9764711447492
 11
224.8856482260942
 21
243.9764711447492
 72
     1
 10
224.8856482260942
 20
243.9764711447492
 11
224.8856482260942
 21
230.2764711447492
 72
     2
 10
225.1856482260943
 20
230.2764711447492
 40
0.3
 50
180.0
 51
270.0000000000008
 73
     1
 72
     1
 10
225.1856482260943
 20
229.9764711447492
 11
226.5856482260943
 21
229.9764711447492
 72
     2
 10
226.5856482260943
 20
230.2764711447492
 40
0.3
 50
270.0000000000008
 51
360.0000000000008
 73
     1
 72
     1
 10
226.8856482260942
 20
230.2764711447492
 11
226.8856482260942
 21
251.6764711447492
 72
     2
 10
226.5856482260943
 20
251.6764711447492
 40
0.3
 50
0.0
 51
90.0
 73
     1
 72
     1
 10
226.5856482260943
 20
251.9764711447492
 11
203.6856482260943
 21
251.9764711447492
 72
     2
 10
203.6856482260943
 20
251.6764711447492
 40
0.3
 50
90.0
 51
180.0
 73
     1
 72
     1
 10
203.3856482260942
 20
251.6764711447492
 11
203.3856482260942
 21
241.9764711447492
 72
     1
 10
203.3856482260942
 20
241.9764711447492
 11
206.3856482260942
 21
241.9764711447492
 72
     2
 10
206.3856482260942
 20
240.9764711447492
 40
1.0
 50
270.0000000000008
 51
360.0000000000008
 73
     0
 72
     1
 10
207.3856482260942
 20
240.9764711447492
 11
207.3856482260942
 21
229.9764711447492
 72
     1
 10
207.3856482260942
 20
229.9764711447492
 11
209.3856482260943
 21
229.9764711447492
 72
     1
 10
209.3856482260943
 20
229.9764711447492
 11
209.3856482260943
 21
247.9764711447492
 72
     2
 10
211.3856482260943
 20
247.9764711447492
 40
2.0
 50
180.0
 51
270.0000000000008
 73
     0
 97
        0
 75
     0
 76
     1
 52
0.0
 41
1.0
 77
     0
 78
     1
 53
45.0
 43
0.0
 44
0.0
 45
-2.245064030267288
 46
2.245064030267288
 79
     0
 98
        1
 10
0.0
 20
0.0
  0
HATCH
  5
36E
330
1F
100
AcDbEntity
  8
0
  6
Continuous
 62
     7
370
     0
100
AcDbHatch
 10
0.0
 20
0.0
 30
0.0
210
0.0
220
0.0
230
1.0
  2
NET
 70
     0
 71
     0
 91
        1
 92
        0
 93
        6
 72
     1
 10
202.3856482260942
 20
252.9764711447492
 11
202.3856482260943
 21
241.9764711447492
 72
     1
 10
202.3856482260943
 20
241.9764711447492
 11
203.3856482260943
 21
241.9764711447492
 72
     1
 10
203.3856482260943
 20
241.9764711447492
 11
203.3856482260942
 21
251.9764711447492
 72
     1
 10
203.3856482260942
 20
251.9764711447492
 11
206.3856482260942
 21
251.9764711447492
 72
     1
 10
206.3856482260942
 20
251.9764711447492
 11
206.3856482260942
 21
252.9764711447492
 72
     1
 10
206.3856482260942
 20
252.9764711447492
 11
202.3856482260942
 21
252.9764711447492
 97
        0
 75
     0
 76
     1
 52
134.999991007
 41
1.0
 77
     0
 78
     2
 53
134.9999910069555
 43
0.0
 44
0.0
 45
-2.24506438264855
 46
-2.245063677885971
 79
     0
 53
224.9999910069555
 43
0.0
 44
0.0
 45
2.245063677885971
 46
-2.24506438264855
 79
     0
 98
        1
 10
0.0
 20
0.0
  0
HATCH
  5
36F
330
1F
100
AcDbEntity
  8
0
  6
Continuous
 62
     7
370
     0
100
AcDbHatch
 10
0.0
 20
0.0
 30
0.0
210
0.0
220
0.0
230
1.0
  2
NET
 70
     0
 71
     0
 91
        1
 92
        0
 93
        6
 72
     1
 10
183.3856482260943
 20
251.9764711447492
 11
183.3856482260943
 21
241.9764711447492
 72
     1
 10
183.3856482260943
 20
241.9764711447492
 11
184.3856482260943
 21
241.9764711447492
 72
     1
 10
184.3856482260943
 20
241.9764711447492
 11
184.3856482260943
 21
252.9764711447492
 72
     1
 10
184.3856482260943
 20
252.9764711447492
 11
180.3856482260943
 21
252.9764711447492
 72
     1
 10
180.3856482260943
 20
252.9764711447492
 11
180.3856482260943
 21
251.9764711447492
 72
     1
 10
180.3856482260943
 20
251.9764711447492
 11
183.3856482260943
 21
251.9764711447492
 97
        0
 75
     0
 76
     1
 52
134.999991007
 41
1.0
 77
     0
 78
     2
 53
134.9999910069555
 43
0.0
 44
0.0
 45
-2.24506438264855
 46
-2.245063677885971
 79
     0
 53
224.9999910069555
 43
0.0
 44
0.0
 45
2.245063677885971
 46
-2.24506438264855
 79
     0
 98
        1
 10
0.0
 20
0.0
  0
HATCH
  5
370
330
1F
100
AcDbEntity
  8
0
  6
Continuous
 62
     7
370
     0
100
AcDbHatch
 10
0.0
 20
0.0
 30
0.0
210
0.0
220
0.0
230
1.0
  2
ANSI34
 70
     0
 71
     0
 91
        1
 92
        0
 93
       12
 72
     1
 10
161.8856482260942
 20
243.9764711447492
 11
161.8856482260942
 21
241.9764711447492
 72
     1
 10
161.8856482260942
 20
241.9764711447492
 11
165.8594338388914
 21
241.9764711447492
 72
     2
 10
165.8594338388914
 20
240.9764711447492
 40
1.0
 50
270.0000000000024
 51
355.5000000000005
 73
     0
 72
     1
 10
166.8563511726245
 20
241.0549302404771
 11
167.8131213840193
 21
228.8980120490214
 72
     2
 10
168.8100387177525
 20
228.9764711447492
 40
1.0
 50
184.5000000000011
 51
270.0000000000008
 73
     1
 72
     1
 10
168.8100387177525
 20
227.9764711447492
 11
179.3856482260943
 21
227.9764711447492
 72
     1
 10
179.3856482260943
 20
227.9764711447492
 11
179.3856482260943
 21
229.9764711447492
 72
     1
 10
179.3856482260943
 20
229.9764711447492
 11
170.3100387177525
 21
229.9764711447492
 72
     2
 10
170.3100387177525
 20
230.9764711447492
 40
1.0
 50
90.0
 51
175.4999999999997
 73
     0
 72
     1
 10
169.3131213840193
 20
230.8980120490214
 11
168.4288780146994
 21
242.1333893362049
 72
     2
 10
166.4350433472332
 20
241.9764711447492
 40
2.0
 50
4.500000000000372
 51
90.0
 73
     1
 72
     1
 10
166.4350433472332
 20
243.9764711447492
 11
161.8856482260942
 21
243.9764711447492
 97
        0
 75
     0
 76
     1
 52
90.0
 41
1.0
 77
     0
 78
     4
 53
135.0000000000002
 43
0.0
 44
0.0
 45
-13.47038418160369
 46
-13.47038418160378
 79
     0
 53
135.0000000000002
 43
-0.0000000000000157
 44
4.49013
 45
-13.47038418160369
 46
-13.47038418160378
 79
     0
 53
135.0000000000002
 43
-0.0000000000000314
 44
8.98026
 45
-13.47038418160369
 46
-13.47038418160378
 79
     0
 53
135.0000000000002
 43
-0.000000000000047
 44
13.4704
 45
-13.47038418160369
 46
-13.47038418160378
 79
     0
 98
        1
 10
0.0
 20
0.0
  0
HATCH
  5
371
330
1F
100
AcDbEntity
  8
0
  6
Continuous
 62
     7
370
     0
100
AcDbHatch
 10
0.0
 20
0.0
 30
0.0
210
0.0
220
0.0
230
1.0
  2
ANSI34
 70
     0
 71
     0
 91
        1
 92
        0
 93
       12
 72
     2
 10
220.9118626132971
 20
240.9764711447492
 40
1.0
 50
184.5000000000013
 51
270.0000000000008
 73
     0
 72
     1
 10
220.9118626132971
 20
241.9764711447492
 11
224.8856482260942
 21
241.9764711447492
 72
     1
 10
224.8856482260942
 20
241.9764711447492
 11
224.8856482260942
 21
243.9764711447492
 72
     1
 10
224.8856482260942
 20
243.9764711447492
 11
220.3362531049553
 21
243.9764711447492
 72
     2
 10
220.3362531049553
 20
241.9764711447492
 40
2.0
 50
90.0
 51
175.4999999999996
 73
     1
 72
     1
 10
218.3424184374891
 20
242.1333893362049
 11
217.4581750681692
 21
230.8980120490214
 72
     2
 10
216.461257734436
 20
230.9764711447492
 40
1.0
 50
4.500000000000307
 51
90.0
 73
     0
 72
     1
 10
216.461257734436
 20
229.9764711447492
 11
207.3856482260942
 21
229.9764711447492
 72
     1
 10
207.3856482260942
 20
229.9764711447492
 11
207.3856482260942
 21
227.9764711447492
 72
     1
 10
207.3856482260942
 20
227.9764711447492
 11
217.961257734436
 21
227.9764711447492
 72
     2
 10
217.961257734436
 20
228.9764711447492
 40
1.0
 50
270.0000000000008
 51
355.5000000000005
 73
     1
 72
     1
 10
218.9581750681692
 20
228.8980120490214
 11
219.914945279564
 21
241.0549302404771
 97
        0
 75
     0
 76
     1
 52
90.0
 41
1.0
 77
     0
 78
     4
 53
135.0000000000002
 43
0.0
 44
0.0
 45
-13.47038418160369
 46
-13.47038418160378
 79
     0
 53
135.0000000000002
 43
-0.0000000000000157
 44
4.49013
 45
-13.47038418160369
 46
-13.47038418160378
 79
     0
 53
135.0000000000002
 43
-0.0000000000000314
 44
8.98026
 45
-13.47038418160369
 46
-13.47038418160378
 79
     0
 53
135.0000000000002
 43
-0.000000000000047
 44
13.4704
 45
-13.47038418160369
 46
-13.47038418160378
 79
     0
 98
        1
 10
0.0
 20
0.0
  0
HATCH
  5
372
330
1F
100
AcDbEntity
  8
0
  6
Continuous
 62
     7
370
     0
100
AcDbHatch
 10
0.0
 20
0.0
 30
0.0
210
0.0
220
0.0
230
1.0
  2
ANSI33
 70
     0
 71
     0
 91
        1
 92
        0
 93
        7
 72
     1
 10
202.3856482260942
 20
263.7764711447492
 11
256.2643278825346
 21
263.7764711447492
 72
     1
 10
256.2643278825346
 20
263.7764711447492
 11
253.5643278825346
 21
266.4764711447492
 72
     1
 10
253.5643278825346
 20
266.4764711447492
 11
195.3856482260942
 21
266.4764711447492
 72
     1
 10
195.3856482260942
 20
266.4764711447492
 11
195.3856482260942
 21
265.7764711447492
 72
     1
 10
195.3856482260942
 20
265.7764711447492
 11
196.3856482260942
 21
264.7764711447492
 72
     1
 10
196.3856482260942
 20
264.7764711447492
 11
202.3856482260942
 21
264.7764711447492
 72
     1
 10
202.3856482260942
 20
264.7764711447492
 11
202.3856482260942
 21
263.7764711447492
 97
        0
 75
     0
 76
     1
 52
0.0
 41
1.0
 77
     0
 78
     2
 53
45.0
 43
0.0
 44
0.0
 45
-4.490128060534576
 46
4.490128060534577
 79
     0
 53
45.0
 43
4.49013
 44
0.0
 45
-4.490128060534576
 46
4.490128060534577
 79
     2
 49
3.175
 49
-1.5875
 98
        1
 10
0.0
 20
0.0
  0
HATCH
  5
373
330
1F
100
AcDbEntity
  8
0
  6
Continuous
 62
     7
370
     0
100
AcDbHatch
 10
0.0
 20
0.0
 30
0.0
210
0.0
220
0.0
230
1.0
  2
ANSI33
 70
     0
 71
     0
 91
        1
 92
        0
 93
       11
 72
     1
 10
184.3856482260943
 20
263.7764711447492
 11
184.3856482260943
 21
264.7764711447492
 72
     1
 10
184.3856482260943
 20
264.7764711447492
 11
190.3856482260943
 21
264.7764711447492
 72
     1
 10
190.3856482260943
 20
264.7764711447492
 11
191.3856482260942
 21
265.7764711447492
 72
     1
 10
191.3856482260942
 20
265.7764711447492
 11
191.3856482260942
 21
266.4764711447492
 72
     1
 10
191.3856482260942
 20
266.4764711447492
 11
181.5659064118025
 21
266.4764711447492
 72
     1
 10
181.5659064118025
 20
266.4764711447492
 11
181.3856482260943
 21
266.1764711447492
 72
     1
 10
181.3856482260943
 20
266.1764711447492
 11
173.8856482260942
 21
266.1764711447492
 72
     1
 10
173.8856482260942
 20
266.1764711447492
 11
173.3856482260942
 21
265.6764711447492
 72
     1
 10
173.3856482260942
 20
265.6764711447492
 11
173.3856482260942
 21
264.0764711447492
 72
     2
 10
173.6856482260943
 20
264.0764711447492
 40
0.3
 50
180.0
 51
270.0000000000008
 73
     1
 72
     1
 10
173.6856482260943
 20
263.7764711447492
 11
184.3856482260943
 21
263.7764711447492
 97
        0
 75
     0
 76
     1
 52
0.0
 41
1.0
 77
     0
 78
     2
 53
45.0
 43
0.0
 44
0.0
 45
-4.490128060534576
 46
4.490128060534577
 79
     0
 53
45.0
 43
4.49013
 44
0.0
 45
-4.490128060534576
 46
4.490128060534577
 79
     2
 49
3.175
 49
-1.5875
 98
        1
 10
0.0
 20
0.0
  0
HATCH
  5
374
330
1F
100
AcDbEntity
  8
0
  6
Continuous
 62
     7
370
     0
100
AcDbHatch
 10
0.0
 20
0.0
 30
0.0
210
0.0
220
0.0
230
1.0
  2
ANSI33
 70
     0
 71
     0
 91
        1
 92
        0
 93
       12
 72
     1
 10
181.5659064118025
 20
270.0764711447492
 11
255.3856482260942
 21
270.0764711447492
 72
     1
 10
255.3856482260942
 20
270.0764711447492
 11
256.4671973403438
 21
268.2764711447492
 72
     1
 10
256.4671973403438
 20
268.2764711447492
 11
256.2944569151255
 21
267.9889827992793
 72
     1
 10
256.2944569151255
 20
267.9889827992793
 11
258.3856482260942
 21
265.8977914883088
 72
     1
 10
258.3856482260942
 20
265.8977914883088
 11
258.3856482260942
 21
271.4764711447492
 72
     2
 10
258.0856482260942
 20
271.4764711447492
 40
0.3
 50
0.0
 51
90.0
 73
     1
 72
     1
 10
258.0856482260942
 20
271.7764711447492
 11
173.6856482260943
 21
271.7764711447492
 72
     2
 10
173.6856482260943
 20
271.4764711447492
 40
0.3
 50
90.0
 51
180.0
 73
     1
 72
     1
 10
173.3856482260942
 20
271.4764711447492
 11
173.3856482260942
 21
270.8764711447492
 72
     1
 10
173.3856482260942
 20
270.8764711447492
 11
173.8856482260942
 21
270.3764711447492
 72
     1
 10
173.8856482260942
 20
270.3764711447492
 11
181.3856482260943
 21
270.3764711447492
 72
     1
 10
181.3856482260943
 20
270.3764711447492
 11
181.5659064118025
 21
270.0764711447492
 97
        0
 75
     0
 76
     1
 52
0.0
 41
1.0
 77
     0
 78
     2
 53
45.0
 43
0.0
 44
0.0
 45
-4.490128060534576
 46
4.490128060534577
 79
     0
 53
45.0
 43
4.49013
 44
0.0
 45
-4.490128060534576
 46
4.490128060534577
 79
     2
 49
3.175
 49
-1.5875
 98
        1
 10
0.0
 20
0.0
  0
HATCH
  5
375
330
1F
100
AcDbEntity
  8
0
  6
Continuous
 62
     7
370
     0
100
AcDbHatch
 10
0.0
 20
0.0
 30
0.0
210
0.0
220
0.0
230
1.0
  2
ANSI33
 70
     0
 71
     0
 91
        1
 92
        0
 93
       14
 72
     1
 10
190.2856482260943
 20
264.7764711447492
 11
184.6743233606891
 21
264.7764711447492
 72
     1
 10
184.6743233606891
 20
264.7764711447492
 11
184.3856482260943
 21
264.2764711447492
 72
     1
 10
184.3856482260943
 20
264.2764711447492
 11
184.3856482260943
 21
241.9764711447492
 72
     1
 10
184.3856482260943
 20
241.9764711447492
 11
184.8856482260943
 21
241.9764711447492
 72
     1
 10
184.8856482260943
 20
241.9764711447492
 11
184.8856482260943
 21
240.4764711447492
 72
     1
 10
184.8856482260943
 20
240.4764711447492
 11
184.3856482260943
 21
240.4764711447492
 72
     1
 10
184.3856482260943
 20
240.4764711447492
 11
184.3856482260943
 21
239.7764711447492
 72
     1
 10
184.3856482260943
 20
239.7764711447492
 11
184.6743233606891
 21
239.2764711447492
 72
     1
 10
184.6743233606891
 20
239.2764711447492
 11
184.8856482260943
 21
239.2764711447492
 72
     1
 10
184.8856482260943
 20
239.2764711447492
 11
185.3856482260943
 21
239.7764711447492
 72
     1
 10
185.3856482260943
 20
239.7764711447492
 11
185.3856482260943
 21
249.7764711447492
 72
     1
 10
185.3856482260943
 20
249.7764711447492
 11
189.7082979569046
 21
249.7764711447492
 72
     1
 10
189.7082979569046
 20
249.7764711447492
 11
190.2856482260943
 21
250.7764711447492
 72
     1
 10
190.2856482260943
 20
250.7764711447492
 11
190.2856482260943
 21
264.7764711447492
 97
        0
 75
     0
 76
     1
 52
90.0
 41
1.0
 77
     0
 78
     2
 53
135.0000000000002
 43
0.0
 44
0.0
 45
-4.490128060534562
 46
-4.490128060534592
 79
     0
 53
135.0000000000002
 43
-0.0000000000000157
 44
4.49013
 45
-4.490128060534562
 46
-4.490128060534592
 79
     2
 49
3.175
 49
-1.5875
 98
        1
 10
0.0
 20
0.0
  0
HATCH
  5
376
330
1F
100
AcDbEntity
  8
0
  6
Continuous
 62
     7
370
     0
100
AcDbHatch
 10
0.0
 20
0.0
 30
0.0
210
0.0
220
0.0
230
1.0
  2
ANSI33
 70
     0
 71
     0
 91
        1
 92
        0
 93
       14
 72
     1
 10
202.3856482260942
 20
241.9764711447492
 11
202.3856482260942
 21
264.2764711447492
 72
     1
 10
202.3856482260942
 20
264.2764711447492
 11
202.0969730914994
 21
264.7764711447492
 72
     1
 10
202.0969730914994
 20
264.7764711447492
 11
196.4856482260943
 21
264.7764711447492
 72
     1
 10
196.4856482260943
 20
264.7764711447492
 11
196.4856482260943
 21
250.7764711447492
 72
     1
 10
196.4856482260943
 20
250.7764711447492
 11
197.0629984952839
 21
249.7764711447492
 72
     1
 10
197.0629984952839
 20
249.7764711447492
 11
201.3856482260942
 21
249.7764711447492
 72
     1
 10
201.3856482260942
 20
249.7764711447492
 11
201.3856482260942
 21
239.7764711447492
 72
     1
 10
201.3856482260942
 20
239.7764711447492
 11
201.8856482260942
 21
239.2764711447492
 72
     1
 10
201.8856482260942
 20
239.2764711447492
 11
202.0969730914994
 21
239.2764711447492
 72
     1
 10
202.0969730914994
 20
239.2764711447492
 11
202.3856482260942
 21
239.7764711447492
 72
     1
 10
202.3856482260942
 20
239.7764711447492
 11
202.3856482260942
 21
240.4764711447492
 72
     1
 10
202.3856482260942
 20
240.4764711447492
 11
201.8856482260942
 21
240.4764711447492
 72
     1
 10
201.8856482260942
 20
240.4764711447492
 11
201.8856482260942
 21
241.9764711447492
 72
     1
 10
201.8856482260942
 20
241.9764711447492
 11
202.3856482260942
 21
241.9764711447492
 97
        0
 75
     0
 76
     1
 52
90.0
 41
1.0
 77
     0
 78
     2
 53
135.0000000000002
 43
0.0
 44
0.0
 45
-4.490128060534562
 46
-4.490128060534592
 79
     0
 53
135.0000000000002
 43
-0.0000000000000157
 44
4.49013
 45
-4.490128060534562
 46
-4.490128060534592
 79
     2
 49
3.175
 49
-1.5875
 98
        1
 10
0.0
 20
0.0
  0
HATCH
  5
377
330
1F
100
AcDbEntity
  8
0
  6
Continuous
 62
     7
370
     0
100
AcDbHatch
 10
0.0
 20
0.0
 30
0.0
210
0.0
220
0.0
230
1.0
  2
ANSI32
 70
     0
 71
     0
 91
        1
 92
        0
 93
       11
 72
     1
 10
173.6425690958836
 20
265.7764711447492
 11
176.8856482260942
 21
265.7764711447492
 72
     1
 10
176.8856482260942
 20
265.7764711447492
 11
179.3856482260943
 21
268.2764711447492
 72
     1
 10
179.3856482260943
 20
268.2764711447492
 11
176.8856482260942
 21
270.7764711447492
 72
     1
 10
176.8856482260942
 20
270.7764711447492
 11
173.6425690958836
 21
270.7764711447492
 72
     1
 10
173.6425690958836
 20
270.7764711447492
 11
173.3856482260942
 21
270.3314711447492
 72
     1
 10
173.3856482260942
 20
270.3314711447492
 11
173.3856482260942
 21
269.5264711447492
 72
     1
 10
173.3856482260942
 20
269.5264711447492
 11
176.3856482260942
 21
269.5264711447492
 72
     1
 10
176.3856482260942
 20
269.5264711447492
 11
176.3856482260942
 21
267.0264711447492
 72
     1
 10
176.3856482260942
 20
267.0264711447492
 11
173.3856482260942
 21
267.0264711447492
 72
     1
 10
173.3856482260942
 20
267.0264711447492
 11
173.3856482260942
 21
266.2214711447492
 72
     1
 10
173.3856482260942
 20
266.2214711447492
 11
173.6425690958836
 21
265.7764711447492
 97
        0
 75
     0
 76
     1
 52
90.0
 41
1.0
 77
     0
 78
     2
 53
135.0000000000002
 43
0.0
 44
0.0
 45
-6.735192090801843
 46
-6.735192090801889
 79
     0
 53
135.0000000000002
 43
-0.0000000000000157
 44
4.49013
 45
-6.735192090801843
 46
-6.735192090801889
 79
     0
 98
        1
 10
0.0
 20
0.0
  0
HATCH
  5
378
330
1F
100
AcDbEntity
  8
0
  6
Continuous
 62
     7
370
     0
100
AcDbHatch
 10
0.0
 20
0.0
 30
0.0
210
0.0
220
0.0
230
1.0
  2
ANSI32
 70
     0
 71
     0
 91
        1
 92
        0
 93
        4
 72
     1
 10
182.4856482260942
 20
240.7764711447492
 11
184.8856482260943
 21
240.7764711447492
 72
     1
 10
184.8856482260943
 20
240.7764711447492
 11
184.8856482260943
 21
241.9764711447492
 72
     1
 10
184.8856482260943
 20
241.9764711447492
 11
182.4856482260942
 21
241.9764711447492
 72
     1
 10
182.4856482260942
 20
241.9764711447492
 11
182.4856482260942
 21
240.7764711447492
 97
        0
 75
     0
 76
     1
 52
0.0
 41
1.0
 77
     0
 78
     2
 53
45.0
 43
0.0
 44
0.0
 45
-6.735192090801865
 46
6.735192090801866
 79
     0
 53
45.0
 43
4.49013
 44
0.0
 45
-6.735192090801865
 46
6.735192090801866
 79
     0
 98
        1
 10
0.0
 20
0.0
  0
HATCH
  5
379
330
1F
100
AcDbEntity
  8
0
  6
Continuous
 62
     7
370
     0
100
AcDbHatch
 10
0.0
 20
0.0
 30
0.0
210
0.0
220
0.0
230
1.0
  2
NET
 70
     0
 71
     0
 91
        1
 92
        0
 93
       32
 72
     1
 10
190.7856482260943
 20
196.8264711447492
 11
190.7856482260943
 21
179.5764711447492
 72
     1
 10
190.7856482260943
 20
179.5764711447492
 11
195.9856482260942
 21
179.5764711447492
 72
     1
 10
195.9856482260942
 20
179.5764711447492
 11
195.9856482260942
 21
196.8264711447492
 72
     1
 10
195.9856482260942
 20
196.8264711447492
 11
197.6356482260942
 21
198.4764711447492
 72
     1
 10
197.6356482260942
 20
198.4764711447492
 11
197.6356482260942
 21
203.9764711447492
 72
     1
 10
197.6356482260942
 20
203.9764711447492
 11
199.6856482260943
 21
206.0264711447492
 72
     1
 10
199.6856482260943
 20
206.0264711447492
 11
199.6856482260943
 21
227.9764711447492
 72
     1
 10
199.6856482260943
 20
227.9764711447492
 11
201.1356482260942
 21
227.9764711447492
 72
     1
 10
201.1356482260942
 20
227.9764711447492
 11
201.1356482260942
 21
233.5764711447492
 72
     1
 10
201.1356482260942
 20
233.5764711447492
 11
198.3856482260942
 21
233.5764711447492
 72
     1
 10
198.3856482260942
 20
233.5764711447492
 11
198.3856482260942
 21
237.0764711447492
 72
     1
 10
198.3856482260942
 20
237.0764711447492
 11
196.3856482260942
 21
237.0764711447492
 72
     1
 10
196.3856482260942
 20
237.0764711447492
 11
196.3856482260942
 21
245.4764711447492
 72
     1
 10
196.3856482260942
 20
245.4764711447492
 11
197.6356482260942
 21
245.4764711447492
 72
     1
 10
197.6356482260942
 20
245.4764711447492
 11
197.6356482260942
 21
247.0764711447492
 72
     1
 10
197.6356482260942
 20
247.0764711447492
 11
196.3856482260942
 21
247.0764711447492
 72
     1
 10
196.3856482260942
 20
247.0764711447492
 11
196.3856482260942
 21
254.0764711447492
 72
     1
 10
196.3856482260942
 20
254.0764711447492
 11
190.3856482260943
 21
254.0764711447492
 72
     1
 10
190.3856482260943
 20
254.0764711447492
 11
190.3856482260942
 21
247.0764711447492
 72
     1
 10
190.3856482260942
 20
247.0764711447492
 11
189.1356482260942
 21
247.0764711447492
 72
     1
 10
189.1356482260942
 20
247.0764711447492
 11
189.1356482260942
 21
245.4764711447492
 72
     1
 10
189.1356482260942
 20
245.4764711447492
 11
190.3856482260942
 21
245.4764711447492
 72
     1
 10
190.3856482260942
 20
245.4764711447492
 11
190.3856482260942
 21
237.0764711447492
 72
     1
 10
190.3856482260942
 20
237.0764711447492
 11
188.3856482260943
 21
237.0764711447492
 72
     1
 10
188.3856482260943
 20
237.0764711447492
 11
188.3856482260943
 21
233.5764711447492
 72
     1
 10
188.3856482260943
 20
233.5764711447492
 11
185.6356482260942
 21
233.5764711447492
 72
     1
 10
185.6356482260942
 20
233.5764711447492
 11
185.6356482260942
 21
227.9764711447492
 72
     1
 10
185.6356482260942
 20
227.9764711447492
 11
187.0856482260942
 21
227.9764711447492
 72
     1
 10
187.0856482260942
 20
227.9764711447492
 11
187.0856482260942
 21
206.0264711447492
 72
     1
 10
187.0856482260942
 20
206.0264711447492
 11
189.1356482260942
 21
203.9764711447492
 72
     1
 10
189.1356482260942
 20
203.9764711447492
 11
189.1356482260942
 21
198.4764711447492
 72
     1
 10
189.1356482260942
 20
198.4764711447492
 11
190.7856482260943
 21
196.8264711447492
 97
        0
 75
     0
 76
     1
 52
44.999991007
 41
1.0
 77
     0
 78
     2
 53
44.99999100695533
 43
0.0
 44
0.0
 45
-2.245063677885963
 46
2.245064382648558
 79
     0
 53
134.9999910069553
 43
0.0
 44
0.0
 45
-2.245064382648558
 46
-2.245063677885963
 79
     0
 98
        1
 10
0.0
 20
0.0
  0
HATCH
  5
37A
330
1F
100
AcDbEntity
  8
0
  6
Continuous
 62
     7
370
     0
100
AcDbHatch
 10
0.0
 20
0.0
 30
0.0
210
0.0
220
0.0
230
1.0
  2
ANSI33
 70
     0
 71
     0
 91
        1
 92
        0
 93
        6
 72
     1
 10
213.3856482260942
 20
226.2764711447492
 11
213.3856482260942
 21
227.9764711447492
 72
     1
 10
213.3856482260942
 20
227.9764711447492
 11
199.8856482260942
 21
227.9764711447492
 72
     1
 10
199.8856482260942
 20
227.9764711447492
 11
199.8856482260942
 21
226.2764711447492
 72
     2
 10
200.1856482260943
 20
226.2764711447492
 40
0.3
 50
180.0
 51
270.0000000000008
 73
     1
 72
     1
 10
200.1856482260943
 20
225.9764711447492
 11
213.0856482260943
 21
225.9764711447492
 72
     2
 10
213.0856482260943
 20
226.2764711447492
 40
0.3
 50
270.0000000000008
 51
360.0000000000008
 73
     1
 97
        0
 75
     0
 76
     1
 52
90.0
 41
1.0
 77
     0
 78
     2
 53
135.0000000000002
 43
0.0
 44
0.0
 45
-4.490128060534562
 46
-4.490128060534592
 79
     0
 53
135.0000000000002
 43
-0.0000000000000157
 44
4.49013
 45
-4.490128060534562
 46
-4.490128060534592
 79
     2
 49
3.175
 49
-1.5875
 98
        1
 10
0.0
 20
0.0
  0
HATCH
  5
37B
330
1F
100
AcDbEntity
  8
0
  6
Continuous
 62
     7
370
     0
100
AcDbHatch
 10
0.0
 20
0.0
 30
0.0
210
0.0
220
0.0
230
1.0
  2
ANSI33
 70
     0
 71
     0
 91
        1
 92
        0
 93
        6
 72
     1
 10
173.3856482260942
 20
227.9764711447492
 11
173.3856482260942
 21
226.2764711447492
 72
     2
 10
173.6856482260943
 20
226.2764711447492
 40
0.3
 50
180.0
 51
270.0000000000008
 73
     1
 72
     1
 10
173.6856482260943
 20
225.9764711447492
 11
186.5856482260942
 21
225.9764711447492
 72
     2
 10
186.5856482260942
 20
226.2764711447492
 40
0.3
 50
270.0000000000008
 51
360.0000000000008
 73
     1
 72
     1
 10
186.8856482260943
 20
226.2764711447492
 11
186.8856482260943
 21
227.9764711447492
 72
     1
 10
186.8856482260943
 20
227.9764711447492
 11
173.3856482260942
 21
227.9764711447492
 97
        0
 75
     0
 76
     1
 52
90.0
 41
1.0
 77
     0
 78
     2
 53
135.0000000000002
 43
0.0
 44
0.0
 45
-4.490128060534562
 46
-4.490128060534592
 79
     0
 53
135.0000000000002
 43
-0.0000000000000157
 44
4.49013
 45
-4.490128060534562
 46
-4.490128060534592
 79
     2
 49
3.175
 49
-1.5875
 98
        1
 10
0.0
 20
0.0
  0
HATCH
  5
37C
330
1F
100
AcDbEntity
  8
0
  6
Continuous
 62
     7
370
     0
100
AcDbHatch
 10
0.0
 20
0.0
 30
0.0
210
0.0
220
0.0
230
1.0
  2
ANSI32
 70
     0
 71
     0
 91
        1
 92
        0
 93
       11
 72
     1
 10
146.8856482260942
 20
149.2966118690149
 11
146.8856482260942
 21
155.9764711447492
 72
     1
 10
146.8856482260942
 20
155.9764711447492
 11
143.8856482260942
 21
158.9764711447492
 72
     1
 10
143.8856482260942
 20
158.9764711447492
 11
140.8856482260942
 21
155.9764711447492
 72
     1
 10
140.8856482260942
 20
155.9764711447492
 11
140.8856482260942
 21
149.2966118690149
 72
     1
 10
140.8856482260942
 20
149.2966118690149
 11
141.4401482260942
 21
148.9764711447492
 72
     1
 10
141.4401482260942
 20
148.9764711447492
 11
142.3856482260942
 21
148.9764711447492
 72
     1
 10
142.3856482260942
 20
148.9764711447492
 11
142.3856482260942
 21
152.4764711447492
 72
     1
 10
142.3856482260942
 20
152.4764711447492
 11
145.3856482260942
 21
152.4764711447492
 72
     1
 10
145.3856482260942
 20
152.4764711447492
 11
145.3856482260942
 21
148.9764711447492
 72
     1
 10
145.3856482260942
 20
148.9764711447492
 11
146.3311482260942
 21
148.9764711447492
 72
     1
 10
146.3311482260942
 20
148.9764711447492
 11
146.8856482260942
 21
149.2966118690149
 97
        0
 75
     0
 76
     1
 52
90.0
 41
1.0
 77
     0
 78
     2
 53
135.0000000000002
 43
0.0
 44
0.0
 45
-6.735192090801843
 46
-6.735192090801889
 79
     0
 53
135.0000000000002
 43
-0.0000000000000157
 44
4.49013
 45
-6.735192090801843
 46
-6.735192090801889
 79
     0
 98
        1
 10
0.0
 20
0.0
  0
HATCH
  5
37D
330
1F
100
AcDbEntity
  8
0
  6
Continuous
 62
     7
370
     0
100
AcDbHatch
 10
0.0
 20
0.0
 30
0.0
210
0.0
220
0.0
230
1.0
  2
ANSI33
 70
     0
 71
     0
 91
        1
 92
        0
 93
       30
 72
     1
 10
143.8856482260942
 20
184.9764711447492
 11
141.8856482260942
 21
186.9764711447492
 72
     1
 10
141.8856482260942
 20
186.9764711447492
 11
139.3856482260942
 21
186.9764711447492
 72
     1
 10
139.3856482260942
 20
186.9764711447492
 11
139.3856482260942
 21
156.9764711447492
 72
     1
 10
139.3856482260942
 20
156.9764711447492
 11
141.8856482260942
 21
156.9764711447492
 72
     1
 10
141.8856482260942
 20
156.9764711447492
 11
143.8856482260942
 21
158.9764711447492
 72
     1
 10
143.8856482260942
 20
158.9764711447492
 11
145.8856482260942
 21
156.9764711447492
 72
     1
 10
145.8856482260942
 20
156.9764711447492
 11
147.8856482260942
 21
156.9764711447492
 72
     1
 10
147.8856482260942
 20
156.9764711447492
 11
147.8856482260942
 21
158.1835779259358
 72
     2
 10
145.3856482260942
 20
158.1835779259358
 40
2.5
 50
0.0
 51
45.0
 73
     1
 72
     1
 10
147.1534151790606
 20
159.9513448789021
 11
145.4714346637211
 21
161.6333253942416
 72
     2
 10
146.8856482260942
 20
163.0475389566147
 40
2.0
 50
135.0000000000011
 51
180.0
 73
     0
 72
     1
 10
144.8856482260942
 20
163.0475389566147
 11
144.8856482260942
 21
165.0670437792246
 72
     1
 10
144.8856482260942
 20
165.0670437792246
 11
144.7856482260942
 21
165.0670437783955
 72
     1
 10
144.7856482260942
 20
165.0670437783955
 11
144.7856482260942
 21
165.2237921153378
 72
     1
 10
144.7856482260942
 20
165.2237921153378
 11
144.8856482260942
 21
165.223792112602
 72
     1
 10
144.8856482260942
 20
165.223792112602
 11
144.8856482260942
 21
165.8016406438296
 72
     1
 10
144.8856482260942
 20
165.8016406438296
 11
144.7856482260942
 21
165.8016406509243
 72
     1
 10
144.7856482260942
 20
165.8016406509243
 11
144.7856482260942
 21
165.9595540615907
 72
     1
 10
144.7856482260942
 20
165.9595540615907
 11
144.8856482260942
 21
165.959554063593
 72
     1
 10
144.8856482260942
 20
165.959554063593
 11
144.8856482260942
 21
166.6651859290667
 72
     1
 10
144.8856482260942
 20
166.6651859290667
 11
144.7856482260942
 21
166.6651859423623
 72
     1
 10
144.7856482260942
 20
166.6651859423623
 11
144.7856482260943
 21
166.8785306329685
 72
     1
 10
144.7856482260943
 20
166.8785306329685
 11
144.8856482260942
 21
166.8785306269285
 72
     1
 10
144.8856482260942
 20
166.8785306269285
 11
144.8856482260942
 21
180.9054033328837
 72
     2
 10
146.8856482260942
 20
180.9054033328837
 40
2.0
 50
180.0
 51
225.0000000000014
 73
     0
 72
     1
 10
145.4714346637211
 20
182.3196168952568
 11
147.1534151790606
 21
184.0015974105962
 72
     2
 10
145.3856482260942
 20
185.7693643635626
 40
2.5
 50
314.9999999999999
 51
360.0000000000008
 73
     1
 72
     1
 10
147.8856482260942
 20
185.7693643635626
 11
147.8856482260942
 21
186.9764711447492
 72
     1
 10
147.8856482260942
 20
186.9764711447492
 11
145.8856482260942
 21
186.9764711447492
 72
     1
 10
145.8856482260942
 20
186.9764711447492
 11
143.8856482260942
 21
184.9764711447492
 97
        0
 75
     0
 76
     1
 52
0.0
 41
1.0
 77
     0
 78
     2
 53
45.0
 43
0.0
 44
0.0
 45
-4.490128060534576
 46
4.490128060534577
 79
     0
 53
45.0
 43
4.49013
 44
0.0
 45
-4.490128060534576
 46
4.490128060534577
 79
     2
 49
3.175
 49
-1.5875
 98
        1
 10
0.0
 20
0.0
  0
HATCH
  5
37E
330
1F
100
AcDbEntity
  8
0
  6
Continuous
 62
     7
370
     0
100
AcDbHatch
 10
0.0
 20
0.0
 30
0.0
210
0.0
220
0.0
230
1.0
  2
ANSI37
 70
     0
 71
     0
 91
        1
 92
        0
 93
        4
 72
     1
 10
139.3856482260942
 20
155.9764711447492
 11
139.3856482260942
 21
187.9764711447492
 72
     1
 10
139.3856482260942
 20
187.9764711447492
 11
136.1856482260942
 21
187.9764711447492
 72
     1
 10
136.1856482260942
 20
187.9764711447492
 11
136.1856482260942
 21
155.9764711447492
 72
     1
 10
136.1856482260942
 20
155.9764711447492
 11
139.3856482260942
 21
155.9764711447492
 97
        0
 75
     0
 76
     1
 52
0.0
 41
1.0
 77
     0
 78
     2
 53
45.0
 43
0.0
 44
0.0
 45
-2.245064030267288
 46
2.245064030267288
 79
     0
 53
135.0
 43
0.0
 44
0.0
 45
-2.245064030267288
 46
-2.245064030267288
 79
     0
 98
        1
 10
0.0
 20
0.0
  0
MTEXT
  5
37F
330
1F
100
AcDbEntity
  8
0
  6
Continuous
 62
     7
370
     0
100
AcDbMText
 10
199.1114297681
 20
284.4255432027
 30
0.0
 40
5.0
 41
0.0
 71
     2
 72
     1
  1
A-A
  7
SLDTEXTSTYLE0
 73
     1
 44
1.0
  0
LINE
  5
380
330
1F
100
AcDbEntity
  8
0
  6
CENTERX2
 62
     7
370
     0
100
AcDbLine
 10
193.3856482261
 20
263.0764711447
 30
0.0
 11
193.3856482261
 21
151.5037405272
 31
0.0
  0
LINE
  5
381
330
1F
100
AcDbEntity
  8
0
  6
CENTERX2
 62
     7
370
     0
100
AcDbLine
 10
193.3856482261
 20
264.7764711447
 30
0.0
 11
193.3856482261
 21
224.2764711447
 31
0.0
  0
LINE
  5
382
330
1F
100
AcDbEntity
  8
0
  6
CENTERX2
 62
     7
370
     0
100
AcDbLine
 10
193.3856482261
 20
270.2764711447
 30
0.0
 11
193.3856482261
 21
265.7764711447
 31
0.0
  0
LINE
  5
383
330
1F
100
AcDbEntity
  8
0
  6
CENTERX2
 62
     7
370
     0
100
AcDbLine
 10
193.3856482261
 20
264.7764711447
 30
0.0
 11
193.3856482261
 21
265.7764711447
 31
0.0
  0
LINE
  5
384
330
1F
100
AcDbEntity
  8
0
  6
CENTERX2
 62
     7
370
     0
100
AcDbLine
 10
171.3856482261
 20
268.2764711447
 30
0.0
 11
258.4671973403
 21
268.2764711447
 31
0.0
  0
LINE
  5
385
330
1F
100
AcDbEntity
  8
0
  6
CENTERX2
 62
     7
370
     0
100
AcDbLine
 10
259.7998617885
 20
262.3622575824
 30
0.0
 11
252.340331705
 21
269.8217876659
 31
0.0
  0
LINE
  5
386
330
1F
100
AcDbEntity
  8
0
  6
CENTERX2
 62
     7
370
     0
100
AcDbLine
 10
134.1856482261
 20
171.9764711447
 30
0.0
 11
141.3856482261
 21
171.9764711447
 31
0.0
  0
LINE
  5
387
330
1F
100
AcDbEntity
  8
0
  6
CENTERX2
 62
     7
370
     0
100
AcDbLine
 10
146.8856482261
 20
171.9764711447
 30
0.0
 11
141.3856482261
 21
171.9764711447
 31
0.0
  0
LINE
  5
388
330
1F
100
AcDbEntity
  8
0
  6
CENTERX2
 62
     7
370
     0
100
AcDbLine
 10
143.8856482261
 20
146.9764711447
 30
0.0
 11
143.8856482261
 21
160.9764711447
 31
0.0
  0
LINE
  5
389
330
1F
100
AcDbEntity
  8
0
  6
CENTERX2
 62
     7
370
     0
100
AcDbLine
 10
137.8856482261
 20
181.9764711447
 30
0.0
 11
164.8856482261
 21
181.9764711447
 31
0.0
  0
ENDSEC
  0
SECTION
  2
OBJECTS
  0
DICTIONARY
  5
C
330
0
100
AcDbDictionary
281
     1
  3
ACAD_GROUP
350
D
  3
ACAD_LAYOUT
350
1A
  3
ACAD_MLINESTYLE
350
17
  3
ACAD_PLOTSETTINGS
350
19
  3
ACAD_PLOTSTYLENAME
350
E
  0
DICTIONARY
  5
D
102
{ACAD_REACTORS
330
C
102
}
330
C
100
AcDbDictionary
281
     1
  0
DICTIONARY
  5
1A
102
{ACAD_REACTORS
330
C
102
}
330
C
100
AcDbDictionary
281
     1
  3
Layout1
350
1E
  3
Layout2
350
26
  3
Model
350
22
  0
DICTIONARY
  5
17
102
{ACAD_REACTORS
330
C
102
}
330
C
100
AcDbDictionary
281
     1
  3
Standard
350
18
  0
DICTIONARY
  5
19
102
{ACAD_REACTORS
330
C
102
}
330
C
100
AcDbDictionary
281
     1
  0
ACDBDICTIONARYWDFLT
  5
E
102
{ACAD_REACTORS
330
C
102
}
330
C
100
AcDbDictionary
281
     1
  3
Normal
350
F
100
AcDbDictionaryWithDefault
340
F
  0
LAYOUT
  5
1E
102
{ACAD_REACTORS
330
1A
102
}
330
1A
100
AcDbPlotSettings
  1

  2
none_device
  4

  6

 40
0.0
 41
0.0
 42
0.0
 43
0.0
 44
0.0
 45
0.0
 46
0.0
 47
0.0
 48
0.0
 49
0.0
140
0.0
141
0.0
142
1.0
143
1.0
 70
   688
 72
     0
 73
     0
 74
     5
  7

 75
    16
147
1.0
148
0.0
149
0.0
100
AcDbLayout
  1
Layout1
 70
     1
 71
     1
 10
0.0
 20
0.0
 11
420.0
 21
297.0
 12
0.0
 22
0.0
 32
0.0
 14
1.0000000000E+20
 24
1.0000000000E+20
 34
1.0000000000E+20
 15
-1.0000000000E+20
 25
-1.0000000000E+20
 35
-1.0000000000E+20
146
0.0
 13
0.0
 23
0.0
 33
0.0
 16
1.0
 26
0.0
 36
0.0
 17
0.0
 27
1.0
 37
0.0
 76
     0
330
1B
  0
LAYOUT
  5
26
102
{ACAD_REACTORS
330
1A
102
}
330
1A
100
AcDbPlotSettings
  1

  2
none_device
  4

  6

 40
0.0
 41
0.0
 42
0.0
 43
0.0
 44
0.0
 45
0.0
 46
0.0
 47
0.0
 48
0.0
 49
0.0
140
0.0
141
0.0
142
1.0
143
1.0
 70
   688
 72
     0
 73
     0
 74
     5
  7

 75
    16
147
1.0
148
0.0
149
0.0
100
AcDbLayout
  1
Layout2
 70
     1
 71
     2
 10
0.0
 20
0.0
 11
0.0
 21
0.0
 12
0.0
 22
0.0
 32
0.0
 14
0.0
 24
0.0
 34
0.0
 15
0.0
 25
0.0
 35
0.0
146
0.0
 13
0.0
 23
0.0
 33
0.0
 16
1.0
 26
0.0
 36
0.0
 17
0.0
 27
1.0
 37
0.0
 76
     0
330
23
  0
LAYOUT
  5
22
102
{ACAD_REACTORS
330
1A
102
}
330
1A
100
AcDbPlotSettings
  1

  2
none_device
  4

  6

 40
0.0
 41
0.0
 42
0.0
 43
0.0
 44
0.0
 45
0.0
 46
0.0
 47
0.0
 48
0.0
 49
0.0
140
0.0
141
0.0
142
1.0
143
1.0
 70
  1712
 72
     0
 73
     0
 74
     0
  7

 75
     0
147
1.0
148
0.0
149
0.0
100
AcDbLayout
  1
Model
 70
     1
 71
     0
 10
0.0
 20
0.0
 11
420.0
 21
297.0
 12
0.0
 22
0.0
 32
0.0
 14
0.0
 24
0.0
 34
0.0
 15
420.0
 25
297.0
 35
0.0
146
0.0
 13
0.0
 23
0.0
 33
0.0
 16
1.0
 26
0.0
 36
0.0
 17
0.0
 27
1.0
 37
0.0
 76
     0
330
1F
331
29
  0
MLINESTYLE
  5
18
102
{ACAD_REACTORS
330
17
102
}
330
17
100
AcDbMlineStyle
  2
Standard
 70
     0
  3

 62
   256
 51
90.0
 52
90.0
 71
     2
 49
0.5
 62
   256
  6
BYLAYER
 49
-0.5
 62
   256
  6
BYLAYER
  0
ACDBPLACEHOLDER
  5
F
102
{ACAD_REACTORS
330
E
102
}
330
E
  0
ENDSEC
  0
EOF
