  0
SECTION
  2
HEADER
  9
$ACADVER
  1
AC1015
  9
$ACADMAINTVER
 70
     6
  9
$DWGCODEPAGE
  3
ANSI_1252
  9
$INSBASE
 10
0.0
 20
0.0
 30
0.0
  9
$EXTMIN
 10
0.0
 20
0.0
 30
0.0
  9
$EXTMAX
 10
420.0
 20
297.0
 30
0.0
  9
$LIMMIN
 10
0.0
 20
0.0
  9
$LIMMAX
 10
420.0
 20
297.0
  9
$ORTHOMODE
 70
     0
  9
$REGENMODE
 70
     1
  9
$FILLMODE
 70
     1
  9
$QTEXTMODE
 70
     0
  9
$MIRRTEXT
 70
     1
  9
$LTSCALE
 40
1.0
  9
$ATTMODE
 70
     1
  9
$TEXTSIZE
 40
3.5
  9
$TRACEWID
 40
1.0
  9
$TEXTSTYLE
  7
Standard
  9
$CLAYER
  8
0
  9
$CELTYPE
  6
ByLayer
  9
$CECOLOR
 62
   256
  9
$CELTSCALE
 40
1.0
  9
$DISPSILH
 70
     0
  9
$DIMSCALE
 40
1.0
  9
$DIMASZ
 40
3.5
  9
$DIMEXO
 40
1.0
  9
$DIMDLI
 40
3.75
  9
$DIMRND
 40
0.0
  9
$DIMDLE
 40
0.0
  9
$DIMEXE
 40
1.0
  9
$DIMTP
 40
0.0
  9
$DIMTM
 40
0.0
  9
$DIMTXT
 40
3.5
  9
$DIMCEN
 40
2.5
  9
$DIMTSZ
 40
0.0
  9
$DIMTOL
 70
     0
  9
$DIMLIM
 70
     0
  9
$DIMTIH
 70
     1
  9
$DIMTOH
 70
     1
  9
$DIMSE1
 70
     0
  9
$DIMSE2
 70
     0
  9
$DIMTAD
 70
     1
  9
$DIMZIN
 70
     0
  9
$DIMBLK
  1

  9
$DIMASO
 70
     1
  9
$DIMSHO
 70
     1
  9
$DIMPOST
  1

  9
$DIMAPOST
  1

  9
$DIMALT
 70
     0
  9
$DIMALTD
 70
     3
  9
$DIMALTF
 40
0.0393700787
  9
$DIMLFAC
 40
1.0
  9
$DIMTOFL
 70
     1
  9
$DIMTVP
 40
0.0
  9
$DIMTIX
 70
     0
  9
$DIMSOXD
 70
     0
  9
$DIMSAH
 70
     0
  9
$DIMBLK1
  1

  9
$DIMBLK2
  1

  9
$DIMSTYLE
  2
ISO-25
  9
$DIMCLRD
 70
     0
  9
$DIMCLRE
 70
     0
  9
$DIMCLRT
 70
     0
  9
$DIMTFAC
 40
1.0
  9
$DIMGAP
 40
4.0
  9
$DIMJUST
 70
     0
  9
$DIMSD1
 70
     0
  9
$DIMSD2
 70
     0
  9
$DIMTOLJ
 70
     0
  9
$DIMTZIN
 70
     0
  9
$DIMALTZ
 70
     0
  9
$DIMALTTZ
 70
     0
  9
$DIMUPT
 70
     0
  9
$DIMDEC
 70
     1
  9
$DIMTDEC
 70
     2
  9
$DIMALTU
 70
     2
  9
$DIMALTTD
 70
     3
  9
$DIMTXSTY
  7
Standard
  9
$DIMAUNIT
 70
     0
  9
$DIMADEC
 70
     1
  9
$DIMALTRND
 40
0.0
  9
$DIMAZIN
 70
     0
  9
$DIMDSEP
 70
    44
  9
$DIMATFIT
 70
     3
  9
$DIMFRAC
 70
     0
  9
$DIMLDRBLK
  1

  9
$DIMLUNIT
 70
     2
  9
$DIMLWD
 70
    -2
  9
$DIMLWE
 70
    -2
  9
$DIMTMOVE
 70
     0
  9
$LUNITS
 70
     2
  9
$LUPREC
 70
     1
  9
$SKETCHINC
 40
1.0
  9
$FILLETRAD
 40
10.0
  9
$AUNITS
 70
     0
  9
$AUPREC
 70
     1
  9
$MENU
  1
.
  9
$ELEVATION
 40
0.0
  9
$PELEVATION
 40
0.0
  9
$THICKNESS
 40
0.0
  9
$LIMCHECK
 70
     0
  9
$CHAMFERA
 40
10.0
  9
$CHAMFERB
 40
10.0
  9
$CHAMFERC
 40
20.0
  9
$CHAMFERD
 40
0.0
  9
$SKPOLY
 70
     0
  9
$TDCREATE
 40
2456156.458124086
  9
$TDUCREATE
 40
2456156.374790752
  9
$TDUPDATE
 40
2456156.458124097
  9
$TDUUPDATE
 40
2456156.374790764
  9
$TDINDWG
 40
0.0000000116
  9
$TDUSRTIMER
 40
0.0000000116
  9
$USRTIMER
 70
     1
  9
$ANGBASE
 50
0.0
  9
$ANGDIR
 70
     0
  9
$PDMODE
 70
     0
  9
$PDSIZE
 40
-1.0
  9
$PLINEWID
 40
0.0
  9
$SPLFRAME
 70
     0
  9
$SPLINETYPE
 70
     6
  9
$SPLINESEGS
 70
     8
  9
$HANDSEED
  5
1FB
  9
$SURFTAB1
 70
     6
  9
$SURFTAB2
 70
     6
  9
$SURFTYPE
 70
     6
  9
$SURFU
 70
     6
  9
$SURFV
 70
     6
  9
$UCSBASE
  2

  9
$UCSNAME
  2

  9
$UCSORG
 10
0.0
 20
0.0
 30
0.0
  9
$UCSXDIR
 10
1.0
 20
0.0
 30
0.0
  9
$UCSYDIR
 10
0.0
 20
1.0
 30
0.0
  9
$UCSORTHOREF
  2

  9
$UCSORTHOVIEW
 70
     0
  9
$UCSORGTOP
 10
0.0
 20
0.0
 30
0.0
  9
$UCSORGBOTTOM
 10
0.0
 20
0.0
 30
0.0
  9
$UCSORGLEFT
 10
0.0
 20
0.0
 30
0.0
  9
$UCSORGRIGHT
 10
0.0
 20
0.0
 30
0.0
  9
$UCSORGFRONT
 10
0.0
 20
0.0
 30
0.0
  9
$UCSORGBACK
 10
0.0
 20
0.0
 30
0.0
  9
$PUCSBASE
  2

  9
$PUCSNAME
  2

  9
$PUCSORG
 10
0.0
 20
0.0
 30
0.0
  9
$PUCSXDIR
 10
1.0
 20
0.0
 30
0.0
  9
$PUCSYDIR
 10
0.0
 20
1.0
 30
0.0
  9
$PUCSORTHOREF
  2

  9
$PUCSORTHOVIEW
 70
     0
  9
$PUCSORGTOP
 10
0.0
 20
0.0
 30
0.0
  9
$PUCSORGBOTTOM
 10
0.0
 20
0.0
 30
0.0
  9
$PUCSORGLEFT
 10
0.0
 20
0.0
 30
0.0
  9
$PUCSORGRIGHT
 10
0.0
 20
0.0
 30
0.0
  9
$PUCSORGFRONT
 10
0.0
 20
0.0
 30
0.0
  9
$PUCSORGBACK
 10
0.0
 20
0.0
 30
0.0
  9
$USERI1
 70
     0
  9
$USERI2
 70
     0
  9
$USERI3
 70
     0
  9
$USERI4
 70
     0
  9
$USERI5
 70
     0
  9
$USERR1
 40
0.0
  9
$USERR2
 40
0.0
  9
$USERR3
 40
0.0
  9
$USERR4
 40
0.0
  9
$USERR5
 40
0.0
  9
$WORLDVIEW
 70
     1
  9
$SHADEDGE
 70
     3
  9
$SHADEDIF
 70
    70
  9
$TILEMODE
 70
     1
  9
$MAXACTVP
 70
    64
  9
$PINSBASE
 10
0.0
 20
0.0
 30
0.0
  9
$PLIMCHECK
 70
     0
  9
$PEXTMIN
 10
1.0000000000E+20
 20
1.0000000000E+20
 30
1.0000000000E+20
  9
$PEXTMAX
 10
-1.0000000000E+20
 20
-1.0000000000E+20
 30
-1.0000000000E+20
  9
$PLIMMIN
 10
0.0
 20
0.0
  9
$PLIMMAX
 10
420.0
 20
297.0
  9
$UNITMODE
 70
     0
  9
$VISRETAIN
 70
     1
  9
$PLINEGEN
 70
     0
  9
$PSLTSCALE
 70
     1
  9
$TREEDEPTH
 70
  3020
  9
$CMLSTYLE
  2
Standard
  9
$CMLJUST
 70
     0
  9
$CMLSCALE
 40
20.0
  9
$PROXYGRAPHICS
 70
     1
  9
$MEASUREMENT
 70
     1
  9
$CELWEIGHT
370
    -1
  9
$ENDCAPS
280
     0
  9
$JOINSTYLE
280
     0
  9
$LWDISPLAY
290
     1
  9
$INSUNITS
 70
     4
  9
$HYPERLINKBASE
  1

  9
$STYLESHEET
  1

  9
$XEDIT
290
     1
  9
$CEPSNTYPE
380
     0
  9
$PSTYLEMODE
290
     1
  9
$FINGERPRINTGUID
  2
{DAF1A2AC-DCB8-4811-8039-680A32A9C60C}
  9
$VERSIONGUID
  2
{FAEB1C32-E019-11D5-929B-00C0DF256EC4}
  9
$EXTNAMES
290
     1
  9
$PSVPSCALE
 40
0.0
  9
$OLESTARTUP
290
     0
  0
ENDSEC
  0
SECTION
  2
CLASSES
  0
CLASS
  1
ACDBDICTIONARYWDFLT
  2
AcDbDictionaryWithDefault
  3
ObjectDBX Classes
 90
        0
280
     0
281
     0
  0
CLASS
  1
VISUALSTYLE
  2
AcDbVisualStyle
  3
ObjectDBX Classes
 90
     4095
280
     0
281
     0
  0
CLASS
  1
MATERIAL
  2
AcDbMaterial
  3
ObjectDBX Classes
 90
     1153
280
     0
281
     0
  0
CLASS
  1
ACDBPLACEHOLDER
  2
AcDbPlaceHolder
  3
ObjectDBX Classes
 90
        0
280
     0
281
     0
  0
CLASS
  1
LAYOUT
  2
AcDbLayout
  3
ObjectDBX Classes
 90
        0
280
     0
281
     0
  0
ENDSEC
  0
SECTION
  2
TABLES
  0
TABLE
  2
VPORT
  5
8
330
0
100
AcDbSymbolTable
 70
     1
  0
VPORT
  5
29
330
8
100
AcDbSymbolTableRecord
100
AcDbViewportTableRecord
  2
*Active
 70
     0
 10
0.0
 20
0.0
 11
1.0
 21
1.0
 12
210.0
 22
148.5
 13
0.0
 23
0.0
 14
10.0
 24
10.0
 15
10.0
 25
10.0
 16
0.0
 26
0.0
 36
1.0
 17
0.0
 27
0.0
 37
0.0
 40
297.0
 41
1.4141414141
 42
50.0
 43
0.0
 44
0.0
 50
0.0
 51
0.0
 71
     0
 72
  2000
 73
     1
 74
     3
 75
     0
 76
     0
 77
     0
 78
     0
281
     0
 65
     1
110
0.0
120
0.0
130
0.0
111
1.0
121
0.0
131
0.0
112
0.0
122
1.0
132
0.0
 79
     0
146
0.0
  0
ENDTAB
  0
TABLE
  2
LTYPE
  5
5
330
0
100
AcDbSymbolTable
 70
     6
  0
LTYPE
  5
14
330
5
100
AcDbSymbolTableRecord
100
AcDbLinetypeTableRecord
  2
ByBlock
 70
     0
  3

 72
    65
 73
     0
 40
0.0
  0
LTYPE
  5
15
330
5
100
AcDbSymbolTableRecord
100
AcDbLinetypeTableRecord
  2
ByLayer
 70
     0
  3

 72
    65
 73
     0
 40
0.0
  0
LTYPE
  5
16
330
5
100
AcDbSymbolTableRecord
100
AcDbLinetypeTableRecord
  2
Continuous
 70
     0
  3
Solid line
 72
    65
 73
     0
 40
0.0
  0
LTYPE
  5
3F
330
5
100
AcDbSymbolTableRecord
100
AcDbLinetypeTableRecord
  2
HIDDEN
 70
     0
  3
Hidden __ __ __ __ __ __ __ __ __ __ __ __ __ __
 72
    65
 73
     2
 40
1.905
 49
1.27
 74
     0
 49
-0.635
 74
     0
  0
LTYPE
  5
40
330
5
100
AcDbSymbolTableRecord
100
AcDbLinetypeTableRecord
  2
PHANTOM
 70
     0
  3
Phantom ______  __  __  ______  __  __  ______
 72
    65
 73
     6
 40
12.7
 49
6.35
 74
     0
 49
-1.27
 74
     0
 49
1.27
 74
     0
 49
-1.27
 74
     0
 49
1.27
 74
     0
 49
-1.27
 74
     0
  0
LTYPE
  5
41
330
5
100
AcDbSymbolTableRecord
100
AcDbLinetypeTableRecord
  2
CENTER
 70
     0
  3
Center ____ _ ____ _ ____ _ ____ _ ____ _ ____
 72
    65
 73
     4
 40
10.16
 49
6.35
 74
     0
 49
-1.27
 74
     0
 49
1.27
 74
     0
 49
-1.27
 74
     0
  0
LTYPE
  5
42
330
5
100
AcDbSymbolTableRecord
100
AcDbLinetypeTableRecord
  2
CENTERX2
 70
     0
  3
Center (2x) ________  __  ________  __  _____
 72
    65
 73
     4
 40
20.32
 49
12.7
 74
     0
 49
-2.54
 74
     0
 49
2.54
 74
     0
 49
-2.54
 74
     0
  0
LTYPE
  5
43
330
5
100
AcDbSymbolTableRecord
100
AcDbLinetypeTableRecord
  2
DOT2
 70
     0
  3
Dot (.5x) ........................................
 72
    65
 73
     2
 40
0.635
 49
0.0
 74
     0
 49
-0.635
 74
     0
  0
ENDTAB
  0
TABLE
  2
LAYER
  5
2
330
0
100
AcDbSymbolTable
 70
     5
  0
LAYER
  5
10
330
2
100
AcDbSymbolTableRecord
100
AcDbLayerTableRecord
  2
0
 70
     0
 62
     7
  6
Continuous
370
    -3
390
F
  0
LAYER
  5
44
330
2
100
AcDbSymbolTableRecord
100
AcDbLayerTableRecord
  2
VORLAGE
 70
     0
 62
    -1
  6
Continuous
370
    -3
390
F
  0
LAYER
  5
45
330
2
100
AcDbSymbolTableRecord
100
AcDbLayerTableRecord
  2
RAHMEN
 70
     0
 62
   179
  6
Continuous
370
    -3
390
F
  0
LAYER
  5
46
330
2
100
AcDbSymbolTableRecord
100
AcDbLayerTableRecord
  2
KOPF
 70
     0
 62
     7
  6
Continuous
370
    -3
390
F
  0
LAYER
  5
47
330
2
100
AcDbSymbolTableRecord
100
AcDbLayerTableRecord
  2
TEMP
 70
     0
 62
     7
  6
Continuous
370
    -3
390
F
  0
ENDTAB
  0
TABLE
  2
STYLE
  5
3
330
0
100
AcDbSymbolTable
 70
     2
  0
STYLE
  5
11
330
3
100
AcDbSymbolTableRecord
100
AcDbTextStyleTableRecord
  2
Standard
 70
     0
 40
0.0
 41
1.0
 50
0.0
 71
     0
 42
2.5
  3
txt
  4

  0
STYLE
  5
7F
330
3
100
AcDbSymbolTableRecord
100
AcDbTextStyleTableRecord
  2
SLDTEXTSTYLE0
 70
     0
 40
0.0
 41
0.605
 50
0.0
 71
     0
 42
0.2
  3
TXT
  4

  0
ENDTAB
  0
TABLE
  2
VIEW
  5
6
330
0
100
AcDbSymbolTable
 70
     0
  0
ENDTAB
  0
TABLE
  2
UCS
  5
7
330
0
100
AcDbSymbolTable
 70
     0
  0
ENDTAB
  0
TABLE
  2
APPID
  5
9
330
0
100
AcDbSymbolTable
 70
     1
  0
APPID
  5
12
330
9
100
AcDbSymbolTableRecord
100
AcDbRegAppTableRecord
  2
ACAD
 70
     0
  0
ENDTAB
  0
TABLE
  2
DIMSTYLE
  5
A
330
0
100
AcDbSymbolTable
 70
     2
100
AcDbDimStyleTable
  0
DIMSTYLE
105
27
330
A
100
AcDbSymbolTableRecord
100
AcDbDimStyleTableRecord
  2
ISO-25
 70
     0
 41
2.5
 42
0.625
 43
3.75
 44
1.25
 73
     0
 74
     0
 77
     1
 78
     8
140
2.5
141
2.5
143
0.0393700787
147
0.625
171
     3
172
     1
178
     0
271
     2
272
     2
274
     3
278
    44
283
     0
284
     8
340
11
  0
DIMSTYLE
105
80
102
{ACAD_REACTORS
330
7E
330
123
330
12F
102
}
330
A
100
AcDbSymbolTableRecord
100
AcDbDimStyleTableRecord
  2
SLDDIMSTYLE0
 70
     0
 41
3.5
 44
0.0
 45
0.000000001
 73
     0
 74
     0
 77
     1
 78
    12
 79
     3
140
3.5
147
0.875
173
     1
178
     0
271
     1
272
     2
276
     2
284
    12
340
7F
  0
ENDTAB
  0
TABLE
  2
BLOCK_RECORD
  5
1
330
0
100
AcDbSymbolTable
 70
     4
  0
BLOCK_RECORD
  5
1F
330
1
100
AcDbSymbolTableRecord
100
AcDbBlockTableRecord
  2
*Model_Space
340
22
  0
BLOCK_RECORD
  5
1B
330
1
100
AcDbSymbolTableRecord
100
AcDbBlockTableRecord
  2
*Paper_Space
340
1E
  0
BLOCK_RECORD
  5
23
330
1
100
AcDbSymbolTableRecord
100
AcDbBlockTableRecord
  2
*Paper_Space0
340
26
  0
BLOCK_RECORD
  5
81
330
1
100
AcDbSymbolTableRecord
100
AcDbBlockTableRecord
  2
*D1
340
0
  0
BLOCK_RECORD
  5
124
330
1
100
AcDbSymbolTableRecord
100
AcDbBlockTableRecord
  2
*D2
340
0
  0
BLOCK_RECORD
  5
130
330
1
100
AcDbSymbolTableRecord
100
AcDbBlockTableRecord
  2
*D3
340
0
  0
ENDTAB
  0
ENDSEC
  0
SECTION
  2
BLOCKS
  0
BLOCK
  5
20
330
1F
100
AcDbEntity
  8
0
100
AcDbBlockBegin
  2
*Model_Space
 70
     0
 10
0.0
 20
0.0
 30
0.0
  3
*Model_Space
  1

  0
ENDBLK
  5
21
330
1F
100
AcDbEntity
  8
0
100
AcDbBlockEnd
  0
BLOCK
  5
1C
330
1B
100
AcDbEntity
 67
     1
  8
0
100
AcDbBlockBegin
  2
*Paper_Space
 70
     0
 10
0.0
 20
0.0
 30
0.0
  3
*Paper_Space
  1

  0
ENDBLK
  5
1D
330
1B
100
AcDbEntity
 67
     1
  8
0
100
AcDbBlockEnd
  0
BLOCK
  5
24
330
23
100
AcDbEntity
  8
0
100
AcDbBlockBegin
  2
*Paper_Space0
 70
     0
 10
0.0
 20
0.0
 30
0.0
  3
*Paper_Space0
  1

  0
ENDBLK
  5
25
330
23
100
AcDbEntity
  8
0
100
AcDbBlockEnd
  0
BLOCK
  5
82
330
81
100
AcDbEntity
  8
0
100
AcDbBlockBegin
  2
*D1
 70
     1
 10
0.0
 20
0.0
 30
0.0
  3
*D1
  1

  0
ARC
  5
84
330
81
100
AcDbEntity
  8
0
  6
Continuous
 62
     7
370
     0
100
AcDbCircle
 10
29.8334969473
 20
219.3937059499
 30
0.0
 40
6.003747491907713
100
AcDbArc
 50
243.4349488229
 51
296.5650511771
  0
ARC
  5
85
330
81
100
AcDbEntity
  8
0
  6
Continuous
 62
     7
370
     0
100
AcDbCircle
 10
29.8334969473
 20
221.1852893609
 30
0.0
 40
6.003747491907788
100
AcDbArc
 50
63.4349488229
 51
116.5650511771
  0
SOLID
  5
86
330
81
100
AcDbEntity
  8
0
  6
Continuous
 62
     7
370
     0
100
AcDbTrace
 10
32.5184544496
 20
244.5151373164
 30
0.0
 11
31.6184544496
 21
241.0151373164
 31
0.0
 12
33.4184544496
 22
241.0151373164
 32
0.0
 13
33.4184544496
 23
241.0151373164
 33
0.0
  0
SOLID
  5
87
330
81
100
AcDbEntity
  8
0
  6
Continuous
 62
     7
370
     0
100
AcDbTrace
 10
32.5184544496
 20
197.0151373164
 30
0.0
 11
33.4184544496
 21
200.5151373164
 31
0.0
 12
31.6184544496
 22
200.5151373164
 32
0.0
 13
31.6184544496
 23
200.5151373164
 33
0.0
  0
LINE
  5
88
330
81
100
AcDbEntity
  8
0
  6
Continuous
 62
     7
370
     0
100
AcDbLine
 10
43.0184544496
 20
244.5151373164
 30
0.0
 11
31.5184544496
 21
244.5151373164
 31
0.0
  0
LINE
  5
89
330
81
100
AcDbEntity
  8
0
  6
Continuous
 62
     7
370
     0
100
AcDbLine
 10
72.4542478203
 20
197.0151373164
 30
0.0
 11
31.5184544496
 21
197.0151373164
 31
0.0
  0
LINE
  5
8A
330
81
100
AcDbEntity
  8
0
  6
Continuous
 62
     7
370
     0
100
AcDbLine
 10
32.5184544496
 20
244.5151373164
 30
0.0
 11
32.5184544496
 21
197.0151373164
 31
0.0
  0
MTEXT
  5
8B
330
81
100
AcDbEntity
  8
0
  6
Continuous
 62
     7
370
     0
100
AcDbMText
 10
28.0067171276
 20
215.6112909452
 30
0.0
 40
3.5
 41
0.0
 71
     1
 72
     1
  1
47.5
  7
SLDTEXTSTYLE0
 11
-7.044195017643634E-15
 21
1.0
 31
0.0
 73
     1
 44
1.0
  0
ENDBLK
  5
83
330
81
100
AcDbEntity
  8
0
100
AcDbBlockEnd
  0
BLOCK
  5
125
330
124
100
AcDbEntity
  8
0
100
AcDbBlockBegin
  2
*D2
 70
     1
 10
0.0
 20
0.0
 30
0.0
  3
*D2
  1

  0
ARC
  5
127
330
124
100
AcDbEntity
  8
0
  6
Continuous
 62
     7
370
     0
100
AcDbCircle
 10
30.1215286041
 20
97.0808387735
 30
0.0
 40
6.003747491907731
100
AcDbArc
 50
243.4349488229
 51
296.5650511771
  0
ARC
  5
128
330
124
100
AcDbEntity
  8
0
  6
Continuous
 62
     7
370
     0
100
AcDbCircle
 10
30.1215286041
 20
98.8724221845
 30
0.0
 40
6.003747491907726
100
AcDbArc
 50
63.4349488229
 51
116.5650511771
  0
SOLID
  5
129
330
124
100
AcDbEntity
  8
0
  6
Continuous
 62
     7
370
     0
100
AcDbTrace
 10
32.8064861064
 20
138.7751707584
 30
0.0
 11
31.9064861064
 21
135.2751707584
 31
0.0
 12
33.7064861064
 22
135.2751707584
 32
0.0
 13
33.7064861064
 23
135.2751707584
 33
0.0
  0
SOLID
  5
12A
330
124
100
AcDbEntity
  8
0
  6
Continuous
 62
     7
370
     0
100
AcDbTrace
 10
32.8064861064
 20
53.903584017
 30
0.0
 11
33.7064861064
 21
57.403584017
 31
0.0
 12
31.9064861064
 22
57.403584017
 32
0.0
 13
31.9064861064
 23
57.403584017
 33
0.0
  0
LINE
  5
12B
330
124
100
AcDbEntity
  8
0
  6
Continuous
 62
     7
370
     0
100
AcDbLine
 10
56.4542478203
 20
138.7751707584
 30
0.0
 11
31.8064861064
 21
138.7751707584
 31
0.0
  0
LINE
  5
12C
330
124
100
AcDbEntity
  8
0
  6
Continuous
 62
     7
370
     0
100
AcDbLine
 10
56.4542478241
 20
53.903584017
 30
0.0
 11
31.8064861064
 21
53.903584017
 31
0.0
  0
LINE
  5
12D
330
124
100
AcDbEntity
  8
0
  6
Continuous
 62
     7
370
     0
100
AcDbLine
 10
32.8064861064
 20
138.7751707584
 30
0.0
 11
32.8064861064
 21
53.903584017
 31
0.0
  0
MTEXT
  5
12E
330
124
100
AcDbEntity
  8
0
  6
Continuous
 62
     7
370
     0
100
AcDbMText
 10
28.2947487844
 20
93.2984237689
 30
0.0
 40
3.5
 41
0.0
 71
     1
 72
     1
  1
84.9
  7
SLDTEXTSTYLE0
 11
-7.044195017643634E-15
 21
1.0
 31
0.0
 73
     1
 44
1.0
  0
ENDBLK
  5
126
330
124
100
AcDbEntity
  8
0
100
AcDbBlockEnd
  0
BLOCK
  5
131
330
130
100
AcDbEntity
  8
0
100
AcDbBlockBegin
  2
*D3
 70
     1
 10
0.0
 20
0.0
 30
0.0
  3
*D3
  1

  0
ARC
  5
133
330
130
100
AcDbEntity
  8
0
  6
Continuous
 62
     7
370
     0
100
AcDbCircle
 10
103.1630637629
 20
45.8740239809
 30
0.0
 40
6.00374749190774
100
AcDbArc
 50
153.4349488229
 51
206.5650511771
  0
ARC
  5
134
330
130
100
AcDbEntity
  8
0
  6
Continuous
 62
     7
370
     0
100
AcDbCircle
 10
107.6283114796
 20
45.8740239809
 30
0.0
 40
6.00374749190774
100
AcDbArc
 50
333.4349488229
 51
26.5650511771
  0
SOLID
  5
135
330
130
100
AcDbEntity
  8
0
  6
Continuous
 62
     7
370
     0
100
AcDbTrace
 10
42.5184544496
 20
43.1890664786
 30
0.0
 11
46.0184544496
 21
42.2890664786
 31
0.0
 12
46.0184544496
 22
44.0890664786
 32
0.0
 13
46.0184544496
 23
44.0890664786
 33
0.0
  0
SOLID
  5
136
330
130
100
AcDbEntity
  8
0
  6
Continuous
 62
     7
370
     0
100
AcDbTrace
 10
166.390041191
 20
43.1890664786
 30
0.0
 11
162.890041191
 21
44.0890664786
 31
0.0
 12
162.890041191
 22
42.2890664786
 32
0.0
 13
162.890041191
 23
42.2890664786
 33
0.0
  0
LINE
  5
137
330
130
100
AcDbEntity
  8
0
  6
Continuous
 62
     7
370
     0
100
AcDbLine
 10
42.5184544496
 20
67.839377385
 30
0.0
 11
42.5184544496
 21
42.1890664786
 31
0.0
  0
LINE
  5
138
330
130
100
AcDbEntity
  8
0
  6
Continuous
 62
     7
370
     0
100
AcDbLine
 10
166.390041191
 20
67.8393773877
 30
0.0
 11
166.390041191
 21
42.1890664786
 31
0.0
  0
LINE
  5
139
330
130
100
AcDbEntity
  8
0
  6
Continuous
 62
     7
370
     0
100
AcDbLine
 10
42.5184544496
 20
43.1890664786
 30
0.0
 11
166.390041191
 21
43.1890664786
 31
0.0
  0
MTEXT
  5
13A
330
130
100
AcDbEntity
  8
0
  6
Continuous
 62
     7
370
     0
100
AcDbMText
 10
99.3806487582
 20
47.7008038006
 30
0.0
 40
3.5
 41
0.0
 71
     1
 72
     1
  1
123.9
  7
SLDTEXTSTYLE0
 73
     1
 44
1.0
  0
ENDBLK
  5
132
330
130
100
AcDbEntity
  8
0
100
AcDbBlockEnd
  0
ENDSEC
  0
SECTION
  2
ENTITIES
  0
LINE
  5
48
330
1F
100
AcDbEntity
  8
0
  6
Continuous
 62
     7
370
    30
100
AcDbLine
 10
151.454246211
 20
244.5151360349
 30
0.0
 11
57.4542494296
 21
244.5151360349
 31
0.0
  0
LINE
  5
49
330
1F
100
AcDbEntity
  8
0
  6
Continuous
 62
     7
370
    30
100
AcDbLine
 10
57.4542494296
 20
244.5151360349
 30
0.0
 11
44.0184535264
 21
244.5151360349
 31
0.0
  0
LINE
  5
4A
330
1F
100
AcDbEntity
  8
0
  6
Continuous
 62
     7
370
    30
100
AcDbLine
 10
164.8900421142
 20
244.5151360349
 30
0.0
 11
151.454246211
 21
244.5151360349
 31
0.0
  0
LWPOLYLINE
  5
4B
330
1F
100
AcDbEntity
  8
0
  6
Continuous
 62
     7
370
    30
100
AcDbPolyline
 90
        3
 70
   128
 43
0.0
 10
136.4369788944
 20
229.9254240112
 10
146.8947442054
 20
231.2140131013
 10
157.4542471945
 20
232.5151377932
  0
LWPOLYLINE
  5
4C
330
1F
100
AcDbEntity
  8
0
  6
Continuous
 62
     7
370
    30
100
AcDbPolyline
 90
        3
 70
   128
 43
0.0
 10
51.4542484462
 20
232.5151377932
 10
62.0137514352
 20
231.2140131013
 10
72.508266735
 20
229.9208977835
  0
LINE
  5
4D
330
1F
100
AcDbEntity
  8
0
  6
Continuous
 62
     7
370
    30
100
AcDbLine
 10
77.9542481332
 20
197.0151373294
 30
0.0
 11
130.9542475074
 21
197.0151373294
 31
0.0
  0
LINE
  5
4E
330
1F
100
AcDbEntity
  8
0
  6
Continuous
 62
     7
370
    30
100
AcDbLine
 10
130.9542475074
 20
197.0151373294
 30
0.0
 11
135.4542473137
 21
197.0151373294
 31
0.0
  0
LINE
  5
4F
330
1F
100
AcDbEntity
  8
0
  6
Continuous
 62
     7
370
    30
100
AcDbLine
 10
135.4542473137
 20
198.0151372605
 30
0.0
 11
135.4542473137
 21
197.0151373294
 31
0.0
  0
LINE
  5
50
330
1F
100
AcDbEntity
  8
0
  6
Continuous
 62
     7
370
    30
100
AcDbLine
 10
73.454248327
 20
197.0151373294
 30
0.0
 11
77.9542481332
 21
197.0151373294
 31
0.0
  0
LINE
  5
51
330
1F
100
AcDbEntity
  8
0
  6
Continuous
 62
     7
370
    30
100
AcDbLine
 10
73.454248327
 20
198.0151372605
 30
0.0
 11
73.454248327
 21
197.0151373294
 31
0.0
  0
LINE
  5
52
330
1F
100
AcDbEntity
  8
0
  6
Continuous
 62
     7
370
    30
100
AcDbLine
 10
77.9542481332
 20
198.0151372605
 30
0.0
 11
71.9542490124
 21
198.0151372605
 31
0.0
  0
LINE
  5
53
330
1F
100
AcDbEntity
  8
0
  6
Continuous
 62
     7
370
    30
100
AcDbLine
 10
71.9542490124
 20
198.0151372605
 30
0.0
 11
71.9542490124
 21
220.0151366756
 31
0.0
  0
LINE
  5
54
330
1F
100
AcDbEntity
  8
0
  6
Continuous
 62
     7
370
    30
100
AcDbLine
 10
77.9542481332
 20
220.0151366756
 30
0.0
 11
71.9542490124
 21
220.0151366756
 31
0.0
  0
LINE
  5
55
330
1F
100
AcDbEntity
  8
0
  6
Continuous
 62
     7
370
    30
100
AcDbLine
 10
130.9542475074
 20
198.0151372605
 30
0.0
 11
77.9542481332
 21
198.0151372605
 31
0.0
  0
LINE
  5
56
330
1F
100
AcDbEntity
  8
0
  6
Continuous
 62
     7
370
    30
100
AcDbLine
 10
130.9542475074
 20
220.0151366756
 30
0.0
 11
77.9542481332
 21
220.0151366756
 31
0.0
  0
LINE
  5
57
330
1F
100
AcDbEntity
  8
0
  6
Continuous
 62
     7
370
    30
100
AcDbLine
 10
136.9542466282
 20
198.0151372605
 30
0.0
 11
136.9542466282
 21
220.0151366756
 31
0.0
  0
LINE
  5
58
330
1F
100
AcDbEntity
  8
0
  6
Continuous
 62
     7
370
    30
100
AcDbLine
 10
136.9542466282
 20
198.0151372605
 30
0.0
 11
130.9542475074
 21
198.0151372605
 31
0.0
  0
LINE
  5
59
330
1F
100
AcDbEntity
  8
0
  6
Continuous
 62
     7
370
    30
100
AcDbLine
 10
136.9542466282
 20
220.0151366756
 30
0.0
 11
130.9542475074
 21
220.0151366756
 31
0.0
  0
ARC
  5
5A
330
1F
100
AcDbEntity
  8
0
  6
Continuous
 62
     7
370
    30
100
AcDbCircle
 10
44.0184544496
 20
243.0151373164
 30
0.0
 40
1.500000000000028
100
AcDbArc
 50
90.0
 51
222.0
  0
ARC
  5
5B
330
1F
100
AcDbEntity
  8
0
  6
Continuous
 62
     7
370
    30
100
AcDbCircle
 10
164.890041191
 20
243.0151373164
 30
0.0
 40
1.500000000000028
100
AcDbArc
 50
318.0
 51
90.0
  0
LINE
  5
5C
330
1F
100
AcDbEntity
  8
0
  6
Continuous
 62
     7
370
    30
100
AcDbLine
 10
166.0047570049
 20
242.0114429311
 30
0.0
 11
157.4542471945
 21
232.5151377932
 31
0.0
  0
SPLINE
  5
5D
330
1F
100
AcDbEntity
  8
0
  6
Continuous
 62
     7
370
    30
100
AcDbSpline
210
0.0
220
0.0
230
1.0
 70
     8
 71
     3
 72
    18
 73
    14
 74
     0
 42
0.00000001
 43
0.00000001
 40
0.0
 40
0.0
 40
0.0
 40
0.0
 40
0.0678473186009821
 40
0.136467110098282
 40
0.2417343496551739
 40
0.3500415772110134
 40
0.4555793013412393
 40
0.5641632525894953
 40
0.6699633971505765
 40
0.7788302054646586
 40
0.8876856607439573
 40
0.9438429372557975
 40
1.0
 40
1.0
 40
1.0
 40
1.0
 10
151.4542462109919
 20
232.515137793237
 30
0.0
 10
151.6672690953008
 20
232.5148367423892
 30
0.0
 10
152.0957402273349
 20
232.5142312130914
 30
0.0
 10
152.8461617277686
 20
232.5155196202906
 30
0.0
 10
153.6971135158884
 20
232.5150801057827
 30
0.0
 10
154.5966719818439
 20
232.5150691597357
 30
0.0
 10
155.4165221536216
 20
232.5151993152274
 30
0.0
 10
156.1188063717444
 20
232.5150951166762
 30
0.0
 10
156.6954311894328
 20
232.5151584160576
 30
0.0
 10
157.1238673261462
 20
232.5151206560616
 30
0.0
 10
157.346022695452
 20
232.5151561746671
 30
0.0
 10
157.4406418147772
 20
232.5151186682493
 30
0.0
 10
157.4497120736592
 20
232.5151314182492
 30
0.0
 10
157.4542471944685
 20
232.515137793237
 30
0.0
  0
LINE
  5
5E
330
1F
100
AcDbEntity
  8
0
  6
Continuous
 62
     7
370
    30
100
AcDbLine
 10
57.4542494296
 20
232.5151377932
 30
0.0
 11
151.454246211
 21
232.5151377932
 31
0.0
  0
SPLINE
  5
5F
330
1F
100
AcDbEntity
  8
0
  6
Continuous
 62
     7
370
    30
100
AcDbSpline
210
0.0
220
0.0
230
1.0
 70
     8
 71
     3
 72
    17
 73
    13
 74
     0
 42
0.00000001
 43
0.00000001
 40
0.0
 40
0.0
 40
0.0
 40
0.0
 40
0.0957241012174194
 40
0.1936971000257456
 40
0.2995272668819052
 40
0.408425168723633
 40
0.5142606480626283
 40
0.6231643047602584
 40
0.7289702973788458
 40
0.8378338427746881
 40
0.9182666847616384
 40
1.0
 40
1.0
 40
1.0
 40
1.0
 10
51.45424844616607
 20
232.515137793237
 30
0.0
 10
51.46735547120402
 20
232.5151317606526
 30
0.0
 10
51.49387745164079
 20
232.515119553757
 30
0.0
 10
51.71452657487926
 20
232.5151445043221
 30
0.0
 10
52.08457174359278
 20
232.5151303402998
 30
0.0
 10
52.61883876922854
 20
232.5151378758042
 30
0.0
 10
53.29501364927622
 20
232.5151227465527
 30
0.0
 10
54.08276628718111
 20
232.5151993456986
 30
0.0
 10
54.97365351464378
 20
232.5148899441616
 30
0.0
 10
55.85101054871475
 20
232.5158040196907
 30
0.0
 10
56.68836408428411
 20
232.5142006366085
 30
0.0
 10
57.19759307964605
 20
232.5148237420528
 30
0.0
 10
57.4542494296427
 20
232.515137793237
 30
0.0
  0
LINE
  5
60
330
1F
100
AcDbEntity
  8
0
  6
Continuous
 62
     7
370
    30
100
AcDbLine
 10
42.9037386357
 20
242.0114429311
 30
0.0
 11
51.4542484462
 21
232.5151377932
 31
0.0
  0
SPLINE
  5
61
330
1F
100
AcDbEntity
  8
0
  6
Continuous
 62
     7
370
    30
100
AcDbSpline
210
0.0
220
0.0
230
1.0
 70
     8
 71
     3
 72
     9
 73
     5
 74
     0
 42
0.00000001
 43
0.00000001
 40
0.0
 40
0.0
 40
0.0
 40
0.0
 40
0.8539752737664017
 40
1.0
 40
1.0
 40
1.0
 40
1.0
 10
72.47151674622252
 20
229.9254240111649
 30
0.0
 10
72.4723209282642
 20
229.9245924676427
 30
0.0
 10
72.4732626206836
 20
229.9236187350913
 30
0.0
 10
72.50383907024364
 20
229.9215142843852
 30
0.0
 10
72.50830398791985
 20
229.921206982547
 30
0.0
  0
ARC
  5
62
330
1F
100
AcDbEntity
  8
0
  6
Continuous
 62
     7
370
    30
100
AcDbCircle
 10
136.9261529802
 20
225.9554488335
 30
0.0
 40
4.000000000000016
100
AcDbArc
 50
97.024482183
 51
177.0
  0
ARC
  5
63
330
1F
100
AcDbEntity
  8
0
  6
Continuous
 62
     7
370
    30
100
AcDbCircle
 10
71.9823426604
 20
225.9554488335
 30
0.0
 40
4.000000000000016
100
AcDbArc
 50
3.0
 51
82.975517817
  0
LINE
  5
64
330
1F
100
AcDbEntity
  8
0
  6
Continuous
 62
     7
370
    30
100
AcDbLine
 10
132.9316353231
 20
226.1647918836
 30
0.0
 11
132.6093455582
 21
220.0151366756
 31
0.0
  0
LINE
  5
65
330
1F
100
AcDbEntity
  8
0
  6
Continuous
 62
     7
370
    30
100
AcDbLine
 10
76.2991500824
 20
220.0151366756
 30
0.0
 11
75.9768603175
 21
226.1647918836
 31
0.0
  0
LINE
  5
66
330
1F
100
AcDbEntity
  8
0
  6
Continuous
 62
     8
370
     0
100
AcDbLine
 10
77.9542481332
 20
198.0151372605
 30
0.0
 11
77.9542481332
 21
197.0151373294
 31
0.0
  0
LINE
  5
67
330
1F
100
AcDbEntity
  8
0
  6
Continuous
 62
     8
370
     0
100
AcDbLine
 10
130.9542475074
 20
198.0151372605
 30
0.0
 11
130.9542475074
 21
197.0151373294
 31
0.0
  0
LINE
  5
68
330
1F
100
AcDbEntity
  8
0
  6
Continuous
 62
     8
370
     0
100
AcDbLine
 10
77.9542481332
 20
198.0151372605
 30
0.0
 11
77.9542481332
 21
220.0151366756
 31
0.0
  0
LINE
  5
69
330
1F
100
AcDbEntity
  8
0
  6
Continuous
 62
     8
370
     0
100
AcDbLine
 10
130.9542475074
 20
198.0151372605
 30
0.0
 11
130.9542475074
 21
220.0151366756
 31
0.0
  0
LINE
  5
6A
330
1F
100
AcDbEntity
  8
0
  6
Continuous
 62
     8
370
     0
100
AcDbLine
 10
151.454246211
 20
244.5151360349
 30
0.0
 11
151.454246211
 21
242.0114429311
 31
0.0
  0
LINE
  5
6B
330
1F
100
AcDbEntity
  8
0
  6
Continuous
 62
     8
370
     0
100
AcDbLine
 10
151.454246211
 20
242.0114429311
 30
0.0
 11
57.4542494296
 21
242.0114429311
 31
0.0
  0
LINE
  5
6C
330
1F
100
AcDbEntity
  8
0
  6
Continuous
 62
     8
370
     0
100
AcDbLine
 10
57.4542494296
 20
244.5151360349
 30
0.0
 11
57.4542494296
 21
242.0114429311
 31
0.0
  0
LINE
  5
6D
330
1F
100
AcDbEntity
  8
0
  6
Continuous
 62
     8
370
     0
100
AcDbLine
 10
42.9037386357
 20
242.0114429311
 30
0.0
 11
57.4542494296
 21
242.0114429311
 31
0.0
  0
LINE
  5
6E
330
1F
100
AcDbEntity
  8
0
  6
Continuous
 62
     8
370
     0
100
AcDbLine
 10
151.454246211
 20
242.0114429311
 30
0.0
 11
166.0047570049
 21
242.0114429311
 31
0.0
  0
LINE
  5
6F
330
1F
100
AcDbEntity
  8
0
  6
Continuous
 62
     8
370
     0
100
AcDbLine
 10
151.454246211
 20
242.0114429311
 30
0.0
 11
151.454246211
 21
232.5151377932
 31
0.0
  0
LINE
  5
70
330
1F
100
AcDbEntity
  8
0
  6
Continuous
 62
     8
370
     0
100
AcDbLine
 10
57.4542494296
 20
242.0114429311
 30
0.0
 11
57.4542494296
 21
232.5151377932
 31
0.0
  0
SPLINE
  5
71
330
1F
100
AcDbEntity
  8
0
  6
Continuous
 62
     8
370
     0
100
AcDbSpline
210
0.0
220
0.0
230
1.0
 70
     8
 71
     3
 72
    13
 73
     9
 74
     0
 42
0.00000001
 43
0.00000001
 40
0.0
 40
0.0
 40
0.0
 40
0.0
 40
0.1212906886690229
 40
0.3681205759456498
 40
0.6160533472417566
 40
0.8629842072106645
 40
0.9999892597677512
 40
1.0
 40
1.0
 40
1.0
 40
1.0
 10
127.0058942764397
 20
230.6167373077214
 30
0.0
 10
127.183434772349
 20
230.6149240411423
 30
0.0
 10
127.7222750602969
 20
230.6094207272049
 30
0.0
 10
128.6188615613167
 20
230.544175953253
 30
0.0
 10
129.6696423263142
 20
230.3942198493568
 30
0.0
 10
130.5281354136668
 20
230.2144500888024
 30
0.0
 10
131.0237177646544
 20
230.0658794068466
 30
0.0
 10
131.1979740042934
 20
230.018355102939
 30
0.0
 10
131.1979876636858
 20
230.01835137766
 30
0.0
  0
LINE
  5
72
330
1F
100
AcDbEntity
  8
0
  6
Continuous
 62
     8
370
     0
100
AcDbLine
 10
81.9026013642
 20
230.6167373077
 30
0.0
 11
127.0058942764
 21
230.6167373077
 31
0.0
  0
SPLINE
  5
73
330
1F
100
AcDbEntity
  8
0
  6
Continuous
 62
     8
370
     0
100
AcDbSpline
210
0.0
220
0.0
230
1.0
 70
     8
 71
     3
 72
    14
 73
    10
 74
     0
 42
0.00000001
 43
0.00000001
 40
0.0
 40
0.0
 40
0.0
 40
0.0
 40
0.0000135238717509
 40
0.1493251037320831
 40
0.2994818686268882
 40
0.4715786250001035
 40
0.643667578412172
 40
0.8218338031065454
 40
1.0
 40
1.0
 40
1.0
 40
1.0
 10
77.71050797694878
 20
230.01835137766
 30
0.0
 10
77.71052536163737
 20
230.0183563447116
 30
0.0
 10
77.90248003818496
 20
230.0732005127671
 30
0.0
 10
78.28706510479196
 20
230.1847614145213
 30
0.0
 10
78.92228358614132
 20
230.3282187908056
 30
0.0
 10
79.608236089255
 20
230.451265331108
 30
0.0
 10
80.35282088022434
 20
230.5451023872764
 30
0.0
 10
81.11975736778635
 20
230.6053260664481
 30
0.0
 10
81.64165337896476
 20
230.6129335608281
 30
0.0
 10
81.90260136419491
 20
230.6167373077214
 30
0.0
  0
ARC
  5
74
330
1F
100
AcDbEntity
  8
0
  6
Continuous
 62
     8
370
     0
100
AcDbCircle
 10
76.0441547945
 20
179.9128099291
 30
0.0
 40
50.13324263184618
100
AcDbArc
 50
88.0952240799
 51
94.0443756077
  0
LWPOLYLINE
  5
75
330
1F
100
AcDbEntity
  8
0
  6
Continuous
 62
     8
370
     0
100
AcDbPolyline
 90
        2
 70
   128
 43
0.0
 10
136.4369788944
 20
229.9254240112
 10
136.4369788944
 20
229.9254240112
  0
SPLINE
  5
76
330
1F
100
AcDbEntity
  8
0
  6
Continuous
 62
     8
370
     0
100
AcDbSpline
210
0.0
220
0.0
230
1.0
 70
     8
 71
     3
 72
    21
 73
    17
 74
     0
 42
0.00000001
 43
0.00000001
 40
0.0
 40
0.0
 40
0.0
 40
0.0
 40
0.0000061284474244
 40
0.0289462723997896
 40
0.0876053894646202
 40
0.1460083943057625
 40
0.2054258062036141
 40
0.2698085669622774
 40
0.3346488122728254
 40
0.3993582646904866
 40
0.5012479581725438
 40
0.6062269787546131
 40
0.7116387839732773
 40
0.8166770371934784
 40
0.9083224187361599
 40
1.0
 40
1.0
 40
1.0
 40
1.0
 10
131.1979876636858
 20
230.01835137766
 30
0.0
 10
131.1980075318992
 20
230.0183526194346
 30
0.0
 10
131.291850340077
 20
230.024217847838
 30
0.0
 10
131.5761804132771
 20
230.0397202822626
 30
0.0
 10
132.0536635367365
 20
230.0548917063855
 30
0.0
 10
132.6267352505675
 20
230.0507099816743
 30
0.0
 10
133.1786223421051
 20
230.027245594859
 30
0.0
 10
133.6951445617429
 20
230.002060812434
 30
0.0
 10
134.169903454038
 20
229.9780066440884
 30
0.0
 10
134.6775552624929
 20
229.9541969821875
 30
0.0
 10
135.1945942783512
 20
229.9349346648187
 30
0.0
 10
135.6748371675417
 20
229.9206713815899
 30
0.0
 10
136.0448983733186
 20
229.9143281665752
 30
0.0
 10
136.2853410067762
 20
229.9135931043637
 30
0.0
 10
136.4155893417421
 20
229.9217116454997
 30
0.0
 10
136.4298482086903
 20
229.92418641105
 30
0.0
 10
136.4369788944121
 20
229.9254240111649
 30
0.0
  0
SPLINE
  5
77
330
1F
100
AcDbEntity
  8
0
  6
Continuous
 62
     8
370
     0
100
AcDbSpline
210
0.0
220
0.0
230
1.0
 70
     8
 71
     3
 72
    21
 73
    17
 74
     0
 42
0.00000001
 43
0.00000001
 40
0.0
 40
0.0
 40
0.0
 40
0.0
 40
0.0589988584949004
 40
0.1180023293596105
 40
0.2236426815794578
 40
0.3292831667041907
 40
0.4002672578814024
 40
0.4714767401966506
 40
0.5424282802990876
 40
0.6144418124081505
 40
0.6869177599106249
 40
0.7592233105427625
 40
0.8317615880501485
 40
0.9042493115590113
 40
0.9664567496767609
 40
1.0
 40
1.0
 40
1.0
 40
1.0
 10
132.9316353231068
 20
226.1647918836415
 30
0.0
 10
132.9267722607584
 20
226.1697267120394
 30
0.0
 10
132.9170457558806
 20
226.1795967546268
 30
0.0
 10
132.814961721874
 20
226.1899272820852
 30
0.0
 10
132.585561679419
 20
226.2147951845694
 30
0.0
 10
132.2058124805455
 20
226.2519901331139
 30
0.0
 10
131.7755076464303
 20
226.2947670372266
 30
0.0
 10
131.3464914644046
 20
226.3496282499626
 30
0.0
 10
130.8617345770428
 20
226.4259717387166
 30
0.0
 10
130.3345435466031
 20
226.5743283643768
 30
0.0
 10
129.7801033245856
 20
226.7912322939164
 30
0.0
 10
129.2025960022858
 20
227.0431016613437
 30
0.0
 10
128.582862333328
 20
227.2608884321901
 30
0.0
 10
127.9491883332399
 20
227.3872999268692
 30
0.0
 10
127.4169618646003
 20
227.4319127290582
 30
0.0
 10
127.1125392061342
 20
227.4266815535941
 30
0.0
 10
127.0058942764397
 20
227.4248489753544
 30
0.0
  0
LINE
  5
78
330
1F
100
AcDbEntity
  8
0
  6
Continuous
 62
     8
370
     0
100
AcDbLine
 10
127.0058942764
 20
230.6167373077
 30
0.0
 11
127.0058942764
 21
227.4248489754
 31
0.0
  0
LINE
  5
79
330
1F
100
AcDbEntity
  8
0
  6
Continuous
 62
     8
370
     0
100
AcDbLine
 10
81.9026013642
 20
227.4248489754
 30
0.0
 11
82.2909274876
 21
220.0151366756
 31
0.0
  0
LINE
  5
7A
330
1F
100
AcDbEntity
  8
0
  6
Continuous
 62
     8
370
     0
100
AcDbLine
 10
127.0058942764
 20
227.4248489754
 30
0.0
 11
81.9026013642
 21
227.4248489754
 31
0.0
  0
LINE
  5
7B
330
1F
100
AcDbEntity
  8
0
  6
Continuous
 62
     8
370
     0
100
AcDbLine
 10
126.6175681531
 20
220.0151366756
 30
0.0
 11
127.0058942764
 21
227.4248489754
 31
0.0
  0
SPLINE
  5
7C
330
1F
100
AcDbEntity
  8
0
  6
Continuous
 62
     8
370
     0
100
AcDbSpline
210
0.0
220
0.0
230
1.0
 70
     8
 71
     3
 72
    20
 73
    16
 74
     0
 42
0.00000001
 43
0.00000001
 40
0.0
 40
0.0
 40
0.0
 40
0.0
 40
0.071744774760341
 40
0.1435020903963949
 40
0.1945563493727766
 40
0.2605805536644038
 40
0.3268480642832727
 40
0.3927669480846793
 40
0.4626213523017332
 40
0.5327866117427048
 40
0.6027360993305227
 40
0.7057305010043657
 40
0.8087263425731573
 40
0.9043673535270167
 40
1.0
 40
1.0
 40
1.0
 40
1.0
 10
81.90260136419491
 20
227.4248489753544
 30
0.0
 10
81.67409473579485
 20
227.4242755136206
 30
0.0
 10
81.21704153638939
 20
227.4231284899127
 30
0.0
 10
80.61238074406357
 20
227.3238729420203
 30
0.0
 10
80.05347500271776
 20
227.1741594002425
 30
0.0
 10
79.5443945526013
 20
226.9713985451702
 30
0.0
 10
79.02782110675325
 20
226.7328816362271
 30
0.0
 10
78.51390405154672
 20
226.5373715224912
 30
0.0
 10
78.0090298973341
 20
226.4227715256466
 30
0.0
 10
77.53732504432928
 20
226.3448745276626
 30
0.0
 10
77.04942312970545
 20
226.2871961504177
 30
0.0
 10
76.59336430341384
 20
226.240343116751
 30
0.0
 10
76.23420491362046
 20
226.2048012534887
 30
0.0
 10
76.01639385435233
 20
226.1881845043997
 30
0.0
 10
75.9900377789484
 20
226.1725891965643
 30
0.0
 10
75.97686031752781
 20
226.1647918836415
 30
0.0
  0
LINE
  5
7D
330
1F
100
AcDbEntity
  8
0
  6
Continuous
 62
     8
370
     0
100
AcDbLine
 10
81.9026013642
 20
230.6167373077
 30
0.0
 11
81.9026013642
 21
227.4248489754
 31
0.0
  0
DIMENSION
  5
7E
330
1F
100
AcDbEntity
  8
0
  6
Continuous
 62
     7
370
     0
100
AcDbDimension
  2
*D1
 10
32.5184544496
 20
197.0151373164
 30
0.0
 11
32.5184544496
 21
220.2894976554
 31
0.0
 70
   160
  1
(<>)
 71
     2
 42
-1.0
  3
SLDDIMSTYLE0
100
AcDbAlignedDimension
 13
44.0184544496
 23
244.5151373164
 33
0.0
 14
73.4542478203
 24
197.0151373164
 34
0.0
 50
90.0
100
AcDbRotatedDimension
  0
LINE
  5
8C
330
1F
100
AcDbEntity
  8
0
  6
CENTER
 62
     7
370
     0
100
AcDbLine
 10
104.4542478219
 20
270.511901744
 30
0.0
 11
104.4542478219
 21
178.7987513183
 31
0.0
  0
LINE
  5
8D
330
1F
100
AcDbEntity
  8
0
  6
Continuous
 62
     7
370
     0
100
AcDbLine
 10
92.4542478219
 20
268.511901744
 30
0.0
 11
104.4542478219
 21
268.511901744
 31
0.0
  0
SOLID
  5
8E
330
1F
100
AcDbEntity
  8
0
  6
Continuous
 62
     7
370
     0
100
AcDbTrace
 10
104.4542478219
 20
268.511901744
 30
0.0
 11
98.4542478219
 21
270.011901744
 31
0.0
 12
98.4542478219
 22
267.011901744
 32
0.0
 13
98.4542478219
 23
267.011901744
 33
0.0
  0
LINE
  5
8F
330
1F
100
AcDbEntity
  8
0
  6
Continuous
 62
     7
370
     0
100
AcDbLine
 10
92.4542478219
 20
180.7987513183
 30
0.0
 11
104.4542478219
 21
180.7987513183
 31
0.0
  0
SOLID
  5
90
330
1F
100
AcDbEntity
  8
0
  6
Continuous
 62
     7
370
     0
100
AcDbTrace
 10
104.4542478219
 20
180.7987513183
 30
0.0
 11
98.4542478219
 21
182.2987513183
 31
0.0
 12
98.4542478219
 22
179.2987513183
 32
0.0
 13
98.4542478219
 23
179.2987513183
 33
0.0
  0
MTEXT
  5
91
330
1F
100
AcDbEntity
  8
0
  6
Continuous
 62
     7
100
AcDbMText
 10
85.7165632472
 20
271.5786797029
 30
0.0
 40
5.0
 41
0.0
 71
     1
 72
     1
  1
A
  7
SLDTEXTSTYLE0
 73
     1
 44
1.0
  0
MTEXT
  5
92
330
1F
100
AcDbEntity
  8
0
  6
Continuous
 62
     7
100
AcDbMText
 10
85.7769070152
 20
183.6126878085
 30
0.0
 40
5.0
 41
0.0
 71
     1
 72
     1
  1
A
  7
SLDTEXTSTYLE0
 73
     1
 44
1.0
  0
ARC
  5
93
330
1F
100
AcDbEntity
  8
0
  6
Continuous
 62
     7
370
    30
100
AcDbCircle
 10
151.4542478203
 20
123.8393773877
 30
0.0
 40
14.93579337071779
100
AcDbArc
 50
359.999999999
 51
90.0000000015
  0
LINE
  5
94
330
1F
100
AcDbEntity
  8
0
  6
Continuous
 62
     7
370
    30
100
AcDbLine
 10
151.454246211
 20
138.7751724564
 30
0.0
 11
57.4542494296
 21
138.7751724564
 31
0.0
  0
ARC
  5
95
330
1F
100
AcDbEntity
  8
0
  6
Continuous
 62
     7
370
    30
100
AcDbCircle
 10
57.4542478203
 20
123.8393773877
 30
0.0
 40
14.93579337071779
100
AcDbArc
 50
89.9999999999
 51
180.0000000177
  0
LINE
  5
96
330
1F
100
AcDbEntity
  8
0
  6
Continuous
 62
     7
370
    30
100
AcDbLine
 10
42.5184542119
 20
123.8393772387
 30
0.0
 11
42.5184542119
 21
68.8393775367
 31
0.0
  0
LINE
  5
97
330
1F
100
AcDbEntity
  8
0
  6
Continuous
 62
     7
370
    30
100
AcDbLine
 10
166.3900414287
 20
68.8393775367
 30
0.0
 11
166.3900414287
 21
123.8393772387
 31
0.0
  0
ARC
  5
98
330
1F
100
AcDbEntity
  8
0
  6
Continuous
 62
     7
370
    30
100
AcDbCircle
 10
151.4542478203
 20
68.8393773877
 30
0.0
 40
14.93579337071779
100
AcDbArc
 50
270.0
 51
0.0
  0
ARC
  5
99
330
1F
100
AcDbEntity
  8
0
  6
Continuous
 62
     7
370
    30
100
AcDbCircle
 10
57.4542478203
 20
68.8393773877
 30
0.0
 40
14.93579337071778
100
AcDbArc
 50
180.0000000104
 51
270.0000000146
  0
LINE
  5
9A
330
1F
100
AcDbEntity
  8
0
  6
Continuous
 62
     7
370
    30
100
AcDbLine
 10
57.4542494296
 20
53.9035823189
 30
0.0
 11
151.454246211
 21
53.9035823189
 31
0.0
  0
ARC
  5
9B
330
1F
100
AcDbEntity
  8
0
  6
Continuous
 62
     8
370
     0
100
AcDbCircle
 10
151.4542478203
 20
123.8393773877
 30
0.0
 40
12.33876281828903
100
AcDbArc
 50
359.9999999988
 51
90.0000000013
  0
LINE
  5
9C
330
1F
100
AcDbEntity
  8
0
  6
Continuous
 62
     8
370
     0
100
AcDbLine
 10
151.454246211
 20
136.1781384789
 30
0.0
 11
151.454246211
 21
138.7751724564
 31
0.0
  0
LINE
  5
9D
330
1F
100
AcDbEntity
  8
0
  6
Continuous
 62
     8
370
     0
100
AcDbLine
 10
163.7930111765
 20
123.8393772387
 30
0.0
 11
166.3900414287
 21
123.8393772387
 31
0.0
  0
LINE
  5
9E
330
1F
100
AcDbEntity
  8
0
  6
Continuous
 62
     8
370
     0
100
AcDbLine
 10
151.454246211
 20
136.1781384789
 30
0.0
 11
57.4542494296
 21
136.1781384789
 31
0.0
  0
LINE
  5
9F
330
1F
100
AcDbEntity
  8
0
  6
Continuous
 62
     8
370
     0
100
AcDbLine
 10
57.4542494296
 20
136.1781384789
 30
0.0
 11
57.4542494296
 21
138.7751724564
 31
0.0
  0
ARC
  5
A0
330
1F
100
AcDbEntity
  8
0
  6
Continuous
 62
     8
370
     0
100
AcDbCircle
 10
57.4542478203
 20
123.8393773877
 30
0.0
 40
12.33876281828904
100
AcDbArc
 50
89.9999999994
 51
180.0000000171
  0
LINE
  5
A1
330
1F
100
AcDbEntity
  8
0
  6
Continuous
 62
     8
370
     0
100
AcDbLine
 10
45.1154844641
 20
123.8393772387
 30
0.0
 11
42.5184542119
 21
123.8393772387
 31
0.0
  0
LINE
  5
A2
330
1F
100
AcDbEntity
  8
0
  6
Continuous
 62
     8
370
     0
100
AcDbLine
 10
45.1154844641
 20
123.8393772387
 30
0.0
 11
45.1154844641
 21
68.8393775367
 31
0.0
  0
LINE
  5
A3
330
1F
100
AcDbEntity
  8
0
  6
Continuous
 62
     8
370
     0
100
AcDbLine
 10
45.1154844641
 20
68.8393775367
 30
0.0
 11
42.5184542119
 21
68.8393775367
 31
0.0
  0
LINE
  5
A4
330
1F
100
AcDbEntity
  8
0
  6
Continuous
 62
     8
370
     0
100
AcDbLine
 10
163.7930111765
 20
68.8393775367
 30
0.0
 11
163.7930111765
 21
123.8393772387
 31
0.0
  0
LINE
  5
A5
330
1F
100
AcDbEntity
  8
0
  6
Continuous
 62
     8
370
     0
100
AcDbLine
 10
163.7930111765
 20
68.8393775367
 30
0.0
 11
166.3900414287
 21
68.8393775367
 31
0.0
  0
ARC
  5
A6
330
1F
100
AcDbEntity
  8
0
  6
Continuous
 62
     8
370
     0
100
AcDbCircle
 10
151.4542478203
 20
68.8393773877
 30
0.0
 40
12.33876281828903
100
AcDbArc
 50
270.0
 51
0.0
  0
LINE
  5
A7
330
1F
100
AcDbEntity
  8
0
  6
Continuous
 62
     8
370
     0
100
AcDbLine
 10
151.454246211
 20
56.5006162964
 30
0.0
 11
151.454246211
 21
53.9035823189
 31
0.0
  0
ARC
  5
A8
330
1F
100
AcDbEntity
  8
0
  6
Continuous
 62
     8
370
     0
100
AcDbCircle
 10
57.4542478203
 20
68.8393773877
 30
0.0
 40
12.33876281828902
100
AcDbArc
 50
180.0000000083
 51
270.0000000126
  0
LINE
  5
A9
330
1F
100
AcDbEntity
  8
0
  6
Continuous
 62
     8
370
     0
100
AcDbLine
 10
57.4542494296
 20
56.5006162964
 30
0.0
 11
57.4542494296
 21
53.9035823189
 31
0.0
  0
LINE
  5
AA
330
1F
100
AcDbEntity
  8
0
  6
Continuous
 62
     8
370
     0
100
AcDbLine
 10
151.454246211
 20
56.5006162964
 30
0.0
 11
57.4542494296
 21
56.5006162964
 31
0.0
  0
ARC
  5
AB
330
1F
100
AcDbEntity
  8
0
  6
Continuous
 62
     8
370
     0
100
AcDbCircle
 10
151.4542478203
 20
123.8393773877
 30
0.0
 40
4.348047926874571
100
AcDbArc
 50
359.9999999965
 51
89.999999999
  0
LINE
  5
AC
330
1F
100
AcDbEntity
  8
0
  6
Continuous
 62
     8
370
     0
100
AcDbLine
 10
151.454246211
 20
128.1874243163
 30
0.0
 11
151.454246211
 21
136.1781384789
 31
0.0
  0
LINE
  5
AD
330
1F
100
AcDbEntity
  8
0
  6
Continuous
 62
     8
370
     0
100
AcDbLine
 10
155.8022970139
 20
123.8393772387
 30
0.0
 11
163.7930111765
 21
123.8393772387
 31
0.0
  0
LINE
  5
AE
330
1F
100
AcDbEntity
  8
0
  6
Continuous
 62
     8
370
     0
100
AcDbLine
 10
151.454246211
 20
128.1874243163
 30
0.0
 11
57.4542494296
 21
128.1874243163
 31
0.0
  0
LINE
  5
AF
330
1F
100
AcDbEntity
  8
0
  6
Continuous
 62
     8
370
     0
100
AcDbLine
 10
57.4542494296
 20
128.1874243163
 30
0.0
 11
57.4542494296
 21
136.1781384789
 31
0.0
  0
ARC
  5
B0
330
1F
100
AcDbEntity
  8
0
  6
Continuous
 62
     8
370
     0
100
AcDbCircle
 10
57.4542478203
 20
123.8393773877
 30
0.0
 40
4.348047926874585
100
AcDbArc
 50
89.9999999936
 51
180.0000000114
  0
LINE
  5
B1
330
1F
100
AcDbEntity
  8
0
  6
Continuous
 62
     8
370
     0
100
AcDbLine
 10
53.1061986267
 20
123.8393772387
 30
0.0
 11
45.1154844641
 21
123.8393772387
 31
0.0
  0
LINE
  5
B2
330
1F
100
AcDbEntity
  8
0
  6
Continuous
 62
     8
370
     0
100
AcDbLine
 10
53.1061986267
 20
123.8393772387
 30
0.0
 11
53.1061986267
 21
68.8393775367
 31
0.0
  0
LINE
  5
B3
330
1F
100
AcDbEntity
  8
0
  6
Continuous
 62
     8
370
     0
100
AcDbLine
 10
53.1061986267
 20
68.8393775367
 30
0.0
 11
45.1154844641
 21
68.8393775367
 31
0.0
  0
LINE
  5
B4
330
1F
100
AcDbEntity
  8
0
  6
Continuous
 62
     8
370
     0
100
AcDbLine
 10
155.8022970139
 20
68.8393775367
 30
0.0
 11
155.8022970139
 21
123.8393772387
 31
0.0
  0
LINE
  5
B5
330
1F
100
AcDbEntity
  8
0
  6
Continuous
 62
     8
370
     0
100
AcDbLine
 10
155.8022970139
 20
68.8393775367
 30
0.0
 11
163.7930111765
 21
68.8393775367
 31
0.0
  0
ARC
  5
B6
330
1F
100
AcDbEntity
  8
0
  6
Continuous
 62
     8
370
     0
100
AcDbCircle
 10
57.4542478203
 20
68.8393773877
 30
0.0
 40
4.34804792687455
100
AcDbArc
 50
179.9999999865
 51
269.9999999907
  0
LINE
  5
B7
330
1F
100
AcDbEntity
  8
0
  6
Continuous
 62
     8
370
     0
100
AcDbLine
 10
57.4542494296
 20
64.491330459
 30
0.0
 11
57.4542494296
 21
56.5006162964
 31
0.0
  0
ARC
  5
B8
330
1F
100
AcDbEntity
  8
0
  6
Continuous
 62
     8
370
     0
100
AcDbCircle
 10
151.4542478203
 20
68.8393773877
 30
0.0
 40
4.348047926874557
100
AcDbArc
 50
270.0
 51
0.0
  0
LINE
  5
B9
330
1F
100
AcDbEntity
  8
0
  6
Continuous
 62
     8
370
     0
100
AcDbLine
 10
151.454246211
 20
64.491330459
 30
0.0
 11
151.454246211
 21
56.5006162964
 31
0.0
  0
LINE
  5
BA
330
1F
100
AcDbEntity
  8
0
  6
Continuous
 62
     8
370
     0
100
AcDbLine
 10
151.454246211
 20
64.491330459
 30
0.0
 11
57.4542494296
 21
64.491330459
 31
0.0
  0
ARC
  5
BB
330
1F
100
AcDbEntity
  8
0
  6
Continuous
 62
     8
370
     0
100
AcDbCircle
 10
87.4542478203
 20
113.3393773877
 30
0.0
 40
5.199999999999974
100
AcDbArc
 50
90.0
 51
180.0
  0
LINE
  5
BC
330
1F
100
AcDbEntity
  8
0
  6
Continuous
 62
     8
370
     0
100
AcDbLine
 10
82.2542482793
 20
113.3393783115
 30
0.0
 11
80.654247272
 21
113.3393783115
 31
0.0
  0
ARC
  5
BD
330
1F
100
AcDbEntity
  8
0
  6
Continuous
 62
     8
370
     0
100
AcDbCircle
 10
87.4542478203
 20
113.3393773877
 30
0.0
 40
6.799999999999983
100
AcDbArc
 50
90.0
 51
180.0
  0
LINE
  5
BE
330
1F
100
AcDbEntity
  8
0
  6
Continuous
 62
     8
370
     0
100
AcDbLine
 10
87.4542468964
 20
118.5393769287
 30
0.0
 11
87.4542468964
 21
120.139377936
 31
0.0
  0
LINE
  5
BF
330
1F
100
AcDbEntity
  8
0
  6
Continuous
 62
     8
370
     0
100
AcDbLine
 10
121.4542487442
 20
118.5393769287
 30
0.0
 11
87.4542468964
 21
118.5393769287
 31
0.0
  0
LINE
  5
C0
330
1F
100
AcDbEntity
  8
0
  6
Continuous
 62
     8
370
     0
100
AcDbLine
 10
121.4542487442
 20
120.139377936
 30
0.0
 11
87.4542468964
 21
120.139377936
 31
0.0
  0
LINE
  5
C1
330
1F
100
AcDbEntity
  8
0
  6
Continuous
 62
     8
370
     0
100
AcDbLine
 10
121.4542487442
 20
118.5393769287
 30
0.0
 11
121.4542487442
 21
120.139377936
 31
0.0
  0
ARC
  5
C2
330
1F
100
AcDbEntity
  8
0
  6
Continuous
 62
     8
370
     0
100
AcDbCircle
 10
121.4542478203
 20
113.3393773877
 30
0.0
 40
5.199999999999974
100
AcDbArc
 50
0.0
 51
90.0
  0
ARC
  5
C3
330
1F
100
AcDbEntity
  8
0
  6
Continuous
 62
     8
370
     0
100
AcDbCircle
 10
121.4542478203
 20
113.3393773877
 30
0.0
 40
6.799999999999983
100
AcDbArc
 50
0.0
 51
90.0
  0
LINE
  5
C4
330
1F
100
AcDbEntity
  8
0
  6
Continuous
 62
     8
370
     0
100
AcDbLine
 10
126.6542473614
 20
113.3393783115
 30
0.0
 11
128.2542483687
 21
113.3393783115
 31
0.0
  0
LINE
  5
C5
330
1F
100
AcDbEntity
  8
0
  6
Continuous
 62
     8
370
     0
100
AcDbLine
 10
126.6542473614
 20
79.3393764638
 30
0.0
 11
126.6542473614
 21
113.3393783115
 31
0.0
  0
LINE
  5
C6
330
1F
100
AcDbEntity
  8
0
  6
Continuous
 62
     8
370
     0
100
AcDbLine
 10
128.2542483687
 20
79.3393764638
 30
0.0
 11
128.2542483687
 21
113.3393783115
 31
0.0
  0
LINE
  5
C7
330
1F
100
AcDbEntity
  8
0
  6
Continuous
 62
     8
370
     0
100
AcDbLine
 10
126.6542473614
 20
79.3393764638
 30
0.0
 11
128.2542483687
 21
79.3393764638
 31
0.0
  0
LINE
  5
C8
330
1F
100
AcDbEntity
  8
0
  6
Continuous
 62
     8
370
     0
100
AcDbLine
 10
82.2542482793
 20
113.3393783115
 30
0.0
 11
82.2542482793
 21
79.3393764638
 31
0.0
  0
LINE
  5
C9
330
1F
100
AcDbEntity
  8
0
  6
Continuous
 62
     8
370
     0
100
AcDbLine
 10
82.2542482793
 20
79.3393764638
 30
0.0
 11
80.654247272
 21
79.3393764638
 31
0.0
  0
LINE
  5
CA
330
1F
100
AcDbEntity
  8
0
  6
Continuous
 62
     8
370
     0
100
AcDbLine
 10
80.654247272
 20
113.3393783115
 30
0.0
 11
80.654247272
 21
79.3393764638
 31
0.0
  0
ARC
  5
CB
330
1F
100
AcDbEntity
  8
0
  6
Continuous
 62
     8
370
     0
100
AcDbCircle
 10
121.4542478203
 20
79.3393773877
 30
0.0
 40
5.200000000000003
100
AcDbArc
 50
270.0
 51
0.0
  0
ARC
  5
CC
330
1F
100
AcDbEntity
  8
0
  6
Continuous
 62
     8
370
     0
100
AcDbCircle
 10
121.4542478203
 20
79.3393773877
 30
0.0
 40
6.799999999999997
100
AcDbArc
 50
270.0
 51
0.0
  0
LINE
  5
CD
330
1F
100
AcDbEntity
  8
0
  6
Continuous
 62
     8
370
     0
100
AcDbLine
 10
121.4542487442
 20
74.1393778466
 30
0.0
 11
121.4542487442
 21
72.5393768393
 31
0.0
  0
ARC
  5
CE
330
1F
100
AcDbEntity
  8
0
  6
Continuous
 62
     8
370
     0
100
AcDbCircle
 10
87.4542478203
 20
79.3393773877
 30
0.0
 40
5.199999999999989
100
AcDbArc
 50
180.0
 51
270.0
  0
LINE
  5
CF
330
1F
100
AcDbEntity
  8
0
  6
Continuous
 62
     8
370
     0
100
AcDbLine
 10
87.4542468964
 20
74.1393778466
 30
0.0
 11
87.4542468964
 21
72.5393768393
 31
0.0
  0
ARC
  5
D0
330
1F
100
AcDbEntity
  8
0
  6
Continuous
 62
     8
370
     0
100
AcDbCircle
 10
87.4542478203
 20
79.3393773877
 30
0.0
 40
6.799999999999997
100
AcDbArc
 50
180.0
 51
270.0
  0
LINE
  5
D1
330
1F
100
AcDbEntity
  8
0
  6
Continuous
 62
     8
370
     0
100
AcDbLine
 10
121.4542487442
 20
72.5393768393
 30
0.0
 11
87.4542468964
 21
72.5393768393
 31
0.0
  0
LINE
  5
D2
330
1F
100
AcDbEntity
  8
0
  6
Continuous
 62
     8
370
     0
100
AcDbLine
 10
121.4542487442
 20
74.1393778466
 30
0.0
 11
87.4542468964
 21
74.1393778466
 31
0.0
  0
LINE
  5
D3
330
1F
100
AcDbEntity
  8
0
  6
Continuous
 62
     8
370
     0
100
AcDbLine
 10
80.654247272
 20
113.3393783115
 30
0.0
 11
79.6042481243
 21
113.3393783115
 31
0.0
  0
ARC
  5
D4
330
1F
100
AcDbEntity
  8
0
  6
Continuous
 62
     8
370
     0
100
AcDbCircle
 10
87.4542478203
 20
113.3393773877
 30
0.0
 40
7.849999999999994
100
AcDbArc
 50
90.0
 51
180.0
  0
LINE
  5
D5
330
1F
100
AcDbEntity
  8
0
  6
Continuous
 62
     8
370
     0
100
AcDbLine
 10
87.4542468964
 20
120.139377936
 30
0.0
 11
87.4542468964
 21
121.1893770837
 31
0.0
  0
LINE
  5
D6
330
1F
100
AcDbEntity
  8
0
  6
Continuous
 62
     8
370
     0
100
AcDbLine
 10
121.4542487442
 20
120.139377936
 30
0.0
 11
121.4542487442
 21
121.1893770837
 31
0.0
  0
ARC
  5
D7
330
1F
100
AcDbEntity
  8
0
  6
Continuous
 62
     8
370
     0
100
AcDbCircle
 10
121.4542478203
 20
113.3393773877
 30
0.0
 40
7.849999999999994
100
AcDbArc
 50
0.0
 51
90.0
  0
LINE
  5
D8
330
1F
100
AcDbEntity
  8
0
  6
Continuous
 62
     8
370
     0
100
AcDbLine
 10
128.2542483687
 20
113.3393783115
 30
0.0
 11
129.3042475163
 21
113.3393783115
 31
0.0
  0
LINE
  5
D9
330
1F
100
AcDbEntity
  8
0
  6
Continuous
 62
     8
370
     0
100
AcDbLine
 10
121.4542487442
 20
121.1893770837
 30
0.0
 11
87.4542468964
 21
121.1893770837
 31
0.0
  0
LINE
  5
DA
330
1F
100
AcDbEntity
  8
0
  6
Continuous
 62
     8
370
     0
100
AcDbLine
 10
125.6042482137
 20
113.3393783115
 30
0.0
 11
126.6542473614
 21
113.3393783115
 31
0.0
  0
ARC
  5
DB
330
1F
100
AcDbEntity
  8
0
  6
Continuous
 62
     8
370
     0
100
AcDbCircle
 10
121.4542478203
 20
113.3393773877
 30
0.0
 40
4.149999999999977
100
AcDbArc
 50
0.0
 51
90.0
  0
LINE
  5
DC
330
1F
100
AcDbEntity
  8
0
  6
Continuous
 62
     8
370
     0
100
AcDbLine
 10
121.4542487442
 20
117.4893777811
 30
0.0
 11
121.4542487442
 21
118.5393769287
 31
0.0
  0
LINE
  5
DD
330
1F
100
AcDbEntity
  8
0
  6
Continuous
 62
     8
370
     0
100
AcDbLine
 10
87.4542468964
 20
117.4893777811
 30
0.0
 11
87.4542468964
 21
118.5393769287
 31
0.0
  0
ARC
  5
DE
330
1F
100
AcDbEntity
  8
0
  6
Continuous
 62
     8
370
     0
100
AcDbCircle
 10
87.4542478203
 20
113.3393773877
 30
0.0
 40
4.149999999999977
100
AcDbArc
 50
90.0
 51
180.0
  0
LINE
  5
DF
330
1F
100
AcDbEntity
  8
0
  6
Continuous
 62
     8
370
     0
100
AcDbLine
 10
83.3042474269
 20
113.3393783115
 30
0.0
 11
82.2542482793
 21
113.3393783115
 31
0.0
  0
LINE
  5
E0
330
1F
100
AcDbEntity
  8
0
  6
Continuous
 62
     8
370
     0
100
AcDbLine
 10
87.4542468964
 20
117.4893777811
 30
0.0
 11
121.4542487442
 21
117.4893777811
 31
0.0
  0
LINE
  5
E1
330
1F
100
AcDbEntity
  8
0
  6
Continuous
 62
     8
370
     0
100
AcDbLine
 10
125.6042482137
 20
79.3393764638
 30
0.0
 11
126.6542473614
 21
79.3393764638
 31
0.0
  0
LINE
  5
E2
330
1F
100
AcDbEntity
  8
0
  6
Continuous
 62
     8
370
     0
100
AcDbLine
 10
125.6042482137
 20
113.3393783115
 30
0.0
 11
125.6042482137
 21
79.3393764638
 31
0.0
  0
LINE
  5
E3
330
1F
100
AcDbEntity
  8
0
  6
Continuous
 62
     8
370
     0
100
AcDbLine
 10
83.3042474269
 20
79.3393764638
 30
0.0
 11
83.3042474269
 21
113.3393783115
 31
0.0
  0
LINE
  5
E4
330
1F
100
AcDbEntity
  8
0
  6
Continuous
 62
     8
370
     0
100
AcDbLine
 10
83.3042474269
 20
79.3393764638
 30
0.0
 11
82.2542482793
 21
79.3393764638
 31
0.0
  0
LINE
  5
E5
330
1F
100
AcDbEntity
  8
0
  6
Continuous
 62
     8
370
     0
100
AcDbLine
 10
129.3042475163
 20
79.3393764638
 30
0.0
 11
129.3042475163
 21
113.3393783115
 31
0.0
  0
LINE
  5
E6
330
1F
100
AcDbEntity
  8
0
  6
Continuous
 62
     8
370
     0
100
AcDbLine
 10
128.2542483687
 20
79.3393764638
 30
0.0
 11
129.3042475163
 21
79.3393764638
 31
0.0
  0
LINE
  5
E7
330
1F
100
AcDbEntity
  8
0
  6
Continuous
 62
     8
370
     0
100
AcDbLine
 10
80.654247272
 20
79.3393764638
 30
0.0
 11
79.6042481243
 21
79.3393764638
 31
0.0
  0
LINE
  5
E8
330
1F
100
AcDbEntity
  8
0
  6
Continuous
 62
     8
370
     0
100
AcDbLine
 10
79.6042481243
 20
113.3393783115
 30
0.0
 11
79.6042481243
 21
79.3393764638
 31
0.0
  0
ARC
  5
E9
330
1F
100
AcDbEntity
  8
0
  6
Continuous
 62
     8
370
     0
100
AcDbCircle
 10
121.4542478203
 20
79.3393773877
 30
0.0
 40
7.850000000000009
100
AcDbArc
 50
270.0
 51
0.0
  0
LINE
  5
EA
330
1F
100
AcDbEntity
  8
0
  6
Continuous
 62
     8
370
     0
100
AcDbLine
 10
121.4542487442
 20
72.5393768393
 30
0.0
 11
121.4542487442
 21
71.4893776917
 31
0.0
  0
LINE
  5
EB
330
1F
100
AcDbEntity
  8
0
  6
Continuous
 62
     8
370
     0
100
AcDbLine
 10
87.4542468964
 20
72.5393768393
 30
0.0
 11
87.4542468964
 21
71.4893776917
 31
0.0
  0
ARC
  5
EC
330
1F
100
AcDbEntity
  8
0
  6
Continuous
 62
     8
370
     0
100
AcDbCircle
 10
87.4542478203
 20
79.3393773877
 30
0.0
 40
7.849999999999994
100
AcDbArc
 50
180.0
 51
270.0
  0
LINE
  5
ED
330
1F
100
AcDbEntity
  8
0
  6
Continuous
 62
     8
370
     0
100
AcDbLine
 10
121.4542487442
 20
75.1893769943
 30
0.0
 11
121.4542487442
 21
74.1393778466
 31
0.0
  0
ARC
  5
EE
330
1F
100
AcDbEntity
  8
0
  6
Continuous
 62
     8
370
     0
100
AcDbCircle
 10
121.4542478203
 20
79.3393773877
 30
0.0
 40
4.149999999999991
100
AcDbArc
 50
270.0
 51
0.0
  0
ARC
  5
EF
330
1F
100
AcDbEntity
  8
0
  6
Continuous
 62
     8
370
     0
100
AcDbCircle
 10
87.4542478203
 20
79.3393773877
 30
0.0
 40
4.149999999999977
100
AcDbArc
 50
180.0
 51
270.0
  0
LINE
  5
F0
330
1F
100
AcDbEntity
  8
0
  6
Continuous
 62
     8
370
     0
100
AcDbLine
 10
87.4542468964
 20
75.1893769943
 30
0.0
 11
87.4542468964
 21
74.1393778466
 31
0.0
  0
LINE
  5
F1
330
1F
100
AcDbEntity
  8
0
  6
Continuous
 62
     8
370
     0
100
AcDbLine
 10
121.4542487442
 20
75.1893769943
 30
0.0
 11
87.4542468964
 21
75.1893769943
 31
0.0
  0
LINE
  5
F2
330
1F
100
AcDbEntity
  8
0
  6
Continuous
 62
     8
370
     0
100
AcDbLine
 10
87.4542468964
 20
71.4893776917
 30
0.0
 11
121.4542487442
 21
71.4893776917
 31
0.0
  0
ARC
  5
F3
330
1F
100
AcDbEntity
  8
0
  6
Continuous
 62
     8
370
     0
100
AcDbCircle
 10
151.4542478203
 20
123.8393773877
 30
0.0
 40
2.15398682201706
100
AcDbArc
 50
359.999999993
 51
89.9999999955
  0
LINE
  5
F4
330
1F
100
AcDbEntity
  8
0
  6
Continuous
 62
     8
370
     0
100
AcDbLine
 10
151.454246211
 20
125.9933643036
 30
0.0
 11
151.454246211
 21
128.1874243163
 31
0.0
  0
LINE
  5
F5
330
1F
100
AcDbEntity
  8
0
  6
Continuous
 62
     8
370
     0
100
AcDbLine
 10
153.6082351386
 20
123.8393772387
 30
0.0
 11
155.8022970139
 21
123.8393772387
 31
0.0
  0
LINE
  5
F6
330
1F
100
AcDbEntity
  8
0
  6
Continuous
 62
     8
370
     0
100
AcDbLine
 10
151.454246211
 20
125.9933643036
 30
0.0
 11
57.4542494296
 21
125.9933643036
 31
0.0
  0
LINE
  5
F7
330
1F
100
AcDbEntity
  8
0
  6
Continuous
 62
     8
370
     0
100
AcDbLine
 10
57.4542494296
 20
125.9933643036
 30
0.0
 11
57.4542494296
 21
128.1874243163
 31
0.0
  0
ARC
  5
F8
330
1F
100
AcDbEntity
  8
0
  6
Continuous
 62
     8
370
     0
100
AcDbCircle
 10
57.4542478203
 20
123.8393773877
 30
0.0
 40
2.15398682201706
100
AcDbArc
 50
89.9999999846
 51
180.0000000023
  0
LINE
  5
F9
330
1F
100
AcDbEntity
  8
0
  6
Continuous
 62
     8
370
     0
100
AcDbLine
 10
55.300260502
 20
123.8393772387
 30
0.0
 11
53.1061986267
 21
123.8393772387
 31
0.0
  0
LINE
  5
FA
330
1F
100
AcDbEntity
  8
0
  6
Continuous
 62
     8
370
     0
100
AcDbLine
 10
153.6082351386
 20
68.8393775367
 30
0.0
 11
153.6082351386
 21
123.8393772387
 31
0.0
  0
LINE
  5
FB
330
1F
100
AcDbEntity
  8
0
  6
Continuous
 62
     8
370
     0
100
AcDbLine
 10
153.6082351386
 20
68.8393775367
 30
0.0
 11
155.8022970139
 21
68.8393775367
 31
0.0
  0
LINE
  5
FC
330
1F
100
AcDbEntity
  8
0
  6
Continuous
 62
     8
370
     0
100
AcDbLine
 10
55.300260502
 20
123.8393772387
 30
0.0
 11
55.300260502
 21
68.8393775367
 31
0.0
  0
LINE
  5
FD
330
1F
100
AcDbEntity
  8
0
  6
Continuous
 62
     8
370
     0
100
AcDbLine
 10
55.300260502
 20
68.8393775367
 30
0.0
 11
53.1061986267
 21
68.8393775367
 31
0.0
  0
ARC
  5
FE
330
1F
100
AcDbEntity
  8
0
  6
Continuous
 62
     8
370
     0
100
AcDbCircle
 10
57.4542478203
 20
68.8393773877
 30
0.0
 40
2.153986822017039
100
AcDbArc
 50
179.9999999521
 51
269.9999999563
  0
LINE
  5
FF
330
1F
100
AcDbEntity
  8
0
  6
Continuous
 62
     8
370
     0
100
AcDbLine
 10
57.4542494296
 20
66.6853904717
 30
0.0
 11
57.4542494296
 21
64.491330459
 31
0.0
  0
ARC
  5
100
330
1F
100
AcDbEntity
  8
0
  6
Continuous
 62
     8
370
     0
100
AcDbCircle
 10
151.4542478203
 20
68.8393773877
 30
0.0
 40
2.153986822017046
100
AcDbArc
 50
270.0
 51
0.0
  0
LINE
  5
101
330
1F
100
AcDbEntity
  8
0
  6
Continuous
 62
     8
370
     0
100
AcDbLine
 10
151.454246211
 20
66.6853904717
 30
0.0
 11
151.454246211
 21
64.491330459
 31
0.0
  0
LINE
  5
102
330
1F
100
AcDbEntity
  8
0
  6
Continuous
 62
     8
370
     0
100
AcDbLine
 10
151.454246211
 20
66.6853904717
 30
0.0
 11
57.4542494296
 21
66.6853904717
 31
0.0
  0
LINE
  5
103
330
1F
100
AcDbEntity
  8
0
  6
Continuous
 62
     8
370
     0
100
AcDbLine
 10
87.4542468964
 20
121.5893782668
 30
0.0
 11
121.4542487442
 21
121.5893782668
 31
0.0
  0
LINE
  5
104
330
1F
100
AcDbEntity
  8
0
  6
Continuous
 62
     8
370
     0
100
AcDbLine
 10
121.4542487442
 20
121.5893782668
 30
0.0
 11
121.4542487442
 21
121.1893770837
 31
0.0
  0
LINE
  5
105
330
1F
100
AcDbEntity
  8
0
  6
Continuous
 62
     8
370
     0
100
AcDbLine
 10
87.4542468964
 20
121.5893782668
 30
0.0
 11
87.4542468964
 21
121.1893770837
 31
0.0
  0
LINE
  5
106
330
1F
100
AcDbEntity
  8
0
  6
Continuous
 62
     8
370
     0
100
AcDbLine
 10
79.6042481243
 20
113.3393783115
 30
0.0
 11
79.2042469411
 21
113.3393783115
 31
0.0
  0
ARC
  5
107
330
1F
100
AcDbEntity
  8
0
  6
Continuous
 62
     8
370
     0
100
AcDbCircle
 10
87.4542478203
 20
113.3393773877
 30
0.0
 40
8.249999999999986
100
AcDbArc
 50
90.0
 51
180.0
  0
ARC
  5
108
330
1F
100
AcDbEntity
  8
0
  6
Continuous
 62
     8
370
     0
100
AcDbCircle
 10
121.4542478203
 20
113.3393773877
 30
0.0
 40
8.25
100
AcDbArc
 50
0.0
 51
90.0
  0
LINE
  5
109
330
1F
100
AcDbEntity
  8
0
  6
Continuous
 62
     8
370
     0
100
AcDbLine
 10
129.7042486995
 20
113.3393783115
 30
0.0
 11
129.3042475163
 21
113.3393783115
 31
0.0
  0
LINE
  5
10A
330
1F
100
AcDbEntity
  8
0
  6
Continuous
 62
     8
370
     0
100
AcDbLine
 10
121.4542487442
 20
117.0893765979
 30
0.0
 11
87.4542468964
 21
117.0893765979
 31
0.0
  0
LINE
  5
10B
330
1F
100
AcDbEntity
  8
0
  6
Continuous
 62
     8
370
     0
100
AcDbLine
 10
87.4542468964
 20
117.0893765979
 30
0.0
 11
87.4542468964
 21
117.4893777811
 31
0.0
  0
LINE
  5
10C
330
1F
100
AcDbEntity
  8
0
  6
Continuous
 62
     8
370
     0
100
AcDbLine
 10
121.4542487442
 20
117.0893765979
 30
0.0
 11
121.4542487442
 21
117.4893777811
 31
0.0
  0
ARC
  5
10D
330
1F
100
AcDbEntity
  8
0
  6
Continuous
 62
     8
370
     0
100
AcDbCircle
 10
121.4542478203
 20
113.3393773877
 30
0.0
 40
3.75
100
AcDbArc
 50
0.0
 51
90.0
  0
LINE
  5
10E
330
1F
100
AcDbEntity
  8
0
  6
Continuous
 62
     8
370
     0
100
AcDbLine
 10
125.2042470306
 20
113.3393783115
 30
0.0
 11
125.6042482137
 21
113.3393783115
 31
0.0
  0
ARC
  5
10F
330
1F
100
AcDbEntity
  8
0
  6
Continuous
 62
     8
370
     0
100
AcDbCircle
 10
87.4542478203
 20
113.3393773877
 30
0.0
 40
3.749999999999986
100
AcDbArc
 50
90.0
 51
180.0
  0
LINE
  5
110
330
1F
100
AcDbEntity
  8
0
  6
Continuous
 62
     8
370
     0
100
AcDbLine
 10
83.3042474269
 20
113.3393783115
 30
0.0
 11
83.7042486101
 21
113.3393783115
 31
0.0
  0
LINE
  5
111
330
1F
100
AcDbEntity
  8
0
  6
Continuous
 62
     8
370
     0
100
AcDbLine
 10
79.6042481243
 20
79.3393764638
 30
0.0
 11
79.2042469411
 21
79.3393764638
 31
0.0
  0
LINE
  5
112
330
1F
100
AcDbEntity
  8
0
  6
Continuous
 62
     8
370
     0
100
AcDbLine
 10
79.2042469411
 20
79.3393764638
 30
0.0
 11
79.2042469411
 21
113.3393783115
 31
0.0
  0
LINE
  5
113
330
1F
100
AcDbEntity
  8
0
  6
Continuous
 62
     8
370
     0
100
AcDbLine
 10
125.2042470306
 20
79.3393764638
 30
0.0
 11
125.2042470306
 21
113.3393783115
 31
0.0
  0
LINE
  5
114
330
1F
100
AcDbEntity
  8
0
  6
Continuous
 62
     8
370
     0
100
AcDbLine
 10
125.2042470306
 20
79.3393764638
 30
0.0
 11
125.6042482137
 21
79.3393764638
 31
0.0
  0
LINE
  5
115
330
1F
100
AcDbEntity
  8
0
  6
Continuous
 62
     8
370
     0
100
AcDbLine
 10
129.7042486995
 20
113.3393783115
 30
0.0
 11
129.7042486995
 21
79.3393764638
 31
0.0
  0
LINE
  5
116
330
1F
100
AcDbEntity
  8
0
  6
Continuous
 62
     8
370
     0
100
AcDbLine
 10
129.7042486995
 20
79.3393764638
 30
0.0
 11
129.3042475163
 21
79.3393764638
 31
0.0
  0
LINE
  5
117
330
1F
100
AcDbEntity
  8
0
  6
Continuous
 62
     8
370
     0
100
AcDbLine
 10
83.7042486101
 20
113.3393783115
 30
0.0
 11
83.7042486101
 21
79.3393764638
 31
0.0
  0
LINE
  5
118
330
1F
100
AcDbEntity
  8
0
  6
Continuous
 62
     8
370
     0
100
AcDbLine
 10
83.3042474269
 20
79.3393764638
 30
0.0
 11
83.7042486101
 21
79.3393764638
 31
0.0
  0
ARC
  5
119
330
1F
100
AcDbEntity
  8
0
  6
Continuous
 62
     8
370
     0
100
AcDbCircle
 10
121.4542478203
 20
79.3393773877
 30
0.0
 40
3.75
100
AcDbArc
 50
270.0
 51
0.0
  0
LINE
  5
11A
330
1F
100
AcDbEntity
  8
0
  6
Continuous
 62
     8
370
     0
100
AcDbLine
 10
121.4542487442
 20
75.1893769943
 30
0.0
 11
121.4542487442
 21
75.5893781774
 31
0.0
  0
ARC
  5
11B
330
1F
100
AcDbEntity
  8
0
  6
Continuous
 62
     8
370
     0
100
AcDbCircle
 10
87.4542478203
 20
79.3393773877
 30
0.0
 40
3.75
100
AcDbArc
 50
180.0
 51
270.0
  0
LINE
  5
11C
330
1F
100
AcDbEntity
  8
0
  6
Continuous
 62
     8
370
     0
100
AcDbLine
 10
87.4542468964
 20
75.1893769943
 30
0.0
 11
87.4542468964
 21
75.5893781774
 31
0.0
  0
ARC
  5
11D
330
1F
100
AcDbEntity
  8
0
  6
Continuous
 62
     8
370
     0
100
AcDbCircle
 10
121.4542478203
 20
79.3393773877
 30
0.0
 40
8.25
100
AcDbArc
 50
270.0
 51
0.0
  0
LINE
  5
11E
330
1F
100
AcDbEntity
  8
0
  6
Continuous
 62
     8
370
     0
100
AcDbLine
 10
121.4542487442
 20
71.4893776917
 30
0.0
 11
121.4542487442
 21
71.0893765085
 31
0.0
  0
LINE
  5
11F
330
1F
100
AcDbEntity
  8
0
  6
Continuous
 62
     8
370
     0
100
AcDbLine
 10
87.4542468964
 20
71.4893776917
 30
0.0
 11
87.4542468964
 21
71.0893765085
 31
0.0
  0
ARC
  5
120
330
1F
100
AcDbEntity
  8
0
  6
Continuous
 62
     8
370
     0
100
AcDbCircle
 10
87.4542478203
 20
79.3393773877
 30
0.0
 40
8.25
100
AcDbArc
 50
180.0
 51
270.0
  0
LINE
  5
121
330
1F
100
AcDbEntity
  8
0
  6
Continuous
 62
     8
370
     0
100
AcDbLine
 10
87.4542468964
 20
75.5893781774
 30
0.0
 11
121.4542487442
 21
75.5893781774
 31
0.0
  0
LINE
  5
122
330
1F
100
AcDbEntity
  8
0
  6
Continuous
 62
     8
370
     0
100
AcDbLine
 10
121.4542487442
 20
71.0893765085
 30
0.0
 11
87.4542468964
 21
71.0893765085
 31
0.0
  0
DIMENSION
  5
123
330
1F
100
AcDbEntity
  8
0
  6
Continuous
 62
     7
370
     0
100
AcDbDimension
  2
*D2
 10
32.8064861064
 20
53.903584017
 30
0.0
 11
32.8064861064
 21
97.976630479
 31
0.0
 70
   160
  1
(<>)
 71
     2
 42
-1.0
  3
SLDDIMSTYLE0
100
AcDbAlignedDimension
 13
57.4542478203
 23
138.7751707584
 33
0.0
 14
57.4542478241
 24
53.903584017
 34
0.0
 50
90.0
100
AcDbRotatedDimension
  0
DIMENSION
  5
12F
330
1F
100
AcDbEntity
  8
0
  6
Continuous
 62
     7
370
     0
100
AcDbDimension
  2
*D3
 10
166.390041191
 20
43.1890664786
 30
0.0
 11
105.3956876212
 21
43.1890664786
 31
0.0
 70
   160
  1
(<>)
 71
     2
 42
-1.0
  3
SLDDIMSTYLE0
100
AcDbAlignedDimension
 13
42.5184544496
 23
68.839377385
 33
0.0
 14
166.390041191
 24
68.8393773877
 34
0.0
100
AcDbRotatedDimension
  0
LINE
  5
13B
330
1F
100
AcDbEntity
  8
0
  6
CENTERX2
 62
     7
370
     0
100
AcDbLine
 10
168.1684766046
 20
96.3393773877
 30
0.0
 11
40.3432731988
 21
96.3393773877
 31
0.0
  0
LINE
  5
13C
330
1F
100
AcDbEntity
  8
0
  6
CENTERX2
 62
     7
370
     0
100
AcDbLine
 10
104.4542478203
 20
52.2024237453
 30
0.0
 11
104.4542478203
 21
141.0495382202
 31
0.0
  0
LINE
  5
13D
330
1F
100
AcDbEntity
  8
0
  6
Continuous
 62
     7
370
    30
100
AcDbLine
 10
212.2575110676
 20
236.5151384489
 30
0.0
 11
206.2575119468
 21
236.5151384489
 31
0.0
  0
LINE
  5
13E
330
1F
100
AcDbEntity
  8
0
  6
Continuous
 62
     7
370
    30
100
AcDbLine
 10
252.2575120362
 20
236.5151384489
 30
0.0
 11
246.2575129153
 21
236.5151384489
 31
0.0
  0
LINE
  5
13F
330
1F
100
AcDbEntity
  8
0
  6
Continuous
 62
     7
370
    30
100
AcDbLine
 10
246.2575129153
 20
236.5151384489
 30
0.0
 11
212.2575110676
 21
236.5151384489
 31
0.0
  0
LINE
  5
140
330
1F
100
AcDbEntity
  8
0
  6
Continuous
 62
     7
370
    30
100
AcDbLine
 10
201.7575121405
 20
244.5151360349
 30
0.0
 11
188.3217199626
 21
244.5151360349
 31
0.0
  0
LINE
  5
141
330
1F
100
AcDbEntity
  8
0
  6
Continuous
 62
     7
370
    30
100
AcDbLine
 10
270.1933040204
 20
244.5151360349
 30
0.0
 11
256.7575118425
 21
244.5151360349
 31
0.0
  0
LINE
  5
142
330
1F
100
AcDbEntity
  8
0
  6
Continuous
 62
     7
370
    30
100
AcDbLine
 10
256.7575118425
 20
244.5151360349
 30
0.0
 11
201.7575121405
 21
244.5151360349
 31
0.0
  0
LINE
  5
143
330
1F
100
AcDbEntity
  8
0
  6
Continuous
 62
     7
370
    30
100
AcDbLine
 10
203.3131263139
 20
199.1632698679
 30
0.0
 11
202.8667247774
 21
205.5470991523
 31
0.0
  0
ARC
  5
144
330
1F
100
AcDbEntity
  8
0
  6
Continuous
 62
     7
370
    30
100
AcDbCircle
 10
204.3106896898
 20
199.233026367
 30
0.0
 40
0.9999999999999988
100
AcDbArc
 50
184.0
 51
265.0
  0
LINE
  5
145
330
1F
100
AcDbEntity
  8
0
  6
Continuous
 62
     7
370
    30
100
AcDbLine
 10
206.7575110974
 20
198.0151372605
 30
0.0
 11
204.2235332461
 21
198.2368316145
 31
0.0
  0
LINE
  5
146
330
1F
100
AcDbEntity
  8
0
  6
Continuous
 62
     7
370
    30
100
AcDbLine
 10
206.7575110974
 20
198.0151372605
 30
0.0
 11
207.7575112613
 21
198.0151372605
 31
0.0
  0
LINE
  5
147
330
1F
100
AcDbEntity
  8
0
  6
Continuous
 62
     7
370
    30
100
AcDbLine
 10
207.7575112613
 20
198.0151372605
 30
0.0
 11
207.7575112613
 21
197.0151373294
 31
0.0
  0
LINE
  5
148
330
1F
100
AcDbEntity
  8
0
  6
Continuous
 62
     7
370
    30
100
AcDbLine
 10
198.2575124981
 20
197.0151373294
 30
0.0
 11
207.7575112613
 21
197.0151373294
 31
0.0
  0
LINE
  5
149
330
1F
100
AcDbEntity
  8
0
  6
Continuous
 62
     7
370
    30
100
AcDbLine
 10
198.2575124981
 20
197.0151373294
 30
0.0
 11
198.2575124981
 21
200.7264622131
 31
0.0
  0
LINE
  5
14A
330
1F
100
AcDbEntity
  8
0
  6
Continuous
 62
     7
370
    30
100
AcDbLine
 10
198.7575116487
 20
201.0151372866
 30
0.0
 11
198.2575124981
 21
200.7264622131
 31
0.0
  0
LINE
  5
14B
330
1F
100
AcDbEntity
  8
0
  6
Continuous
 62
     7
370
    30
100
AcDbLine
 10
199.2749656471
 20
201.0151372866
 30
0.0
 11
198.7575116487
 21
201.0151372866
 31
0.0
  0
LINE
  5
14C
330
1F
100
AcDbEntity
  8
0
  6
Continuous
 62
     7
370
    30
100
AcDbLine
 10
199.2749656471
 20
201.0151372866
 30
0.0
 11
199.3578682574
 21
220.0151366756
 31
0.0
  0
LINE
  5
14D
330
1F
100
AcDbEntity
  8
0
  6
Continuous
 62
     7
370
    30
100
AcDbLine
 10
202.1517000081
 20
206.6481422276
 30
0.0
 11
201.971252534
 21
206.7440880106
 31
0.0
  0
ARC
  5
14E
330
1F
100
AcDbEntity
  8
0
  6
Continuous
 62
     7
370
    30
100
AcDbCircle
 10
201.5160452246
 20
205.4526508498
 30
0.0
 40
1.353977779790643
100
AcDbArc
 50
4.0
 51
62.0
  0
ARC
  5
14F
330
1F
100
AcDbEntity
  8
0
  6
Continuous
 62
     7
370
    30
100
AcDbCircle
 10
202.4407235881
 20
207.6270353761
 30
0.0
 40
1.000000000000009
100
AcDbArc
 50
182.0
 51
242.0
  0
LINE
  5
150
330
1F
100
AcDbEntity
  8
0
  6
Continuous
 62
     7
370
    30
100
AcDbLine
 10
201.0075124832
 20
220.0151366756
 30
0.0
 11
201.4413318517
 21
207.5921354459
 31
0.0
  0
LINE
  5
151
330
1F
100
AcDbEntity
  8
0
  6
Continuous
 62
     7
370
    30
100
AcDbLine
 10
199.3578682574
 20
220.0151366756
 30
0.0
 11
201.0075124832
 21
220.0151366756
 31
0.0
  0
LINE
  5
152
330
1F
100
AcDbEntity
  8
0
  6
Continuous
 62
     7
370
    30
100
AcDbLine
 10
259.1571557256
 20
220.0151366756
 30
0.0
 11
259.2400583359
 21
201.0151372866
 31
0.0
  0
LINE
  5
153
330
1F
100
AcDbEntity
  8
0
  6
Continuous
 62
     7
370
    30
100
AcDbLine
 10
262.7575128259
 20
200.7264622131
 30
0.0
 11
262.2575118127
 21
201.0151372866
 31
0.0
  0
LINE
  5
154
330
1F
100
AcDbEntity
  8
0
  6
Continuous
 62
     7
370
    30
100
AcDbLine
 10
262.7575128259
 20
200.7264622131
 30
0.0
 11
262.7575128259
 21
197.0151373294
 31
0.0
  0
LINE
  5
155
330
1F
100
AcDbEntity
  8
0
  6
Continuous
 62
     7
370
    30
100
AcDbLine
 10
250.7575127216
 20
197.0151373294
 30
0.0
 11
250.7575127216
 21
198.0151372605
 31
0.0
  0
LINE
  5
156
330
1F
100
AcDbEntity
  8
0
  6
Continuous
 62
     7
370
    30
100
AcDbLine
 10
254.2914907368
 20
198.2368316145
 30
0.0
 11
251.7575128855
 21
198.0151372605
 31
0.0
  0
ARC
  5
157
330
1F
100
AcDbEntity
  8
0
  6
Continuous
 62
     7
370
    30
100
AcDbCircle
 10
254.2043342932
 20
199.233026367
 30
0.0
 40
1.000000000000027
100
AcDbArc
 50
275.0
 51
356.0
  0
LINE
  5
158
330
1F
100
AcDbEntity
  8
0
  6
Continuous
 62
     7
370
    30
100
AcDbLine
 10
255.6482992055
 20
205.5470991523
 30
0.0
 11
255.201897669
 21
199.1632698679
 31
0.0
  0
ARC
  5
159
330
1F
100
AcDbEntity
  8
0
  6
Continuous
 62
     7
370
    30
100
AcDbCircle
 10
256.9989787583
 20
205.4526508498
 30
0.0
 40
1.353977779790656
100
AcDbArc
 50
118.0
 51
176.0
  0
LINE
  5
15A
330
1F
100
AcDbEntity
  8
0
  6
Continuous
 62
     7
370
    30
100
AcDbLine
 10
256.5437714489
 20
206.7440880106
 30
0.0
 11
256.3633239748
 21
206.6481422276
 31
0.0
  0
LINE
  5
15B
330
1F
100
AcDbEntity
  8
0
  6
Continuous
 62
     7
370
    30
100
AcDbLine
 10
250.7575127216
 20
198.0151372605
 30
0.0
 11
251.7575128855
 21
198.0151372605
 31
0.0
  0
LINE
  5
15C
330
1F
100
AcDbEntity
  8
0
  6
Continuous
 62
     7
370
    30
100
AcDbLine
 10
262.2575118127
 20
201.0151372866
 30
0.0
 11
259.2400583359
 21
201.0151372866
 31
0.0
  0
LINE
  5
15D
330
1F
100
AcDbEntity
  8
0
  6
Continuous
 62
     7
370
    30
100
AcDbLine
 10
250.7575127216
 20
197.0151373294
 30
0.0
 11
262.7575128259
 21
197.0151373294
 31
0.0
  0
ARC
  5
15E
330
1F
100
AcDbEntity
  8
0
  6
Continuous
 62
     7
370
    30
100
AcDbCircle
 10
256.0743003949
 20
207.6270353761
 30
0.0
 40
0.9999999999999961
100
AcDbArc
 50
298.0
 51
358.0
  0
LINE
  5
15F
330
1F
100
AcDbEntity
  8
0
  6
Continuous
 62
     7
370
    30
100
AcDbLine
 10
257.0736921312
 20
207.5921354459
 30
0.0
 11
257.5075114997
 21
220.0151366756
 31
0.0
  0
LINE
  5
160
330
1F
100
AcDbEntity
  8
0
  6
Continuous
 62
     7
370
    30
100
AcDbLine
 10
257.5075114997
 20
220.0151366756
 30
0.0
 11
259.1571557256
 21
220.0151366756
 31
0.0
  0
LINE
  5
161
330
1F
100
AcDbEntity
  8
0
  6
Continuous
 62
     7
370
    30
100
AcDbLine
 10
207.7575112613
 20
197.0151373294
 30
0.0
 11
208.7575114252
 21
197.0151373294
 31
0.0
  0
LINE
  5
162
330
1F
100
AcDbEntity
  8
0
  6
Continuous
 62
     7
370
    30
100
AcDbLine
 10
249.7575125577
 20
197.0151373294
 30
0.0
 11
250.7575127216
 21
197.0151373294
 31
0.0
  0
LINE
  5
163
330
1F
100
AcDbEntity
  8
0
  6
Continuous
 62
     7
370
    30
100
AcDbLine
 10
210.3794767441
 20
198.0151372605
 30
0.0
 11
248.1355472388
 21
198.0151372605
 31
0.0
  0
LINE
  5
164
330
1F
100
AcDbEntity
  8
0
  6
Continuous
 62
     7
370
    30
100
AcDbLine
 10
208.7575114252
 20
197.0151373294
 30
0.0
 11
249.7575125577
 21
197.0151373294
 31
0.0
  0
SPLINE
  5
165
330
1F
100
AcDbEntity
  8
0
  6
Continuous
 62
     7
370
    30
100
AcDbSpline
210
0.0
220
0.0
230
1.0
 70
    24
 71
     3
 72
    10
 73
     6
 74
     0
 42
0.00000001
 43
0.00000001
 40
0.0
 40
0.0
 40
0.0
 40
0.0
 40
0.3371631852134881
 40
0.6743268250009236
 40
1.0
 40
1.0
 40
1.0
 40
1.0
 10
201.4413318516879
 20
207.5921354458868
 30
0.0
 10
201.4517421305032
 20
207.5921354458868
 30
0.0
 10
201.4725627021693
 20
207.5921354458868
 30
0.0
 10
201.6260274763533
 20
207.5921354458868
 30
0.0
 10
201.8059834600363
 20
207.5921354458868
 30
0.0
 10
201.8944016577868
 20
207.5921354458868
 30
0.0
  0
LINE
  5
166
330
1F
100
AcDbEntity
  8
0
  6
Continuous
 62
     7
370
    30
100
AcDbLine
 10
201.0075124832
 20
220.0151366756
 30
0.0
 11
201.1024142536
 21
220.0151366756
 31
0.0
  0
SPLINE
  5
167
330
1F
100
AcDbEntity
  8
0
  6
Continuous
 62
     7
370
    30
100
AcDbSpline
210
0.0
220
0.0
230
1.0
 70
    24
 71
     3
 72
    10
 73
     6
 74
     0
 42
0.00000001
 43
0.00000001
 40
0.0
 40
0.0
 40
0.0
 40
0.0
 40
0.3280493673992091
 40
0.6640249101856647
 40
1.0
 40
1.0
 40
1.0
 40
1.0
 10
256.6179475667147
 20
207.5921354458868
 30
0.0
 10
256.7073583317706
 20
207.5921354458868
 30
0.0
 10
256.8883401629706
 20
207.5921354458868
 30
0.0
 10
257.0424899758416
 20
207.5921354458868
 30
0.0
 10
257.0632914174534
 20
207.5921354458868
 30
0.0
 10
257.073692131248
 20
207.5921354458868
 30
0.0
  0
LINE
  5
168
330
1F
100
AcDbEntity
  8
0
  6
Continuous
 62
     7
370
    30
100
AcDbLine
 10
257.5075114997
 20
220.0151366756
 30
0.0
 11
257.4126097294
 21
220.0151366756
 31
0.0
  0
LINE
  5
169
330
1F
100
AcDbEntity
  8
0
  6
Continuous
 62
     7
370
    30
100
AcDbLine
 10
199.3535059424
 20
220.0151366756
 30
0.0
 11
199.2706014695
 21
201.0151372866
 31
0.0
  0
LINE
  5
16A
330
1F
100
AcDbEntity
  8
0
  6
Continuous
 62
     7
370
    30
100
AcDbLine
 10
199.2706014695
 20
201.0151372866
 30
0.0
 11
198.2575124981
 21
201.0151372866
 31
0.0
  0
LINE
  5
16B
330
1F
100
AcDbEntity
  8
0
  6
Continuous
 62
     7
370
    30
100
AcDbLine
 10
198.2575124981
 20
201.0151372866
 30
0.0
 11
198.2575124981
 21
198.0151372605
 31
0.0
  0
LINE
  5
16C
330
1F
100
AcDbEntity
  8
0
  6
Continuous
 62
     7
370
    30
100
AcDbLine
 10
198.2575124981
 20
198.0151372605
 30
0.0
 11
196.7575131836
 21
198.0151372605
 31
0.0
  0
LINE
  5
16D
330
1F
100
AcDbEntity
  8
0
  6
Continuous
 62
     7
370
    30
100
AcDbLine
 10
199.3535059424
 20
220.0151366756
 30
0.0
 11
196.7575131836
 21
220.0151366756
 31
0.0
  0
LINE
  5
16E
330
1F
100
AcDbEntity
  8
0
  6
Continuous
 62
     7
370
    30
100
AcDbLine
 10
196.7575131836
 20
198.0151372605
 30
0.0
 11
196.7575131836
 21
220.0151366756
 31
0.0
  0
LINE
  5
16F
330
1F
100
AcDbEntity
  8
0
  6
Continuous
 62
     7
370
    30
100
AcDbLine
 10
262.7575128259
 20
198.0151372605
 30
0.0
 11
262.7575128259
 21
201.0151372866
 31
0.0
  0
LINE
  5
170
330
1F
100
AcDbEntity
  8
0
  6
Continuous
 62
     7
370
    30
100
AcDbLine
 10
264.2575121405
 20
220.0151366756
 30
0.0
 11
264.2575121405
 21
198.0151372605
 31
0.0
  0
LINE
  5
171
330
1F
100
AcDbEntity
  8
0
  6
Continuous
 62
     7
370
    30
100
AcDbLine
 10
259.2444225135
 20
201.0151372866
 30
0.0
 11
259.1615180405
 21
220.0151366756
 31
0.0
  0
LINE
  5
172
330
1F
100
AcDbEntity
  8
0
  6
Continuous
 62
     7
370
    30
100
AcDbLine
 10
262.7575128259
 20
201.0151372866
 30
0.0
 11
259.2444225135
 21
201.0151372866
 31
0.0
  0
LINE
  5
173
330
1F
100
AcDbEntity
  8
0
  6
Continuous
 62
     7
370
    30
100
AcDbLine
 10
264.2575121405
 20
198.0151372605
 30
0.0
 11
262.7575128259
 21
198.0151372605
 31
0.0
  0
LINE
  5
174
330
1F
100
AcDbEntity
  8
0
  6
Continuous
 62
     7
370
    30
100
AcDbLine
 10
264.2575121405
 20
220.0151366756
 30
0.0
 11
259.1615180405
 21
220.0151366756
 31
0.0
  0
LWPOLYLINE
  5
175
330
1F
100
AcDbEntity
  8
0
  6
Continuous
 62
     7
370
    30
100
AcDbPolyline
 90
        3
 70
   128
 43
0.0
 10
195.757511157
 20
232.5151377932
 10
197.8597073736
 20
231.2140131013
 10
198.8247140231
 20
230.6167373077
  0
LWPOLYLINE
  5
176
330
1F
100
AcDbEntity
  8
0
  6
Continuous
 62
     7
370
    30
100
AcDbPolyline
 90
        2
 70
   128
 43
0.0
 10
198.8247140231
 20
230.6167373077
 10
198.8247140231
 20
230.6167373077
  0
LWPOLYLINE
  5
177
330
1F
100
AcDbEntity
  8
0
  6
Continuous
 62
     7
370
    30
100
AcDbPolyline
 90
        2
 70
   128
 43
0.0
 10
259.6903099599
 20
230.6167373077
 10
259.6903099599
 20
230.6167373077
  0
LWPOLYLINE
  5
178
330
1F
100
AcDbEntity
  8
0
  6
Continuous
 62
     7
370
    30
100
AcDbPolyline
 90
        3
 70
   128
 43
0.0
 10
259.6903099599
 20
230.6167373077
 10
260.6553166093
 20
231.2140131013
 10
262.7575128259
 20
232.5151377932
  0
LWPOLYLINE
  5
179
330
1F
100
AcDbEntity
  8
0
  6
Continuous
 62
     7
370
    30
100
AcDbPolyline
 90
        2
 70
   128
 43
0.0
 10
256.2146457764
 20
206.9722713546
 10
256.2146457764
 20
206.9722713546
  0
LWPOLYLINE
  5
17A
330
1F
100
AcDbEntity
  8
0
  6
Continuous
 62
     7
370
    30
100
AcDbPolyline
 90
        2
 70
   128
 43
0.0
 10
202.3003782066
 20
206.9722713546
 10
202.3003782066
 20
206.9722713546
  0
LINE
  5
17B
330
1F
100
AcDbEntity
  8
0
  6
Continuous
 62
     7
370
    30
100
AcDbLine
 10
202.3003782066
 20
206.9722713546
 30
0.0
 11
202.7146453889
 21
206.5580032409
 31
0.0
  0
LINE
  5
17C
330
1F
100
AcDbEntity
  8
0
  6
Continuous
 62
     7
370
    30
100
AcDbLine
 10
255.800378594
 20
206.5580032409
 30
0.0
 11
256.2146457764
 21
206.9722713546
 31
0.0
  0
ARC
  5
17D
330
1F
100
AcDbEntity
  8
0
  6
Continuous
 62
     7
370
    30
100
AcDbCircle
 10
201.3004327046
 20
205.1437894785
 30
0.0
 40
1.999999999999976
100
AcDbArc
 50
3.0
 51
45.0
  0
ARC
  5
17E
330
1F
100
AcDbEntity
  8
0
  6
Continuous
 62
     7
370
    30
100
AcDbCircle
 10
203.7145912783
 20
208.3864851543
 30
0.0
 40
1.999999999999993
100
AcDbArc
 50
183.0
 51
225.0
  0
ARC
  5
17F
330
1F
100
AcDbEntity
  8
0
  6
Continuous
 62
     7
370
    30
100
AcDbCircle
 10
257.2145912783
 20
205.1437894785
 30
0.0
 40
1.999999999999996
100
AcDbArc
 50
135.0
 51
177.0
  0
LINE
  5
180
330
1F
100
AcDbEntity
  8
0
  6
Continuous
 62
     7
370
    30
100
AcDbLine
 10
226.2253624773
 20
227.1151357905
 30
0.0
 11
226.2253624773
 21
227.015137823
 31
0.0
  0
LINE
  5
181
330
1F
100
AcDbEntity
  8
0
  6
Continuous
 62
     7
370
    30
100
AcDbLine
 10
226.2253624773
 20
227.015137823
 30
0.0
 11
217.3164925458
 21
227.015137823
 31
0.0
  0
ARC
  5
182
330
1F
100
AcDbEntity
  8
0
  6
Continuous
 62
     7
370
    30
100
AcDbCircle
 10
217.3164925879
 20
222.0151373164
 30
0.0
 40
5.000000000000013
100
AcDbArc
 50
90.0
 51
170.0
  0
LINE
  5
183
330
1F
100
AcDbEntity
  8
0
  6
Continuous
 62
     7
370
    30
100
AcDbLine
 10
212.3924541207
 20
222.8833773748
 30
0.0
 11
208.2260745498
 21
199.2546649759
 31
0.0
  0
ARC
  5
184
330
1F
100
AcDbEntity
  8
0
  6
Continuous
 62
     7
370
    30
100
AcDbCircle
 10
206.7488625447
 20
199.5151373164
 30
0.0
 40
1.5
100
AcDbArc
 50
270.0
 51
350.0
  0
LINE
  5
185
330
1F
100
AcDbEntity
  8
0
  6
Continuous
 62
     7
370
    30
100
AcDbLine
 10
206.748862836
 20
198.0151372605
 30
0.0
 11
206.0491862627
 21
198.0151372605
 31
0.0
  0
ARC
  5
186
330
1F
100
AcDbEntity
  8
0
  6
Continuous
 62
     7
370
    30
100
AcDbCircle
 10
206.0491856425
 20
200.5151373164
 30
0.0
 40
2.5
100
AcDbArc
 50
183.0
 51
270.0
  0
ARC
  5
187
330
1F
100
AcDbEntity
  8
0
  6
Continuous
 62
     7
370
    30
100
AcDbCircle
 10
188.3217186208
 20
243.0151373164
 30
0.0
 40
1.500000000000031
100
AcDbArc
 50
43.0
 51
222.0
  0
LINE
  5
188
330
1F
100
AcDbEntity
  8
0
  6
Continuous
 62
     7
370
    30
100
AcDbLine
 10
197.4094650628
 20
235.4691439883
 30
0.0
 11
189.4187509002
 21
244.0381349639
 31
0.0
  0
ARC
  5
189
330
1F
100
AcDbEntity
  8
0
  6
Continuous
 62
     7
370
    30
100
AcDbCircle
 10
199.6035251695
 20
237.5151373164
 30
0.0
 40
3.0
100
AcDbArc
 50
223.0
 51
270.0
  0
LINE
  5
18A
330
1F
100
AcDbEntity
  8
0
  6
Continuous
 62
     7
370
    30
100
AcDbLine
 10
204.0075111123
 20
234.5151381211
 30
0.0
 11
199.6035250755
 21
234.5151381211
 31
0.0
  0
ARC
  5
18B
330
1F
100
AcDbEntity
  8
0
  6
Continuous
 62
     7
370
    30
100
AcDbCircle
 10
204.0075119915
 20
235.0151373164
 30
0.0
 40
0.5
100
AcDbArc
 50
270.0
 51
323.1301023542
  0
LINE
  5
18C
330
1F
100
AcDbEntity
  8
0
  6
Continuous
 62
     7
370
    30
100
AcDbLine
 10
205.4575114431
 20
236.1151391284
 30
0.0
 11
204.4075122955
 21
234.7151377813
 31
0.0
  0
ARC
  5
18D
330
1F
100
AcDbEntity
  8
0
  6
Continuous
 62
     7
370
    30
100
AcDbCircle
 10
206.2575119915
 20
235.5151373164
 30
0.0
 40
1.000000000000006
100
AcDbArc
 50
36.8698976458
 51
143.1301023542
  0
LINE
  5
18E
330
1F
100
AcDbEntity
  8
0
  6
Continuous
 62
     7
370
    30
100
AcDbLine
 10
208.1075115981
 20
234.7151377813
 30
0.0
 11
207.0575124504
 21
236.1151391284
 31
0.0
  0
ARC
  5
18F
330
1F
100
AcDbEntity
  8
0
  6
Continuous
 62
     7
370
    30
100
AcDbCircle
 10
208.5075119915
 20
235.0151373164
 30
0.0
 40
0.5
100
AcDbArc
 50
216.8698976458
 51
270.0
  0
LINE
  5
190
330
1F
100
AcDbEntity
  8
0
  6
Continuous
 62
     7
370
    30
100
AcDbLine
 10
250.0075112017
 20
234.5151381211
 30
0.0
 11
208.5075127812
 21
234.5151381211
 31
0.0
  0
ARC
  5
191
330
1F
100
AcDbEntity
  8
0
  6
Continuous
 62
     7
370
    30
100
AcDbCircle
 10
250.0075119915
 20
235.0151373164
 30
0.0
 40
0.5
100
AcDbArc
 50
270.0
 51
323.1301023542
  0
LINE
  5
192
330
1F
100
AcDbEntity
  8
0
  6
Continuous
 62
     7
370
    30
100
AcDbLine
 10
250.4075123849
 20
234.7151377813
 30
0.0
 11
251.4575115325
 21
236.1151391284
 31
0.0
  0
ARC
  5
193
330
1F
100
AcDbEntity
  8
0
  6
Continuous
 62
     7
370
    30
100
AcDbCircle
 10
252.2575119915
 20
235.5151373164
 30
0.0
 40
1.000000000000006
100
AcDbArc
 50
36.8698976458
 51
143.1301023542
  0
LINE
  5
194
330
1F
100
AcDbEntity
  8
0
  6
Continuous
 62
     7
370
    30
100
AcDbLine
 10
253.0575125398
 20
236.1151391284
 30
0.0
 11
254.1075116875
 21
234.7151377813
 31
0.0
  0
ARC
  5
195
330
1F
100
AcDbEntity
  8
0
  6
Continuous
 62
     7
370
    30
100
AcDbCircle
 10
254.5075119915
 20
235.0151373164
 30
0.0
 40
0.500000000000017
100
AcDbArc
 50
216.8698976458
 51
270.0
  0
LINE
  5
196
330
1F
100
AcDbEntity
  8
0
  6
Continuous
 62
     7
370
    30
100
AcDbLine
 10
258.9114989074
 20
234.5151381211
 30
0.0
 11
254.5075128706
 21
234.5151381211
 31
0.0
  0
ARC
  5
197
330
1F
100
AcDbEntity
  8
0
  6
Continuous
 62
     7
370
    30
100
AcDbCircle
 10
258.9114988135
 20
237.5151373164
 30
0.0
 40
3.000000000000021
100
AcDbArc
 50
270.0
 51
317.0
  0
LINE
  5
198
330
1F
100
AcDbEntity
  8
0
  6
Continuous
 62
     7
370
    30
100
AcDbLine
 10
261.1055589201
 20
235.4691439883
 30
0.0
 11
269.0962730827
 21
244.0381349639
 31
0.0
  0
ARC
  5
199
330
1F
100
AcDbEntity
  8
0
  6
Continuous
 62
     7
370
    30
100
AcDbCircle
 10
270.1933053622
 20
243.0151373164
 30
0.0
 40
1.500000000000044
100
AcDbArc
 50
318.0
 51
137.0
  0
LINE
  5
19A
330
1F
100
AcDbEntity
  8
0
  6
Continuous
 62
     7
370
    30
100
AcDbLine
 10
271.3080226364
 20
242.0114429311
 30
0.0
 11
262.7575128259
 21
232.5151377932
 31
0.0
  0
ARC
  5
19B
330
1F
100
AcDbEntity
  8
0
  6
Continuous
 62
     7
370
    30
100
AcDbCircle
 10
254.8004327046
 20
208.3864851543
 30
0.0
 40
2.000000000000022
100
AcDbArc
 50
315.0
 51
357.0
  0
ARC
  5
19C
330
1F
100
AcDbEntity
  8
0
  6
Continuous
 62
     7
370
    30
100
AcDbCircle
 10
252.4658383404
 20
200.5151373164
 30
0.0
 40
2.50000000000002
100
AcDbArc
 50
270.0
 51
357.0
  0
LINE
  5
19D
330
1F
100
AcDbEntity
  8
0
  6
Continuous
 62
     7
370
    30
100
AcDbLine
 10
252.4658377202
 20
198.0151372605
 30
0.0
 11
251.766161147
 21
198.0151372605
 31
0.0
  0
ARC
  5
19E
330
1F
100
AcDbEntity
  8
0
  6
Continuous
 62
     7
370
    30
100
AcDbCircle
 10
251.7661614382
 20
199.5151373164
 30
0.0
 40
1.5
100
AcDbArc
 50
190.0
 51
270.0
  0
LINE
  5
19F
330
1F
100
AcDbEntity
  8
0
  6
Continuous
 62
     7
370
    30
100
AcDbLine
 10
250.2889494332
 20
199.2546649759
 30
0.0
 11
246.1225698622
 21
222.8833773748
 31
0.0
  0
ARC
  5
1A0
330
1F
100
AcDbEntity
  8
0
  6
Continuous
 62
     7
370
    30
100
AcDbCircle
 10
241.198531395
 20
222.0151373164
 30
0.0
 40
5.000000000000046
100
AcDbArc
 50
10.0
 51
90.0
  0
LINE
  5
1A1
330
1F
100
AcDbEntity
  8
0
  6
Continuous
 62
     7
370
    30
100
AcDbLine
 10
241.1985314371
 20
227.015137823
 30
0.0
 11
231.5800926568
 21
227.015137823
 31
0.0
  0
LINE
  5
1A2
330
1F
100
AcDbEntity
  8
0
  6
Continuous
 62
     7
370
    30
100
AcDbLine
 10
231.5800926568
 20
227.015137823
 30
0.0
 11
231.5800926568
 21
227.1151357905
 31
0.0
  0
LINE
  5
1A3
330
1F
100
AcDbEntity
  8
0
  6
Continuous
 62
     7
370
    30
100
AcDbLine
 10
231.5800926568
 20
227.1151357905
 30
0.0
 11
231.4494003928
 21
227.1151357905
 31
0.0
  0
LINE
  5
1A4
330
1F
100
AcDbEntity
  8
0
  6
Continuous
 62
     7
370
    30
100
AcDbLine
 10
231.4494003928
 20
227.1151357905
 30
0.0
 11
231.4494003928
 21
227.015137823
 31
0.0
  0
LINE
  5
1A5
330
1F
100
AcDbEntity
  8
0
  6
Continuous
 62
     7
370
    30
100
AcDbLine
 10
231.4494003928
 20
227.015137823
 30
0.0
 11
228.2897588717
 21
227.015137823
 31
0.0
  0
LINE
  5
1A6
330
1F
100
AcDbEntity
  8
0
  6
Continuous
 62
     7
370
    30
100
AcDbLine
 10
228.2897588717
 20
227.015137823
 30
0.0
 11
228.2897588717
 21
227.1151357905
 31
0.0
  0
LINE
  5
1A7
330
1F
100
AcDbEntity
  8
0
  6
Continuous
 62
     7
370
    30
100
AcDbLine
 10
228.2897588717
 20
227.1151357905
 30
0.0
 11
228.1605902514
 21
227.1151357905
 31
0.0
  0
LINE
  5
1A8
330
1F
100
AcDbEntity
  8
0
  6
Continuous
 62
     7
370
    30
100
AcDbLine
 10
228.1605902514
 20
227.1151357905
 30
0.0
 11
228.1605902514
 21
227.015137823
 31
0.0
  0
LINE
  5
1A9
330
1F
100
AcDbEntity
  8
0
  6
Continuous
 62
     7
370
    30
100
AcDbLine
 10
228.1605902514
 20
227.015137823
 30
0.0
 11
227.2875626492
 21
227.015137823
 31
0.0
  0
LINE
  5
1AA
330
1F
100
AcDbEntity
  8
0
  6
Continuous
 62
     7
370
    30
100
AcDbLine
 10
227.2875626492
 20
227.015137823
 30
0.0
 11
227.2875626492
 21
227.1151357905
 31
0.0
  0
LINE
  5
1AB
330
1F
100
AcDbEntity
  8
0
  6
Continuous
 62
     7
370
    30
100
AcDbLine
 10
227.2875626492
 20
227.1151357905
 30
0.0
 11
227.1551802675
 21
227.1151357905
 31
0.0
  0
LINE
  5
1AC
330
1F
100
AcDbEntity
  8
0
  6
Continuous
 62
     7
370
    30
100
AcDbLine
 10
227.1551802675
 20
227.1151357905
 30
0.0
 11
227.1551802675
 21
227.015137823
 31
0.0
  0
LINE
  5
1AD
330
1F
100
AcDbEntity
  8
0
  6
Continuous
 62
     7
370
    30
100
AcDbLine
 10
227.1551802675
 20
227.015137823
 30
0.0
 11
226.3543436689
 21
227.015137823
 31
0.0
  0
LINE
  5
1AE
330
1F
100
AcDbEntity
  8
0
  6
Continuous
 62
     7
370
    30
100
AcDbLine
 10
226.3543436689
 20
227.015137823
 30
0.0
 11
226.3543436689
 21
227.1151357905
 31
0.0
  0
LINE
  5
1AF
330
1F
100
AcDbEntity
  8
0
  6
Continuous
 62
     7
370
    30
100
AcDbLine
 10
226.3543436689
 20
227.1151357905
 30
0.0
 11
226.2253624773
 21
227.1151357905
 31
0.0
  0
LINE
  5
1B0
330
1F
100
AcDbEntity
  8
0
  6
Continuous
 62
     7
370
    30
100
AcDbLine
 10
255.2173315468
 20
205.2484612555
 30
0.0
 11
254.9624117943
 21
200.3842975588
 31
0.0
  0
ARC
  5
1B1
330
1F
100
AcDbEntity
  8
0
  6
Continuous
 62
     7
370
    30
100
AcDbCircle
 10
261.7954539217
 20
227.2155054743
 30
0.0
 40
4.000000000000019
100
AcDbArc
 50
121.7548507948
 51
177.0
  0
LINE
  5
1B2
330
1F
100
AcDbEntity
  8
0
  6
Continuous
 62
     7
370
    30
100
AcDbLine
 10
257.8009358527
 20
227.4248489754
 30
0.0
 11
256.797690961
 21
208.28181334
 31
0.0
  0
LINE
  5
1B3
330
1F
100
AcDbEntity
  8
0
  6
Continuous
 62
     7
370
    30
100
AcDbLine
 10
201.717333022
 20
208.28181334
 30
0.0
 11
200.7140881302
 21
227.4248489754
 31
0.0
  0
LINE
  5
1B4
330
1F
100
AcDbEntity
  8
0
  6
Continuous
 62
     7
370
    30
100
AcDbLine
 10
203.5526121887
 20
200.3842975588
 30
0.0
 11
203.2976924362
 21
205.2484612555
 31
0.0
  0
ARC
  5
1B5
330
1F
100
AcDbEntity
  8
0
  6
Continuous
 62
     7
370
    30
100
AcDbCircle
 10
196.7195700613
 20
227.2155054743
 30
0.0
 40
3.999999999999988
100
AcDbArc
 50
3.0
 51
58.2451492052
  0
LINE
  5
1B6
330
1F
100
AcDbEntity
  8
0
  6
Continuous
 62
     7
370
    30
100
AcDbLine
 10
187.2070013466
 20
242.0114429311
 30
0.0
 11
195.757511157
 21
232.5151377932
 31
0.0
  0
LINE
  5
1B7
330
1F
100
AcDbEntity
  8
0
  6
Continuous
 62
     7
370
    30
100
AcDbLine
 10
228.1607377496
 20
227.1151357905
 30
0.0
 11
228.1607377496
 21
227.015137823
 31
0.0
  0
SPLINE
  5
1B8
330
1F
100
AcDbEntity
  8
0
  6
Continuous
 62
     7
370
    30
100
AcDbSpline
210
0.0
220
0.0
230
1.0
 70
    24
 71
     3
 72
     9
 73
     5
 74
     0
 42
0.00000001
 43
0.00000001
 40
0.0
 40
0.0
 40
0.0
 40
0.0
 40
0.5599992804795552
 40
1.0
 40
1.0
 40
1.0
 40
1.0
 10
228.1605902513681
 20
227.0151378230393
 30
0.0
 10
228.1606180053676
 20
227.0151378230393
 30
0.0
 10
228.1606675661445
 20
227.0151378230393
 30
0.0
 10
228.1607163046176
 20
227.0151378230393
 30
0.0
 10
228.1607377495809
 20
227.0151378230393
 30
0.0
  0
LINE
  5
1B9
330
1F
100
AcDbEntity
  8
0
  6
Continuous
 62
     7
370
    30
100
AcDbLine
 10
226.3542861598
 20
227.1151357905
 30
0.0
 11
226.3542861598
 21
227.015137823
 31
0.0
  0
LINE
  5
1BA
330
1F
100
AcDbEntity
  8
0
  6
Continuous
 62
     7
370
    30
100
AcDbLine
 10
226.3542861598
 20
227.015137823
 30
0.0
 11
226.3543436689
 21
227.015137823
 31
0.0
  0
LINE
  5
1BB
330
1F
100
AcDbEntity
  8
0
  6
Continuous
 62
     7
370
    30
100
AcDbLine
 10
227.1551802675
 20
227.015137823
 30
0.0
 11
227.1607377021
 21
227.015137823
 31
0.0
  0
LINE
  5
1BC
330
1F
100
AcDbEntity
  8
0
  6
Continuous
 62
     7
370
    30
100
AcDbLine
 10
231.4505563969
 20
227.1151357905
 30
0.0
 11
231.4505563969
 21
227.015137823
 31
0.0
  0
LINE
  5
1BD
330
1F
100
AcDbEntity
  8
0
  6
Continuous
 62
     7
370
    30
100
AcDbLine
 10
231.4494003928
 20
227.015137823
 30
0.0
 11
231.4505563969
 21
227.015137823
 31
0.0
  0
SPLINE
  5
1BE
330
1F
100
AcDbEntity
  8
0
  6
Continuous
 62
     7
370
    30
100
AcDbSpline
210
0.0
220
0.0
230
1.0
 70
    24
 71
     3
 72
    10
 73
     6
 74
     0
 42
0.00000001
 43
0.00000001
 40
0.0
 40
0.0
 40
0.0
 40
0.0
 40
0.0029450218179259
 40
0.5009605264284336
 40
1.0
 40
1.0
 40
1.0
 40
1.0
 10
228.1835982263281
 20
227.0151378230393
 30
0.0
 10
228.1839091051096
 20
227.0151378230393
 30
0.0
 10
228.2367908858456
 20
227.0151378230389
 30
0.0
 10
228.2731925722808
 20
227.0151378230395
 30
0.0
 10
228.2842404404455
 20
227.0151378230393
 30
0.0
 10
228.2897700475721
 20
227.0151378230393
 30
0.0
  0
SPLINE
  5
1BF
330
1F
100
AcDbEntity
  8
0
  6
Continuous
 62
     7
370
    30
100
AcDbSpline
210
0.0
220
0.0
230
1.0
 70
    24
 71
     3
 72
     9
 73
     5
 74
     0
 42
0.00000001
 43
0.00000001
 40
0.0
 40
0.0
 40
0.0
 40
0.0
 40
0.7855179853137155
 40
0.9999999999999999
 40
0.9999999999999999
 40
0.9999999999999999
 40
0.9999999999999999
 10
226.2252539782046
 20
227.0151378230393
 30
0.0
 10
226.2297342533177
 20
227.0151378230393
 30
0.0
 10
226.2354378466114
 20
227.0151378230393
 30
0.0
 10
226.3067360008333
 20
227.0151378230393
 30
0.0
 10
226.3220281725942
 20
227.0151378230393
 30
0.0
  0
SPLINE
  5
1C0
330
1F
100
AcDbEntity
  8
0
  6
Continuous
 62
     7
370
    30
100
AcDbSpline
210
0.0
220
0.0
230
1.0
 70
    24
 71
     3
 72
     9
 73
     5
 74
     0
 42
0.00000001
 43
0.00000001
 40
0.0
 40
0.0
 40
0.0
 40
0.0
 40
0.3711033904512624
 40
1.0
 40
1.0
 40
1.0
 40
1.0
 10
227.1841076122789
 20
227.0151378230393
 30
0.0
 10
227.1899915704591
 20
227.0151378230393
 30
0.0
 10
227.205846877448
 20
227.0151378230393
 30
0.0
 10
227.2397307558203
 20
227.0151378230393
 30
0.0
 10
227.261040212047
 20
227.0151378230393
 30
0.0
  0
LINE
  5
1C1
330
1F
100
AcDbEntity
  8
0
  6
Continuous
 62
     7
370
    30
100
AcDbLine
 10
231.4505563969
 20
227.015137823
 30
0.0
 11
231.5800926568
 21
227.015137823
 31
0.0
  0
LINE
  5
1C2
330
1F
100
AcDbEntity
  8
0
  6
Continuous
 62
     7
370
    30
100
AcDbLine
 10
210.3794767441
 20
198.0151372605
 30
0.0
 11
207.7575112613
 21
198.0151372605
 31
0.0
  0
LINE
  5
1C3
330
1F
100
AcDbEntity
  8
0
  6
Continuous
 62
     7
370
    30
100
AcDbLine
 10
250.7575127216
 20
198.0151372605
 30
0.0
 11
248.1355472388
 21
198.0151372605
 31
0.0
  0
LINE
  5
1C4
330
1F
100
AcDbEntity
  8
0
  6
Continuous
 62
     8
370
     0
100
AcDbLine
 10
208.7575114252
 20
198.0151372605
 30
0.0
 11
208.7575114252
 21
197.0151373294
 31
0.0
  0
LINE
  5
1C5
330
1F
100
AcDbEntity
  8
0
  6
Continuous
 62
     8
370
     0
100
AcDbLine
 10
249.7575125577
 20
198.0151372605
 30
0.0
 11
249.7575125577
 21
197.0151373294
 31
0.0
  0
LINE
  5
1C6
330
1F
100
AcDbEntity
  8
0
  6
Continuous
 62
     8
370
     0
100
AcDbLine
 10
203.9462226363
 20
199.1632698679
 30
0.0
 11
203.3131263139
 21
199.1632698679
 31
0.0
  0
LINE
  5
1C7
330
1F
100
AcDbEntity
  8
0
  6
Continuous
 62
     8
370
     0
100
AcDbLine
 10
203.2593461605
 20
205.5470991523
 30
0.0
 11
202.8667247774
 21
205.5470991523
 31
0.0
  0
LINE
  5
1C8
330
1F
100
AcDbEntity
  8
0
  6
Continuous
 62
     8
370
     0
100
AcDbLine
 10
205.0199518832
 20
198.2368316145
 30
0.0
 11
204.2235332461
 21
198.2368316145
 31
0.0
  0
LINE
  5
1C9
330
1F
100
AcDbEntity
  8
0
  6
Continuous
 62
     8
370
     0
100
AcDbLine
 10
254.2914907368
 20
198.2368316145
 30
0.0
 11
253.4950720998
 21
198.2368316145
 31
0.0
  0
LINE
  5
1CA
330
1F
100
AcDbEntity
  8
0
  6
Continuous
 62
     8
370
     0
100
AcDbLine
 10
255.201897669
 20
199.1632698679
 30
0.0
 11
254.5688013466
 21
199.1632698679
 31
0.0
  0
LINE
  5
1CB
330
1F
100
AcDbEntity
  8
0
  6
Continuous
 62
     8
370
     0
100
AcDbLine
 10
255.6482992055
 20
205.5470991523
 30
0.0
 11
255.2556778224
 21
205.5470991523
 31
0.0
  0
LWPOLYLINE
  5
1CC
330
1F
100
AcDbEntity
  8
0
  6
Continuous
 62
     8
370
     0
100
AcDbPolyline
 90
        2
 70
   128
 43
0.0
 10
255.800378594
 20
206.5580032409
 10
255.800378594
 20
206.5580032409
  0
LINE
  5
1CD
330
1F
100
AcDbEntity
  8
0
  6
Continuous
 62
     8
370
     0
100
AcDbLine
 10
227.1607377021
 20
227.1151357905
 30
0.0
 11
227.1607377021
 21
227.015137823
 31
0.0
  0
LINE
  5
1CE
330
1F
100
AcDbEntity
  8
0
  6
Continuous
 62
     8
370
     0
100
AcDbLine
 10
227.261040212
 20
227.1151357905
 30
0.0
 11
227.261040212
 21
227.015137823
 31
0.0
  0
ELLIPSE
  5
1CF
330
1F
100
AcDbEntity
  8
0
  6
Continuous
 62
     8
370
     0
100
AcDbEllipse
 10
218.3319191998
 20
222.0151373164
 30
0.0
 11
5.940045884884854
 21
-0.8646332272018356
 31
0.0
210
0.0
220
0.0
230
1.0
 40
0.1424476503
 41
1.596681604965235
 42
3.137319670767219
  0
LINE
  5
1D0
330
1F
100
AcDbEntity
  8
0
  6
Continuous
 62
     8
370
     0
100
AcDbLine
 10
218.3013000446
 20
222.8833773748
 30
0.0
 11
214.1349204736
 21
199.2546649759
 31
0.0
  0
ELLIPSE
  5
1D1
330
1F
100
AcDbEntity
  8
0
  6
Continuous
 62
     8
370
     0
100
AcDbEllipse
 10
214.3645621338
 20
199.5151373164
 30
0.0
 11
6.138640363298151
 21
0.2627376088907738
 31
0.0
210
0.0
220
0.0
230
0.9999999999999999
 40
0.0407870686
 41
3.132587360648623
 42
4.673225426450609
  0
LINE
  5
1D2
330
1F
100
AcDbEntity
  8
0
  6
Continuous
 62
     8
370
     0
100
AcDbLine
 10
218.3013000446
 20
227.015137823
 30
0.0
 11
218.3013000446
 21
222.8833773748
 31
0.0
  0
ELLIPSE
  5
1D3
330
1F
100
AcDbEntity
  8
0
  6
Continuous
 62
     8
370
     0
100
AcDbEllipse
 10
240.1831047832
 20
222.0151373164
 30
0.0
 11
5.940045884884853
 21
0.8646332272017787
 31
0.0
210
0.0
220
0.0
230
1.0
 40
0.1424476503
 41
0.0042729828226389
 42
1.54491104862456
  0
LINE
  5
1D4
330
1F
100
AcDbEntity
  8
0
  6
Continuous
 62
     8
370
     0
100
AcDbLine
 10
240.2137239384
 20
227.015137823
 30
0.0
 11
240.2137239384
 21
222.8833773748
 31
0.0
  0
ELLIPSE
  5
1D5
330
1F
100
AcDbEntity
  8
0
  6
Continuous
 62
     8
370
     0
100
AcDbEllipse
 10
244.1504618491
 20
199.5151373164
 30
0.0
 11
6.138640363298152
 21
-0.2627376088907454
 31
0.0
210
0.0
220
0.0
230
0.9999999999999999
 40
0.0407870686
 41
4.751552534318773
 42
6.292190600120628
  0
LINE
  5
1D6
330
1F
100
AcDbEntity
  8
0
  6
Continuous
 62
     8
370
     0
100
AcDbLine
 10
244.3801035093
 20
199.2546649759
 30
0.0
 11
240.2137239384
 21
222.8833773748
 31
0.0
  0
LINE
  5
1D7
330
1F
100
AcDbEntity
  8
0
  6
Continuous
 62
     8
370
     0
100
AcDbLine
 10
240.2137239384
 20
222.8833773748
 30
0.0
 11
218.3013000446
 21
222.8833773748
 31
0.0
  0
LINE
  5
1D8
330
1F
100
AcDbEntity
  8
0
  6
Continuous
 62
     8
370
     0
100
AcDbLine
 10
214.1349204736
 20
199.2546649759
 30
0.0
 11
214.1349204736
 21
198.0151372605
 31
0.0
  0
LINE
  5
1D9
330
1F
100
AcDbEntity
  8
0
  6
Continuous
 62
     8
370
     0
100
AcDbLine
 10
244.3801035093
 20
199.2546649759
 30
0.0
 11
244.3801035093
 21
198.0151372605
 31
0.0
  0
LINE
  5
1DA
330
1F
100
AcDbEntity
  8
0
  6
Continuous
 62
     8
370
     0
100
AcDbLine
 10
214.1349204736
 20
199.2546649759
 30
0.0
 11
244.3801035093
 21
199.2546649759
 31
0.0
  0
LINE
  5
1DB
330
1F
100
AcDbEntity
  8
0
  6
Continuous
 62
     8
370
     0
100
AcDbLine
 10
212.2575110676
 20
236.1151391284
 30
0.0
 11
207.0575124504
 21
236.1151391284
 31
0.0
  0
LINE
  5
1DC
330
1F
100
AcDbEntity
  8
0
  6
Continuous
 62
     8
370
     0
100
AcDbLine
 10
212.2575110676
 20
236.1151391284
 30
0.0
 11
212.2575110676
 21
236.5151384489
 31
0.0
  0
LINE
  5
1DD
330
1F
100
AcDbEntity
  8
0
  6
Continuous
 62
     8
370
     0
100
AcDbLine
 10
212.2575110676
 20
234.7151377813
 30
0.0
 11
212.2575110676
 21
236.1151391284
 31
0.0
  0
LINE
  5
1DE
330
1F
100
AcDbEntity
  8
0
  6
Continuous
 62
     8
370
     0
100
AcDbLine
 10
208.1075115981
 20
234.7151377813
 30
0.0
 11
212.2575110676
 21
234.7151377813
 31
0.0
  0
LINE
  5
1DF
330
1F
100
AcDbEntity
  8
0
  6
Continuous
 62
     8
370
     0
100
AcDbLine
 10
212.2575110676
 20
234.5151381211
 30
0.0
 11
212.2575110676
 21
234.7151377813
 31
0.0
  0
LINE
  5
1E0
330
1F
100
AcDbEntity
  8
0
  6
Continuous
 62
     8
370
     0
100
AcDbLine
 10
246.2575129153
 20
234.5151381211
 30
0.0
 11
246.2575129153
 21
234.7151377813
 31
0.0
  0
LINE
  5
1E1
330
1F
100
AcDbEntity
  8
0
  6
Continuous
 62
     8
370
     0
100
AcDbLine
 10
246.2575129153
 20
234.7151377813
 30
0.0
 11
250.4075123849
 21
234.7151377813
 31
0.0
  0
LINE
  5
1E2
330
1F
100
AcDbEntity
  8
0
  6
Continuous
 62
     8
370
     0
100
AcDbLine
 10
251.4575115325
 20
236.1151391284
 30
0.0
 11
246.2575129153
 21
236.1151391284
 31
0.0
  0
LINE
  5
1E3
330
1F
100
AcDbEntity
  8
0
  6
Continuous
 62
     8
370
     0
100
AcDbLine
 10
246.2575129153
 20
234.7151377813
 30
0.0
 11
246.2575129153
 21
236.1151391284
 31
0.0
  0
LINE
  5
1E4
330
1F
100
AcDbEntity
  8
0
  6
Continuous
 62
     8
370
     0
100
AcDbLine
 10
246.2575129153
 20
236.1151391284
 30
0.0
 11
246.2575129153
 21
236.5151384489
 31
0.0
  0
LINE
  5
1E5
330
1F
100
AcDbEntity
  8
0
  6
Continuous
 62
     8
370
     0
100
AcDbLine
 10
212.2575110676
 20
234.7151377813
 30
0.0
 11
246.2575129153
 21
234.7151377813
 31
0.0
  0
LINE
  5
1E6
330
1F
100
AcDbEntity
  8
0
  6
Continuous
 62
     8
370
     0
100
AcDbLine
 10
246.2575129153
 20
236.1151391284
 30
0.0
 11
212.2575110676
 21
236.1151391284
 31
0.0
  0
LINE
  5
1E7
330
1F
100
AcDbEntity
  8
0
  6
Continuous
 62
     8
370
     0
100
AcDbLine
 10
201.7575121405
 20
244.0381349639
 30
0.0
 11
189.4187509002
 21
244.0381349639
 31
0.0
  0
LINE
  5
1E8
330
1F
100
AcDbEntity
  8
0
  6
Continuous
 62
     8
370
     0
100
AcDbLine
 10
201.7575121405
 20
244.0381349639
 30
0.0
 11
201.7575121405
 21
244.5151360349
 31
0.0
  0
LINE
  5
1E9
330
1F
100
AcDbEntity
  8
0
  6
Continuous
 62
     8
370
     0
100
AcDbLine
 10
201.7575121405
 20
235.4691439883
 30
0.0
 11
197.4094650628
 21
235.4691439883
 31
0.0
  0
LINE
  5
1EA
330
1F
100
AcDbEntity
  8
0
  6
Continuous
 62
     8
370
     0
100
AcDbLine
 10
201.7575121405
 20
235.4691439883
 30
0.0
 11
201.7575121405
 21
244.0381349639
 31
0.0
  0
LINE
  5
1EB
330
1F
100
AcDbEntity
  8
0
  6
Continuous
 62
     8
370
     0
100
AcDbLine
 10
261.1055589201
 20
235.4691439883
 30
0.0
 11
256.7575118425
 21
235.4691439883
 31
0.0
  0
LINE
  5
1EC
330
1F
100
AcDbEntity
  8
0
  6
Continuous
 62
     8
370
     0
100
AcDbLine
 10
256.7575118425
 20
235.4691439883
 30
0.0
 11
256.7575118425
 21
244.0381349639
 31
0.0
  0
LINE
  5
1ED
330
1F
100
AcDbEntity
  8
0
  6
Continuous
 62
     8
370
     0
100
AcDbLine
 10
269.0962730827
 20
244.0381349639
 30
0.0
 11
256.7575118425
 21
244.0381349639
 31
0.0
  0
LINE
  5
1EE
330
1F
100
AcDbEntity
  8
0
  6
Continuous
 62
     8
370
     0
100
AcDbLine
 10
256.7575118425
 20
244.0381349639
 30
0.0
 11
256.7575118425
 21
244.5151360349
 31
0.0
  0
LINE
  5
1EF
330
1F
100
AcDbEntity
  8
0
  6
Continuous
 62
     8
370
     0
100
AcDbLine
 10
256.7575118425
 20
234.5151381211
 30
0.0
 11
256.7575118425
 21
235.4691439883
 31
0.0
  0
LINE
  5
1F0
330
1F
100
AcDbEntity
  8
0
  6
Continuous
 62
     8
370
     0
100
AcDbLine
 10
201.7575121405
 20
234.5151381211
 30
0.0
 11
201.7575121405
 21
235.4691439883
 31
0.0
  0
LINE
  5
1F1
330
1F
100
AcDbEntity
  8
0
  6
Continuous
 62
     8
370
     0
100
AcDbLine
 10
256.7575118425
 20
235.4691439883
 30
0.0
 11
253.5420088949
 21
235.4691439883
 31
0.0
  0
LINE
  5
1F2
330
1F
100
AcDbEntity
  8
0
  6
Continuous
 62
     8
370
     0
100
AcDbLine
 10
204.973015088
 20
235.4691439883
 30
0.0
 11
201.7575121405
 21
235.4691439883
 31
0.0
  0
LINE
  5
1F3
330
1F
100
AcDbEntity
  8
0
  6
Continuous
 62
     8
370
     0
100
AcDbLine
 10
256.7575118425
 20
244.0381349639
 30
0.0
 11
201.7575121405
 21
244.0381349639
 31
0.0
  0
HATCH
  5
1F4
330
1F
100
AcDbEntity
  8
0
  6
Continuous
 62
     7
370
     0
100
AcDbHatch
 10
0.0
 20
0.0
 30
0.0
210
0.0
220
0.0
230
1.0
  2
ANSI35
 70
     0
 71
     0
 91
        1
 92
        0
 93
       62
 72
     1
 10
226.225362442873
 20
227.1151373163998
 11
226.3543437352708
 21
227.1151373163998
 72
     1
 10
226.3543437352708
 20
227.1151373163998
 11
226.3543437352708
 21
227.0151373163998
 72
     1
 10
226.3543437352708
 20
227.0151373163998
 11
227.155180258599
 21
227.0151373163998
 72
     1
 10
227.155180258599
 20
227.0151373163998
 11
227.1551802602677
 21
227.1151373164003
 72
     1
 10
227.1551802602677
 20
227.1151373164003
 11
227.2875626411449
 21
227.1151373163998
 72
     1
 10
227.2875626411449
 20
227.1151373163998
 11
227.2875626411441
 21
227.0151373163998
 72
     1
 10
227.2875626411441
 20
227.0151373163998
 11
228.1605901939053
 21
227.0151373163998
 72
     1
 10
228.1605901939053
 20
227.0151373163998
 11
228.1605901939053
 21
227.1151373164009
 72
     1
 10
228.1605901939053
 20
227.1151373164009
 11
228.2897588974523
 21
227.1151373163998
 72
     1
 10
228.2897588974523
 20
227.1151373163998
 11
228.2897588974523
 21
227.0151373163998
 72
     1
 10
228.2897588974523
 20
227.0151373163998
 11
231.4494005039134
 21
227.0151373163998
 72
     1
 10
231.4494005039134
 20
227.0151373163998
 11
231.4494005039134
 21
227.1151373163977
 72
     1
 10
231.4494005039134
 20
227.1151373163977
 11
231.5800926366292
 21
227.1151373163998
 72
     1
 10
231.5800926366292
 20
227.1151373163998
 11
231.5800926366292
 21
227.0151373163998
 72
     1
 10
231.5800926366292
 20
227.0151373163998
 11
241.198531395036
 21
227.0151373163998
 72
     2
 10
241.198531395036
 20
222.0151373163998
 40
5.0
 50
270.0000000000008
 51
350.0000000000007
 73
     0
 72
     1
 10
246.1225701600971
 20
222.8833782047345
 11
250.2889498087155
 21
199.2546650498994
 72
     2
 10
251.7661614382338
 20
199.5151373163998
 40
1.5
 50
190.0000000000016
 51
270.0000000000008
 73
     1
 72
     1
 10
251.7661614382338
 20
198.0151373163998
 11
252.4658383404164
 21
198.0151373163998
 72
     2
 10
252.4658383404164
 20
200.5151373163998
 40
2.5
 50
270.0000000000008
 51
357.0000000000011
 73
     1
 72
     1
 10
254.9624121773028
 20
200.3842974257925
 11
255.2173322087862
 21
205.248461390967
 72
     2
 10
257.2145912782953
 20
205.143789478481
 40
2.0
 50
183.0000000000015
 51
225.0000000000014
 73
     0
 72
     1
 10
255.8003777159222
 20
206.5580030408541
 11
256.2146462670136
 21
206.9722715919455
 72
     2
 10
254.8004327046405
 20
208.3864851543186
 40
2.0
 50
315.0000000000008
 51
357.000000000001
 73
     1
 72
     1
 10
256.7976917741497
 20
208.2818132418327
 11
257.8009357826576
 21
227.424849299317
 72
     2
 10
261.7954539216759
 20
227.2155054743452
 40
4.0
 50
183.0000000000011
 51
238.2451492051799
 73
     0
 72
     1
 10
259.6903102633722
 20
230.616736160127
 11
262.7575119914679
 21
232.5151373163998
 72
     1
 10
262.7575119914679
 20
232.5151373163998
 11
271.3080226004018
 21
242.0114414068615
 72
     2
 10
270.1933053621856
 20
243.0151373163998
 40
1.500000000000001
 50
318.000000000002
 51
497.0
 73
     1
 72
     1
 10
269.0962748097569
 20
244.0381348564935
 11
261.1055599183425
 21
235.4691422362123
 72
     2
 10
258.911498813485
 20
237.5151373163998
 40
2.999999999999995
 50
42.99999999999886
 51
90.0
 73
     0
 72
     1
 10
258.911498813485
 20
234.5151373163998
 11
254.5075119914679
 21
234.5151373163998
 72
     2
 10
254.5075119914679
 20
235.0151373163998
 40
0.5
 50
90.0
 51
143.1301023541625
 73
     0
 72
     1
 10
254.1075119914679
 20
234.7151373163998
 11
253.0575119914679
 21
236.1151373163998
 72
     2
 10
252.2575119914679
 20
235.5151373163998
 40
1.000000000000002
 50
36.86989764584467
 51
143.1301023541544
 73
     1
 72
     1
 10
251.4575119914679
 20
236.1151373163998
 11
250.4075119914679
 21
234.7151373163998
 72
     2
 10
250.0075119914679
 20
235.0151373163998
 40
0.5
 50
36.86989764583946
 51
90.0
 73
     0
 72
     1
 10
250.0075119914679
 20
234.5151373163998
 11
208.5075119914679
 21
234.5151373163998
 72
     2
 10
208.5075119914679
 20
235.0151373163998
 40
0.5
 50
90.0
 51
143.1301023541605
 73
     0
 72
     1
 10
208.1075119914679
 20
234.7151373163998
 11
207.0575119914679
 21
236.1151373163998
 72
     2
 10
206.2575119914679
 20
235.5151373163998
 40
1.000000000000002
 50
36.86989764584467
 51
143.1301023541544
 73
     1
 72
     1
 10
205.4575119914679
 20
236.1151373163998
 11
204.4075119914679
 21
234.7151373163998
 72
     2
 10
204.0075119914679
 20
235.0151373163998
 40
0.5
 50
36.86989764583946
 51
90.0
 73
     0
 72
     1
 10
204.0075119914679
 20
234.5151373163998
 11
199.6035251694508
 21
234.5151373163998
 72
     2
 10
199.6035251694508
 20
237.5151373163998
 40
2.999999999999995
 50
90.0
 51
137.0000000000004
 73
     0
 72
     1
 10
197.4094640645934
 20
235.4691422362123
 11
189.4187491731789
 21
244.0381348564935
 72
     2
 10
188.3217186207501
 20
243.0151373163998
 40
1.500000000000001
 50
42.99999999999931
 51
222.0000000000011
 73
     1
 72
     1
 10
187.207001382534
 20
242.0114414068615
 11
195.7575119914679
 21
232.5151373163998
 72
     1
 10
195.7575119914679
 20
232.5151373163998
 11
198.8247137195636
 21
230.6167361601271
 72
     2
 10
196.71957006126
 20
227.2155054743452
 40
4.0
 50
301.7548507948208
 51
357.0000000000005
 73
     0
 72
     1
 10
200.7140882002782
 20
227.424849299317
 11
201.7173322087862
 21
208.2818132418327
 72
     2
 10
203.7145912782953
 20
208.3864851543186
 40
2.0
 50
183.0000000000015
 51
225.0000000000008
 73
     1
 72
     1
 10
202.3003777159223
 20
206.9722715919455
 11
202.7146462670135
 21
206.5580030408541
 72
     2
 10
201.3004327046405
 20
205.143789478481
 40
2.0
 50
314.9999999999997
 51
357.0000000000001
 73
     0
 72
     1
 10
203.2976917741496
 20
205.248461390967
 11
203.552611805633
 21
200.3842974257925
 72
     2
 10
206.0491856425194
 20
200.5151373163998
 40
2.5
 50
183.0000000000005
 51
270.0000000000008
 73
     1
 72
     1
 10
206.0491856425194
 20
198.0151373163998
 11
206.748862544702
 21
198.0151373163998
 72
     2
 10
206.748862544702
 20
199.5151373163998
 40
1.5
 50
270.0000000000008
 51
350.0000000000001
 73
     1
 72
     1
 10
208.2260741742203
 20
199.2546650498994
 11
212.3924538228387
 21
222.8833782047345
 72
     2
 10
217.3164925878998
 20
222.0151373163998
 40
5.0
 50
190.000000000001
 51
270.0000000000008
 73
     0
 72
     1
 10
217.3164925878998
 20
227.0151373163998
 11
226.225362442873
 21
227.0151373163998
 72
     1
 10
226.225362442873
 20
227.0151373163998
 11
226.225362442873
 21
227.1151373163998
 97
        0
 75
     0
 76
     1
 52
0.0
 41
1.0
 77
     0
 78
     2
 53
45.0
 43
0.0
 44
0.0
 45
-4.490128060534576
 46
4.490128060534577
 79
     0
 53
45.0
 43
4.49013
 44
0.0
 45
-4.490128060534576
 46
4.490128060534577
 79
     4
 49
7.9375
 49
-1.5875
 49
0.0
 49
-1.5875
 98
        1
 10
0.0
 20
0.0
  0
HATCH
  5
1F5
330
1F
100
AcDbEntity
  8
0
  6
Continuous
 62
     7
370
     0
100
AcDbHatch
 10
0.0
 20
0.0
 30
0.0
210
0.0
220
0.0
230
1.0
  2
ANSI31
 70
     0
 71
     0
 91
        1
 92
        0
 93
        6
 72
     1
 10
264.2575119914679
 20
198.0151373163995
 11
264.2575119914679
 21
220.0151373163995
 72
     1
 10
264.2575119914679
 20
220.0151373163995
 11
259.1615182734125
 21
220.0151373163995
 72
     1
 10
259.1615182734125
 20
220.0151373163995
 11
259.2444219390058
 21
201.0151373163995
 72
     1
 10
259.2444219390058
 20
201.0151373163995
 11
262.7575119914679
 21
201.0151373163995
 72
     1
 10
262.7575119914679
 20
201.0151373163995
 11
262.7575119914679
 21
198.0151373163995
 72
     1
 10
262.7575119914679
 20
198.0151373163995
 11
264.2575119914679
 21
198.0151373163995
 97
        0
 75
     0
 76
     1
 52
0.0
 41
1.0
 77
     0
 78
     1
 53
45.0
 43
0.0
 44
0.0
 45
-2.245064030267288
 46
2.245064030267288
 79
     0
 98
        1
 10
0.0
 20
0.0
  0
HATCH
  5
1F6
330
1F
100
AcDbEntity
  8
0
  6
Continuous
 62
     7
370
     0
100
AcDbHatch
 10
0.0
 20
0.0
 30
0.0
210
0.0
220
0.0
230
1.0
  2
ANSI31
 70
     0
 71
     0
 91
        1
 92
        0
 93
        6
 72
     1
 10
196.7575119914679
 20
220.0151373163995
 11
196.7575119914679
 21
198.0151373163995
 72
     1
 10
196.7575119914679
 20
198.0151373163995
 11
198.2575119914679
 21
198.0151373163995
 72
     1
 10
198.2575119914679
 20
198.0151373163995
 11
198.2575119914679
 21
201.0151373163995
 72
     1
 10
198.2575119914679
 20
201.0151373163995
 11
199.27060204393
 21
201.0151373163995
 72
     1
 10
199.27060204393
 20
201.0151373163995
 11
199.3535057095234
 21
220.0151373163995
 72
     1
 10
199.3535057095234
 20
220.0151373163995
 11
196.7575119914679
 21
220.0151373163995
 97
        0
 75
     0
 76
     1
 52
0.0
 41
1.0
 77
     0
 78
     1
 53
45.0
 43
0.0
 44
0.0
 45
-2.245064030267288
 46
2.245064030267288
 79
     0
 98
        1
 10
0.0
 20
0.0
  0
HATCH
  5
1F7
330
1F
100
AcDbEntity
  8
0
  6
Continuous
 62
     7
370
     0
100
AcDbHatch
 10
0.0
 20
0.0
 30
0.0
210
0.0
220
0.0
230
1.0
  2
NET
 70
     0
 71
     0
 91
        1
 92
        0
 93
       15
 72
     2
 10
201.5160452245934
 20
205.4526508498393
 40
1.353977779790654
 50
4.000000000000462
 51
61.99999999999962
 73
     1
 72
     1
 10
202.1516992888491
 20
206.6481422712899
 11
201.971252025278
 21
206.7440877832481
 72
     2
 10
202.4407235880639
 20
207.627035376107
 40
1.0
 50
118.0000000000011
 51
177.9999999999996
 73
     0
 72
     1
 10
201.4413327610449
 20
207.5921358794045
 11
201.0075119914679
 21
220.0151373163994
 72
     1
 10
201.0075119914679
 20
220.0151373163994
 11
199.357869060344
 21
220.0151373163994
 72
     1
 10
199.357869060344
 20
220.0151373163994
 11
199.2749653947507
 21
201.0151373163994
 72
     1
 10
199.2749653947507
 20
201.0151373163994
 11
198.7575119914679
 21
201.0151373163994
 72
     1
 10
198.7575119914679
 20
201.0151373163994
 11
198.2575119914679
 21
200.7264621818046
 72
     1
 10
198.2575119914679
 20
200.7264621818046
 11
198.2575119914679
 21
197.0151373163994
 72
     1
 10
198.2575119914679
 20
197.0151373163994
 11
207.7575119914679
 21
197.0151373163994
 72
     1
 10
207.7575119914679
 20
197.0151373163994
 11
207.7575119914679
 21
198.0151373163994
 72
     1
 10
207.7575119914679
 20
198.0151373163994
 11
206.7575119914679
 21
198.0151373163994
 72
     1
 10
206.7575119914679
 20
198.0151373163994
 11
204.2235339470305
 21
198.2368316689113
 72
     2
 10
204.3106896897781
 20
199.233026367003
 40
0.9999999999999987
 50
94.99999999999976
 51
176.0000000000003
 73
     0
 72
     1
 10
203.3131256395183
 20
199.1632698932589
 11
202.8667247825631
 21
205.5470995652854
 97
        0
 75
     0
 76
     1
 52
134.999991007
 41
1.0
 77
     0
 78
     2
 53
134.9999910069555
 43
0.0
 44
0.0
 45
-2.24506438264855
 46
-2.245063677885971
 79
     0
 53
224.9999910069555
 43
0.0
 44
0.0
 45
2.245063677885971
 46
-2.24506438264855
 79
     0
 98
        1
 10
0.0
 20
0.0
  0
HATCH
  5
1F8
330
1F
100
AcDbEntity
  8
0
  6
Continuous
 62
     7
370
     0
100
AcDbHatch
 10
0.0
 20
0.0
 30
0.0
210
0.0
220
0.0
230
1.0
  2
NET
 70
     0
 71
     0
 91
        1
 92
        0
 93
       15
 72
     2
 10
256.0743003948719
 20
207.627035376107
 40
1.0
 50
2.000000000000471
 51
62.00000000000032
 73
     0
 72
     1
 10
256.5437719576578
 20
206.7440877832481
 11
256.3633246940867
 21
206.6481422712899
 72
     2
 10
256.9989787583424
 20
205.4526508498393
 40
1.353977779790654
 50
118.0000000000014
 51
175.9999999999995
 73
     1
 72
     1
 10
255.6482992003727
 20
205.5470995652854
 11
255.2018983434176
 21
199.1632698932589
 72
     2
 10
254.2043342931577
 20
199.233026367003
 40
0.9999999999999987
 50
3.999999999999648
 51
85.00000000000026
 73
     0
 72
     1
 10
254.2914900359054
 20
198.2368316689113
 11
251.7575119914679
 21
198.0151373163994
 72
     1
 10
251.7575119914679
 20
198.0151373163994
 11
250.7575119914679
 21
198.0151373163994
 72
     1
 10
250.7575119914679
 20
198.0151373163994
 11
250.7575119914679
 21
197.0151373163994
 72
     1
 10
250.7575119914679
 20
197.0151373163994
 11
262.7575119914679
 21
197.0151373163994
 72
     1
 10
262.7575119914679
 20
197.0151373163994
 11
262.7575119914679
 21
200.7264621818046
 72
     1
 10
262.7575119914679
 20
200.7264621818046
 11
262.2575119914679
 21
201.0151373163994
 72
     1
 10
262.2575119914679
 20
201.0151373163994
 11
259.2400585881851
 21
201.0151373163994
 72
     1
 10
259.2400585881851
 20
201.0151373163994
 11
259.1571549225918
 21
220.0151373163994
 72
     1
 10
259.1571549225918
 20
220.0151373163994
 11
257.5075119914679
 21
220.0151373163994
 72
     1
 10
257.5075119914679
 20
220.0151373163994
 11
257.073691221891
 21
207.5921358794045
 97
        0
 75
     0
 76
     1
 52
134.999991007
 41
1.0
 77
     0
 78
     2
 53
134.9999910069555
 43
0.0
 44
0.0
 45
-2.24506438264855
 46
-2.245063677885971
 79
     0
 53
224.9999910069555
 43
0.0
 44
0.0
 45
2.245063677885971
 46
-2.24506438264855
 79
     0
 98
        1
 10
0.0
 20
0.0
  0
MTEXT
  5
1F9
330
1F
100
AcDbEntity
  8
0
  6
Continuous
 62
     7
370
     0
100
AcDbMText
 10
228.561603462
 20
262.4341673854
 30
0.0
 40
5.0
 41
0.0
 71
     2
 72
     1
  1
A-A
  7
SLDTEXTSTYLE0
 73
     1
 44
1.0
  0
LINE
  5
1FA
330
1F
100
AcDbEntity
  8
0
  6
CENTERX2
 62
     7
370
     0
100
AcDbLine
 10
229.2575119915
 20
258.7872321647
 30
0.0
 11
229.2575119915
 21
192.3262827762
 31
0.0
  0
ENDSEC
  0
SECTION
  2
OBJECTS
  0
DICTIONARY
  5
C
330
0
100
AcDbDictionary
281
     1
  3
ACAD_GROUP
350
D
  3
ACAD_LAYOUT
350
1A
  3
ACAD_MLINESTYLE
350
17
  3
ACAD_PLOTSETTINGS
350
19
  3
ACAD_PLOTSTYLENAME
350
E
  0
DICTIONARY
  5
D
102
{ACAD_REACTORS
330
C
102
}
330
C
100
AcDbDictionary
281
     1
  0
DICTIONARY
  5
1A
102
{ACAD_REACTORS
330
C
102
}
330
C
100
AcDbDictionary
281
     1
  3
Layout1
350
1E
  3
Layout2
350
26
  3
Model
350
22
  0
DICTIONARY
  5
17
102
{ACAD_REACTORS
330
C
102
}
330
C
100
AcDbDictionary
281
     1
  3
Standard
350
18
  0
DICTIONARY
  5
19
102
{ACAD_REACTORS
330
C
102
}
330
C
100
AcDbDictionary
281
     1
  0
ACDBDICTIONARYWDFLT
  5
E
102
{ACAD_REACTORS
330
C
102
}
330
C
100
AcDbDictionary
281
     1
  3
Normal
350
F
100
AcDbDictionaryWithDefault
340
F
  0
LAYOUT
  5
1E
102
{ACAD_REACTORS
330
1A
102
}
330
1A
100
AcDbPlotSettings
  1

  2
none_device
  4

  6

 40
0.0
 41
0.0
 42
0.0
 43
0.0
 44
0.0
 45
0.0
 46
0.0
 47
0.0
 48
0.0
 49
0.0
140
0.0
141
0.0
142
1.0
143
1.0
 70
   688
 72
     0
 73
     0
 74
     5
  7

 75
    16
147
1.0
148
0.0
149
0.0
100
AcDbLayout
  1
Layout1
 70
     1
 71
     1
 10
0.0
 20
0.0
 11
420.0
 21
297.0
 12
0.0
 22
0.0
 32
0.0
 14
1.0000000000E+20
 24
1.0000000000E+20
 34
1.0000000000E+20
 15
-1.0000000000E+20
 25
-1.0000000000E+20
 35
-1.0000000000E+20
146
0.0
 13
0.0
 23
0.0
 33
0.0
 16
1.0
 26
0.0
 36
0.0
 17
0.0
 27
1.0
 37
0.0
 76
     0
330
1B
  0
LAYOUT
  5
26
102
{ACAD_REACTORS
330
1A
102
}
330
1A
100
AcDbPlotSettings
  1

  2
none_device
  4

  6

 40
0.0
 41
0.0
 42
0.0
 43
0.0
 44
0.0
 45
0.0
 46
0.0
 47
0.0
 48
0.0
 49
0.0
140
0.0
141
0.0
142
1.0
143
1.0
 70
   688
 72
     0
 73
     0
 74
     5
  7

 75
    16
147
1.0
148
0.0
149
0.0
100
AcDbLayout
  1
Layout2
 70
     1
 71
     2
 10
0.0
 20
0.0
 11
0.0
 21
0.0
 12
0.0
 22
0.0
 32
0.0
 14
0.0
 24
0.0
 34
0.0
 15
0.0
 25
0.0
 35
0.0
146
0.0
 13
0.0
 23
0.0
 33
0.0
 16
1.0
 26
0.0
 36
0.0
 17
0.0
 27
1.0
 37
0.0
 76
     0
330
23
  0
LAYOUT
  5
22
102
{ACAD_REACTORS
330
1A
102
}
330
1A
100
AcDbPlotSettings
  1

  2
none_device
  4

  6

 40
0.0
 41
0.0
 42
0.0
 43
0.0
 44
0.0
 45
0.0
 46
0.0
 47
0.0
 48
0.0
 49
0.0
140
0.0
141
0.0
142
1.0
143
1.0
 70
  1712
 72
     0
 73
     0
 74
     0
  7

 75
     0
147
1.0
148
0.0
149
0.0
100
AcDbLayout
  1
Model
 70
     1
 71
     0
 10
0.0
 20
0.0
 11
420.0
 21
297.0
 12
0.0
 22
0.0
 32
0.0
 14
0.0
 24
0.0
 34
0.0
 15
420.0
 25
297.0
 35
0.0
146
0.0
 13
0.0
 23
0.0
 33
0.0
 16
1.0
 26
0.0
 36
0.0
 17
0.0
 27
1.0
 37
0.0
 76
     0
330
1F
331
29
  0
MLINESTYLE
  5
18
102
{ACAD_REACTORS
330
17
102
}
330
17
100
AcDbMlineStyle
  2
Standard
 70
     0
  3

 62
   256
 51
90.0
 52
90.0
 71
     2
 49
0.5
 62
   256
  6
BYLAYER
 49
-0.5
 62
   256
  6
BYLAYER
  0
ACDBPLACEHOLDER
  5
F
102
{ACAD_REACTORS
330
E
102
}
330
E
  0
ENDSEC
  0
EOF
