  0
SECTION
  2
HEADER
  9
$ACADVER
  1
AC1015
  9
$ACADMAINTVER
 70
     6
  9
$DWGCODEPAGE
  3
ANSI_1252
  9
$INSBASE
 10
0.0
 20
0.0
 30
0.0
  9
$EXTMIN
 10
0.0
 20
0.0
 30
0.0
  9
$EXTMAX
 10
594.0
 20
420.0
 30
0.0
  9
$LIMMIN
 10
0.0
 20
0.0
  9
$LIMMAX
 10
594.0
 20
420.0
  9
$ORTHOMODE
 70
     0
  9
$REGENMODE
 70
     1
  9
$FILLMODE
 70
     1
  9
$QTEXTMODE
 70
     0
  9
$MIRRTEXT
 70
     1
  9
$LTSCALE
 40
1.0
  9
$ATTMODE
 70
     1
  9
$TEXTSIZE
 40
3.5
  9
$TRACEWID
 40
1.0
  9
$TEXTSTYLE
  7
Standard
  9
$CLAYER
  8
0
  9
$CELTYPE
  6
ByLayer
  9
$CECOLOR
 62
   256
  9
$CELTSCALE
 40
1.0
  9
$DISPSILH
 70
     0
  9
$DIMSCALE
 40
1.0
  9
$DIMASZ
 40
3.5
  9
$DIMEXO
 40
1.0
  9
$DIMDLI
 40
3.75
  9
$DIMRND
 40
0.0
  9
$DIMDLE
 40
0.0
  9
$DIMEXE
 40
1.0
  9
$DIMTP
 40
0.0
  9
$DIMTM
 40
0.0
  9
$DIMTXT
 40
3.5
  9
$DIMCEN
 40
2.5
  9
$DIMTSZ
 40
0.0
  9
$DIMTOL
 70
     0
  9
$DIMLIM
 70
     0
  9
$DIMTIH
 70
     1
  9
$DIMTOH
 70
     1
  9
$DIMSE1
 70
     0
  9
$DIMSE2
 70
     0
  9
$DIMTAD
 70
     1
  9
$DIMZIN
 70
     0
  9
$DIMBLK
  1

  9
$DIMASO
 70
     1
  9
$DIMSHO
 70
     1
  9
$DIMPOST
  1

  9
$DIMAPOST
  1

  9
$DIMALT
 70
     0
  9
$DIMALTD
 70
     3
  9
$DIMALTF
 40
0.0393700787
  9
$DIMLFAC
 40
1.0
  9
$DIMTOFL
 70
     1
  9
$DIMTVP
 40
0.0
  9
$DIMTIX
 70
     0
  9
$DIMSOXD
 70
     0
  9
$DIMSAH
 70
     0
  9
$DIMBLK1
  1

  9
$DIMBLK2
  1

  9
$DIMSTYLE
  2
ISO-25
  9
$DIMCLRD
 70
     0
  9
$DIMCLRE
 70
     0
  9
$DIMCLRT
 70
     0
  9
$DIMTFAC
 40
1.0
  9
$DIMGAP
 40
4.0
  9
$DIMJUST
 70
     0
  9
$DIMSD1
 70
     0
  9
$DIMSD2
 70
     0
  9
$DIMTOLJ
 70
     0
  9
$DIMTZIN
 70
     0
  9
$DIMALTZ
 70
     0
  9
$DIMALTTZ
 70
     0
  9
$DIMUPT
 70
     0
  9
$DIMDEC
 70
     2
  9
$DIMTDEC
 70
     2
  9
$DIMALTU
 70
     2
  9
$DIMALTTD
 70
     3
  9
$DIMTXSTY
  7
Standard
  9
$DIMAUNIT
 70
     0
  9
$DIMADEC
 70
     2
  9
$DIMALTRND
 40
0.0
  9
$DIMAZIN
 70
     0
  9
$DIMDSEP
 70
    44
  9
$DIMATFIT
 70
     3
  9
$DIMFRAC
 70
     0
  9
$DIMLDRBLK
  1

  9
$DIMLUNIT
 70
     2
  9
$DIMLWD
 70
    -2
  9
$DIMLWE
 70
    -2
  9
$DIMTMOVE
 70
     0
  9
$LUNITS
 70
     2
  9
$LUPREC
 70
     2
  9
$SKETCHINC
 40
1.0
  9
$FILLETRAD
 40
10.0
  9
$AUNITS
 70
     0
  9
$AUPREC
 70
     2
  9
$MENU
  1
.
  9
$ELEVATION
 40
0.0
  9
$PELEVATION
 40
0.0
  9
$THICKNESS
 40
0.0
  9
$LIMCHECK
 70
     0
  9
$CHAMFERA
 40
10.0
  9
$CHAMFERB
 40
10.0
  9
$CHAMFERC
 40
20.0
  9
$CHAMFERD
 40
0.0
  9
$SKPOLY
 70
     0
  9
$TDCREATE
 40
2455975.48216566
  9
$TDUCREATE
 40
2455975.440498993
  9
$TDUPDATE
 40
2455975.482165671
  9
$TDUUPDATE
 40
2455975.440499004
  9
$TDINDWG
 40
0.0000000116
  9
$TDUSRTIMER
 40
0.0000000116
  9
$USRTIMER
 70
     1
  9
$ANGBASE
 50
0.0
  9
$ANGDIR
 70
     0
  9
$PDMODE
 70
     0
  9
$PDSIZE
 40
-1.0
  9
$PLINEWID
 40
0.0
  9
$SPLFRAME
 70
     0
  9
$SPLINETYPE
 70
     6
  9
$SPLINESEGS
 70
     8
  9
$HANDSEED
  5
17B
  9
$SURFTAB1
 70
     6
  9
$SURFTAB2
 70
     6
  9
$SURFTYPE
 70
     6
  9
$SURFU
 70
     6
  9
$SURFV
 70
     6
  9
$UCSBASE
  2

  9
$UCSNAME
  2

  9
$UCSORG
 10
0.0
 20
0.0
 30
0.0
  9
$UCSXDIR
 10
1.0
 20
0.0
 30
0.0
  9
$UCSYDIR
 10
0.0
 20
1.0
 30
0.0
  9
$UCSORTHOREF
  2

  9
$UCSORTHOVIEW
 70
     0
  9
$UCSORGTOP
 10
0.0
 20
0.0
 30
0.0
  9
$UCSORGBOTTOM
 10
0.0
 20
0.0
 30
0.0
  9
$UCSORGLEFT
 10
0.0
 20
0.0
 30
0.0
  9
$UCSORGRIGHT
 10
0.0
 20
0.0
 30
0.0
  9
$UCSORGFRONT
 10
0.0
 20
0.0
 30
0.0
  9
$UCSORGBACK
 10
0.0
 20
0.0
 30
0.0
  9
$PUCSBASE
  2

  9
$PUCSNAME
  2

  9
$PUCSORG
 10
0.0
 20
0.0
 30
0.0
  9
$PUCSXDIR
 10
1.0
 20
0.0
 30
0.0
  9
$PUCSYDIR
 10
0.0
 20
1.0
 30
0.0
  9
$PUCSORTHOREF
  2

  9
$PUCSORTHOVIEW
 70
     0
  9
$PUCSORGTOP
 10
0.0
 20
0.0
 30
0.0
  9
$PUCSORGBOTTOM
 10
0.0
 20
0.0
 30
0.0
  9
$PUCSORGLEFT
 10
0.0
 20
0.0
 30
0.0
  9
$PUCSORGRIGHT
 10
0.0
 20
0.0
 30
0.0
  9
$PUCSORGFRONT
 10
0.0
 20
0.0
 30
0.0
  9
$PUCSORGBACK
 10
0.0
 20
0.0
 30
0.0
  9
$USERI1
 70
     0
  9
$USERI2
 70
     0
  9
$USERI3
 70
     0
  9
$USERI4
 70
     0
  9
$USERI5
 70
     0
  9
$USERR1
 40
0.0
  9
$USERR2
 40
0.0
  9
$USERR3
 40
0.0
  9
$USERR4
 40
0.0
  9
$USERR5
 40
0.0
  9
$WORLDVIEW
 70
     1
  9
$SHADEDGE
 70
     3
  9
$SHADEDIF
 70
    70
  9
$TILEMODE
 70
     1
  9
$MAXACTVP
 70
    64
  9
$PINSBASE
 10
0.0
 20
0.0
 30
0.0
  9
$PLIMCHECK
 70
     0
  9
$PEXTMIN
 10
1.0000000000E+20
 20
1.0000000000E+20
 30
1.0000000000E+20
  9
$PEXTMAX
 10
-1.0000000000E+20
 20
-1.0000000000E+20
 30
-1.0000000000E+20
  9
$PLIMMIN
 10
0.0
 20
0.0
  9
$PLIMMAX
 10
420.0
 20
297.0
  9
$UNITMODE
 70
     0
  9
$VISRETAIN
 70
     1
  9
$PLINEGEN
 70
     0
  9
$PSLTSCALE
 70
     1
  9
$TREEDEPTH
 70
  3020
  9
$CMLSTYLE
  2
Standard
  9
$CMLJUST
 70
     0
  9
$CMLSCALE
 40
20.0
  9
$PROXYGRAPHICS
 70
     1
  9
$MEASUREMENT
 70
     1
  9
$CELWEIGHT
370
    -1
  9
$ENDCAPS
280
     0
  9
$JOINSTYLE
280
     0
  9
$LWDISPLAY
290
     1
  9
$INSUNITS
 70
     4
  9
$HYPERLINKBASE
  1

  9
$STYLESHEET
  1

  9
$XEDIT
290
     1
  9
$CEPSNTYPE
380
     0
  9
$PSTYLEMODE
290
     1
  9
$FINGERPRINTGUID
  2
{836692DF-7507-42E6-BCE9-AB995A7F8952}
  9
$VERSIONGUID
  2
{FAEB1C32-E019-11D5-929B-00C0DF256EC4}
  9
$EXTNAMES
290
     1
  9
$PSVPSCALE
 40
0.0
  9
$OLESTARTUP
290
     0
  0
ENDSEC
  0
SECTION
  2
CLASSES
  0
CLASS
  1
ACDBDICTIONARYWDFLT
  2
AcDbDictionaryWithDefault
  3
ObjectDBX Classes
 90
        0
280
     0
281
     0
  0
CLASS
  1
VISUALSTYLE
  2
AcDbVisualStyle
  3
ObjectDBX Classes
 90
     4095
280
     0
281
     0
  0
CLASS
  1
MATERIAL
  2
AcDbMaterial
  3
ObjectDBX Classes
 90
     1153
280
     0
281
     0
  0
CLASS
  1
ACDBPLACEHOLDER
  2
AcDbPlaceHolder
  3
ObjectDBX Classes
 90
        0
280
     0
281
     0
  0
CLASS
  1
LAYOUT
  2
AcDbLayout
  3
ObjectDBX Classes
 90
        0
280
     0
281
     0
  0
ENDSEC
  0
SECTION
  2
TABLES
  0
TABLE
  2
VPORT
  5
8
330
0
100
AcDbSymbolTable
 70
     1
  0
VPORT
  5
29
330
8
100
AcDbSymbolTableRecord
100
AcDbViewportTableRecord
  2
*Active
 70
     0
 10
0.0
 20
0.0
 11
1.0
 21
1.0
 12
297.0
 22
210.0
 13
0.0
 23
0.0
 14
10.0
 24
10.0
 15
10.0
 25
10.0
 16
0.0
 26
0.0
 36
1.0
 17
0.0
 27
0.0
 37
0.0
 40
420.0
 41
1.4142857143
 42
50.0
 43
0.0
 44
0.0
 50
0.0
 51
0.0
 71
     0
 72
  2000
 73
     1
 74
     3
 75
     0
 76
     0
 77
     0
 78
     0
281
     0
 65
     1
110
0.0
120
0.0
130
0.0
111
1.0
121
0.0
131
0.0
112
0.0
122
1.0
132
0.0
 79
     0
146
0.0
  0
ENDTAB
  0
TABLE
  2
LTYPE
  5
5
330
0
100
AcDbSymbolTable
 70
     6
  0
LTYPE
  5
14
330
5
100
AcDbSymbolTableRecord
100
AcDbLinetypeTableRecord
  2
ByBlock
 70
     0
  3

 72
    65
 73
     0
 40
0.0
  0
LTYPE
  5
15
330
5
100
AcDbSymbolTableRecord
100
AcDbLinetypeTableRecord
  2
ByLayer
 70
     0
  3

 72
    65
 73
     0
 40
0.0
  0
LTYPE
  5
16
330
5
100
AcDbSymbolTableRecord
100
AcDbLinetypeTableRecord
  2
Continuous
 70
     0
  3
Solid line
 72
    65
 73
     0
 40
0.0
  0
LTYPE
  5
3F
330
5
100
AcDbSymbolTableRecord
100
AcDbLinetypeTableRecord
  2
HIDDEN
 70
     0
  3
Hidden __ __ __ __ __ __ __ __ __ __ __ __ __ __
 72
    65
 73
     2
 40
1.905
 49
1.27
 74
     0
 49
-0.635
 74
     0
  0
LTYPE
  5
40
330
5
100
AcDbSymbolTableRecord
100
AcDbLinetypeTableRecord
  2
PHANTOM
 70
     0
  3
Phantom ______  __  __  ______  __  __  ______
 72
    65
 73
     6
 40
12.7
 49
6.35
 74
     0
 49
-1.27
 74
     0
 49
1.27
 74
     0
 49
-1.27
 74
     0
 49
1.27
 74
     0
 49
-1.27
 74
     0
  0
LTYPE
  5
41
330
5
100
AcDbSymbolTableRecord
100
AcDbLinetypeTableRecord
  2
CENTER
 70
     0
  3
Center ____ _ ____ _ ____ _ ____ _ ____ _ ____
 72
    65
 73
     4
 40
10.16
 49
6.35
 74
     0
 49
-1.27
 74
     0
 49
1.27
 74
     0
 49
-1.27
 74
     0
  0
LTYPE
  5
42
330
5
100
AcDbSymbolTableRecord
100
AcDbLinetypeTableRecord
  2
CENTERX2
 70
     0
  3
Center (2x) ________  __  ________  __  _____
 72
    65
 73
     4
 40
20.32
 49
12.7
 74
     0
 49
-2.54
 74
     0
 49
2.54
 74
     0
 49
-2.54
 74
     0
  0
LTYPE
  5
43
330
5
100
AcDbSymbolTableRecord
100
AcDbLinetypeTableRecord
  2
DOT2
 70
     0
  3
Dot (.5x) ........................................
 72
    65
 73
     2
 40
0.635
 49
0.0
 74
     0
 49
-0.635
 74
     0
  0
ENDTAB
  0
TABLE
  2
LAYER
  5
2
330
0
100
AcDbSymbolTable
 70
     4
  0
LAYER
  5
10
330
2
100
AcDbSymbolTableRecord
100
AcDbLayerTableRecord
  2
0
 70
     0
 62
     7
  6
Continuous
370
    -3
390
F
  0
LAYER
  5
44
330
2
100
AcDbSymbolTableRecord
100
AcDbLayerTableRecord
  2
RAHMEN
 70
     0
 62
   179
  6
Continuous
370
    -3
390
F
  0
LAYER
  5
45
330
2
100
AcDbSymbolTableRecord
100
AcDbLayerTableRecord
  2
KOPF
 70
     0
 62
     7
  6
Continuous
370
    -3
390
F
  0
LAYER
  5
46
330
2
100
AcDbSymbolTableRecord
100
AcDbLayerTableRecord
  2
TEMP
 70
     0
 62
     7
  6
Continuous
370
    -3
390
F
  0
ENDTAB
  0
TABLE
  2
STYLE
  5
3
330
0
100
AcDbSymbolTable
 70
     2
  0
STYLE
  5
11
330
3
100
AcDbSymbolTableRecord
100
AcDbTextStyleTableRecord
  2
Standard
 70
     0
 40
0.0
 41
1.0
 50
0.0
 71
     0
 42
2.5
  3
txt
  4

  0
STYLE
  5
9D
330
3
100
AcDbSymbolTableRecord
100
AcDbTextStyleTableRecord
  2
SLDTEXTSTYLE0
 70
     0
 40
0.0
 41
0.605
 50
0.0
 71
     0
 42
0.2
  3
TXT
  4

  0
ENDTAB
  0
TABLE
  2
VIEW
  5
6
330
0
100
AcDbSymbolTable
 70
     0
  0
ENDTAB
  0
TABLE
  2
UCS
  5
7
330
0
100
AcDbSymbolTable
 70
     0
  0
ENDTAB
  0
TABLE
  2
APPID
  5
9
330
0
100
AcDbSymbolTable
 70
     1
  0
APPID
  5
12
330
9
100
AcDbSymbolTableRecord
100
AcDbRegAppTableRecord
  2
ACAD
 70
     0
  0
ENDTAB
  0
TABLE
  2
DIMSTYLE
  5
A
330
0
100
AcDbSymbolTable
 70
     4
100
AcDbDimStyleTable
  0
DIMSTYLE
105
27
330
A
100
AcDbSymbolTableRecord
100
AcDbDimStyleTableRecord
  2
ISO-25
 70
     0
 41
2.5
 42
0.625
 43
3.75
 44
1.25
 73
     0
 74
     0
 77
     1
 78
     8
140
2.5
141
2.5
143
0.0393700787
147
0.625
171
     3
172
     1
178
     0
271
     2
272
     2
274
     3
278
    44
283
     0
284
     8
340
11
  0
DIMSTYLE
105
9E
102
{ACAD_REACTORS
330
9C
330
130
330
170
102
}
330
A
100
AcDbSymbolTableRecord
100
AcDbDimStyleTableRecord
  2
SLDDIMSTYLE0
 70
     0
 41
3.5
 44
0.0
 45
0.000000001
 73
     0
 74
     0
 77
     1
 78
    12
 79
     3
140
3.5
147
0.875
173
     1
178
     0
271
     2
272
     2
276
     2
284
    12
340
9D
  0
DIMSTYLE
105
A9
102
{ACAD_REACTORS
330
A8
330
126
102
}
330
A
100
AcDbSymbolTableRecord
100
AcDbDimStyleTableRecord
  2
SLDDIMSTYLE1
 70
     0
 41
3.5
 44
0.0
 45
0.000000001
 73
     0
 74
     0
 77
     1
 78
    12
 79
     3
140
3.5
147
0.875
173
     1
178
     0
271
     0
272
     2
276
     2
284
    12
340
9D
  0
DIMSTYLE
105
112
102
{ACAD_REACTORS
330
111
330
11C
102
}
330
A
100
AcDbSymbolTableRecord
100
AcDbDimStyleTableRecord
  2
SLDDIMSTYLE2
 70
     0
 41
3.5
 44
0.0
 45
0.000000001
 73
     0
 74
     0
 77
     1
 78
     4
 79
     1
140
3.5
147
0.875
173
     1
178
     0
271
     2
272
     2
276
     2
284
    12
340
9D
  0
ENDTAB
  0
TABLE
  2
BLOCK_RECORD
  5
1
330
0
100
AcDbSymbolTable
 70
     8
  0
BLOCK_RECORD
  5
1F
330
1
100
AcDbSymbolTableRecord
100
AcDbBlockTableRecord
  2
*Model_Space
340
22
  0
BLOCK_RECORD
  5
1B
330
1
100
AcDbSymbolTableRecord
100
AcDbBlockTableRecord
  2
*Paper_Space
340
1E
  0
BLOCK_RECORD
  5
23
330
1
100
AcDbSymbolTableRecord
100
AcDbBlockTableRecord
  2
*Paper_Space0
340
26
  0
BLOCK_RECORD
  5
9F
330
1
100
AcDbSymbolTableRecord
100
AcDbBlockTableRecord
  2
*D1
340
0
  0
BLOCK_RECORD
  5
AA
330
1
100
AcDbSymbolTableRecord
100
AcDbBlockTableRecord
  2
*D2
340
0
  0
BLOCK_RECORD
  5
113
330
1
100
AcDbSymbolTableRecord
100
AcDbBlockTableRecord
  2
*D3
340
0
  0
BLOCK_RECORD
  5
11D
330
1
100
AcDbSymbolTableRecord
100
AcDbBlockTableRecord
  2
*D4
340
0
  0
BLOCK_RECORD
  5
127
330
1
100
AcDbSymbolTableRecord
100
AcDbBlockTableRecord
  2
*D5
340
0
  0
BLOCK_RECORD
  5
131
330
1
100
AcDbSymbolTableRecord
100
AcDbBlockTableRecord
  2
*D6
340
0
  0
BLOCK_RECORD
  5
171
330
1
100
AcDbSymbolTableRecord
100
AcDbBlockTableRecord
  2
*D7
340
0
  0
ENDTAB
  0
ENDSEC
  0
SECTION
  2
BLOCKS
  0
BLOCK
  5
20
330
1F
100
AcDbEntity
  8
0
100
AcDbBlockBegin
  2
*Model_Space
 70
     0
 10
0.0
 20
0.0
 30
0.0
  3
*Model_Space
  1

  0
ENDBLK
  5
21
330
1F
100
AcDbEntity
  8
0
100
AcDbBlockEnd
  0
BLOCK
  5
1C
330
1B
100
AcDbEntity
 67
     1
  8
0
100
AcDbBlockBegin
  2
*Paper_Space
 70
     0
 10
0.0
 20
0.0
 30
0.0
  3
*Paper_Space
  1

  0
ENDBLK
  5
1D
330
1B
100
AcDbEntity
 67
     1
  8
0
100
AcDbBlockEnd
  0
BLOCK
  5
24
330
23
100
AcDbEntity
  8
0
100
AcDbBlockBegin
  2
*Paper_Space0
 70
     0
 10
0.0
 20
0.0
 30
0.0
  3
*Paper_Space0
  1

  0
ENDBLK
  5
25
330
23
100
AcDbEntity
  8
0
100
AcDbBlockEnd
  0
BLOCK
  5
A0
330
9F
100
AcDbEntity
  8
0
100
AcDbBlockBegin
  2
*D1
 70
     1
 10
0.0
 20
0.0
 30
0.0
  3
*D1
  1

  0
SOLID
  5
A2
330
9F
100
AcDbEntity
  8
0
  6
Continuous
 62
     7
370
     0
100
AcDbTrace
 10
160.9370564592
 20
255.4633611437
 30
0.0
 11
164.4370564592
 21
254.5633611437
 31
0.0
 12
164.4370564592
 22
256.3633611437
 32
0.0
 13
164.4370564592
 23
256.3633611437
 33
0.0
  0
SOLID
  5
A3
330
9F
100
AcDbEntity
  8
0
  6
Continuous
 62
     7
370
     0
100
AcDbTrace
 10
250.9370564592
 20
255.4633611437
 30
0.0
 11
247.4370564592
 21
256.3633611437
 31
0.0
 12
247.4370564592
 22
254.5633611437
 32
0.0
 13
247.4370564592
 23
254.5633611437
 33
0.0
  0
LINE
  5
A4
330
9F
100
AcDbEntity
  8
0
  6
Continuous
 62
     7
370
     0
100
AcDbLine
 10
160.9370564592
 20
291.2616566065
 30
0.0
 11
160.9370564592
 21
254.4633611437
 31
0.0
  0
LINE
  5
A5
330
9F
100
AcDbEntity
  8
0
  6
Continuous
 62
     7
370
     0
100
AcDbLine
 10
250.9370564592
 20
291.2616566065
 30
0.0
 11
250.9370564592
 21
254.4633611437
 31
0.0
  0
LINE
  5
A6
330
9F
100
AcDbEntity
  8
0
  6
Continuous
 62
     7
370
     0
100
AcDbLine
 10
160.9370564592
 20
255.4633611437
 30
0.0
 11
250.9370564592
 21
255.4633611437
 31
0.0
  0
MTEXT
  5
A7
330
9F
100
AcDbEntity
  8
0
  6
Continuous
 62
     7
370
     0
100
AcDbMText
 10
202.8065319267
 20
259.9750984657
 30
0.0
 40
3.5
 41
0.0
 71
     1
 72
     1
  1
90
  7
SLDTEXTSTYLE0
 73
     1
 44
1.0
  0
ENDBLK
  5
A1
330
9F
100
AcDbEntity
  8
0
100
AcDbBlockEnd
  0
BLOCK
  5
AB
330
AA
100
AcDbEntity
  8
0
100
AcDbBlockBegin
  2
*D2
 70
     1
 10
0.0
 20
0.0
 30
0.0
  3
*D2
  1

  0
SOLID
  5
AD
330
AA
100
AcDbEntity
  8
0
  6
Continuous
 62
     7
370
     0
100
AcDbTrace
 10
268.6885657264
 20
369.7616566065
 30
0.0
 11
267.7885657264
 21
366.2616566065
 31
0.0
 12
269.5885657264
 22
366.2616566065
 32
0.0
 13
269.5885657264
 23
366.2616566065
 33
0.0
  0
SOLID
  5
AE
330
AA
100
AcDbEntity
  8
0
  6
Continuous
 62
     7
370
     0
100
AcDbTrace
 10
268.6885657264
 20
272.4934871206
 30
0.0
 11
269.5885657264
 21
275.9934871206
 31
0.0
 12
267.7885657264
 22
275.9934871206
 32
0.0
 13
267.7885657264
 23
275.9934871206
 33
0.0
  0
LINE
  5
AF
330
AA
100
AcDbEntity
  8
0
  6
Continuous
 62
     7
370
     0
100
AcDbLine
 10
206.9370564592
 20
369.7616566065
 30
0.0
 11
269.6885657264
 21
369.7616566065
 31
0.0
  0
LINE
  5
B0
330
AA
100
AcDbEntity
  8
0
  6
Continuous
 62
     7
370
     0
100
AcDbLine
 10
206.4220564592
 20
272.4934871206
 30
0.0
 11
269.6885657264
 21
272.4934871206
 31
0.0
  0
LINE
  5
B1
330
AA
100
AcDbEntity
  8
0
  6
Continuous
 62
     7
370
     0
100
AcDbLine
 10
268.6885657264
 20
369.7616566065
 30
0.0
 11
268.6885657264
 21
272.4934871206
 31
0.0
  0
MTEXT
  5
B2
330
AA
100
AcDbEntity
  8
0
  6
Continuous
 62
     7
370
     0
100
AcDbMText
 10
264.1768284044
 20
314.1748659363
 30
0.0
 40
3.5
 41
0.0
 71
     1
 72
     1
  1
97
  7
SLDTEXTSTYLE0
 11
-7.044195017643634E-15
 21
1.0
 31
0.0
 73
     1
 44
1.0
  0
ENDBLK
  5
AC
330
AA
100
AcDbEntity
  8
0
100
AcDbBlockEnd
  0
BLOCK
  5
114
330
113
100
AcDbEntity
  8
0
100
AcDbBlockBegin
  2
*D3
 70
     1
 10
0.0
 20
0.0
 30
0.0
  3
*D3
  1

  0
SOLID
  5
116
330
113
100
AcDbEntity
  8
0
  6
Continuous
 62
     7
370
     0
100
AcDbTrace
 10
330.5352569623
 20
255.6044001222
 30
0.0
 11
334.0352569623
 21
254.7044001222
 31
0.0
 12
334.0352569623
 22
256.5044001222
 32
0.0
 13
334.0352569623
 23
256.5044001222
 33
0.0
  0
SOLID
  5
117
330
113
100
AcDbEntity
  8
0
  6
Continuous
 62
     7
370
     0
100
AcDbTrace
 10
442.9352569623
 20
255.6044001222
 30
0.0
 11
439.4352569623
 21
256.5044001222
 31
0.0
 12
439.4352569623
 22
254.7044001222
 32
0.0
 13
439.4352569623
 23
254.7044001222
 33
0.0
  0
LINE
  5
118
330
113
100
AcDbEntity
  8
0
  6
Continuous
 62
     7
370
     0
100
AcDbLine
 10
330.5352569623
 20
277.2616566065
 30
0.0
 11
330.5352569623
 21
254.6044001222
 31
0.0
  0
LINE
  5
119
330
113
100
AcDbEntity
  8
0
  6
Continuous
 62
     7
370
     0
100
AcDbLine
 10
442.9352569623
 20
274.2616566065
 30
0.0
 11
442.9352569623
 21
254.6044001222
 31
0.0
  0
LINE
  5
11A
330
113
100
AcDbEntity
  8
0
  6
Continuous
 62
     7
370
     0
100
AcDbLine
 10
330.5352569623
 20
255.6044001222
 30
0.0
 11
442.9352569623
 21
255.6044001222
 31
0.0
  0
MTEXT
  5
11B
330
113
100
AcDbEntity
  8
0
  6
Continuous
 62
     7
370
     0
100
AcDbMText
 10
380.035911299
 20
260.1161374442
 30
0.0
 40
3.5
 41
0.0
 71
     1
 72
     1
  1
112.40
  7
SLDTEXTSTYLE0
 73
     1
 44
1.0
  0
ENDBLK
  5
115
330
113
100
AcDbEntity
  8
0
100
AcDbBlockEnd
  0
BLOCK
  5
11E
330
11D
100
AcDbEntity
  8
0
100
AcDbBlockBegin
  2
*D4
 70
     1
 10
0.0
 20
0.0
 30
0.0
  3
*D4
  1

  0
SOLID
  5
120
330
11D
100
AcDbEntity
  8
0
  6
Continuous
 62
     7
370
     0
100
AcDbTrace
 10
330.5352569623
 20
351.9900552091
 30
0.0
 11
334.0352569623
 21
351.0900552091
 31
0.0
 12
334.0352569623
 22
352.8900552091
 32
0.0
 13
334.0352569623
 23
352.8900552091
 33
0.0
  0
SOLID
  5
121
330
11D
100
AcDbEntity
  8
0
  6
Continuous
 62
     7
370
     0
100
AcDbTrace
 10
412.9352569623
 20
351.9900552091
 30
0.0
 11
409.4352569623
 21
352.8900552091
 31
0.0
 12
409.4352569623
 22
351.0900552091
 32
0.0
 13
409.4352569623
 23
351.0900552091
 33
0.0
  0
LINE
  5
122
330
11D
100
AcDbEntity
  8
0
  6
Continuous
 62
     7
370
     0
100
AcDbLine
 10
330.5352569623
 20
307.5116566065
 30
0.0
 11
330.5352569623
 21
352.9900552091
 31
0.0
  0
LINE
  5
123
330
11D
100
AcDbEntity
  8
0
  6
Continuous
 62
     7
370
     0
100
AcDbLine
 10
412.9352569623
 20
368.7616566065
 30
0.0
 11
412.9352569623
 21
350.9900552091
 31
0.0
  0
LINE
  5
124
330
11D
100
AcDbEntity
  8
0
  6
Continuous
 62
     7
370
     0
100
AcDbLine
 10
330.5352569623
 20
351.9900552091
 30
0.0
 11
412.9352569623
 21
351.9900552091
 31
0.0
  0
MTEXT
  5
125
330
11D
100
AcDbEntity
  8
0
  6
Continuous
 62
     7
370
     0
100
AcDbMText
 10
373.351527428
 20
356.5017925311
 30
0.0
 40
3.5
 41
0.0
 71
     1
 72
     1
  1
82.40
  7
SLDTEXTSTYLE0
 73
     1
 44
1.0
  0
ENDBLK
  5
11F
330
11D
100
AcDbEntity
  8
0
100
AcDbBlockEnd
  0
BLOCK
  5
128
330
127
100
AcDbEntity
  8
0
100
AcDbBlockBegin
  2
*D5
 70
     1
 10
0.0
 20
0.0
 30
0.0
  3
*D5
  1

  0
SOLID
  5
12A
330
127
100
AcDbEntity
  8
0
  6
Continuous
 62
     7
370
     0
100
AcDbTrace
 10
342.1352569623
 20
329.9875419168
 30
0.0
 11
345.6352569623
 21
329.0875419168
 31
0.0
 12
345.6352569623
 22
330.8875419168
 32
0.0
 13
345.6352569623
 23
330.8875419168
 33
0.0
  0
SOLID
  5
12B
330
127
100
AcDbEntity
  8
0
  6
Continuous
 62
     7
370
     0
100
AcDbTrace
 10
412.9352569623
 20
329.9875419168
 30
0.0
 11
409.4352569623
 21
330.8875419168
 31
0.0
 12
409.4352569623
 22
329.0875419168
 32
0.0
 13
409.4352569623
 23
329.0875419168
 33
0.0
  0
LINE
  5
12C
330
127
100
AcDbEntity
  8
0
  6
Continuous
 62
     7
370
     0
100
AcDbLine
 10
342.1352569623
 20
293.2616566065
 30
0.0
 11
342.1352569623
 21
330.9875419168
 31
0.0
  0
LINE
  5
12D
330
127
100
AcDbEntity
  8
0
  6
Continuous
 62
     7
370
     0
100
AcDbLine
 10
412.9352569623
 20
368.7616566065
 30
0.0
 11
412.9352569623
 21
328.9875419168
 31
0.0
  0
LINE
  5
12E
330
127
100
AcDbEntity
  8
0
  6
Continuous
 62
     7
370
     0
100
AcDbLine
 10
342.1352569623
 20
329.9875419168
 30
0.0
 11
412.9352569623
 21
329.9875419168
 31
0.0
  0
MTEXT
  5
12F
330
127
100
AcDbEntity
  8
0
  6
Continuous
 62
     7
370
     0
100
AcDbMText
 10
376.5007541248
 20
334.4992792388
 30
0.0
 40
3.5
 41
0.0
 71
     1
 72
     1
  1
71
  7
SLDTEXTSTYLE0
 73
     1
 44
1.0
  0
ENDBLK
  5
129
330
127
100
AcDbEntity
  8
0
100
AcDbBlockEnd
  0
BLOCK
  5
132
330
131
100
AcDbEntity
  8
0
100
AcDbBlockBegin
  2
*D6
 70
     1
 10
0.0
 20
0.0
 30
0.0
  3
*D6
  1

  0
SOLID
  5
134
330
131
100
AcDbEntity
  8
0
  6
Continuous
 62
     7
370
     0
100
AcDbTrace
 10
437.2162417739
 20
277.2616566065
 30
0.0
 11
438.1162417739
 21
280.7616566065
 31
0.0
 12
436.3162417739
 22
280.7616566065
 32
0.0
 13
436.3162417739
 23
280.7616566065
 33
0.0
  0
SOLID
  5
135
330
131
100
AcDbEntity
  8
0
  6
Continuous
 62
     7
370
     0
100
AcDbTrace
 10
437.2162417739
 20
367.2616566065
 30
0.0
 11
436.3162417739
 21
363.7616566065
 31
0.0
 12
438.1162417739
 22
363.7616566065
 32
0.0
 13
438.1162417739
 23
363.7616566065
 33
0.0
  0
LINE
  5
136
330
131
100
AcDbEntity
  8
0
  6
Continuous
 62
     7
370
     0
100
AcDbLine
 10
428.9352569623
 20
277.2616566065
 30
0.0
 11
438.2162417739
 21
277.2616566065
 31
0.0
  0
LINE
  5
137
330
131
100
AcDbEntity
  8
0
  6
Continuous
 62
     7
370
     0
100
AcDbLine
 10
428.9352569623
 20
367.2616566065
 30
0.0
 11
438.2162417739
 21
367.2616566065
 31
0.0
  0
LINE
  5
138
330
131
100
AcDbEntity
  8
0
  6
Continuous
 62
     7
370
     0
100
AcDbLine
 10
437.2162417739
 20
277.2616566065
 30
0.0
 11
437.2162417739
 21
367.2616566065
 31
0.0
  0
MTEXT
  5
139
330
131
100
AcDbEntity
  8
0
  6
Continuous
 62
     7
370
     0
100
AcDbMText
 10
432.7045044518
 20
320.964212895
 30
0.0
 40
3.5
 41
0.0
 71
     1
 72
     1
  1
90
  7
SLDTEXTSTYLE0
 11
-1.608122649676637E-16
 21
1.0
 31
0.0
 73
     1
 44
1.0
  0
ENDBLK
  5
133
330
131
100
AcDbEntity
  8
0
100
AcDbBlockEnd
  0
BLOCK
  5
172
330
171
100
AcDbEntity
  8
0
100
AcDbBlockBegin
  2
*D7
 70
     1
 10
0.0
 20
0.0
 30
0.0
  3
*D7
  1

  0
SOLID
  5
174
330
171
100
AcDbEntity
  8
0
  6
Continuous
 62
     7
370
     0
100
AcDbTrace
 10
237.8753756828
 20
128.5509379728
 30
0.0
 11
236.9753756828
 21
125.0509379728
 31
0.0
 12
238.7753756828
 22
125.0509379728
 32
0.0
 13
238.7753756828
 23
125.0509379728
 33
0.0
  0
SOLID
  5
175
330
171
100
AcDbEntity
  8
0
  6
Continuous
 62
     7
370
     0
100
AcDbTrace
 10
237.8753756828
 20
98.5509379728
 30
0.0
 11
238.7753756828
 21
102.0509379728
 31
0.0
 12
236.9753756828
 22
102.0509379728
 32
0.0
 13
236.9753756828
 23
102.0509379728
 33
0.0
  0
LINE
  5
176
330
171
100
AcDbEntity
  8
0
  6
Continuous
 62
     7
370
     0
100
AcDbLine
 10
206.9370564592
 20
128.5509379728
 30
0.0
 11
238.8753756828
 21
128.5509379728
 31
0.0
  0
LINE
  5
177
330
171
100
AcDbEntity
  8
0
  6
Continuous
 62
     7
370
     0
100
AcDbLine
 10
206.9370564592
 20
98.5509379728
 30
0.0
 11
238.8753756828
 21
98.5509379728
 31
0.0
  0
LINE
  5
178
330
171
100
AcDbEntity
  8
0
  6
Continuous
 62
     7
370
     0
100
AcDbLine
 10
237.8753756828
 20
128.5509379728
 30
0.0
 11
237.8753756828
 21
98.5509379728
 31
0.0
  0
MTEXT
  5
179
330
171
100
AcDbEntity
  8
0
  6
Continuous
 62
     7
370
     0
100
AcDbMText
 10
233.3636385936
 20
109.2849466392
 30
0.0
 40
3.5
 41
0.0
 71
     1
 72
     1
  1
%%c
  7
SLDTEXTSTYLE0
 11
-7.044195017643634E-15
 21
1.0
 31
0.0
 73
     1
 44
1.0
  0
MTEXT
  5
17A
330
171
100
AcDbEntity
  8
0
  6
Continuous
 62
     7
370
     0
100
AcDbMText
 10
233.3636383608
 20
114.3843430889
 30
0.0
 40
3.5
 41
0.0
 71
     1
 72
     1
  1
30
  7
SLDTEXTSTYLE0
 11
-7.044195017643634E-15
 21
1.0
 31
0.0
 73
     1
 44
1.0
  0
ENDBLK
  5
173
330
171
100
AcDbEntity
  8
0
100
AcDbBlockEnd
  0
ENDSEC
  0
SECTION
  2
ENTITIES
  0
ARC
  5
47
330
1F
100
AcDbEntity
  8
0
  6
Continuous
 62
     7
370
    30
100
AcDbCircle
 10
209.5770564592
 20
273.7169624805
 30
0.0
 40
0.3600000000000136
100
AcDbArc
 50
306.3583676093
 51
0.0
  0
ARC
  5
48
330
1F
100
AcDbEntity
  8
0
  6
Continuous
 62
     7
370
    30
100
AcDbCircle
 10
202.2970564592
 20
273.7169624805
 30
0.0
 40
0.3599999999999872
100
AcDbArc
 50
180.0
 51
233.6416323907
  0
LINE
  5
49
330
1F
100
AcDbEntity
  8
0
  6
Continuous
 62
     7
370
    30
100
AcDbLine
 10
209.9370566492
 20
273.7169624138
 30
0.0
 11
209.9370566492
 21
275.2616568301
 31
0.0
  0
LINE
  5
4A
330
1F
100
AcDbEntity
  8
0
  6
Continuous
 62
     7
370
    30
100
AcDbLine
 10
201.9370562692
 20
275.2616568301
 30
0.0
 11
201.9370562692
 21
273.7169624138
 31
0.0
  0
ARC
  5
4B
330
1F
100
AcDbEntity
  8
0
  6
Continuous
 62
     7
370
    30
100
AcDbCircle
 10
205.9370564592
 20
278.6616566065
 30
0.0
 40
6.499999999999998
100
AcDbArc
 50
233.6416323907
 51
252.1374195081
  0
ARC
  5
4C
330
1F
100
AcDbEntity
  8
0
  6
Continuous
 62
     7
370
    30
100
AcDbCircle
 10
205.9370564592
 20
278.6616566065
 30
0.0
 40
6.500000000000015
100
AcDbArc
 50
287.8625804919
 51
306.3583676093
  0
LINE
  5
4D
330
1F
100
AcDbEntity
  8
0
  6
Continuous
 62
     7
370
    30
100
AcDbLine
 10
220.9370561239
 20
277.2616562266
 30
0.0
 11
220.9370561239
 21
367.2616588715
 31
0.0
  0
LINE
  5
4E
330
1F
100
AcDbEntity
  8
0
  6
Continuous
 62
     7
370
    30
100
AcDbLine
 10
190.9370567945
 20
367.2616588715
 30
0.0
 11
190.9370567945
 21
277.2616562266
 31
0.0
  0
LINE
  5
4F
330
1F
100
AcDbEntity
  8
0
  6
Continuous
 62
     7
370
    30
100
AcDbLine
 10
190.9370567945
 20
367.5116556529
 30
0.0
 11
191.1870563698
 21
367.2616588715
 31
0.0
  0
LINE
  5
50
330
1F
100
AcDbEntity
  8
0
  6
Continuous
 62
     7
370
    30
100
AcDbLine
 10
220.6870565486
 20
367.2616588715
 30
0.0
 11
220.9370561239
 21
367.5116556529
 31
0.0
  0
ARC
  5
51
330
1F
100
AcDbEntity
  8
0
  6
Continuous
 62
     7
370
    30
100
AcDbCircle
 10
208.3591228261
 20
269.7909929371
 30
0.0
 40
100.0
100
AcDbArc
 50
91.3878775254
 51
100.0333087496
  0
ARC
  5
52
330
1F
100
AcDbEntity
  8
0
  6
Continuous
 62
     7
370
    30
100
AcDbCircle
 10
203.5149900922
 20
269.7909929371
 30
0.0
 40
100.0
100
AcDbArc
 50
79.9666912504
 51
88.6121224746
  0
LINE
  5
53
330
1F
100
AcDbEntity
  8
0
  6
Continuous
 62
     7
370
    30
100
AcDbLine
 10
220.9370561239
 20
367.5116556529
 30
0.0
 11
220.9370561239
 21
368.2616534475
 31
0.0
  0
LINE
  5
54
330
1F
100
AcDbEntity
  8
0
  6
Continuous
 62
     7
370
    30
100
AcDbLine
 10
190.9370567945
 20
368.2616534475
 30
0.0
 11
190.9370567945
 21
367.5116556529
 31
0.0
  0
LWPOLYLINE
  5
55
330
1F
100
AcDbEntity
  8
0
  6
Continuous
 62
     7
370
    30
100
AcDbPolyline
 90
        5
 70
   128
 43
0.0
 10
207.9216119663
 20
272.4934867415
 10
207.9256455243
 20
272.4853972736
 10
207.9285279677
 20
272.4796156231
 10
207.9302576666
 20
272.4761464465
 10
207.9308343881
 20
272.4749897439
  0
ARC
  5
56
330
1F
100
AcDbEntity
  8
0
  6
Continuous
 62
     7
370
    30
100
AcDbCircle
 10
205.9370564592
 20
278.6616566065
 30
0.0
 40
6.479565957685795
100
AcDbArc
 50
277.6967647031
 51
287.8351321796
  0
LINE
  5
57
330
1F
100
AcDbEntity
  8
0
  6
Continuous
 62
     7
370
    30
100
AcDbLine
 10
206.8048662103
 20
272.2404668871
 30
0.0
 11
206.4520564807
 21
272.2404668871
 31
0.0
  0
LINE
  5
58
330
1F
100
AcDbEntity
  8
0
  6
Continuous
 62
     7
370
    30
100
AcDbLine
 10
206.4520564807
 20
272.2404668871
 30
0.0
 11
206.4520564807
 21
272.4934867415
 31
0.0
  0
ARC
  5
59
330
1F
100
AcDbEntity
  8
0
  6
Continuous
 62
     7
370
    30
100
AcDbCircle
 10
205.9370564592
 20
279.6531825255
 30
0.0
 40
7.178193974890617
100
AcDbArc
 50
265.8857756258
 51
274.1142243742
  0
LINE
  5
5A
330
1F
100
AcDbEntity
  8
0
  6
Continuous
 62
     7
370
    30
100
AcDbLine
 10
205.4220564376
 20
272.4934867415
 30
0.0
 11
205.4220564376
 21
272.2404668871
 31
0.0
  0
LINE
  5
5B
330
1F
100
AcDbEntity
  8
0
  6
Continuous
 62
     7
370
    30
100
AcDbLine
 10
205.4220564376
 20
272.2404668871
 30
0.0
 11
205.0692467081
 21
272.2404668871
 31
0.0
  0
ARC
  5
5C
330
1F
100
AcDbEntity
  8
0
  6
Continuous
 62
     7
370
    30
100
AcDbCircle
 10
205.9370564592
 20
278.6616566065
 30
0.0
 40
6.479565957685804
100
AcDbArc
 50
252.1648678204
 51
262.3032352969
  0
LWPOLYLINE
  5
5D
330
1F
100
AcDbEntity
  8
0
  6
Continuous
 62
     7
370
    30
100
AcDbPolyline
 90
        5
 70
   128
 43
0.0
 10
203.9432785303
 20
272.4749897439
 10
203.9438552518
 20
272.4761464465
 10
203.9455849507
 20
272.4796156231
 10
203.948467394
 20
272.4853972736
 10
203.9525009521
 20
272.4934867415
  0
LINE
  5
5E
330
1F
100
AcDbEntity
  8
0
  6
Continuous
 62
     7
370
    30
100
AcDbLine
 10
190.9370567945
 20
367.2616588715
 30
0.0
 11
220.9370561239
 21
367.2616588715
 31
0.0
  0
LINE
  5
5F
330
1F
100
AcDbEntity
  8
0
  6
Continuous
 62
     7
370
    30
100
AcDbLine
 10
220.9370561239
 20
367.5116556529
 30
0.0
 11
190.9370567945
 21
367.5116556529
 31
0.0
  0
LINE
  5
60
330
1F
100
AcDbEntity
  8
0
  6
Continuous
 62
     7
370
    30
100
AcDbLine
 10
220.9370561239
 20
368.2616534475
 30
0.0
 11
190.9370567945
 21
368.2616534475
 31
0.0
  0
LINE
  5
61
330
1F
100
AcDbEntity
  8
0
  6
Continuous
 62
     7
370
    30
100
AcDbLine
 10
223.9370556843
 20
275.2616568301
 30
0.0
 11
205.9370564592
 21
275.2616568301
 31
0.0
  0
LINE
  5
62
330
1F
100
AcDbEntity
  8
0
  6
Continuous
 62
     7
370
    30
100
AcDbLine
 10
205.9370564592
 20
277.2616562266
 30
0.0
 11
223.9370556843
 21
277.2616562266
 31
0.0
  0
LINE
  5
63
330
1F
100
AcDbEntity
  8
0
  6
Continuous
 62
     7
370
    30
100
AcDbLine
 10
223.9370556843
 20
277.2616562266
 30
0.0
 11
223.9370556843
 21
275.2616568301
 31
0.0
  0
LINE
  5
64
330
1F
100
AcDbEntity
  8
0
  6
Continuous
 62
     7
370
    30
100
AcDbLine
 10
205.9370564592
 20
275.2616568301
 30
0.0
 11
187.9370572341
 21
275.2616568301
 31
0.0
  0
LINE
  5
65
330
1F
100
AcDbEntity
  8
0
  6
Continuous
 62
     7
370
    30
100
AcDbLine
 10
187.9370572341
 20
275.2616568301
 30
0.0
 11
187.9370572341
 21
277.2616562266
 31
0.0
  0
LINE
  5
66
330
1F
100
AcDbEntity
  8
0
  6
Continuous
 62
     7
370
    30
100
AcDbLine
 10
187.9370572341
 20
277.2616562266
 30
0.0
 11
205.9370564592
 21
277.2616562266
 31
0.0
  0
LINE
  5
67
330
1F
100
AcDbEntity
  8
0
  6
Continuous
 62
     7
370
    30
100
AcDbLine
 10
223.9370556843
 20
278.2616563905
 30
0.0
 11
223.9370556843
 21
277.2616562266
 31
0.0
  0
LINE
  5
68
330
1F
100
AcDbEntity
  8
0
  6
Continuous
 62
     7
370
    30
100
AcDbLine
 10
187.9370572341
 20
278.2616563905
 30
0.0
 11
187.9370572341
 21
277.2616562266
 31
0.0
  0
LINE
  5
69
330
1F
100
AcDbEntity
  8
0
  6
Continuous
 62
     7
370
    30
100
AcDbLine
 10
162.2184651268
 20
278.2616563905
 30
0.0
 11
187.8855718595
 21
278.2616563905
 31
0.0
  0
LINE
  5
6A
330
1F
100
AcDbEntity
  8
0
  6
Continuous
 62
     7
370
    30
100
AcDbLine
 10
223.9873936695
 20
278.2616563905
 30
0.0
 11
249.6556477916
 21
278.2616563905
 31
0.0
  0
LINE
  5
6B
330
1F
100
AcDbEntity
  8
0
  6
Continuous
 62
     7
370
    30
100
AcDbLine
 10
162.4370577109
 20
308.2616566512
 30
0.0
 11
190.9370567945
 21
308.2616566512
 31
0.0
  0
LINE
  5
6C
330
1F
100
AcDbEntity
  8
0
  6
Continuous
 62
     7
370
    30
100
AcDbLine
 10
220.9370561239
 20
308.2616566512
 30
0.0
 11
249.4370552075
 21
308.2616566512
 31
0.0
  0
SPLINE
  5
6D
330
1F
100
AcDbEntity
  8
0
  6
Continuous
 62
     7
370
    30
100
AcDbSpline
210
0.0
220
0.0
230
1.0
 70
    24
 71
     3
 72
    13
 73
     9
 74
     0
 42
0.00000001
 43
0.00000001
 40
0.0
 40
0.0
 40
0.0
 40
0.0
 40
0.1653024740531034
 40
0.3306774320172682
 40
0.4959799593435014
 40
0.6639611751043577
 40
0.8320185842193627
 40
0.9999999999999999
 40
0.9999999999999999
 40
0.9999999999999999
 40
0.9999999999999999
 10
160.9370546710537
 20
292.2616568226094
 30
0.0
 10
160.9370546710537
 20
293.0692162424012
 30
0.0
 10
160.9370546710537
 20
294.6846891908115
 30
0.0
 10
160.9370546710537
 20
297.1034400459189
 30
0.0
 10
160.9370546710537
 20
299.526879660776
 30
0.0
 10
160.9370546710537
 20
301.9498733850566
 30
0.0
 10
160.9370546710537
 20
304.3702016574579
 30
0.0
 10
160.9370546710537
 20
305.9646256336936
 30
0.0
 10
160.9370546710537
 20
306.7616573366995
 30
0.0
  0
SPLINE
  5
6E
330
1F
100
AcDbEntity
  8
0
  6
Continuous
 62
     7
370
    30
100
AcDbSpline
210
0.0
220
0.0
230
1.0
 70
    24
 71
     3
 72
    13
 73
     9
 74
     0
 42
0.00000001
 43
0.00000001
 40
0.0
 40
0.0
 40
0.0
 40
0.0
 40
0.1653031867217034
 40
0.3306787272061598
 40
0.4959818007109552
 40
0.663962512410699
 40
0.8320193137525153
 40
1.0
 40
1.0
 40
1.0
 40
1.0
 10
250.9370582473324
 20
306.7616573366995
 30
0.0
 10
250.9370582473324
 20
305.9773750934679
 30
0.0
 10
250.9370582473324
 20
304.4084673240196
 30
0.0
 10
250.9370582473324
 20
302.0272493858229
 30
0.0
 10
250.9370582473324
 20
299.6178436498838
 30
0.0
 10
250.9370582473324
 20
297.1817794303462
 30
0.0
 10
250.9370582473324
 20
294.7239648638204
 30
0.0
 10
250.9370582473324
 20
293.0823022199107
 30
0.0
 10
250.9370582473324
 20
292.2616568226094
 30
0.0
  0
LINE
  5
6F
330
1F
100
AcDbEntity
  8
0
  6
Continuous
 62
     7
370
    30
100
AcDbLine
 10
160.9370546711
 20
278.2616563905
 30
0.0
 11
160.9370546711
 21
292.2616568226
 31
0.0
  0
LINE
  5
70
330
1F
100
AcDbEntity
  8
0
  6
Continuous
 62
     7
370
    30
100
AcDbLine
 10
162.2184651268
 20
278.2616563905
 30
0.0
 11
160.9370546711
 21
278.2616563905
 31
0.0
  0
LINE
  5
71
330
1F
100
AcDbEntity
  8
0
  6
Continuous
 62
     7
370
    30
100
AcDbLine
 10
250.9370582473
 20
292.2616568226
 30
0.0
 11
250.9370582473
 21
278.2616563905
 31
0.0
  0
LINE
  5
72
330
1F
100
AcDbEntity
  8
0
  6
Continuous
 62
     7
370
    30
100
AcDbLine
 10
250.9370582473
 20
278.2616563905
 30
0.0
 11
249.6556477916
 21
278.2616563905
 31
0.0
  0
ARC
  5
73
330
1F
100
AcDbEntity
  8
0
  6
Continuous
 62
     7
370
    30
100
AcDbCircle
 10
249.4370564592
 20
306.7616566065
 30
0.0
 40
1.5
100
AcDbArc
 50
0.0
 51
90.0
  0
ARC
  5
74
330
1F
100
AcDbEntity
  8
0
  6
Continuous
 62
     7
370
    30
100
AcDbCircle
 10
162.4370564592
 20
306.7616566065
 30
0.0
 40
1.5
100
AcDbArc
 50
90.0
 51
180.0
  0
SPLINE
  5
75
330
1F
100
AcDbEntity
  8
0
  6
Continuous
 62
     7
370
    30
100
AcDbSpline
210
0.0
220
0.0
230
1.0
 70
     8
 71
     3
 72
    10
 73
     6
 74
     0
 42
0.00000001
 43
0.00000001
 40
0.0
 40
0.0
 40
0.0
 40
0.0
 40
0.5
 40
0.5
 40
1.0
 40
1.0
 40
1.0
 40
1.0
 10
223.8938626765021
 20
278.2616566065426
 30
0.0
 10
223.846640862217
 20
278.2616566065426
 30
0.0
 10
223.7723155712222
 20
278.300431653451
 30
0.0
 10
223.6115049656523
 20
278.4109626191559
 30
0.0
 10
223.5239465724312
 20
278.4836220392139
 30
0.0
 10
223.4370564591931
 20
278.5646869095729
 30
0.0
  0
LINE
  5
76
330
1F
100
AcDbEntity
  8
0
  6
Continuous
 62
     7
370
    30
100
AcDbLine
 10
223.9370556843
 20
291.7616567407
 30
0.0
 11
223.9370556843
 21
278.2616563905
 31
0.0
  0
SPLINE
  5
77
330
1F
100
AcDbEntity
  8
0
  6
Continuous
 62
     7
370
    30
100
AcDbSpline
210
0.0
220
0.0
230
1.0
 70
    24
 71
     3
 72
     8
 73
     4
 74
     0
 42
0.00000001
 43
0.00000001
 40
0.0
 40
0.0
 40
0.0
 40
0.0
 40
1.0
 40
1.0
 40
1.0
 40
1.0
 10
223.9370564591931
 20
278.2616566065426
 30
0.0
 10
223.9370564591931
 20
278.2616566065426
 30
0.0
 10
223.922918549678
 20
278.2616566065426
 30
0.0
 10
223.8938626765021
 20
278.2616566065426
 30
0.0
  0
SPLINE
  5
78
330
1F
100
AcDbEntity
  8
0
  6
Continuous
 62
     7
370
    30
100
AcDbSpline
210
0.0
220
0.0
230
1.0
 70
    24
 71
     3
 72
     8
 73
     4
 74
     0
 42
0.00000001
 43
0.00000001
 40
0.0
 40
0.0
 40
0.0
 40
0.0
 40
1.0
 40
1.0
 40
1.0
 40
1.0
 10
187.9802502418841
 20
278.2616566065426
 30
0.0
 10
187.9511943687082
 20
278.2616566065426
 30
0.0
 10
187.9370564591931
 20
278.2616566065426
 30
0.0
 10
187.9370564591931
 20
278.2616566065426
 30
0.0
  0
LINE
  5
79
330
1F
100
AcDbEntity
  8
0
  6
Continuous
 62
     7
370
    30
100
AcDbLine
 10
187.9370572341
 20
278.2616563905
 30
0.0
 11
187.9370572341
 21
291.7616567407
 31
0.0
  0
SPLINE
  5
7A
330
1F
100
AcDbEntity
  8
0
  6
Continuous
 62
     7
370
    30
100
AcDbSpline
210
0.0
220
0.0
230
1.0
 70
     8
 71
     3
 72
    10
 73
     6
 74
     0
 42
0.00000001
 43
0.00000001
 40
0.0
 40
0.0
 40
0.0
 40
0.0
 40
0.5
 40
0.5
 40
1.0
 40
1.0
 40
1.0
 40
1.0
 10
187.9802502418841
 20
278.2616566065426
 30
0.0
 10
188.0274720561692
 20
278.2616566065426
 30
0.0
 10
188.101797347164
 20
278.300431653451
 30
0.0
 10
188.2626079527338
 20
278.4109626191559
 30
0.0
 10
188.3501663459549
 20
278.4836220392139
 30
0.0
 10
188.4370564591931
 20
278.5646869095729
 30
0.0
  0
LINE
  5
7B
330
1F
100
AcDbEntity
  8
0
  6
Continuous
 62
     7
370
    30
100
AcDbLine
 10
223.893862806
 20
278.2616563905
 30
0.0
 11
220.9370561239
 21
278.2616563905
 31
0.0
  0
LINE
  5
7C
330
1F
100
AcDbEntity
  8
0
  6
Continuous
 62
     7
370
    30
100
AcDbLine
 10
190.9370567945
 20
278.2616563905
 30
0.0
 11
187.9802501124
 21
278.2616563905
 31
0.0
  0
ARC
  5
7D
330
1F
100
AcDbEntity
  8
0
  6
Continuous
 62
     7
370
    30
100
AcDbCircle
 10
223.4370564592
 20
291.7616566065
 30
0.0
 40
0.5000000000000568
100
AcDbArc
 50
0.0
 51
90.0
  0
ARC
  5
7E
330
1F
100
AcDbEntity
  8
0
  6
Continuous
 62
     7
370
    30
100
AcDbCircle
 10
188.4370564592
 20
291.7616566065
 30
0.0
 40
0.5000000000000568
100
AcDbArc
 50
90.0
 51
180.0
  0
LINE
  5
7F
330
1F
100
AcDbEntity
  8
0
  6
Continuous
 62
     7
370
    30
100
AcDbLine
 10
188.4370563847
 20
292.2616568226
 30
0.0
 11
190.9370567945
 21
292.2616568226
 31
0.0
  0
LINE
  5
80
330
1F
100
AcDbEntity
  8
0
  6
Continuous
 62
     7
370
    30
100
AcDbLine
 10
220.9370561239
 20
292.2616568226
 30
0.0
 11
223.4370565337
 21
292.2616568226
 31
0.0
  0
LINE
  5
81
330
1F
100
AcDbEntity
  8
0
  6
Continuous
 62
     8
370
     0
100
AcDbLine
 10
209.7904767205
 20
273.4270454216
 30
0.0
 11
202.0836361979
 21
273.4270454216
 31
0.0
  0
LINE
  5
82
330
1F
100
AcDbEntity
  8
0
  6
Continuous
 62
     8
370
     0
100
AcDbLine
 10
209.9370566492
 20
273.7169624138
 30
0.0
 11
201.9370562692
 21
273.7169624138
 31
0.0
  0
LINE
  5
83
330
1F
100
AcDbEntity
  8
0
  6
Continuous
 62
     8
370
     0
100
AcDbLine
 10
205.9370564592
 20
275.2616568301
 30
0.0
 11
205.9370564592
 21
277.2616562266
 31
0.0
  0
SPLINE
  5
84
330
1F
100
AcDbEntity
  8
0
  6
Continuous
 62
     8
370
     0
100
AcDbSpline
210
0.0
220
0.0
230
1.0
 70
     8
 71
     3
 72
    12
 73
     8
 74
     0
 42
0.00000001
 43
0.00000001
 40
0.0
 40
0.0
 40
0.0
 40
0.0
 40
0.1996633195374674
 40
0.3987197193740876
 40
0.5977761348463538
 40
0.7988880282618602
 40
1.0
 40
1.0
 40
1.0
 40
1.0
 10
249.6556477916287
 20
292.2616568226094
 30
0.0
 10
249.6556052205478
 20
293.2620731703836
 30
0.0
 10
249.6555202077901
 20
295.2598648847846
 30
0.0
 10
249.6548422375812
 20
298.2475617099384
 30
0.0
 10
249.6537418459187
 20
301.2265553999889
 30
0.0
 10
249.6522216681976
 20
304.1955025513079
 30
0.0
 10
249.6508276472874
 20
306.154134471113
 30
0.0
 10
249.6501306366966
 20
307.1334506217117
 30
0.0
  0
LINE
  5
85
330
1F
100
AcDbEntity
  8
0
  6
Continuous
 62
     8
370
     0
100
AcDbLine
 10
249.6556477916
 20
292.2616568226
 30
0.0
 11
223.4370565337
 21
292.2616568226
 31
0.0
  0
LINE
  5
86
330
1F
100
AcDbEntity
  8
0
  6
Continuous
 62
     8
370
     0
100
AcDbLine
 10
188.4370563847
 20
292.2616568226
 30
0.0
 11
162.2184651268
 21
292.2616568226
 31
0.0
  0
SPLINE
  5
87
330
1F
100
AcDbEntity
  8
0
  6
Continuous
 62
     8
370
     0
100
AcDbSpline
210
0.0
220
0.0
230
1.0
 70
     8
 71
     3
 72
    12
 73
     8
 74
     0
 42
0.00000001
 43
0.00000001
 40
0.0
 40
0.0
 40
0.0
 40
0.0
 40
0.1996631677671939
 40
0.3987192951560706
 40
0.5977754451272855
 40
0.7988877823022102
 40
1.0
 40
1.0
 40
1.0
 40
1.0
 10
162.2239822816895
 20
307.1334506217117
 30
0.0
 10
162.2232892419055
 20
306.1612248956629
 30
0.0
 10
162.2219052694017
 20
304.2197293231054
 30
0.0
 10
162.220389612854
 20
301.2684293131161
 30
0.0
 10
162.2192829630136
 20
298.289803060235
 30
0.0
 10
162.2185897633968
 20
295.2846836599765
 30
0.0
 10
162.2185066722957
 20
293.2693322355179
 30
0.0
 10
162.2184651267575
 20
292.2616568226094
 30
0.0
  0
LINE
  5
88
330
1F
100
AcDbEntity
  8
0
  6
Continuous
 62
     8
370
     0
100
AcDbLine
 10
249.6501306367
 20
307.1334506217
 30
0.0
 11
220.9370561239
 21
307.1334506217
 31
0.0
  0
LINE
  5
89
330
1F
100
AcDbEntity
  8
0
  6
Continuous
 62
     8
370
     0
100
AcDbLine
 10
190.9370567945
 20
307.1334506217
 30
0.0
 11
162.2239822817
 21
307.1334506217
 31
0.0
  0
LINE
  5
8A
330
1F
100
AcDbEntity
  8
0
  6
Continuous
 62
     8
370
     0
100
AcDbLine
 10
249.6556477916
 20
278.2616563905
 30
0.0
 11
249.6556477916
 21
292.2616568226
 31
0.0
  0
LINE
  5
8B
330
1F
100
AcDbEntity
  8
0
  6
Continuous
 62
     8
370
     0
100
AcDbLine
 10
162.2184651268
 20
292.2616568226
 30
0.0
 11
162.2184651268
 21
278.2616563905
 31
0.0
  0
ARC
  5
8C
330
1F
100
AcDbEntity
  8
0
  6
Continuous
 62
     8
370
     0
100
AcDbCircle
 10
164.1281094351
 20
307.3580570098
 30
0.0
 40
1.917328413684835
100
AcDbArc
 50
151.8825462789
 51
186.7273895014
  0
ARC
  5
8D
330
1F
100
AcDbEntity
  8
0
  6
Continuous
 62
     8
370
     0
100
AcDbCircle
 10
247.7460034833
 20
307.3580570098
 30
0.0
 40
1.917328413684861
100
AcDbArc
 50
353.2726104986
 51
28.1174537211
  0
LINE
  5
8E
330
1F
100
AcDbEntity
  8
0
  6
Continuous
 62
     8
370
     0
100
AcDbLine
 10
162.2184651268
 20
292.2616568226
 30
0.0
 11
160.9370546711
 21
292.2616568226
 31
0.0
  0
ARC
  5
8F
330
1F
100
AcDbEntity
  8
0
  6
Continuous
 62
     8
370
     0
100
AcDbCircle
 10
161.9633524943
 20
305.6224099064
 30
0.0
 40
1.533353165292593
100
AcDbArc
 50
80.2137071767
 51
132.014296092
  0
ARC
  5
90
330
1F
100
AcDbEntity
  8
0
  6
Continuous
 62
     8
370
     0
100
AcDbCircle
 10
249.9107604241
 20
305.6224099064
 30
0.0
 40
1.533353165292649
100
AcDbArc
 50
47.985703908
 51
99.7862928233
  0
LINE
  5
91
330
1F
100
AcDbEntity
  8
0
  6
Continuous
 62
     8
370
     0
100
AcDbLine
 10
249.6556477916
 20
292.2616568226
 30
0.0
 11
250.9370582473
 21
292.2616568226
 31
0.0
  0
LINE
  5
92
330
1F
100
AcDbEntity
  8
0
  6
Continuous
 62
     8
370
     0
100
AcDbLine
 10
188.4370563847
 20
278.5646868702
 30
0.0
 11
190.9370567945
 21
278.5646868702
 31
0.0
  0
LINE
  5
93
330
1F
100
AcDbEntity
  8
0
  6
Continuous
 62
     8
370
     0
100
AcDbLine
 10
220.9370561239
 20
278.5646868702
 30
0.0
 11
223.4370565337
 21
278.5646868702
 31
0.0
  0
LINE
  5
94
330
1F
100
AcDbEntity
  8
0
  6
Continuous
 62
     8
370
     0
100
AcDbLine
 10
188.4370563847
 20
291.9586263429
 30
0.0
 11
188.4370563847
 21
278.5646868702
 31
0.0
  0
LINE
  5
95
330
1F
100
AcDbEntity
  8
0
  6
Continuous
 62
     8
370
     0
100
AcDbLine
 10
223.4370565337
 20
291.9586263429
 30
0.0
 11
220.9370561239
 21
291.9586263429
 31
0.0
  0
LINE
  5
96
330
1F
100
AcDbEntity
  8
0
  6
Continuous
 62
     8
370
     0
100
AcDbLine
 10
190.9370567945
 20
291.9586263429
 30
0.0
 11
188.4370563847
 21
291.9586263429
 31
0.0
  0
LINE
  5
97
330
1F
100
AcDbEntity
  8
0
  6
Continuous
 62
     8
370
     0
100
AcDbLine
 10
223.4370565337
 20
278.5646868702
 30
0.0
 11
223.4370565337
 21
291.9586263429
 31
0.0
  0
LWPOLYLINE
  5
98
330
1F
100
AcDbEntity
  8
0
  6
Continuous
 62
     8
370
     0
100
AcDbPolyline
 90
        9
 70
   128
 43
0.0
 10
223.4370565337
 20
291.9586263429
 10
223.5346013975
 20
291.954841448
 10
223.6283986193
 20
291.9436329808
 10
223.714842118
 20
291.9254307467
 10
223.7906089348
 20
291.9009351004
 10
223.8527914804
 20
291.8710871432
 10
223.898996256
 20
291.8370337989
 10
223.9274500233
 20
291.8000835757
 10
223.9370556843
 20
291.7616567407
  0
LWPOLYLINE
  5
99
330
1F
100
AcDbEntity
  8
0
  6
Continuous
 62
     8
370
     0
100
AcDbPolyline
 90
        9
 70
   128
 43
0.0
 10
187.9370572341
 20
291.7616567407
 10
187.9466628951
 20
291.8000835757
 10
187.9751166624
 20
291.8370337989
 10
188.021321438
 20
291.8710871432
 10
188.0835039836
 20
291.9009351004
 10
188.1592708004
 20
291.9254307467
 10
188.2457142991
 20
291.9436329808
 10
188.3395115209
 20
291.954841448
 10
188.4370563847
 20
291.9586263429
  0
LINE
  5
9A
330
1F
100
AcDbEntity
  8
0
  6
Continuous
 62
     8
370
     0
100
AcDbLine
 10
223.4370565337
 20
291.9586263429
 30
0.0
 11
223.4370565337
 21
292.2616568226
 31
0.0
  0
LINE
  5
9B
330
1F
100
AcDbEntity
  8
0
  6
Continuous
 62
     8
370
     0
100
AcDbLine
 10
188.4370563847
 20
291.9586263429
 30
0.0
 11
188.4370563847
 21
292.2616568226
 31
0.0
  0
DIMENSION
  5
9C
330
1F
100
AcDbEntity
  8
0
  6
Continuous
 62
     7
370
     0
100
AcDbDimension
  2
*D1
 10
250.9370564592
 20
255.4633611437
 30
0.0
 11
205.4787508616
 21
255.4633611437
 31
0.0
 70
   160
 71
     2
 42
-1.0
  3
SLDDIMSTYLE0
100
AcDbAlignedDimension
 13
160.9370564592
 23
292.2616566065
 33
0.0
 14
250.9370564592
 24
292.2616566065
 34
0.0
 50
0.0
100
AcDbRotatedDimension
  0
DIMENSION
  5
A8
330
1F
100
AcDbEntity
  8
0
  6
Continuous
 62
     7
370
     0
100
AcDbDimension
  2
*D2
 10
268.6885657264
 20
272.4934871206
 30
0.0
 11
268.6885657264
 21
316.8470848712
 31
0.0
 70
   160
 71
     2
 42
-1.0
  3
SLDDIMSTYLE1
100
AcDbAlignedDimension
 13
205.9370564592
 23
369.7616566065
 33
0.0
 14
205.4220564592
 24
272.4934871206
 34
0.0
 50
90.0
100
AcDbRotatedDimension
  0
ARC
  5
B3
330
1F
100
AcDbEntity
  8
0
  6
Continuous
 62
     7
370
    30
100
AcDbCircle
 10
416.5752569623
 20
273.7169624805
 30
0.0
 40
0.3599999999999703
100
AcDbArc
 50
306.3583676093
 51
0.0
  0
ARC
  5
B4
330
1F
100
AcDbEntity
  8
0
  6
Continuous
 62
     7
370
    30
100
AcDbCircle
 10
409.2952569623
 20
273.7169624805
 30
0.0
 40
0.3600000000000136
100
AcDbArc
 50
180.0
 51
233.6416323907
  0
LINE
  5
B5
330
1F
100
AcDbEntity
  8
0
  6
Continuous
 62
     7
370
    30
100
AcDbLine
 10
416.935256557
 20
273.7169624138
 30
0.0
 11
416.935256557
 21
275.2616568301
 31
0.0
  0
LINE
  5
B6
330
1F
100
AcDbEntity
  8
0
  6
Continuous
 62
     7
370
    30
100
AcDbLine
 10
408.9352552457
 20
275.2616568301
 30
0.0
 11
408.9352552457
 21
273.7169624138
 31
0.0
  0
ARC
  5
B7
330
1F
100
AcDbEntity
  8
0
  6
Continuous
 62
     7
370
    30
100
AcDbCircle
 10
412.9352569623
 20
278.6616566065
 30
0.0
 40
6.500000000000049
100
AcDbArc
 50
287.8625804919
 51
306.3583676093
  0
ARC
  5
B8
330
1F
100
AcDbEntity
  8
0
  6
Continuous
 62
     7
370
    30
100
AcDbCircle
 10
412.9352569623
 20
278.6616566065
 30
0.0
 40
6.49999999999998
100
AcDbArc
 50
233.6416323907
 51
252.1374195081
  0
ARC
  5
B9
330
1F
100
AcDbEntity
  8
0
  6
Continuous
 62
     7
370
    30
100
AcDbCircle
 10
415.3573233292
 20
269.7909929371
 30
0.0
 40
100.0
100
AcDbArc
 50
91.3878775254
 51
100.0333087496
  0
ARC
  5
BA
330
1F
100
AcDbEntity
  8
0
  6
Continuous
 62
     7
370
    30
100
AcDbCircle
 10
410.5131905953
 20
269.7909929371
 30
0.0
 40
100.0
100
AcDbArc
 50
79.9666912504
 51
88.6121224746
  0
LINE
  5
BB
330
1F
100
AcDbEntity
  8
0
  6
Continuous
 62
     7
370
    30
100
AcDbLine
 10
397.9352553053
 20
367.5116556529
 30
0.0
 11
398.1852558119
 21
367.2616588715
 31
0.0
  0
LINE
  5
BC
330
1F
100
AcDbEntity
  8
0
  6
Continuous
 62
     7
370
    30
100
AcDbLine
 10
427.685259716
 20
367.2616588715
 30
0.0
 11
427.9352564974
 21
367.5116556529
 31
0.0
  0
LINE
  5
BD
330
1F
100
AcDbEntity
  8
0
  6
Continuous
 62
     7
370
    30
100
AcDbLine
 10
427.9352564974
 20
367.5116556529
 30
0.0
 11
427.9352564974
 21
368.2616534475
 31
0.0
  0
LINE
  5
BE
330
1F
100
AcDbEntity
  8
0
  6
Continuous
 62
     7
370
    30
100
AcDbLine
 10
397.9352553053
 20
368.2616534475
 30
0.0
 11
397.9352553053
 21
367.5116556529
 31
0.0
  0
LINE
  5
BF
330
1F
100
AcDbEntity
  8
0
  6
Continuous
 62
     7
370
    30
100
AcDbLine
 10
427.9352564974
 20
277.2616562266
 30
0.0
 11
427.9352564974
 21
367.2616588715
 31
0.0
  0
LINE
  5
C0
330
1F
100
AcDbEntity
  8
0
  6
Continuous
 62
     7
370
    30
100
AcDbLine
 10
397.9352553053
 20
367.2616588715
 30
0.0
 11
397.9352553053
 21
277.2616562266
 31
0.0
  0
LINE
  5
C1
330
1F
100
AcDbEntity
  8
0
  6
Continuous
 62
     7
370
    30
100
AcDbLine
 10
349.1352571784
 20
281.2616564166
 30
0.0
 11
352.1352567388
 21
281.2616564166
 31
0.0
  0
LINE
  5
C2
330
1F
100
AcDbEntity
  8
0
  6
Continuous
 62
     7
370
    30
100
AcDbLine
 10
352.1352567388
 20
286.261656654
 30
0.0
 11
349.1352571784
 21
286.261656654
 31
0.0
  0
LINE
  5
C3
330
1F
100
AcDbEntity
  8
0
  6
Continuous
 62
     7
370
    30
100
AcDbLine
 10
352.1352567388
 20
281.2616564166
 30
0.0
 11
352.9352572424
 21
282.0616566874
 31
0.0
  0
LINE
  5
C4
330
1F
100
AcDbEntity
  8
0
  6
Continuous
 62
     7
370
    30
100
AcDbLine
 10
352.9352572424
 20
285.4616566015
 30
0.0
 11
352.1352567388
 21
286.261656654
 31
0.0
  0
ARC
  5
C5
330
1F
100
AcDbEntity
  8
0
  6
Continuous
 62
     7
370
    30
100
AcDbCircle
 10
282.6352569623
 20
292.2616566065
 30
0.0
 40
59.99999999999994
100
AcDbArc
 50
0.0
 51
14.351106149
  0
ARC
  5
C6
330
1F
100
AcDbEntity
  8
0
  6
Continuous
 62
     7
370
    30
100
AcDbCircle
 10
339.3097662235
 20
306.7616566065
 30
0.0
 40
1.5
100
AcDbArc
 50
14.351106149
 51
90.0
  0
ARC
  5
C7
330
1F
100
AcDbEntity
  8
0
  6
Continuous
 62
     7
370
    30
100
AcDbCircle
 10
412.9352569623
 20
278.6616566065
 30
0.0
 40
6.47956595768576
100
AcDbArc
 50
252.1648678204
 51
262.3032352969
  0
ARC
  5
C8
330
1F
100
AcDbEntity
  8
0
  6
Continuous
 62
     7
370
    30
100
AcDbCircle
 10
419.3267665054
 20
268.3050833203
 30
0.0
 40
9.364888702567516
100
AcDbArc
 50
153.4329112638
 51
153.559368809
  0
LINE
  5
C9
330
1F
100
AcDbEntity
  8
0
  6
Continuous
 62
     7
370
    30
100
AcDbLine
 10
414.9290312691
 20
272.4749897439
 30
0.0
 11
414.9198149009
 21
272.4934867415
 31
0.0
  0
ARC
  5
CA
330
1F
100
AcDbEntity
  8
0
  6
Continuous
 62
     7
370
    30
100
AcDbCircle
 10
412.9352569623
 20
278.6616566065
 30
0.0
 40
6.47956595768583
100
AcDbArc
 50
277.6967647031
 51
287.8351321796
  0
LINE
  5
CB
330
1F
100
AcDbEntity
  8
0
  6
Continuous
 62
     7
370
    30
100
AcDbLine
 10
413.8030697269
 20
272.2404668871
 30
0.0
 11
413.4502549333
 21
272.2404668871
 31
0.0
  0
LINE
  5
CC
330
1F
100
AcDbEntity
  8
0
  6
Continuous
 62
     7
370
    30
100
AcDbLine
 10
413.4502549333
 20
272.2404668871
 30
0.0
 11
413.4502549333
 21
272.4934867415
 31
0.0
  0
ARC
  5
CD
330
1F
100
AcDbEntity
  8
0
  6
Continuous
 62
     7
370
    30
100
AcDbCircle
 10
412.9352559013
 20
279.6531387561
 30
0.0
 40
7.178150247285854
100
AcDbArc
 50
265.8857584385
 51
274.1142415615
  0
LINE
  5
CE
330
1F
100
AcDbEntity
  8
0
  6
Continuous
 62
     7
370
    30
100
AcDbLine
 10
412.4202568693
 20
272.4934867415
 30
0.0
 11
412.4202568693
 21
272.2404668871
 31
0.0
  0
LINE
  5
CF
330
1F
100
AcDbEntity
  8
0
  6
Continuous
 62
     7
370
    30
100
AcDbLine
 10
412.4202568693
 20
272.2404668871
 30
0.0
 11
412.0674495263
 21
272.2404668871
 31
0.0
  0
LINE
  5
D0
330
1F
100
AcDbEntity
  8
0
  6
Continuous
 62
     7
370
    30
100
AcDbLine
 10
427.9352564974
 20
368.2616534475
 30
0.0
 11
397.9352553053
 21
368.2616534475
 31
0.0
  0
LINE
  5
D1
330
1F
100
AcDbEntity
  8
0
  6
Continuous
 62
     7
370
    30
100
AcDbLine
 10
427.9352564974
 20
367.5116556529
 30
0.0
 11
397.9352553053
 21
367.5116556529
 31
0.0
  0
LINE
  5
D2
330
1F
100
AcDbEntity
  8
0
  6
Continuous
 62
     7
370
    30
100
AcDbLine
 10
397.9352553053
 20
367.2616588715
 30
0.0
 11
427.9352564974
 21
367.2616588715
 31
0.0
  0
ARC
  5
D3
330
1F
100
AcDbEntity
  8
0
  6
Continuous
 62
     7
370
    30
100
AcDbCircle
 10
355.9352569623
 20
278.2616566065
 30
0.0
 40
3.0
100
AcDbArc
 50
180.0
 51
270.0
  0
LINE
  5
D4
330
1F
100
AcDbEntity
  8
0
  6
Continuous
 62
     7
370
    30
100
AcDbLine
 10
352.9352572424
 20
278.2616563905
 30
0.0
 11
352.9352572424
 21
288.2616566326
 31
0.0
  0
LINE
  5
D5
330
1F
100
AcDbEntity
  8
0
  6
Continuous
 62
     7
370
    30
100
AcDbLine
 10
354.9352566389
 20
288.2616566326
 30
0.0
 11
354.9352566389
 21
278.2616563905
 31
0.0
  0
ARC
  5
D6
330
1F
100
AcDbEntity
  8
0
  6
Continuous
 62
     7
370
    30
100
AcDbCircle
 10
355.9352569623
 20
278.2616566065
 30
0.0
 40
1.0
100
AcDbArc
 50
180.0
 51
270.0
  0
LINE
  5
D7
330
1F
100
AcDbEntity
  8
0
  6
Continuous
 62
     7
370
    30
100
AcDbLine
 10
355.9352568028
 20
277.2616562266
 30
0.0
 11
424.9352578683
 21
277.2616562266
 31
0.0
  0
LINE
  5
D8
330
1F
100
AcDbEntity
  8
0
  6
Continuous
 62
     7
370
    30
100
AcDbLine
 10
424.9352578683
 20
275.2616568301
 30
0.0
 11
355.9352568028
 21
275.2616568301
 31
0.0
  0
LINE
  5
D9
330
1F
100
AcDbEntity
  8
0
  6
Continuous
 62
     7
370
    30
100
AcDbLine
 10
352.9352572424
 20
288.2616566326
 30
0.0
 11
354.9352566389
 21
288.2616566326
 31
0.0
  0
LINE
  5
DA
330
1F
100
AcDbEntity
  8
0
  6
Continuous
 62
     7
370
    30
100
AcDbLine
 10
442.9352570934
 20
275.2616568301
 30
0.0
 11
442.9352570934
 21
277.2616562266
 31
0.0
  0
LINE
  5
DB
330
1F
100
AcDbEntity
  8
0
  6
Continuous
 62
     7
370
    30
100
AcDbLine
 10
424.9352578683
 20
277.2616562266
 30
0.0
 11
442.9352570934
 21
277.2616562266
 31
0.0
  0
LINE
  5
DC
330
1F
100
AcDbEntity
  8
0
  6
Continuous
 62
     7
370
    30
100
AcDbLine
 10
442.9352570934
 20
275.2616568301
 30
0.0
 11
424.9352578683
 21
275.2616568301
 31
0.0
  0
LINE
  5
DD
330
1F
100
AcDbEntity
  8
0
  6
Continuous
 62
     7
370
    30
100
AcDbLine
 10
352.1352567388
 20
281.2616564166
 30
0.0
 11
352.1352567388
 21
286.261656654
 31
0.0
  0
LINE
  5
DE
330
1F
100
AcDbEntity
  8
0
  6
Continuous
 62
     7
370
    30
100
AcDbLine
 10
331.8352567641
 20
303.2616558317
 30
0.0
 11
331.8352567641
 21
303.3116566781
 31
0.0
  0
LINE
  5
DF
330
1F
100
AcDbEntity
  8
0
  6
Continuous
 62
     7
370
    30
100
AcDbLine
 10
340.8218338412
 20
278.0116566065
 30
0.0
 11
340.8364104835
 21
278.2616566065
 31
0.0
  0
LINE
  5
E0
330
1F
100
AcDbEntity
  8
0
  6
Continuous
 62
     7
370
    30
100
AcDbLine
 10
340.8218338412
 20
278.0116566065
 30
0.0
 11
340.8070467344
 21
278.2616566065
 31
0.0
  0
LINE
  5
E1
330
1F
100
AcDbEntity
  8
0
  6
Continuous
 62
     7
370
    30
100
AcDbLine
 10
330.5352571098
 20
278.2616563905
 30
0.0
 11
330.5352571098
 21
306.5116568301
 31
0.0
  0
LINE
  5
E2
330
1F
100
AcDbEntity
  8
0
  6
Continuous
 62
     7
370
    30
100
AcDbLine
 10
330.6352569399
 20
306.5116568301
 30
0.0
 11
330.5352571098
 21
306.5116568301
 31
0.0
  0
LINE
  5
E3
330
1F
100
AcDbEntity
  8
0
  6
Continuous
 62
     7
370
    30
100
AcDbLine
 10
330.6352569399
 20
278.2616563905
 30
0.0
 11
330.5352571098
 21
278.2616563905
 31
0.0
  0
LINE
  5
E4
330
1F
100
AcDbEntity
  8
0
  6
Continuous
 62
     7
370
    30
100
AcDbLine
 10
340.8218338065
 20
278.0116568152
 30
0.0
 11
330.5352571098
 21
278.0116568152
 31
0.0
  0
LINE
  5
E5
330
1F
100
AcDbEntity
  8
0
  6
Continuous
 62
     7
370
    30
100
AcDbLine
 10
330.5352571098
 20
278.0116568152
 30
0.0
 11
330.5352571098
 21
278.2616563905
 31
0.0
  0
LINE
  5
E6
330
1F
100
AcDbEntity
  8
0
  6
Continuous
 62
     7
370
    30
100
AcDbLine
 10
332.1352571858
 20
303.2616558317
 30
0.0
 11
332.3352568461
 21
303.2616558317
 31
0.0
  0
LINE
  5
E7
330
1F
100
AcDbEntity
  8
0
  6
Continuous
 62
     7
370
    30
100
AcDbLine
 10
332.3352568461
 20
303.2616558317
 30
0.0
 11
332.3352568461
 21
303.3116566781
 31
0.0
  0
LINE
  5
E8
330
1F
100
AcDbEntity
  8
0
  6
Continuous
 62
     7
370
    30
100
AcDbLine
 10
332.3352568461
 20
303.3116566781
 30
0.0
 11
330.6352569399
 21
303.3116566781
 31
0.0
  0
LINE
  5
E9
330
1F
100
AcDbEntity
  8
0
  6
Continuous
 62
     7
370
    30
100
AcDbLine
 10
330.6352569399
 20
306.7616573367
 30
0.0
 11
330.6352569399
 21
303.3116566781
 31
0.0
  0
LINE
  5
EA
330
1F
100
AcDbEntity
  8
0
  6
Continuous
 62
     7
370
    30
100
AcDbLine
 10
332.1352571858
 20
278.2616563905
 30
0.0
 11
337.9486499963
 21
278.2616563905
 31
0.0
  0
LINE
  5
EB
330
1F
100
AcDbEntity
  8
0
  6
Continuous
 62
     7
370
    30
100
AcDbLine
 10
330.6352569399
 20
308.2616566512
 30
0.0
 11
336.1033376915
 21
308.2616566512
 31
0.0
  0
LINE
  5
EC
330
1F
100
AcDbEntity
  8
0
  6
Continuous
 62
     7
370
    30
100
AcDbLine
 10
330.6352569399
 20
306.7616573367
 30
0.0
 11
330.6352569399
 21
308.2616566512
 31
0.0
  0
LINE
  5
ED
330
1F
100
AcDbEntity
  8
0
  6
Continuous
 62
     7
370
    30
100
AcDbLine
 10
330.6352569399
 20
278.2616563905
 30
0.0
 11
330.6352569399
 21
303.2616558317
 31
0.0
  0
LINE
  5
EE
330
1F
100
AcDbEntity
  8
0
  6
Continuous
 62
     7
370
    30
100
AcDbLine
 10
332.1352571858
 20
278.2616563905
 30
0.0
 11
330.6352569399
 21
278.2616563905
 31
0.0
  0
LINE
  5
EF
330
1F
100
AcDbEntity
  8
0
  6
Continuous
 62
     7
370
    30
100
AcDbLine
 10
330.6352569399
 20
303.2616558317
 30
0.0
 11
332.1352571858
 21
303.2616558317
 31
0.0
  0
LINE
  5
F0
330
1F
100
AcDbEntity
  8
0
  6
Continuous
 62
     7
370
    30
100
AcDbLine
 10
339.4326366162
 20
278.2616563905
 30
0.0
 11
337.9486499963
 21
278.2616563905
 31
0.0
  0
LINE
  5
F1
330
1F
100
AcDbEntity
  8
0
  6
Continuous
 62
     7
370
    30
100
AcDbLine
 10
339.4326366162
 20
278.2616563905
 30
0.0
 11
342.1352569623
 21
278.2616563905
 31
0.0
  0
LINE
  5
F2
330
1F
100
AcDbEntity
  8
0
  6
Continuous
 62
     7
370
    30
100
AcDbLine
 10
336.1033376915
 20
308.2616566512
 30
0.0
 11
339.3097662976
 21
308.2616566512
 31
0.0
  0
ARC
  5
F3
330
1F
100
AcDbEntity
  8
0
  6
Continuous
 62
     7
370
    30
100
AcDbCircle
 10
341.1352569623
 20
285.2616566065
 30
0.0
 40
17.00000000000007
100
AcDbArc
 50
336.8001568171
 51
23.1998431829
  0
SPLINE
  5
F4
330
1F
100
AcDbEntity
  8
0
  6
Continuous
 62
     7
370
    30
100
AcDbSpline
210
0.0
220
0.0
230
1.0
 70
     8
 71
     3
 72
    10
 73
     6
 74
     0
 42
0.00000001
 43
0.00000001
 40
0.0
 40
0.0
 40
0.0
 40
0.0
 40
0.5
 40
0.5
 40
1.0
 40
1.0
 40
1.0
 40
1.0
 10
356.3010078503889
 20
278.2616566065426
 30
0.0
 10
356.4178744061355
 20
278.2616566065426
 30
0.0
 10
356.5160286360198
 20
278.300431653451
 30
0.0
 10
356.6697572542101
 20
278.4109626191559
 30
0.0
 10
356.7258318739338
 20
278.4836220392139
 30
0.0
 10
356.7605760591194
 20
278.5646869095729
 30
0.0
  0
SPLINE
  5
F5
330
1F
100
AcDbEntity
  8
0
  6
Continuous
 62
     7
370
    30
100
AcDbSpline
210
0.0
220
0.0
230
1.0
 70
    24
 71
     3
 72
     8
 73
     4
 74
     0
 42
0.00000001
 43
0.00000001
 40
0.0
 40
0.0
 40
0.0
 40
0.0
 40
1.0
 40
1.0
 40
1.0
 40
1.0
 10
356.3010078503889
 20
278.2616566065426
 30
0.0
 10
356.2290991388394
 20
278.2616566065426
 30
0.0
 10
356.1543163471459
 20
278.2616566065426
 30
0.0
 10
356.0768097597698
 20
278.2616566065426
 30
0.0
  0
LINE
  5
F6
330
1F
100
AcDbEntity
  8
0
  6
Continuous
 62
     7
370
    30
100
AcDbLine
 10
342.1352569623
 20
292.2616568226
 30
0.0
 11
356.301007667
 21
292.2616568226
 31
0.0
  0
LINE
  5
F7
330
1F
100
AcDbEntity
  8
0
  6
Continuous
 62
     7
370
    30
100
AcDbLine
 10
342.1352569623
 20
291.7616567407
 30
0.0
 11
342.1352569623
 21
292.2616568226
 31
0.0
  0
LINE
  5
F8
330
1F
100
AcDbEntity
  8
0
  6
Continuous
 62
     7
370
    30
100
AcDbLine
 10
354.9352566389
 20
288.2616566326
 30
0.0
 11
349.1352571784
 21
288.2616566326
 31
0.0
  0
LINE
  5
F9
330
1F
100
AcDbEntity
  8
0
  6
Continuous
 62
     7
370
    30
100
AcDbLine
 10
349.1352571784
 20
288.2616566326
 30
0.0
 11
349.1352571784
 21
278.2616563905
 31
0.0
  0
LINE
  5
FA
330
1F
100
AcDbEntity
  8
0
  6
Continuous
 62
     7
370
    30
100
AcDbLine
 10
342.1352569623
 20
278.2616563905
 30
0.0
 11
342.1352569623
 21
291.7616567407
 31
0.0
  0
LINE
  5
FB
330
1F
100
AcDbEntity
  8
0
  6
Continuous
 62
     7
370
    30
100
AcDbLine
 10
349.1352571784
 20
278.2616563905
 30
0.0
 11
342.1352569623
 21
278.2616563905
 31
0.0
  0
LINE
  5
FC
330
1F
100
AcDbEntity
  8
0
  6
Continuous
 62
     7
370
    30
100
AcDbLine
 10
356.0768094523
 20
278.2616563905
 30
0.0
 11
354.9352566389
 21
278.2616563905
 31
0.0
  0
ARC
  5
FD
330
1F
100
AcDbEntity
  8
0
  6
Continuous
 62
     7
370
    30
100
AcDbCircle
 10
356.3010078504
 20
291.7616566065
 30
0.0
 40
0.5000000000000634
100
AcDbArc
 50
23.1998431829
 51
90.0
  0
LINE
  5
FE
330
1F
100
AcDbEntity
  8
0
  6
Continuous
 62
     8
370
     0
100
AcDbLine
 10
416.7886738343
 20
273.4270454216
 30
0.0
 11
409.0818379683
 21
273.4270454216
 31
0.0
  0
LINE
  5
FF
330
1F
100
AcDbEntity
  8
0
  6
Continuous
 62
     8
370
     0
100
AcDbLine
 10
416.935256557
 20
273.7169624138
 30
0.0
 11
408.9352552457
 21
273.7169624138
 31
0.0
  0
LINE
  5
100
330
1F
100
AcDbEntity
  8
0
  6
Continuous
 62
     8
370
     0
100
AcDbLine
 10
424.9352578683
 20
275.2616568301
 30
0.0
 11
424.9352578683
 21
277.2616562266
 31
0.0
  0
LINE
  5
101
330
1F
100
AcDbEntity
  8
0
  6
Continuous
 62
     8
370
     0
100
AcDbLine
 10
332.1352571858
 20
303.2616558317
 30
0.0
 11
332.1352571858
 21
278.2616563905
 31
0.0
  0
LINE
  5
102
330
1F
100
AcDbEntity
  8
0
  6
Continuous
 62
     8
370
     0
100
AcDbLine
 10
336.1033376915
 20
306.7616573367
 30
0.0
 11
330.6352569399
 21
306.7616573367
 31
0.0
  0
SPLINE
  5
103
330
1F
100
AcDbEntity
  8
0
  6
Continuous
 62
     8
370
     0
100
AcDbSpline
210
0.0
220
0.0
230
1.0
 70
     8
 71
     3
 72
    13
 73
     9
 74
     0
 42
0.00000001
 43
0.00000001
 40
0.0
 40
0.0
 40
0.0
 40
0.0
 40
0.1653024740531034
 40
0.3306774320172682
 40
0.4959799593435014
 40
0.6639611751043577
 40
0.8320185842193627
 40
0.9999999999999999
 40
0.9999999999999999
 40
0.9999999999999999
 40
0.9999999999999999
 10
337.9486499963268
 20
292.2616568226094
 30
0.0
 10
337.9388619690906
 20
293.0692162424012
 30
0.0
 10
337.9192816226409
 20
294.6846891908115
 30
0.0
 10
337.7613154786438
 20
297.1034400459189
 30
0.0
 10
337.5088966561408
 20
299.526879660776
 30
0.0
 10
337.1483093762813
 20
301.9498733850566
 30
0.0
 10
336.6905903621112
 20
304.3702016574579
 30
0.0
 10
336.2990590675079
 20
305.9646256336936
 30
0.0
 10
336.103337691532
 20
306.7616573366995
 30
0.0
  0
LINE
  5
104
330
1F
100
AcDbEntity
  8
0
  6
Continuous
 62
     8
370
     0
100
AcDbLine
 10
337.9486499963
 20
278.2616563905
 30
0.0
 11
337.9486499963
 21
292.2616568226
 31
0.0
  0
LINE
  5
105
330
1F
100
AcDbEntity
  8
0
  6
Continuous
 62
     8
370
     0
100
AcDbLine
 10
336.1033376915
 20
308.2616566512
 30
0.0
 11
336.1033376915
 21
306.7616573367
 31
0.0
  0
SPLINE
  5
106
330
1F
100
AcDbEntity
  8
0
  6
Continuous
 62
     8
370
     0
100
AcDbSpline
210
0.0
220
0.0
230
1.0
 70
     8
 71
     3
 72
    12
 73
     8
 74
     0
 42
0.00000001
 43
0.00000001
 40
0.0
 40
0.0
 40
0.0
 40
0.0
 40
0.1996631677671939
 40
0.3987192951560706
 40
0.5977754451272855
 40
0.7988877823022102
 40
1.0
 40
1.0
 40
1.0
 40
1.0
 10
337.5408243065639
 20
307.1334506217117
 30
0.0
 10
337.7770887749923
 20
306.1612248956629
 30
0.0
 10
338.2488993917206
 20
304.2197293231054
 30
0.0
 10
338.7697007917337
 20
301.2684293131161
 30
0.0
 10
339.15012434494
 20
298.289803060235
 30
0.0
 10
339.3879985509453
 20
295.2846836599765
 30
0.0
 10
339.4177572640527
 20
293.2693322355179
 30
0.0
 10
339.4326366161867
 20
292.2616568226094
 30
0.0
  0
LINE
  5
107
330
1F
100
AcDbEntity
  8
0
  6
Continuous
 62
     8
370
     0
100
AcDbLine
 10
339.4326366162
 20
292.2616568226
 30
0.0
 11
337.9486499963
 21
292.2616568226
 31
0.0
  0
LWPOLYLINE
  5
108
330
1F
100
AcDbEntity
  8
0
  6
Continuous
 62
     8
370
     0
100
AcDbPolyline
 90
        9
 70
   128
 43
0.0
 10
337.5408243066
 20
307.1334506217
 10
337.4813421307
 20
307.1180670354
 10
337.3780542662
 20
307.0913529787
 10
337.2342431595
 20
307.0541559551
 10
337.0544816045
 20
307.0076624695
 10
336.8444837307
 20
306.9533477369
 10
336.6109252585
 20
306.8929402921
 10
336.3612306913
 20
306.8283586595
 10
336.1033376915
 20
306.7616573367
  0
ARC
  5
109
330
1F
100
AcDbEntity
  8
0
  6
Continuous
 62
     8
370
     0
100
AcDbCircle
 10
336.0978316228
 20
306.7747622694
 30
0.0
 40
1.486904576483442
100
AcDbArc
 50
13.9592410827
 51
89.7878308886
  0
LINE
  5
10A
330
1F
100
AcDbEntity
  8
0
  6
Continuous
 62
     8
370
     0
100
AcDbLine
 10
339.4326366162
 20
292.2616568226
 30
0.0
 11
339.4326366162
 21
278.2616563905
 31
0.0
  0
LINE
  5
10B
330
1F
100
AcDbEntity
  8
0
  6
Continuous
 62
     8
370
     0
100
AcDbLine
 10
342.1352569623
 20
292.2616568226
 30
0.0
 11
339.4326366162
 21
292.2616568226
 31
0.0
  0
LINE
  5
10C
330
1F
100
AcDbEntity
  8
0
  6
Continuous
 62
     8
370
     0
100
AcDbLine
 10
340.7629587365
 20
307.1334506217
 30
0.0
 11
337.5408243066
 21
307.1334506217
 31
0.0
  0
ARC
  5
10D
330
1F
100
AcDbEntity
  8
0
  6
Continuous
 62
     8
370
     0
100
AcDbCircle
 10
341.1352569623
 20
285.2616566065
 30
0.0
 40
16.50000000000001
100
AcDbArc
 50
334.8972792441
 51
23.1998431829
  0
LWPOLYLINE
  5
10E
330
1F
100
AcDbEntity
  8
0
  6
Continuous
 62
     8
370
     0
100
AcDbPolyline
 90
        9
 70
   128
 43
0.0
 10
356.301007667
 20
291.7616567407
 10
356.3906651599
 20
291.8000835757
 10
356.4768767593
 20
291.8370337989
 10
356.5563306821
 20
291.8710871432
 10
356.625971259
 20
291.9009351004
 10
356.6831246627
 20
291.9254307467
 10
356.7255939035
 20
291.9436329808
 10
356.7517454414
 20
291.954841448
 10
356.760576242
 20
291.9586263429
  0
LINE
  5
10F
330
1F
100
AcDbEntity
  8
0
  6
Continuous
 62
     8
370
     0
100
AcDbLine
 10
356.301007667
 20
291.7616567407
 30
0.0
 11
356.301007667
 21
292.2616568226
 31
0.0
  0
LINE
  5
110
330
1F
100
AcDbEntity
  8
0
  6
Continuous
 62
     8
370
     0
100
AcDbLine
 10
356.301007667
 20
291.7616567407
 30
0.0
 11
342.1352569623
 21
291.7616567407
 31
0.0
  0
DIMENSION
  5
111
330
1F
100
AcDbEntity
  8
0
  6
Continuous
 62
     7
370
     0
100
AcDbDimension
  2
*D3
 10
442.9352569623
 20
255.6044001222
 30
0.0
 11
387.3871539025
 21
255.6044001222
 31
0.0
 70
   160
 71
     2
 42
-1.0
  3
SLDDIMSTYLE2
100
AcDbAlignedDimension
 13
330.5352569623
 23
278.2616566065
 33
0.0
 14
442.9352569623
 24
275.2616566065
 34
0.0
100
AcDbRotatedDimension
  0
DIMENSION
  5
11C
330
1F
100
AcDbEntity
  8
0
  6
Continuous
 62
     7
370
     0
100
AcDbDimension
  2
*D4
 10
412.9352569623
 20
351.9900552091
 30
0.0
 11
379.365604351
 21
351.9900552091
 31
0.0
 70
   160
 71
     2
 42
-1.0
  3
SLDDIMSTYLE2
100
AcDbAlignedDimension
 13
330.5352569623
 23
306.5116566065
 33
0.0
 14
412.9352569623
 24
369.7616566065
 34
0.0
100
AcDbRotatedDimension
  0
DIMENSION
  5
126
330
1F
100
AcDbEntity
  8
0
  6
Continuous
 62
     7
370
     0
100
AcDbDimension
  2
*D5
 10
412.9352569623
 20
329.9875419168
 30
0.0
 11
379.1729730598
 21
329.9875419168
 31
0.0
 70
   160
 71
     2
 42
-1.0
  3
SLDDIMSTYLE1
100
AcDbAlignedDimension
 13
342.1352569623
 23
292.2616566065
 33
0.0
 14
412.9352569623
 24
369.7616566065
 34
0.0
100
AcDbRotatedDimension
  0
DIMENSION
  5
130
330
1F
100
AcDbEntity
  8
0
  6
Continuous
 62
     7
370
     0
100
AcDbDimension
  2
*D6
 10
437.2162417739
 20
367.2616566065
 30
0.0
 11
437.2162417739
 21
323.6364318299
 31
0.0
 70
   160
 71
     2
 42
-1.0
  3
SLDDIMSTYLE0
100
AcDbAlignedDimension
 13
427.9352569623
 23
277.2616566065
 33
0.0
 14
427.9352569623
 24
367.2616566065
 34
0.0
 50
90.0
100
AcDbRotatedDimension
  0
ARC
  5
13A
330
1F
100
AcDbEntity
  8
0
  6
Continuous
 62
     7
370
    30
100
AcDbCircle
 10
188.4370564592
 20
168.8509379728
 30
0.0
 40
0.5
100
AcDbArc
 50
180.0
 51
270.0
  0
ARC
  5
13B
330
1F
100
AcDbEntity
  8
0
  6
Continuous
 62
     7
370
    30
100
AcDbCircle
 10
223.4370564592
 20
168.8509379728
 30
0.0
 40
0.5
100
AcDbArc
 50
270.0
 51
0.0
  0
LINE
  5
13C
330
1F
100
AcDbEntity
  8
0
  6
Continuous
 62
     7
370
    30
100
AcDbLine
 10
188.4370563847
 20
168.3509372128
 30
0.0
 11
223.4370565337
 21
168.3509372128
 31
0.0
  0
CIRCLE
  5
13D
330
1F
100
AcDbEntity
  8
0
  6
Continuous
 62
     7
370
    30
100
AcDbCircle
 10
205.9370564592
 20
113.5509379728
 30
0.0
 40
15.0
  0
ARC
  5
13E
330
1F
100
AcDbEntity
  8
0
  6
Continuous
 62
     7
370
    30
100
AcDbCircle
 10
205.9370564592
 20
101.5509379728
 30
0.0
 40
18.00000000000001
100
AcDbArc
 50
270.0
 51
0.0
  0
ARC
  5
13F
330
1F
100
AcDbEntity
  8
0
  6
Continuous
 62
     7
370
    30
100
AcDbCircle
 10
205.9370564592
 20
101.5509379728
 30
0.0
 40
18.00000000000001
100
AcDbArc
 50
180.0
 51
270.0
  0
LINE
  5
140
330
1F
100
AcDbEntity
  8
0
  6
Continuous
 62
     7
370
    30
100
AcDbLine
 10
187.9370572341
 20
168.8509382261
 30
0.0
 11
187.9370572341
 21
101.5509370668
 31
0.0
  0
LINE
  5
141
330
1F
100
AcDbEntity
  8
0
  6
Continuous
 62
     7
370
    30
100
AcDbLine
 10
223.9370556843
 20
168.8509382261
 30
0.0
 11
223.9370556843
 21
101.5509370668
 31
0.0
  0
LINE
  5
142
330
1F
100
AcDbEntity
  8
0
  6
Continuous
 62
     7
370
    30
100
AcDbLine
 10
243.4370579493
 20
195.9509378252
 30
0.0
 11
168.4370549691
 21
195.9509378252
 31
0.0
  0
LINE
  5
143
330
1F
100
AcDbEntity
  8
0
  6
Continuous
 62
     7
370
    30
100
AcDbLine
 10
243.4370579493
 20
195.9509378252
 30
0.0
 11
243.4370579493
 21
195.8509379951
 31
0.0
  0
LINE
  5
144
330
1F
100
AcDbEntity
  8
0
  6
Continuous
 62
     7
370
    30
100
AcDbLine
 10
168.4370549691
 20
195.8509379951
 30
0.0
 11
168.4370549691
 21
195.9509378252
 31
0.0
  0
LINE
  5
145
330
1F
100
AcDbEntity
  8
0
  6
Continuous
 62
     7
370
    30
100
AcDbLine
 10
249.4370552075
 20
195.8509379951
 30
0.0
 11
162.4370577109
 21
195.8509379951
 31
0.0
  0
LINE
  5
146
330
1F
100
AcDbEntity
  8
0
  6
Continuous
 62
     7
370
    30
100
AcDbLine
 10
160.9370546711
 20
190.3828572435
 30
0.0
 11
160.9370546711
 21
195.8509379951
 31
0.0
  0
LINE
  5
147
330
1F
100
AcDbEntity
  8
0
  6
Continuous
 62
     7
370
    30
100
AcDbLine
 10
160.9370546711
 20
195.8509379951
 30
0.0
 11
162.4370577109
 21
195.8509379951
 31
0.0
  0
LINE
  5
148
330
1F
100
AcDbEntity
  8
0
  6
Continuous
 62
     7
370
    30
100
AcDbLine
 10
250.9370582473
 20
195.8509379951
 30
0.0
 11
250.9370582473
 21
190.3828572435
 31
0.0
  0
LINE
  5
149
330
1F
100
AcDbEntity
  8
0
  6
Continuous
 62
     7
370
    30
100
AcDbLine
 10
249.4370552075
 20
195.8509379951
 30
0.0
 11
250.9370582473
 21
195.8509379951
 31
0.0
  0
ARC
  5
14A
330
1F
100
AcDbEntity
  8
0
  6
Continuous
 62
     7
370
    30
100
AcDbCircle
 10
162.4370564592
 20
188.537545117
 30
0.0
 40
1.499999999999994
100
AcDbArc
 50
180.0
 51
261.6205244273
  0
SPLINE
  5
14B
330
1F
100
AcDbEntity
  8
0
  6
Continuous
 62
     7
370
    30
100
AcDbSpline
210
0.0
220
0.0
230
1.0
 70
    24
 71
     3
 72
    13
 73
     9
 74
     0
 42
0.00000001
 43
0.00000001
 40
0.0
 40
0.0
 40
0.0
 40
0.0
 40
0.1653024740531034
 40
0.3306774320172682
 40
0.4959799593435014
 40
0.6639611751043577
 40
0.8320185842193627
 40
0.9999999999999999
 40
0.9999999999999999
 40
0.9999999999999999
 40
0.9999999999999999
 10
160.9370546710537
 20
188.5375449387277
 30
0.0
 10
160.9370546710537
 20
188.5473329659639
 30
0.0
 10
160.9370546710537
 20
188.5669133124136
 30
0.0
 10
160.9370546710537
 20
188.7248794564106
 30
0.0
 10
160.9370546710537
 20
188.9772982789137
 30
0.0
 10
160.9370546710537
 20
189.3378855587732
 30
0.0
 10
160.9370546710537
 20
189.7956045729433
 30
0.0
 10
160.9370546710537
 20
190.1871358675467
 30
0.0
 10
160.9370546710537
 20
190.3828572435225
 30
0.0
  0
ARC
  5
14C
330
1F
100
AcDbEntity
  8
0
  6
Continuous
 62
     7
370
    30
100
AcDbCircle
 10
205.9370564592
 20
483.8509379728
 30
0.0
 40
300.0000000000001
100
AcDbArc
 50
261.6205244273
 51
278.3794755727
  0
SPLINE
  5
14D
330
1F
100
AcDbEntity
  8
0
  6
Continuous
 62
     7
370
    30
100
AcDbSpline
210
0.0
220
0.0
230
1.0
 70
    24
 71
     3
 72
    13
 73
     9
 74
     0
 42
0.00000001
 43
0.00000001
 40
0.0
 40
0.0
 40
0.0
 40
0.0
 40
0.1653031867217034
 40
0.3306787272061598
 40
0.4959818007109552
 40
0.663962512410699
 40
0.8320193137525153
 40
1.0
 40
1.0
 40
1.0
 40
1.0
 10
250.9370582473324
 20
190.3828572435225
 30
0.0
 10
250.9370582473324
 20
190.190102182309
 30
0.0
 10
250.9370582473324
 20
189.8045076903411
 30
0.0
 10
250.9370582473324
 20
189.3515805565071
 30
0.0
 10
250.9370582473324
 20
188.9888762997336
 30
0.0
 10
250.9370582473324
 20
188.7310033657639
 30
0.0
 10
250.9370582473324
 20
188.5678771697451
 30
0.0
 10
250.9370582473324
 20
188.5476541555104
 30
0.0
 10
250.9370582473324
 20
188.5375449387277
 30
0.0
  0
ARC
  5
14E
330
1F
100
AcDbEntity
  8
0
  6
Continuous
 62
     7
370
    30
100
AcDbCircle
 10
249.4370564592
 20
188.537545117
 30
0.0
 40
1.500000000000028
100
AcDbArc
 50
278.3794755727
 51
0.0
  0
LINE
  5
14F
330
1F
100
AcDbEntity
  8
0
  6
Continuous
 62
     7
370
    30
100
AcDbLine
 10
223.9370556843
 20
184.3509379728
 30
0.0
 11
223.9370556843
 21
170.1851872681
 31
0.0
  0
LINE
  5
150
330
1F
100
AcDbEntity
  8
0
  6
Continuous
 62
     7
370
    30
100
AcDbLine
 10
223.4370565337
 20
184.3509379728
 30
0.0
 11
223.9370556843
 21
184.3509379728
 31
0.0
  0
LINE
  5
151
330
1F
100
AcDbEntity
  8
0
  6
Continuous
 62
     7
370
    30
100
AcDbLine
 10
187.9370572341
 20
170.1851872681
 30
0.0
 11
187.9370572341
 21
184.3509379728
 31
0.0
  0
LINE
  5
152
330
1F
100
AcDbEntity
  8
0
  6
Continuous
 62
     7
370
    30
100
AcDbLine
 10
187.9370572341
 20
184.3509379728
 30
0.0
 11
188.4370563847
 21
184.3509379728
 31
0.0
  0
ARC
  5
153
330
1F
100
AcDbEntity
  8
0
  6
Continuous
 62
     7
370
    30
100
AcDbCircle
 10
205.9370564592
 20
483.8509379728
 30
0.0
 40
300.0
100
AcDbArc
 50
266.6915670143
 51
273.3084329857
  0
LINE
  5
154
330
1F
100
AcDbEntity
  8
0
  6
Continuous
 62
     7
370
    30
100
AcDbLine
 10
188.6237660718
 20
184.3509379728
 30
0.0
 11
188.4370563847
 21
184.3509379728
 31
0.0
  0
LINE
  5
155
330
1F
100
AcDbEntity
  8
0
  6
Continuous
 62
     7
370
    30
100
AcDbLine
 10
223.4370565337
 20
184.3509379728
 30
0.0
 11
223.2503468466
 21
184.3509379728
 31
0.0
  0
LINE
  5
156
330
1F
100
AcDbEntity
  8
0
  6
Continuous
 62
     7
370
    30
100
AcDbLine
 10
187.9370572341
 20
168.8509382261
 30
0.0
 11
187.9370572341
 21
170.1851872681
 31
0.0
  0
LINE
  5
157
330
1F
100
AcDbEntity
  8
0
  6
Continuous
 62
     7
370
    30
100
AcDbLine
 10
223.9370556843
 20
170.1851872681
 30
0.0
 11
223.9370556843
 21
168.8509382261
 31
0.0
  0
LINE
  5
158
330
1F
100
AcDbEntity
  8
0
  6
Continuous
 62
     8
370
     0
100
AcDbLine
 10
249.4370552075
 20
190.3828572435
 30
0.0
 11
249.4370552075
 21
195.8509379951
 31
0.0
  0
ARC
  5
159
330
1F
100
AcDbEntity
  8
0
  6
Continuous
 62
     8
370
     0
100
AcDbCircle
 10
205.9370564592
 20
483.8509379728
 30
0.0
 40
296.674509261219
100
AcDbArc
 50
261.5685897783
 51
278.4314102217
  0
LINE
  5
15A
330
1F
100
AcDbEntity
  8
0
  6
Continuous
 62
     8
370
     0
100
AcDbLine
 10
162.4370577109
 20
195.8509379951
 30
0.0
 11
162.4370577109
 21
190.3828572435
 31
0.0
  0
LINE
  5
15B
330
1F
100
AcDbEntity
  8
0
  6
Continuous
 62
     8
370
     0
100
AcDbLine
 10
162.4370577109
 20
190.3828572435
 30
0.0
 11
160.9370546711
 21
190.3828572435
 31
0.0
  0
ARC
  5
15C
330
1F
100
AcDbEntity
  8
0
  6
Continuous
 62
     8
370
     0
100
AcDbCircle
 10
162.4053672937
 20
190.4025700068
 30
0.0
 40
1.468444943054577
100
AcDbArc
 50
180.769175631
 51
262.9045984512
  0
LWPOLYLINE
  5
15D
330
1F
100
AcDbEntity
  8
0
  6
Continuous
 62
     8
370
     0
100
AcDbPolyline
 90
        9
 70
   128
 43
0.0
 10
162.2239822817
 20
188.9453706285
 10
162.2358324301
 20
189.0253265342
 10
162.25315503
 20
189.142174921
 10
162.2754732442
 20
189.2927409103
 10
162.3021798503
 20
189.4729327364
 10
162.3325558674
 20
189.6778530395
 10
162.3657705557
 20
189.9019329762
 10
162.400922395
 20
190.1390826283
 10
162.4370577109
 20
190.3828572435
  0
ARC
  5
15E
330
1F
100
AcDbEntity
  8
0
  6
Continuous
 62
     8
370
     0
100
AcDbCircle
 10
205.9370564592
 20
483.8509379728
 30
0.0
 40
298.1277018063784
100
AcDbArc
 50
261.5685897783
 51
278.4314102217
  0
LWPOLYLINE
  5
15F
330
1F
100
AcDbEntity
  8
0
  6
Continuous
 62
     8
370
     0
100
AcDbPolyline
 90
        9
 70
   128
 43
0.0
 10
249.6501306367
 20
188.9453706285
 10
249.6382804883
 20
189.0253265342
 10
249.6209578884
 20
189.142174921
 10
249.5986396742
 20
189.2927409103
 10
249.571933068
 20
189.4729327364
 10
249.5415570509
 20
189.6778530395
 10
249.5083423626
 20
189.9019329762
 10
249.4731905234
 20
190.1390826283
 10
249.4370552075
 20
190.3828572435
  0
LINE
  5
160
330
1F
100
AcDbEntity
  8
0
  6
Continuous
 62
     8
370
     0
100
AcDbLine
 10
250.9370582473
 20
190.3828572435
 30
0.0
 11
249.4370552075
 21
190.3828572435
 31
0.0
  0
ARC
  5
161
330
1F
100
AcDbEntity
  8
0
  6
Continuous
 62
     8
370
     0
100
AcDbCircle
 10
249.4687456247
 20
190.4025700068
 30
0.0
 40
1.468444943054557
100
AcDbArc
 50
277.0954015488
 51
359.230824369
  0
SPLINE
  5
162
330
1F
100
AcDbEntity
  8
0
  6
Continuous
 62
     8
370
     0
100
AcDbSpline
210
0.0
220
0.0
230
1.0
 70
     8
 71
     3
 72
    12
 73
     8
 74
     0
 42
0.00000001
 43
0.00000001
 40
0.0
 40
0.0
 40
0.0
 40
0.0
 40
0.1996631677671939
 40
0.3987192951560706
 40
0.5977754451272855
 40
0.7988877823022102
 40
1.0
 40
1.0
 40
1.0
 40
1.0
 10
162.2239822816895
 20
188.9453706284906
 30
0.0
 10
162.2232892419055
 20
188.7091061600622
 30
0.0
 10
162.2219052694017
 20
188.237295543334
 30
0.0
 10
162.220389612854
 20
187.7164941433208
 30
0.0
 10
162.2192829630136
 20
187.3360705901145
 30
0.0
 10
162.2185897633968
 20
187.0981963841092
 30
0.0
 10
162.2185066722957
 20
187.0684376710018
 30
0.0
 10
162.2184651267575
 20
187.0535583188678
 30
0.0
  0
SPLINE
  5
163
330
1F
100
AcDbEntity
  8
0
  6
Continuous
 62
     8
370
     0
100
AcDbSpline
210
0.0
220
0.0
230
1.0
 70
     8
 71
     3
 72
    12
 73
     8
 74
     0
 42
0.00000001
 43
0.00000001
 40
0.0
 40
0.0
 40
0.0
 40
0.0
 40
0.1996633195374674
 40
0.3987197193740876
 40
0.5977761348463538
 40
0.7988880282618602
 40
1.0
 40
1.0
 40
1.0
 40
1.0
 10
249.6556477916287
 20
187.0535583188678
 30
0.0
 10
249.6556052205478
 20
187.0681859179166
 30
0.0
 10
249.6555202077901
 20
187.0973966522737
 30
0.0
 10
249.6548422375812
 20
187.3321620307958
 30
0.0
 10
249.6537418459187
 20
187.7097014190647
 30
0.0
 10
249.6522216681976
 20
188.2318564483056
 30
0.0
 10
249.6508276472874
 20
188.7075325375537
 30
0.0
 10
249.6501306366966
 20
188.9453706284906
 30
0.0
  0
LINE
  5
164
330
1F
100
AcDbEntity
  8
0
  6
Continuous
 62
     8
370
     0
100
AcDbLine
 10
223.9370556843
 20
170.1851872681
 30
0.0
 11
223.4370565337
 21
170.1851872681
 31
0.0
  0
LINE
  5
165
330
1F
100
AcDbEntity
  8
0
  6
Continuous
 62
     8
370
     0
100
AcDbLine
 10
223.4370565337
 20
170.1851872681
 30
0.0
 11
223.4370565337
 21
184.3509379728
 31
0.0
  0
LINE
  5
166
330
1F
100
AcDbEntity
  8
0
  6
Continuous
 62
     8
370
     0
100
AcDbLine
 10
188.4370563847
 20
184.3509379728
 30
0.0
 11
188.4370563847
 21
170.1851872681
 31
0.0
  0
LINE
  5
167
330
1F
100
AcDbEntity
  8
0
  6
Continuous
 62
     8
370
     0
100
AcDbLine
 10
187.9370572341
 20
170.1851872681
 30
0.0
 11
188.4370563847
 21
170.1851872681
 31
0.0
  0
LINE
  5
168
330
1F
100
AcDbEntity
  8
0
  6
Continuous
 62
     8
370
     0
100
AcDbLine
 10
188.4370563847
 20
170.1851872681
 30
0.0
 11
223.4370565337
 21
170.1851872681
 31
0.0
  0
LINE
  5
169
330
1F
100
AcDbEntity
  8
0
  6
Continuous
 62
     8
370
     0
100
AcDbLine
 10
188.4370563847
 20
169.725618693
 30
0.0
 11
188.4370563847
 21
170.1851872681
 31
0.0
  0
ARC
  5
16A
330
1F
100
AcDbEntity
  8
0
  6
Continuous
 62
     8
370
     0
100
AcDbCircle
 10
188.4176577508
 20
170.206291055
 30
0.0
 40
0.4810636408213047
100
AcDbArc
 50
182.5143161746
 51
272.3110482553
  0
LINE
  5
16B
330
1F
100
AcDbEntity
  8
0
  6
Continuous
 62
     8
370
     0
100
AcDbLine
 10
223.4370565337
 20
169.725618693
 30
0.0
 11
188.4370563847
 21
169.725618693
 31
0.0
  0
LINE
  5
16C
330
1F
100
AcDbEntity
  8
0
  6
Continuous
 62
     8
370
     0
100
AcDbLine
 10
223.4370565337
 20
169.725618693
 30
0.0
 11
223.4370565337
 21
170.1851872681
 31
0.0
  0
ARC
  5
16D
330
1F
100
AcDbEntity
  8
0
  6
Continuous
 62
     8
370
     0
100
AcDbCircle
 10
223.4564551676
 20
170.206291055
 30
0.0
 40
0.4810636408213047
100
AcDbArc
 50
267.6889517447
 51
357.4856838254
  0
LINE
  5
16E
330
1F
100
AcDbEntity
  8
0
  6
Continuous
 62
     8
370
     0
100
AcDbLine
 10
188.4370563847
 20
169.725618693
 30
0.0
 11
188.4370563847
 21
168.3509372128
 31
0.0
  0
LINE
  5
16F
330
1F
100
AcDbEntity
  8
0
  6
Continuous
 62
     8
370
     0
100
AcDbLine
 10
223.4370565337
 20
168.3509372128
 30
0.0
 11
223.4370565337
 21
169.725618693
 31
0.0
  0
DIMENSION
  5
170
330
1F
100
AcDbEntity
  8
0
  6
Continuous
 62
     7
370
     0
100
AcDbDimension
  2
*D7
 10
237.8753756828
 20
98.5509379728
 30
0.0
 11
237.8753756828
 21
114.506863799
 31
0.0
 70
   160
  1
%%c<>
 71
     2
 42
-1.0
  3
SLDDIMSTYLE0
100
AcDbAlignedDimension
 13
205.9370564592
 23
128.5509379728
 33
0.0
 14
205.9370564592
 24
98.5509379728
 34
0.0
 50
90.0
100
AcDbRotatedDimension
  0
ENDSEC
  0
SECTION
  2
OBJECTS
  0
DICTIONARY
  5
C
330
0
100
AcDbDictionary
281
     1
  3
ACAD_GROUP
350
D
  3
ACAD_LAYOUT
350
1A
  3
ACAD_MLINESTYLE
350
17
  3
ACAD_PLOTSETTINGS
350
19
  3
ACAD_PLOTSTYLENAME
350
E
  0
DICTIONARY
  5
D
102
{ACAD_REACTORS
330
C
102
}
330
C
100
AcDbDictionary
281
     1
  0
DICTIONARY
  5
1A
102
{ACAD_REACTORS
330
C
102
}
330
C
100
AcDbDictionary
281
     1
  3
Layout1
350
1E
  3
Layout2
350
26
  3
Model
350
22
  0
DICTIONARY
  5
17
102
{ACAD_REACTORS
330
C
102
}
330
C
100
AcDbDictionary
281
     1
  3
Standard
350
18
  0
DICTIONARY
  5
19
102
{ACAD_REACTORS
330
C
102
}
330
C
100
AcDbDictionary
281
     1
  0
ACDBDICTIONARYWDFLT
  5
E
102
{ACAD_REACTORS
330
C
102
}
330
C
100
AcDbDictionary
281
     1
  3
Normal
350
F
100
AcDbDictionaryWithDefault
340
F
  0
LAYOUT
  5
1E
102
{ACAD_REACTORS
330
1A
102
}
330
1A
100
AcDbPlotSettings
  1

  2
none_device
  4

  6

 40
0.0
 41
0.0
 42
0.0
 43
0.0
 44
0.0
 45
0.0
 46
0.0
 47
0.0
 48
0.0
 49
0.0
140
0.0
141
0.0
142
1.0
143
1.0
 70
   688
 72
     0
 73
     0
 74
     5
  7

 75
    16
147
1.0
148
0.0
149
0.0
100
AcDbLayout
  1
Layout1
 70
     1
 71
     1
 10
0.0
 20
0.0
 11
420.0
 21
297.0
 12
0.0
 22
0.0
 32
0.0
 14
1.0000000000E+20
 24
1.0000000000E+20
 34
1.0000000000E+20
 15
-1.0000000000E+20
 25
-1.0000000000E+20
 35
-1.0000000000E+20
146
0.0
 13
0.0
 23
0.0
 33
0.0
 16
1.0
 26
0.0
 36
0.0
 17
0.0
 27
1.0
 37
0.0
 76
     0
330
1B
  0
LAYOUT
  5
26
102
{ACAD_REACTORS
330
1A
102
}
330
1A
100
AcDbPlotSettings
  1

  2
none_device
  4

  6

 40
0.0
 41
0.0
 42
0.0
 43
0.0
 44
0.0
 45
0.0
 46
0.0
 47
0.0
 48
0.0
 49
0.0
140
0.0
141
0.0
142
1.0
143
1.0
 70
   688
 72
     0
 73
     0
 74
     5
  7

 75
    16
147
1.0
148
0.0
149
0.0
100
AcDbLayout
  1
Layout2
 70
     1
 71
     2
 10
0.0
 20
0.0
 11
0.0
 21
0.0
 12
0.0
 22
0.0
 32
0.0
 14
0.0
 24
0.0
 34
0.0
 15
0.0
 25
0.0
 35
0.0
146
0.0
 13
0.0
 23
0.0
 33
0.0
 16
1.0
 26
0.0
 36
0.0
 17
0.0
 27
1.0
 37
0.0
 76
     0
330
23
  0
LAYOUT
  5
22
102
{ACAD_REACTORS
330
1A
102
}
330
1A
100
AcDbPlotSettings
  1

  2
none_device
  4

  6

 40
0.0
 41
0.0
 42
0.0
 43
0.0
 44
0.0
 45
0.0
 46
0.0
 47
0.0
 48
0.0
 49
0.0
140
0.0
141
0.0
142
1.0
143
1.0
 70
  1712
 72
     0
 73
     0
 74
     0
  7

 75
     0
147
1.0
148
0.0
149
0.0
100
AcDbLayout
  1
Model
 70
     1
 71
     0
 10
0.0
 20
0.0
 11
594.0
 21
420.0
 12
0.0
 22
0.0
 32
0.0
 14
0.0
 24
0.0
 34
0.0
 15
594.0
 25
420.0
 35
0.0
146
0.0
 13
0.0
 23
0.0
 33
0.0
 16
1.0
 26
0.0
 36
0.0
 17
0.0
 27
1.0
 37
0.0
 76
     0
330
1F
331
29
  0
MLINESTYLE
  5
18
102
{ACAD_REACTORS
330
17
102
}
330
17
100
AcDbMlineStyle
  2
Standard
 70
     0
  3

 62
   256
 51
90.0
 52
90.0
 71
     2
 49
0.5
 62
   256
  6
BYLAYER
 49
-0.5
 62
   256
  6
BYLAYER
  0
ACDBPLACEHOLDER
  5
F
102
{ACAD_REACTORS
330
E
102
}
330
E
  0
ENDSEC
  0
EOF
