  0
SECTION
  2
HEADER
  9
$ACADVER
  1
AC1015
  9
$ACADMAINTVER
 70
     6
  9
$DWGCODEPAGE
  3
ANSI_1252
  9
$INSBASE
 10
0.0
 20
0.0
 30
0.0
  9
$EXTMIN
 10
0.0
 20
0.0
 30
0.0
  9
$EXTMAX
 10
420.0
 20
297.0
 30
0.0
  9
$LIMMIN
 10
0.0
 20
0.0
  9
$LIMMAX
 10
420.0
 20
297.0
  9
$ORTHOMODE
 70
     0
  9
$REGENMODE
 70
     1
  9
$FILLMODE
 70
     1
  9
$QTEXTMODE
 70
     0
  9
$MIRRTEXT
 70
     1
  9
$LTSCALE
 40
1.0
  9
$ATTMODE
 70
     1
  9
$TEXTSIZE
 40
3.5
  9
$TRACEWID
 40
1.0
  9
$TEXTSTYLE
  7
Standard
  9
$CLAYER
  8
0
  9
$CELTYPE
  6
ByLayer
  9
$CECOLOR
 62
   256
  9
$CELTSCALE
 40
1.0
  9
$DISPSILH
 70
     0
  9
$DIMSCALE
 40
1.0
  9
$DIMASZ
 40
3.5
  9
$DIMEXO
 40
1.0
  9
$DIMDLI
 40
3.75
  9
$DIMRND
 40
0.0
  9
$DIMDLE
 40
0.0
  9
$DIMEXE
 40
1.0
  9
$DIMTP
 40
0.0
  9
$DIMTM
 40
0.0
  9
$DIMTXT
 40
3.5
  9
$DIMCEN
 40
2.5
  9
$DIMTSZ
 40
0.0
  9
$DIMTOL
 70
     0
  9
$DIMLIM
 70
     0
  9
$DIMTIH
 70
     1
  9
$DIMTOH
 70
     1
  9
$DIMSE1
 70
     0
  9
$DIMSE2
 70
     0
  9
$DIMTAD
 70
     1
  9
$DIMZIN
 70
     0
  9
$DIMBLK
  1

  9
$DIMASO
 70
     1
  9
$DIMSHO
 70
     1
  9
$DIMPOST
  1

  9
$DIMAPOST
  1

  9
$DIMALT
 70
     0
  9
$DIMALTD
 70
     3
  9
$DIMALTF
 40
0.0393700787
  9
$DIMLFAC
 40
1.0
  9
$DIMTOFL
 70
     1
  9
$DIMTVP
 40
0.0
  9
$DIMTIX
 70
     0
  9
$DIMSOXD
 70
     0
  9
$DIMSAH
 70
     0
  9
$DIMBLK1
  1

  9
$DIMBLK2
  1

  9
$DIMSTYLE
  2
ISO-25
  9
$DIMCLRD
 70
     0
  9
$DIMCLRE
 70
     0
  9
$DIMCLRT
 70
     0
  9
$DIMTFAC
 40
1.0
  9
$DIMGAP
 40
1.5
  9
$DIMJUST
 70
     0
  9
$DIMSD1
 70
     0
  9
$DIMSD2
 70
     0
  9
$DIMTOLJ
 70
     0
  9
$DIMTZIN
 70
     0
  9
$DIMALTZ
 70
     0
  9
$DIMALTTZ
 70
     0
  9
$DIMUPT
 70
     0
  9
$DIMDEC
 70
     2
  9
$DIMTDEC
 70
     3
  9
$DIMALTU
 70
     2
  9
$DIMALTTD
 70
     3
  9
$DIMTXSTY
  7
Standard
  9
$DIMAUNIT
 70
     0
  9
$DIMADEC
 70
     2
  9
$DIMALTRND
 40
0.0
  9
$DIMAZIN
 70
     0
  9
$DIMDSEP
 70
    44
  9
$DIMATFIT
 70
     3
  9
$DIMFRAC
 70
     0
  9
$DIMLDRBLK
  1

  9
$DIMLUNIT
 70
     2
  9
$DIMLWD
 70
    -2
  9
$DIMLWE
 70
    -2
  9
$DIMTMOVE
 70
     0
  9
$LUNITS
 70
     2
  9
$LUPREC
 70
     2
  9
$SKETCHINC
 40
1.0
  9
$FILLETRAD
 40
10.0
  9
$AUNITS
 70
     0
  9
$AUPREC
 70
     2
  9
$MENU
  1
.
  9
$ELEVATION
 40
0.0
  9
$PELEVATION
 40
0.0
  9
$THICKNESS
 40
0.0
  9
$LIMCHECK
 70
     0
  9
$CHAMFERA
 40
10.0
  9
$CHAMFERB
 40
10.0
  9
$CHAMFERC
 40
20.0
  9
$CHAMFERD
 40
0.0
  9
$SKPOLY
 70
     0
  9
$TDCREATE
 40
2456113.294278183
  9
$TDUCREATE
 40
2456113.21094485
  9
$TDUPDATE
 40
2456113.294278195
  9
$TDUUPDATE
 40
2456113.210944861
  9
$TDINDWG
 40
0.0000000116
  9
$TDUSRTIMER
 40
0.0000000116
  9
$USRTIMER
 70
     1
  9
$ANGBASE
 50
0.0
  9
$ANGDIR
 70
     0
  9
$PDMODE
 70
     0
  9
$PDSIZE
 40
-1.0
  9
$PLINEWID
 40
0.0
  9
$SPLFRAME
 70
     0
  9
$SPLINETYPE
 70
     6
  9
$SPLINESEGS
 70
     8
  9
$HANDSEED
  5
29B
  9
$SURFTAB1
 70
     6
  9
$SURFTAB2
 70
     6
  9
$SURFTYPE
 70
     6
  9
$SURFU
 70
     6
  9
$SURFV
 70
     6
  9
$UCSBASE
  2

  9
$UCSNAME
  2

  9
$UCSORG
 10
0.0
 20
0.0
 30
0.0
  9
$UCSXDIR
 10
1.0
 20
0.0
 30
0.0
  9
$UCSYDIR
 10
0.0
 20
1.0
 30
0.0
  9
$UCSORTHOREF
  2

  9
$UCSORTHOVIEW
 70
     0
  9
$UCSORGTOP
 10
0.0
 20
0.0
 30
0.0
  9
$UCSORGBOTTOM
 10
0.0
 20
0.0
 30
0.0
  9
$UCSORGLEFT
 10
0.0
 20
0.0
 30
0.0
  9
$UCSORGRIGHT
 10
0.0
 20
0.0
 30
0.0
  9
$UCSORGFRONT
 10
0.0
 20
0.0
 30
0.0
  9
$UCSORGBACK
 10
0.0
 20
0.0
 30
0.0
  9
$PUCSBASE
  2

  9
$PUCSNAME
  2

  9
$PUCSORG
 10
0.0
 20
0.0
 30
0.0
  9
$PUCSXDIR
 10
1.0
 20
0.0
 30
0.0
  9
$PUCSYDIR
 10
0.0
 20
1.0
 30
0.0
  9
$PUCSORTHOREF
  2

  9
$PUCSORTHOVIEW
 70
     0
  9
$PUCSORGTOP
 10
0.0
 20
0.0
 30
0.0
  9
$PUCSORGBOTTOM
 10
0.0
 20
0.0
 30
0.0
  9
$PUCSORGLEFT
 10
0.0
 20
0.0
 30
0.0
  9
$PUCSORGRIGHT
 10
0.0
 20
0.0
 30
0.0
  9
$PUCSORGFRONT
 10
0.0
 20
0.0
 30
0.0
  9
$PUCSORGBACK
 10
0.0
 20
0.0
 30
0.0
  9
$USERI1
 70
     0
  9
$USERI2
 70
     0
  9
$USERI3
 70
     0
  9
$USERI4
 70
     0
  9
$USERI5
 70
     0
  9
$USERR1
 40
0.0
  9
$USERR2
 40
0.0
  9
$USERR3
 40
0.0
  9
$USERR4
 40
0.0
  9
$USERR5
 40
0.0
  9
$WORLDVIEW
 70
     1
  9
$SHADEDGE
 70
     3
  9
$SHADEDIF
 70
    70
  9
$TILEMODE
 70
     1
  9
$MAXACTVP
 70
    64
  9
$PINSBASE
 10
0.0
 20
0.0
 30
0.0
  9
$PLIMCHECK
 70
     0
  9
$PEXTMIN
 10
1.0000000000E+20
 20
1.0000000000E+20
 30
1.0000000000E+20
  9
$PEXTMAX
 10
-1.0000000000E+20
 20
-1.0000000000E+20
 30
-1.0000000000E+20
  9
$PLIMMIN
 10
0.0
 20
0.0
  9
$PLIMMAX
 10
420.0
 20
297.0
  9
$UNITMODE
 70
     0
  9
$VISRETAIN
 70
     1
  9
$PLINEGEN
 70
     0
  9
$PSLTSCALE
 70
     1
  9
$TREEDEPTH
 70
  3020
  9
$CMLSTYLE
  2
Standard
  9
$CMLJUST
 70
     0
  9
$CMLSCALE
 40
20.0
  9
$PROXYGRAPHICS
 70
     1
  9
$MEASUREMENT
 70
     1
  9
$CELWEIGHT
370
    -1
  9
$ENDCAPS
280
     0
  9
$JOINSTYLE
280
     0
  9
$LWDISPLAY
290
     1
  9
$INSUNITS
 70
     4
  9
$HYPERLINKBASE
  1

  9
$STYLESHEET
  1

  9
$XEDIT
290
     1
  9
$CEPSNTYPE
380
     0
  9
$PSTYLEMODE
290
     1
  9
$FINGERPRINTGUID
  2
{6DC2AFCD-A829-4689-8CB2-34FAC01AB11B}
  9
$VERSIONGUID
  2
{FAEB1C32-E019-11D5-929B-00C0DF256EC4}
  9
$EXTNAMES
290
     1
  9
$PSVPSCALE
 40
0.0
  9
$OLESTARTUP
290
     0
  0
ENDSEC
  0
SECTION
  2
CLASSES
  0
CLASS
  1
ACDBDICTIONARYWDFLT
  2
AcDbDictionaryWithDefault
  3
ObjectDBX Classes
 90
        0
280
     0
281
     0
  0
CLASS
  1
VISUALSTYLE
  2
AcDbVisualStyle
  3
ObjectDBX Classes
 90
     4095
280
     0
281
     0
  0
CLASS
  1
MATERIAL
  2
AcDbMaterial
  3
ObjectDBX Classes
 90
     1153
280
     0
281
     0
  0
CLASS
  1
ACDBPLACEHOLDER
  2
AcDbPlaceHolder
  3
ObjectDBX Classes
 90
        0
280
     0
281
     0
  0
CLASS
  1
LAYOUT
  2
AcDbLayout
  3
ObjectDBX Classes
 90
        0
280
     0
281
     0
  0
ENDSEC
  0
SECTION
  2
TABLES
  0
TABLE
  2
VPORT
  5
8
330
0
100
AcDbSymbolTable
 70
     1
  0
VPORT
  5
29
330
8
100
AcDbSymbolTableRecord
100
AcDbViewportTableRecord
  2
*Active
 70
     0
 10
0.0
 20
0.0
 11
1.0
 21
1.0
 12
210.0
 22
148.5
 13
0.0
 23
0.0
 14
10.0
 24
10.0
 15
10.0
 25
10.0
 16
0.0
 26
0.0
 36
1.0
 17
0.0
 27
0.0
 37
0.0
 40
297.0
 41
1.4141414141
 42
50.0
 43
0.0
 44
0.0
 50
0.0
 51
0.0
 71
     0
 72
  2000
 73
     1
 74
     3
 75
     0
 76
     0
 77
     0
 78
     0
281
     0
 65
     1
110
0.0
120
0.0
130
0.0
111
1.0
121
0.0
131
0.0
112
0.0
122
1.0
132
0.0
 79
     0
146
0.0
  0
ENDTAB
  0
TABLE
  2
LTYPE
  5
5
330
0
100
AcDbSymbolTable
 70
     6
  0
LTYPE
  5
14
330
5
100
AcDbSymbolTableRecord
100
AcDbLinetypeTableRecord
  2
ByBlock
 70
     0
  3

 72
    65
 73
     0
 40
0.0
  0
LTYPE
  5
15
330
5
100
AcDbSymbolTableRecord
100
AcDbLinetypeTableRecord
  2
ByLayer
 70
     0
  3

 72
    65
 73
     0
 40
0.0
  0
LTYPE
  5
16
330
5
100
AcDbSymbolTableRecord
100
AcDbLinetypeTableRecord
  2
Continuous
 70
     0
  3
Solid line
 72
    65
 73
     0
 40
0.0
  0
LTYPE
  5
3F
330
5
100
AcDbSymbolTableRecord
100
AcDbLinetypeTableRecord
  2
HIDDEN
 70
     0
  3
Hidden __ __ __ __ __ __ __ __ __ __ __ __ __ __
 72
    65
 73
     2
 40
1.905
 49
1.27
 74
     0
 49
-0.635
 74
     0
  0
LTYPE
  5
40
330
5
100
AcDbSymbolTableRecord
100
AcDbLinetypeTableRecord
  2
PHANTOM
 70
     0
  3
Phantom ______  __  __  ______  __  __  ______
 72
    65
 73
     6
 40
12.7
 49
6.35
 74
     0
 49
-1.27
 74
     0
 49
1.27
 74
     0
 49
-1.27
 74
     0
 49
1.27
 74
     0
 49
-1.27
 74
     0
  0
LTYPE
  5
41
330
5
100
AcDbSymbolTableRecord
100
AcDbLinetypeTableRecord
  2
CENTER
 70
     0
  3
Center ____ _ ____ _ ____ _ ____ _ ____ _ ____
 72
    65
 73
     4
 40
10.16
 49
6.35
 74
     0
 49
-1.27
 74
     0
 49
1.27
 74
     0
 49
-1.27
 74
     0
  0
LTYPE
  5
42
330
5
100
AcDbSymbolTableRecord
100
AcDbLinetypeTableRecord
  2
CENTERX2
 70
     0
  3
Center (2x) ________  __  ________  __  _____
 72
    65
 73
     4
 40
20.32
 49
12.7
 74
     0
 49
-2.54
 74
     0
 49
2.54
 74
     0
 49
-2.54
 74
     0
  0
LTYPE
  5
43
330
5
100
AcDbSymbolTableRecord
100
AcDbLinetypeTableRecord
  2
DOT2
 70
     0
  3
Dot (.5x) ........................................
 72
    65
 73
     2
 40
0.635
 49
0.0
 74
     0
 49
-0.635
 74
     0
  0
ENDTAB
  0
TABLE
  2
LAYER
  5
2
330
0
100
AcDbSymbolTable
 70
     7
  0
LAYER
  5
10
330
2
100
AcDbSymbolTableRecord
100
AcDbLayerTableRecord
  2
0
 70
     0
 62
     7
  6
Continuous
370
    -3
390
F
  0
LAYER
  5
44
330
2
100
AcDbSymbolTableRecord
100
AcDbLayerTableRecord
  2
VORLAGE
 70
     0
 62
    -5
  6
Continuous
370
    -3
390
F
  0
LAYER
  5
45
330
2
100
AcDbSymbolTableRecord
100
AcDbLayerTableRecord
  2
KOPF
 70
     0
 62
     7
  6
Continuous
370
    -3
390
F
  0
LAYER
  5
46
330
2
100
AcDbSymbolTableRecord
100
AcDbLayerTableRecord
  2
RAHMEN
 70
     0
 62
     7
  6
Continuous
370
    -3
390
F
  0
LAYER
  5
47
330
2
100
AcDbSymbolTableRecord
100
AcDbLayerTableRecord
  2
ROT
 70
     0
 62
     1
  6
Continuous
370
    -3
390
F
  0
LAYER
  5
48
330
2
100
AcDbSymbolTableRecord
100
AcDbLayerTableRecord
  2
ZEICHNUNG
 70
     0
 62
     7
  6
Continuous
370
    -3
390
F
  0
LAYER
  5
49
330
2
100
AcDbSymbolTableRecord
100
AcDbLayerTableRecord
  2
TEMP
 70
     0
 62
    -7
  6
Continuous
370
    -3
390
F
  0
ENDTAB
  0
TABLE
  2
STYLE
  5
3
330
0
100
AcDbSymbolTable
 70
     3
  0
STYLE
  5
11
330
3
100
AcDbSymbolTableRecord
100
AcDbTextStyleTableRecord
  2
Standard
 70
     0
 40
0.0
 41
1.0
 50
0.0
 71
     0
 42
2.5
  3
txt
  4

  0
STYLE
  5
88
330
3
100
AcDbSymbolTableRecord
100
AcDbTextStyleTableRecord
  2
SLDTEXTSTYLE0
 70
     0
 40
0.0
 41
0.605
 50
0.0
 71
     0
 42
0.2
  3
TXT
  4

  0
STYLE
  5
299
330
3
100
AcDbSymbolTableRecord
100
AcDbTextStyleTableRecord
  2
SLDTEXTSTYLE1
 70
     0
 40
0.0
 41
0.563
 50
0.0
 71
     0
 42
0.2
  3
TXT
  4

  0
ENDTAB
  0
TABLE
  2
VIEW
  5
6
330
0
100
AcDbSymbolTable
 70
     0
  0
ENDTAB
  0
TABLE
  2
UCS
  5
7
330
0
100
AcDbSymbolTable
 70
     0
  0
ENDTAB
  0
TABLE
  2
APPID
  5
9
330
0
100
AcDbSymbolTable
 70
     1
  0
APPID
  5
12
330
9
100
AcDbSymbolTableRecord
100
AcDbRegAppTableRecord
  2
ACAD
 70
     0
  0
ENDTAB
  0
TABLE
  2
DIMSTYLE
  5
A
330
0
100
AcDbSymbolTable
 70
     3
100
AcDbDimStyleTable
  0
DIMSTYLE
105
27
330
A
100
AcDbSymbolTableRecord
100
AcDbDimStyleTableRecord
  2
ISO-25
 70
     0
 41
2.5
 42
0.625
 43
3.75
 44
1.25
 73
     0
 74
     0
 77
     1
 78
     8
140
2.5
141
2.5
143
0.0393700787
147
0.625
171
     3
172
     1
178
     0
271
     2
272
     2
274
     3
278
    44
283
     0
284
     8
340
11
  0
DIMSTYLE
105
89
102
{ACAD_REACTORS
330
87
330
249
102
}
330
A
100
AcDbSymbolTableRecord
100
AcDbDimStyleTableRecord
  2
SLDDIMSTYLE0
 70
     0
 41
3.5
 44
0.0
 45
0.000000001
 73
     0
 74
     0
 77
     1
 78
    12
 79
     3
140
3.5
147
0.875
173
     1
178
     0
271
     2
272
     3
276
     2
284
    12
340
88
  0
DIMSTYLE
105
95
102
{ACAD_REACTORS
330
94
102
}
330
A
100
AcDbSymbolTableRecord
100
AcDbDimStyleTableRecord
  2
SLDDIMSTYLE1
 70
     0
 41
3.5
 44
0.0
 45
0.000000001
 73
     0
 74
     0
 77
     1
 78
    12
 79
     3
140
3.5
147
0.875
173
     1
178
     0
271
     0
272
     3
276
     2
284
    12
340
88
  0
ENDTAB
  0
TABLE
  2
BLOCK_RECORD
  5
1
330
0
100
AcDbSymbolTable
 70
     5
  0
BLOCK_RECORD
  5
1F
330
1
100
AcDbSymbolTableRecord
100
AcDbBlockTableRecord
  2
*Model_Space
340
22
  0
BLOCK_RECORD
  5
1B
330
1
100
AcDbSymbolTableRecord
100
AcDbBlockTableRecord
  2
*Paper_Space
340
1E
  0
BLOCK_RECORD
  5
23
330
1
100
AcDbSymbolTableRecord
100
AcDbBlockTableRecord
  2
*Paper_Space0
340
26
  0
BLOCK_RECORD
  5
8A
330
1
100
AcDbSymbolTableRecord
100
AcDbBlockTableRecord
  2
*D1
340
0
  0
BLOCK_RECORD
  5
96
330
1
100
AcDbSymbolTableRecord
100
AcDbBlockTableRecord
  2
*D2
340
0
  0
BLOCK_RECORD
  5
24A
330
1
100
AcDbSymbolTableRecord
100
AcDbBlockTableRecord
  2
*D3
340
0
  0
BLOCK_RECORD
  5
277
330
1
100
AcDbSymbolTableRecord
100
AcDbBlockTableRecord
  2
SW_HATCH_0
340
0
102
{BLKREFS
331
298
102
}
  0
ENDTAB
  0
ENDSEC
  0
SECTION
  2
BLOCKS
  0
BLOCK
  5
20
330
1F
100
AcDbEntity
  8
0
100
AcDbBlockBegin
  2
*Model_Space
 70
     0
 10
0.0
 20
0.0
 30
0.0
  3
*Model_Space
  1

  0
ENDBLK
  5
21
330
1F
100
AcDbEntity
  8
0
100
AcDbBlockEnd
  0
BLOCK
  5
1C
330
1B
100
AcDbEntity
 67
     1
  8
0
100
AcDbBlockBegin
  2
*Paper_Space
 70
     0
 10
0.0
 20
0.0
 30
0.0
  3
*Paper_Space
  1

  0
ENDBLK
  5
1D
330
1B
100
AcDbEntity
 67
     1
  8
0
100
AcDbBlockEnd
  0
BLOCK
  5
24
330
23
100
AcDbEntity
  8
0
100
AcDbBlockBegin
  2
*Paper_Space0
 70
     0
 10
0.0
 20
0.0
 30
0.0
  3
*Paper_Space0
  1

  0
ENDBLK
  5
25
330
23
100
AcDbEntity
  8
0
100
AcDbBlockEnd
  0
BLOCK
  5
8B
330
8A
100
AcDbEntity
  8
0
100
AcDbBlockBegin
  2
*D1
 70
     1
 10
0.0
 20
0.0
 30
0.0
  3
*D1
  1

  0
SOLID
  5
8D
330
8A
100
AcDbEntity
  8
0
  6
Continuous
 62
     7
370
     0
100
AcDbTrace
 10
100.9669270465
 20
83.2214679496
 30
0.0
 11
104.4669270465
 21
82.3214679496
 31
0.0
 12
104.4669270465
 22
84.1214679496
 32
0.0
 13
104.4669270465
 23
84.1214679496
 33
0.0
  0
SOLID
  5
8E
330
8A
100
AcDbEntity
  8
0
  6
Continuous
 62
     7
370
     0
100
AcDbTrace
 10
166.9669270465
 20
83.2214679496
 30
0.0
 11
163.4669270465
 21
84.1214679496
 31
0.0
 12
163.4669270465
 22
82.3214679496
 32
0.0
 13
163.4669270465
 23
82.3214679496
 33
0.0
  0
LINE
  5
8F
330
8A
100
AcDbEntity
  8
0
  6
Continuous
 62
     7
370
     0
100
AcDbLine
 10
100.9669270465
 20
92.2214679496
 30
0.0
 11
100.9669270465
 21
82.2214679496
 31
0.0
  0
LINE
  5
90
330
8A
100
AcDbEntity
  8
0
  6
Continuous
 62
     7
370
     0
100
AcDbLine
 10
166.9669270465
 20
92.2214679496
 30
0.0
 11
166.9669270465
 21
82.2214679496
 31
0.0
  0
LINE
  5
91
330
8A
100
AcDbEntity
  8
0
  6
Continuous
 62
     7
370
     0
100
AcDbLine
 10
100.9669270465
 20
83.2214679496
 30
0.0
 11
166.9669270465
 21
83.2214679496
 31
0.0
  0
MTEXT
  5
92
330
8A
100
AcDbEntity
  8
0
  6
Continuous
 62
     7
370
     0
100
AcDbMText
 10
127.8735241877
 20
87.7332052717
 30
-4.0097403907
 40
3.5
 41
0.0
 71
     1
 72
     1
  1
%%c
  7
SLDTEXTSTYLE0
 73
     1
 44
1.0
  0
MTEXT
  5
93
330
8A
100
AcDbEntity
  8
0
  6
Continuous
 62
     7
370
     0
100
AcDbMText
 10
133.0457465747
 20
87.7332052717
 30
-4.0097403907
 40
3.5
 41
0.0
 71
     1
 72
     1
  1
66
  7
SLDTEXTSTYLE0
 73
     1
 44
1.0
  0
ENDBLK
  5
8C
330
8A
100
AcDbEntity
  8
0
100
AcDbBlockEnd
  0
BLOCK
  5
97
330
96
100
AcDbEntity
  8
0
100
AcDbBlockBegin
  2
*D2
 70
     1
 10
0.0
 20
0.0
 30
0.0
  3
*D2
  1

  0
SOLID
  5
99
330
96
100
AcDbEntity
  8
0
  6
Continuous
 62
     7
370
     0
100
AcDbTrace
 10
91.7990040749
 20
92.2214679496
 30
0.0
 11
92.6990040749
 21
95.7214679496
 31
0.0
 12
90.8990040749
 22
95.7214679496
 32
0.0
 13
90.8990040749
 23
95.7214679496
 33
0.0
  0
SOLID
  5
9A
330
96
100
AcDbEntity
  8
0
  6
Continuous
 62
     7
370
     0
100
AcDbTrace
 10
91.7990040749
 20
251.7641465032
 30
0.0
 11
90.8990040749
 21
248.2641465032
 31
0.0
 12
92.6990040749
 22
248.2641465032
 32
0.0
 13
92.6990040749
 23
248.2641465032
 33
0.0
  0
LINE
  5
9B
330
96
100
AcDbEntity
  8
0
  6
Continuous
 62
     7
370
     0
100
AcDbLine
 10
100.4669270465
 20
92.2214679496
 30
0.0
 11
90.7990040749
 21
92.2214679496
 31
0.0
  0
LINE
  5
9C
330
96
100
AcDbEntity
  8
0
  6
Continuous
 62
     7
370
     0
100
AcDbLine
 10
120.4669270465
 20
251.7641465032
 30
0.0
 11
90.7990040749
 21
251.7641465032
 31
0.0
  0
LINE
  5
9D
330
96
100
AcDbEntity
  8
0
  6
Continuous
 62
     7
370
     0
100
AcDbLine
 10
91.7990040749
 20
92.2214679496
 30
0.0
 11
91.7990040749
 21
251.7641465032
 31
0.0
  0
MTEXT
  5
9E
330
96
100
AcDbEntity
  8
0
  6
Continuous
 62
     7
370
     0
100
AcDbMText
 10
87.2872672185
 20
167.3893351538
 30
-4.0097403907
 40
3.5
 41
0.0
 71
     1
 72
     1
  1
160
  7
SLDTEXTSTYLE0
 11
6.123233995736766E-17
 21
1.0
 31
0.0
 73
     1
 44
1.0
  0
ENDBLK
  5
98
330
96
100
AcDbEntity
  8
0
100
AcDbBlockEnd
  0
BLOCK
  5
24B
330
24A
100
AcDbEntity
  8
0
100
AcDbBlockBegin
  2
*D3
 70
     1
 10
0.0
 20
0.0
 30
0.0
  3
*D3
  1

  0
SOLID
  5
24D
330
24A
100
AcDbEntity
  8
0
  6
Continuous
 62
     7
370
     0
100
AcDbTrace
 10
365.4014082521
 20
261.7641465032
 30
0.0
 11
361.9014082521
 21
262.6641465032
 31
0.0
 12
361.9014082521
 22
260.8641465032
 32
0.0
 13
361.9014082521
 23
260.8641465032
 33
0.0
  0
SOLID
  5
24E
330
24A
100
AcDbEntity
  8
0
  6
Continuous
 62
     7
370
     0
100
AcDbTrace
 10
277.1514082521
 20
261.7641465032
 30
0.0
 11
280.6514082521
 21
260.8641465032
 31
0.0
 12
280.6514082521
 22
262.6641465032
 32
0.0
 13
280.6514082521
 23
262.6641465032
 33
0.0
  0
LINE
  5
24F
330
24A
100
AcDbEntity
  8
0
  6
Continuous
 62
     7
370
     0
100
AcDbLine
 10
365.4014082521
 20
249.7641465032
 30
0.0
 11
365.4014082521
 21
262.7641465032
 31
0.0
  0
LINE
  5
250
330
24A
100
AcDbEntity
  8
0
  6
Continuous
 62
     7
370
     0
100
AcDbLine
 10
277.1514082521
 20
196.3641465032
 30
0.0
 11
277.1514082521
 21
262.7641465032
 31
0.0
  0
LINE
  5
251
330
24A
100
AcDbEntity
  8
0
  6
Continuous
 62
     7
370
     0
100
AcDbLine
 10
365.4014082521
 20
261.7641465032
 30
0.0
 11
277.1514082521
 21
261.7641465032
 31
0.0
  0
MTEXT
  5
252
330
24A
100
AcDbEntity
  8
0
  6
Continuous
 62
     7
370
     0
100
AcDbMText
 10
315.0274498433
 20
266.2758833596
 30
7.5773196338
 40
3.5
 41
0.0
 71
     1
 72
     1
  1
88.25
  7
SLDTEXTSTYLE0
 73
     1
 44
1.0
  0
ENDBLK
  5
24C
330
24A
100
AcDbEntity
  8
0
100
AcDbBlockEnd
  0
BLOCK
  5
278
330
277
100
AcDbEntity
  8
0
100
AcDbBlockBegin
  2
SW_HATCH_0
 70
     0
 10
0.0
 20
0.0
 30
0.0
  3
SW_HATCH_0
  1

  0
LINE
  5
27A
330
277
100
AcDbEntity
  8
0
  6
Continuous
 62
     0
370
     0
100
AcDbLine
 10
0.0
 20
0.0
 30
0.0
 11
3.9053484797
 21
3.9053484797
 31
0.0
  0
LINE
  5
27B
330
277
100
AcDbEntity
  8
0
  6
Continuous
 62
     0
370
     0
100
AcDbLine
 10
-0.2414770424
 20
-9.2217344791
 30
0.0
 11
3.5214088857
 21
-5.4588466883
 31
0.0
  0
LINE
  5
27C
330
277
100
AcDbEntity
  8
0
  6
Continuous
 62
     0
370
     0
100
AcDbLine
 10
2.0479783416
 20
-15.9125328064
 30
0.0
 11
3.5214088857
 21
-14.4391022623
 31
0.0
  0
LINE
  5
27D
330
277
100
AcDbEntity
  8
0
  6
Continuous
 62
     0
370
     0
100
AcDbLine
 10
0.3832019866
 20
-4.1069239378
 30
0.0
 11
3.5214088857
 21
-0.9687170386
 31
0.0
  0
LINE
  5
27E
330
277
100
AcDbEntity
  8
0
  6
Continuous
 62
     0
370
     0
100
AcDbLine
 10
-0.3622174263
 20
-13.8326026499
 30
0.0
 11
2.6282668114
 21
-10.8421165496
 31
0.0
  0
LINE
  5
27F
330
277
100
AcDbEntity
  8
0
  6
Continuous
 62
     0
370
     0
100
AcDbLine
 10
-23.9331312478
 20
12.3675689101
 30
0.0
 11
-16.9129148126
 21
12.3675689101
 31
0.0
  0
LINE
  5
280
330
277
100
AcDbEntity
  8
0
  6
Continuous
 62
     0
370
     0
100
AcDbLine
 10
-21.5676836669
 20
9.1925673187
 30
0.0
 11
-3.3372156322
 21
9.1925673187
 31
0.0
  0
LINE
  5
281
330
277
100
AcDbEntity
  8
0
  6
Continuous
 62
     0
370
     0
100
AcDbLine
 10
-11.9936726987
 20
6.0175694525
 30
0.0
 11
4.021409899
 21
6.0175694525
 31
0.0
  0
LINE
  5
282
330
277
100
AcDbEntity
  8
0
  6
Continuous
 62
     0
370
     0
100
AcDbLine
 10
-11.3300345838
 20
2.8425678611
 30
0.0
 11
-6.4785890281
 21
2.8425678611
 31
0.0
  0
LINE
  5
283
330
277
100
AcDbEntity
  8
0
  6
Continuous
 62
     0
370
     0
100
AcDbLine
 10
-11.2191587687
 20
-0.3324300051
 30
0.0
 11
-6.4785890281
 21
-0.3324300051
 31
0.0
  0
LINE
  5
284
330
277
100
AcDbEntity
  8
0
  6
Continuous
 62
     0
370
     0
100
AcDbLine
 10
-11.1082866788
 20
-3.5074315965
 30
0.0
 11
-6.4785890281
 21
-3.5074315965
 31
0.0
  0
LINE
  5
285
330
277
100
AcDbEntity
  8
0
  6
Continuous
 62
     0
370
     0
100
AcDbLine
 10
-10.9974145889
 20
-6.6824313253
 30
0.0
 11
-6.4785890281
 21
-6.6824313253
 31
0.0
  0
LINE
  5
286
330
277
100
AcDbEntity
  8
0
  6
Continuous
 62
     0
370
     0
100
AcDbLine
 10
-10.8865387738
 20
-9.8574310541
 30
0.0
 11
-6.4785890281
 21
-9.8574310541
 31
0.0
  0
LINE
  5
287
330
277
100
AcDbEntity
  8
0
  6
Continuous
 62
     0
370
     0
100
AcDbLine
 10
-10.7756666839
 20
-13.0324307829
 30
0.0
 11
-4.1304156184
 21
-13.0324307829
 31
0.0
  0
LINE
  5
288
330
277
100
AcDbEntity
  8
0
  6
Continuous
 62
     0
370
     0
100
AcDbLine
 10
-24.3785902858
 20
9.6916183829
 30
0.0
 11
-24.3785902858
 21
11.5064531565
 31
0.0
  0
LINE
  5
289
330
277
100
AcDbEntity
  8
0
  6
Continuous
 62
     0
370
     0
100
AcDbLine
 10
-21.203590557
 20
9.1252438724
 30
0.0
 11
-21.203590557
 21
13.192448765
 31
0.0
  0
LINE
  5
28A
330
277
100
AcDbEntity
  8
0
  6
Continuous
 62
     0
370
     0
100
AcDbLine
 10
-18.0285908282
 20
8.5119344294
 30
0.0
 11
-18.0285908282
 21
12.5901959836
 31
0.0
  0
LINE
  5
28B
330
277
100
AcDbEntity
  8
0
  6
Continuous
 62
     0
370
     0
100
AcDbLine
 10
-14.8535892367
 20
7.8512988985
 30
0.0
 11
-14.8535892367
 21
11.9415335357
 31
0.0
  0
LINE
  5
28C
330
277
100
AcDbEntity
  8
0
  6
Continuous
 62
     0
370
     0
100
AcDbLine
 10
-11.6785913706
 20
5.4146759212
 30
0.0
 11
-11.6785913706
 21
11.2460628152
 31
0.0
  0
LINE
  5
28D
330
277
100
AcDbEntity
  8
0
  6
Continuous
 62
     0
370
     0
100
AcDbLine
 10
-8.5035897791
 20
-14.8970745504
 30
0.0
 11
-8.5035897791
 21
10.5033479631
 31
0.0
  0
LINE
  5
28E
330
277
100
AcDbEntity
  8
0
  6
Continuous
 62
     0
370
     0
100
AcDbLine
 10
-5.328591913
 20
5.1029250026
 30
0.0
 11
-5.328591913
 21
9.7129121423
 31
0.0
  0
LINE
  5
28F
330
277
100
AcDbEntity
  8
0
  6
Continuous
 62
     0
370
     0
100
AcDbLine
 10
-5.328591913
 20
-14.8970745504
 30
0.0
 11
-5.328591913
 21
-11.2970750779
 31
0.0
  0
LINE
  5
290
330
277
100
AcDbEntity
  8
0
  6
Continuous
 62
     0
370
     0
100
AcDbLine
 10
-2.1535903215
 20
5.1029250026
 30
0.0
 11
-2.1535903215
 21
8.874244988
 31
0.0
  0
LINE
  5
291
330
277
100
AcDbEntity
  8
0
  6
Continuous
 62
     0
370
     0
100
AcDbLine
 10
1.0214112699
 20
5.1029250026
 30
0.0
 11
1.0214112699
 21
7.9868026078
 31
0.0
  0
LINE
  5
292
330
277
100
AcDbEntity
  8
0
  6
Continuous
 62
     0
370
     0
100
AcDbLine
 10
-6.4785890281
 20
2.5016665459
 30
0.0
 11
-3.8773305714
 21
5.1029250026
 31
0.0
  0
LINE
  5
293
330
277
100
AcDbEntity
  8
0
  6
Continuous
 62
     0
370
     0
100
AcDbLine
 10
-6.4785890281
 20
-1.9884631038
 30
0.0
 11
-2.337642014
 21
2.1524876356
 31
0.0
  0
LINE
  5
294
330
277
100
AcDbEntity
  8
0
  6
Continuous
 62
     0
370
     0
100
AcDbLine
 10
0.7461458445
 20
0.7461458445
 30
0.0
 11
0.9712986648
 21
0.9712986648
 31
0.0
  0
LINE
  5
295
330
277
100
AcDbEntity
  8
0
  6
Continuous
 62
     0
370
     0
100
AcDbLine
 10
-6.4785890281
 20
-6.4785890281
 30
0.0
 11
-2.2976398468
 21
-2.2976398468
 31
0.0
  0
LINE
  5
296
330
277
100
AcDbEntity
  8
0
  6
Continuous
 62
     0
370
     0
100
AcDbLine
 10
-3.5272017121
 20
-8.0173313618
 30
0.0
 11
-2.2576376796
 21
-6.7477654666
 31
0.0
  0
LINE
  5
297
330
277
100
AcDbEntity
  8
0
  6
Continuous
 62
     0
370
     0
100
AcDbLine
 10
-6.4069479704
 20
-10.8970738947
 30
0.0
 11
-3.6359801888
 21
-8.1261079758
 31
0.0
  0
ENDBLK
  5
279
330
277
100
AcDbEntity
  8
0
100
AcDbBlockEnd
  0
ENDSEC
  0
SECTION
  2
ENTITIES
  0
LINE
  5
4A
330
1F
100
AcDbEntity
  8
0
  6
Continuous
 62
     7
370
    15
100
AcDbLine
 10
117.4669271359
 20
215.3424294965
 30
0.0
 11
117.4669271359
 21
199.8641463297
 31
0.0
  0
LINE
  5
4B
330
1F
100
AcDbEntity
  8
0
  6
Continuous
 62
     7
370
    15
100
AcDbLine
 10
150.4669269571
 20
199.8641463297
 30
0.0
 11
150.4669269571
 21
215.3424294965
 31
0.0
  0
ARC
  5
4C
330
1F
100
AcDbEntity
  8
0
  6
Continuous
 62
     7
370
    15
100
AcDbCircle
 10
119.4669270465
 20
215.3424325483
 30
0.0
 40
2.0
100
AcDbArc
 50
98.5086767383
 51
180.0
  0
ARC
  5
4D
330
1F
100
AcDbEntity
  8
0
  6
Continuous
 62
     7
370
    15
100
AcDbCircle
 10
148.4669270465
 20
215.3424325483
 30
0.0
 40
2.000000000000001
100
AcDbArc
 50
0.0
 51
81.4913232617
  0
ARC
  5
4E
330
1F
100
AcDbEntity
  8
0
  6
Continuous
 62
     7
370
    15
100
AcDbCircle
 10
133.9669270465
 20
118.4210726734
 30
0.0
 40
100.0
100
AcDbArc
 50
96.0497608579
 51
98.5086767383
  0
ARC
  5
4F
330
1F
100
AcDbEntity
  8
0
  6
Continuous
 62
     7
370
    15
100
AcDbCircle
 10
133.9669270465
 20
118.4210726734
 30
0.0
 40
100.0
100
AcDbArc
 50
81.4913232617
 51
83.9502391421
  0
ARC
  5
50
330
1F
100
AcDbEntity
  8
0
  6
Continuous
 62
     7
370
    15
100
AcDbCircle
 10
123.2169270465
 20
219.8530079798
 30
0.0
 40
1.999999999999989
100
AcDbArc
 50
276.0497608579
 51
0.0
  0
ARC
  5
51
330
1F
100
AcDbEntity
  8
0
  6
Continuous
 62
     7
370
    15
100
AcDbCircle
 10
144.7169270465
 20
219.8530079798
 30
0.0
 40
2.0
100
AcDbArc
 50
180.0
 51
263.9502391421
  0
LINE
  5
52
330
1F
100
AcDbEntity
  8
0
  6
Continuous
 62
     7
370
    15
100
AcDbLine
 10
125.2169270092
 20
226.7641397493
 30
0.0
 11
125.2169270092
 21
219.8530109899
 31
0.0
  0
LINE
  5
53
330
1F
100
AcDbEntity
  8
0
  6
Continuous
 62
     7
370
    15
100
AcDbLine
 10
142.7169270837
 20
219.8530109899
 30
0.0
 11
142.7169270837
 21
226.7641397493
 31
0.0
  0
LINE
  5
54
330
1F
100
AcDbEntity
  8
0
  6
Continuous
 62
     7
370
    15
100
AcDbLine
 10
121.4669268602
 20
251.7641457098
 30
0.0
 11
121.4669268602
 21
226.7641397493
 31
0.0
  0
LINE
  5
55
330
1F
100
AcDbEntity
  8
0
  6
Continuous
 62
     7
370
    15
100
AcDbLine
 10
146.4669272327
 20
226.7641397493
 30
0.0
 11
146.4669272327
 21
251.7641457098
 31
0.0
  0
ARC
  5
56
330
1F
100
AcDbEntity
  8
0
  6
Continuous
 62
     7
370
    15
100
AcDbCircle
 10
133.9669270465
 20
85.2758296844
 30
0.0
 40
115.0
100
AcDbArc
 50
98.5009660671
 51
106.8059035878
  0
ARC
  5
57
330
1F
100
AcDbEntity
  8
0
  6
Continuous
 62
     7
370
    15
100
AcDbCircle
 10
133.9669270465
 20
85.2758296844
 30
0.0
 40
115.0
100
AcDbArc
 50
73.1940964122
 51
81.4990339329
  0
LINE
  5
58
330
1F
100
AcDbEntity
  8
0
  6
Continuous
 62
     7
370
    15
100
AcDbLine
 10
167.2169273743
 20
194.3641500847
 30
0.0
 11
167.2169273743
 21
195.3641446607
 31
0.0
  0
LINE
  5
59
330
1F
100
AcDbEntity
  8
0
  6
Continuous
 62
     7
370
    15
100
AcDbLine
 10
100.7169267187
 20
195.3641446607
 30
0.0
 11
100.7169267187
 21
194.3641500847
 31
0.0
  0
ARC
  5
5A
330
1F
100
AcDbEntity
  8
0
  6
Continuous
 62
     7
370
    15
100
AcDbCircle
 10
150.4669270465
 20
199.3641465032
 30
0.0
 40
0.5
100
AcDbArc
 50
0.0
 51
90.0
  0
ARC
  5
5B
330
1F
100
AcDbEntity
  8
0
  6
Continuous
 62
     7
370
    15
100
AcDbCircle
 10
117.4669270465
 20
199.3641465032
 30
0.0
 40
0.5
100
AcDbArc
 50
90.0
 51
180.0
  0
LINE
  5
5C
330
1F
100
AcDbEntity
  8
0
  6
Continuous
 62
     7
370
    15
100
AcDbLine
 10
150.9669279704
 20
199.0123661535
 30
0.0
 11
150.9669279704
 21
199.3641453164
 31
0.0
  0
LINE
  5
5D
330
1F
100
AcDbEntity
  8
0
  6
Continuous
 62
     7
370
    15
100
AcDbLine
 10
116.9669261226
 20
199.3641453164
 30
0.0
 11
116.9669261226
 21
199.0123661535
 31
0.0
  0
ARC
  5
5E
330
1F
100
AcDbEntity
  8
0
  6
Continuous
 62
     7
370
    15
100
AcDbCircle
 10
101.8419270465
 20
193.1141465032
 30
0.0
 40
1.250000000000028
100
AcDbArc
 50
90.0
 51
225.5729959992
  0
ARC
  5
5F
330
1F
100
AcDbEntity
  8
0
  6
Continuous
 62
     7
370
    15
100
AcDbCircle
 10
166.0919270465
 20
193.1141465032
 30
0.0
 40
1.250000000000028
100
AcDbArc
 50
314.4270040008
 51
90.0
  0
ARC
  5
60
330
1F
100
AcDbEntity
  8
0
  6
Continuous
 62
     7
370
    15
100
AcDbCircle
 10
106.9669270465
 20
134.980550133
 30
0.0
 40
6.000000000000014
100
AcDbArc
 50
180.0
 51
220.0
  0
ARC
  5
61
330
1F
100
AcDbEntity
  8
0
  6
Continuous
 62
     7
370
    15
100
AcDbCircle
 10
160.9669270465
 20
134.980550133
 30
0.0
 40
6.0
100
AcDbArc
 50
320.0
 51
0.0
  0
LINE
  5
62
330
1F
100
AcDbEntity
  8
0
  6
Continuous
 62
     7
370
    15
100
AcDbLine
 10
166.9669268677
 20
134.9805491345
 30
0.0
 11
166.9669268677
 21
192.2214674132
 31
0.0
  0
LINE
  5
63
330
1F
100
AcDbEntity
  8
0
  6
Continuous
 62
     7
370
    15
100
AcDbLine
 10
100.9669272253
 20
192.2214674132
 30
0.0
 11
100.9669272253
 21
134.9805491345
 31
0.0
  0
LINE
  5
64
330
1F
100
AcDbEntity
  8
0
  6
Continuous
 62
     7
370
    15
100
AcDbLine
 10
102.3706613132
 20
131.1238231437
 30
0.0
 11
103.2650606731
 21
130.0579207318
 31
0.0
  0
LINE
  5
65
330
1F
100
AcDbEntity
  8
0
  6
Continuous
 62
     7
370
    15
100
AcDbLine
 10
164.6687934199
 20
130.0579207318
 30
0.0
 11
165.5631927797
 21
131.1238231437
 31
0.0
  0
ARC
  5
66
330
1F
100
AcDbEntity
  8
0
  6
Continuous
 62
     7
370
    15
100
AcDbCircle
 10
166.9669270465
 20
128.1295572468
 30
0.0
 40
3.000000000000019
100
AcDbArc
 50
140.0
 51
158.6557771018
  0
ARC
  5
67
330
1F
100
AcDbEntity
  8
0
  6
Continuous
 62
     7
370
    15
100
AcDbCircle
 10
100.9669270465
 20
128.1295572468
 30
0.0
 40
3.000000000000009
100
AcDbArc
 50
21.3442228982
 51
40.0
  0
LINE
  5
68
330
1F
100
AcDbEntity
  8
0
  6
Continuous
 62
     7
370
    15
100
AcDbLine
 10
166.4669258544
 20
128.2214680987
 30
0.0
 11
166.4669258544
 21
129.2214663999
 31
0.0
  0
LINE
  5
69
330
1F
100
AcDbEntity
  8
0
  6
Continuous
 62
     7
370
    15
100
AcDbLine
 10
101.4669282386
 20
129.2214663999
 30
0.0
 11
101.4669282386
 21
128.2214680987
 31
0.0
  0
LINE
  5
6A
330
1F
100
AcDbEntity
  8
0
  6
Continuous
 62
     7
370
    15
100
AcDbLine
 10
166.4669258544
 20
92.2214679021
 30
0.0
 11
166.4669258544
 21
93.2214679496
 31
0.0
  0
LINE
  5
6B
330
1F
100
AcDbEntity
  8
0
  6
Continuous
 62
     7
370
    15
100
AcDbLine
 10
101.4669282386
 20
93.2214679496
 30
0.0
 11
101.4669282386
 21
92.2214679021
 31
0.0
  0
LINE
  5
6C
330
1F
100
AcDbEntity
  8
0
  6
Continuous
 62
     7
370
    15
100
AcDbLine
 10
166.9669268677
 20
93.2214679496
 30
0.0
 11
166.9669268677
 21
128.2214680987
 31
0.0
  0
LINE
  5
6D
330
1F
100
AcDbEntity
  8
0
  6
Continuous
 62
     7
370
    15
100
AcDbLine
 10
100.9669272253
 20
128.2214680987
 30
0.0
 11
100.9669272253
 21
93.2214679496
 31
0.0
  0
LINE
  5
6E
330
1F
100
AcDbEntity
  8
0
  6
Continuous
 62
     7
370
    15
100
AcDbLine
 10
150.4669269571
 20
199.8641463297
 30
0.0
 11
117.4669271359
 21
199.8641463297
 31
0.0
  0
CIRCLE
  5
6F
330
1F
100
AcDbEntity
  8
0
  6
Continuous
 62
     7
370
    15
100
AcDbCircle
 10
133.9669270465
 20
245.7641465032
 30
0.0
 40
3.0
  0
LINE
  5
70
330
1F
100
AcDbEntity
  8
0
  6
Continuous
 62
     7
370
    15
100
AcDbLine
 10
121.4669268602
 20
251.7641457098
 30
0.0
 11
146.4669272327
 21
251.7641457098
 31
0.0
  0
LINE
  5
71
330
1F
100
AcDbEntity
  8
0
  6
Continuous
 62
     7
370
    15
100
AcDbLine
 10
121.4669268602
 20
226.7641397493
 30
0.0
 11
146.4669272327
 21
226.7641397493
 31
0.0
  0
LINE
  5
72
330
1F
100
AcDbEntity
  8
0
  6
Continuous
 62
     7
370
    15
100
AcDbLine
 10
150.9669279704
 20
199.0123661535
 30
0.0
 11
116.9669261226
 21
199.0123661535
 31
0.0
  0
LINE
  5
73
330
1F
100
AcDbEntity
  8
0
  6
Continuous
 62
     7
370
    15
100
AcDbLine
 10
167.2169273743
 20
195.3641446607
 30
0.0
 11
100.7169267187
 21
195.3641446607
 31
0.0
  0
LINE
  5
74
330
1F
100
AcDbEntity
  8
0
  6
Continuous
 62
     7
370
    15
100
AcDbLine
 10
167.2169273743
 20
194.3641500847
 30
0.0
 11
100.7169267187
 21
194.3641500847
 31
0.0
  0
LINE
  5
75
330
1F
100
AcDbEntity
  8
0
  6
Continuous
 62
     7
370
    15
100
AcDbLine
 10
161.0470773676
 20
192.2214674132
 30
0.0
 11
166.9669268677
 21
192.2214674132
 31
0.0
  0
LINE
  5
76
330
1F
100
AcDbEntity
  8
0
  6
Continuous
 62
     7
370
    15
100
AcDbLine
 10
100.9669272253
 20
192.2214674132
 30
0.0
 11
161.0470773676
 21
192.2214674132
 31
0.0
  0
LINE
  5
77
330
1F
100
AcDbEntity
  8
0
  6
Continuous
 62
     7
370
    15
100
AcDbLine
 10
166.4669258544
 20
129.2214663999
 30
0.0
 11
101.4669282386
 21
129.2214663999
 31
0.0
  0
LINE
  5
78
330
1F
100
AcDbEntity
  8
0
  6
Continuous
 62
     7
370
    15
100
AcDbLine
 10
166.4669258544
 20
92.2214679021
 30
0.0
 11
101.4669282386
 21
92.2214679021
 31
0.0
  0
LINE
  5
79
330
1F
100
AcDbEntity
  8
0
  6
Continuous
 62
     7
370
    15
100
AcDbLine
 10
133.9669270465
 20
128.2214680987
 30
0.0
 11
166.9669268677
 21
128.2214680987
 31
0.0
  0
LINE
  5
7A
330
1F
100
AcDbEntity
  8
0
  6
Continuous
 62
     7
370
    15
100
AcDbLine
 10
100.9669272253
 20
128.2214680987
 30
0.0
 11
133.9669270465
 21
128.2214680987
 31
0.0
  0
LINE
  5
7B
330
1F
100
AcDbEntity
  8
0
  6
Continuous
 62
     7
370
    15
100
AcDbLine
 10
133.9669270465
 20
93.2214679496
 30
0.0
 11
166.9669268677
 21
93.2214679496
 31
0.0
  0
LINE
  5
7C
330
1F
100
AcDbEntity
  8
0
  6
Continuous
 62
     7
370
    15
100
AcDbLine
 10
100.9669272253
 20
93.2214679496
 30
0.0
 11
133.9669270465
 21
93.2214679496
 31
0.0
  0
LINE
  5
7D
330
1F
100
AcDbEntity
  8
0
  6
Continuous
 62
     8
370
    15
100
AcDbLine
 10
150.4669269571
 20
215.3424294965
 30
0.0
 11
117.4669271359
 21
215.3424294965
 31
0.0
  0
LINE
  5
7E
330
1F
100
AcDbEntity
  8
0
  6
Continuous
 62
     8
370
    15
100
AcDbLine
 10
119.1710090289
 20
217.320417084
 30
0.0
 11
148.7628450641
 21
217.320417084
 31
0.0
  0
LINE
  5
7F
330
1F
100
AcDbEntity
  8
0
  6
Continuous
 62
     8
370
    15
100
AcDbLine
 10
123.4277110571
 20
217.8641455548
 30
0.0
 11
144.5061430359
 21
217.8641455548
 31
0.0
  0
LINE
  5
80
330
1F
100
AcDbEntity
  8
0
  6
Continuous
 62
     8
370
    15
100
AcDbLine
 10
125.2169270092
 20
219.8530109899
 30
0.0
 11
142.7169270837
 21
219.8530109899
 31
0.0
  0
LINE
  5
81
330
1F
100
AcDbEntity
  8
0
  6
Continuous
 62
     8
370
    15
100
AcDbLine
 10
150.9669279704
 20
199.3641453164
 30
0.0
 11
116.9669261226
 21
199.3641453164
 31
0.0
  0
LINE
  5
82
330
1F
100
AcDbEntity
  8
0
  6
Continuous
 62
     8
370
    15
100
AcDbLine
 10
165.5631927797
 20
131.1238231437
 30
0.0
 11
102.3706613132
 21
131.1238231437
 31
0.0
  0
LINE
  5
83
330
1F
100
AcDbEntity
  8
0
  6
Continuous
 62
     8
370
    15
100
AcDbLine
 10
161.0470773676
 20
134.9805491345
 30
0.0
 11
166.9669268677
 21
134.9805491345
 31
0.0
  0
LINE
  5
84
330
1F
100
AcDbEntity
  8
0
  6
Continuous
 62
     8
370
    15
100
AcDbLine
 10
100.9669272253
 20
134.9805491345
 30
0.0
 11
161.0470773676
 21
134.9805491345
 31
0.0
  0
LINE
  5
85
330
1F
100
AcDbEntity
  8
0
  6
Continuous
 62
     8
370
    15
100
AcDbLine
 10
159.1612050334
 20
130.0579207318
 30
0.0
 11
164.6687934199
 21
130.0579207318
 31
0.0
  0
LINE
  5
86
330
1F
100
AcDbEntity
  8
0
  6
Continuous
 62
     8
370
    15
100
AcDbLine
 10
103.2650606731
 20
130.0579207318
 30
0.0
 11
159.1612050334
 21
130.0579207318
 31
0.0
  0
DIMENSION
  5
87
330
1F
100
AcDbEntity
  8
0
  6
Continuous
 62
     7
370
     0
100
AcDbDimension
  2
*D1
 10
166.9669270465
 20
83.2214679496
 30
0.0
 11
133.9669270465
 21
83.2214679496
 31
0.0
 70
   160
  1
%%c<>
 71
     2
 42
-1.0
  3
SLDDIMSTYLE0
100
AcDbAlignedDimension
 13
100.9669270465
 23
93.2214679496
 33
0.0
 14
166.9669270465
 24
93.2214679496
 34
0.0
100
AcDbRotatedDimension
  0
DIMENSION
  5
94
330
1F
100
AcDbEntity
  8
0
  6
Continuous
 62
     7
370
     0
100
AcDbDimension
  2
*D2
 10
91.7990040749
 20
251.7641465032
 30
0.0
 11
91.7990040749
 21
171.9928072264
 31
0.0
 70
   160
 71
     2
 42
-1.0
  3
SLDDIMSTYLE1
100
AcDbAlignedDimension
 13
101.4669270465
 23
92.2214679496
 33
0.0
 14
121.4669270465
 24
251.7641465032
 34
0.0
 50
90.0
100
AcDbRotatedDimension
  0
LINE
  5
9F
330
1F
100
AcDbEntity
  8
0
  6
CENTER
 62
     7
370
     0
100
AcDbLine
 10
133.9669270465
 20
272.6814608117
 30
0.0
 11
133.9669270465
 21
67.1357986236
 31
0.0
  0
LINE
  5
A0
330
1F
100
AcDbEntity
  8
0
  6
Continuous
 62
     7
370
     0
100
AcDbLine
 10
121.9669270465
 20
270.6814608117
 30
0.0
 11
133.9669270465
 21
270.6814608117
 31
0.0
  0
SOLID
  5
A1
330
1F
100
AcDbEntity
  8
0
  6
Continuous
 62
     7
370
     0
100
AcDbTrace
 10
133.9669270465
 20
270.6814608117
 30
0.0
 11
127.9669270465
 21
272.1814608117
 31
0.0
 12
127.9669270465
 22
269.1814608117
 32
0.0
 13
127.9669270465
 23
269.1814608117
 33
0.0
  0
LINE
  5
A2
330
1F
100
AcDbEntity
  8
0
  6
Continuous
 62
     7
370
     0
100
AcDbLine
 10
121.9669270465
 20
69.1357986236
 30
0.0
 11
133.9669270465
 21
69.1357986236
 31
0.0
  0
SOLID
  5
A3
330
1F
100
AcDbEntity
  8
0
  6
Continuous
 62
     7
370
     0
100
AcDbTrace
 10
133.9669270465
 20
69.1357986236
 30
0.0
 11
127.9669270465
 21
70.6357986236
 31
0.0
 12
127.9669270465
 22
67.6357986236
 32
0.0
 13
127.9669270465
 23
67.6357986236
 33
0.0
  0
MTEXT
  5
A4
330
1F
100
AcDbEntity
  8
0
  6
Continuous
 62
     7
100
AcDbMText
 10
121.9669270465
 20
281.421290821
 30
0.0
 40
7.0
 41
0.0
 71
     1
 72
     1
  1
A
  7
SLDTEXTSTYLE0
 73
     1
 44
1.0
  0
MTEXT
  5
A5
330
1F
100
AcDbEntity
  8
0
  6
Continuous
 62
     7
100
AcDbMText
 10
121.9669270465
 20
79.8756286329
 30
0.0
 40
7.0
 41
0.0
 71
     1
 72
     1
  1
A
  7
SLDTEXTSTYLE0
 73
     1
 44
1.0
  0
SPLINE
  5
A6
330
1F
100
AcDbEntity
  8
0
  6
Continuous
 62
     7
370
    15
100
AcDbSpline
210
0.0
220
0.0
230
1.0
 70
     8
 71
     3
 72
     9
 73
     5
 74
     0
 42
0.00000001
 43
0.00000001
 40
0.0
 40
0.0
 40
0.0
 40
0.0
 40
0.3014202054213896
 40
1.0
 40
1.0
 40
1.0
 40
1.0
 10
297.6796415344157
 20
200.454046048414
 30
0.0
 10
297.701309050844
 20
200.4432210831386
 30
0.0
 10
297.7731938018941
 20
200.40730787931
 30
0.0
 10
297.8486770169885
 20
200.387525799257
 30
0.0
 10
297.9014080658832
 20
200.3737064378373
 30
0.0
  0
SPLINE
  5
A7
330
1F
100
AcDbEntity
  8
0
  6
Continuous
 62
     7
370
    15
100
AcDbSpline
210
0.0
220
0.0
230
1.0
 70
     8
 71
     3
 72
     9
 73
     5
 74
     0
 42
0.00000001
 43
0.00000001
 40
0.0
 40
0.0
 40
0.0
 40
0.0
 40
0.3014202054213896
 40
1.0
 40
1.0
 40
1.0
 40
1.0
 10
297.6796415344157
 20
204.4540467040651
 30
0.0
 10
297.701309050844
 20
204.4432217387897
 30
0.0
 10
297.7731938018941
 20
204.4073085349611
 30
0.0
 10
297.8486770169885
 20
204.3875264549081
 30
0.0
 10
297.9014080658832
 20
204.3737070934884
 30
0.0
  0
SPLINE
  5
A8
330
1F
100
AcDbEntity
  8
0
  6
Continuous
 62
     7
370
    15
100
AcDbSpline
210
0.0
220
0.0
230
1.0
 70
     8
 71
     3
 72
     9
 73
     5
 74
     0
 42
0.00000001
 43
0.00000001
 40
0.0
 40
0.0
 40
0.0
 40
0.0
 40
0.2742972434354341
 40
1.0
 40
1.0
 40
1.0
 40
1.0
 10
323.1196573645153
 20
204.6855734961145
 30
0.0
 10
323.1001886922685
 20
204.69524711415
 30
0.0
 10
323.0292121414183
 20
204.730514030851
 30
0.0
 10
322.9551532094731
 20
204.7498266351262
 30
0.0
 10
322.9014084384122
 20
204.7638418452852
 30
0.0
  0
LINE
  5
A9
330
1F
100
AcDbEntity
  8
0
  6
Continuous
 62
     7
370
    15
100
AcDbLine
 10
283.1377985597
 20
92.2214679021
 30
0.0
 11
283.1377985597
 21
93.2214679496
 31
0.0
  0
LINE
  5
AA
330
1F
100
AcDbEntity
  8
0
  6
Continuous
 62
     7
370
    15
100
AcDbLine
 10
322.6411699027
 20
93.2214679496
 30
0.0
 11
322.6411699027
 21
92.2214679021
 31
0.0
  0
LINE
  5
AB
330
1F
100
AcDbEntity
  8
0
  6
Continuous
 62
     7
370
    15
100
AcDbLine
 10
307.4014082261
 20
108.8549355345
 30
0.0
 11
307.4014082261
 21
156.4616756814
 31
0.0
  0
ELLIPSE
  5
AC
330
1F
100
AcDbEntity
  8
0
  6
Continuous
 62
     7
370
    15
100
AcDbEllipse
 10
310.4014082521
 20
108.7223393814
 30
0.0
 11
2.991416365834369
 21
-0.3028119564248471
 31
0.0
210
0.0
220
0.0
230
1.0
 40
0.7489060369
 41
3.217257399043785
 42
6.358850052633565
  0
LINE
  5
AD
330
1F
100
AcDbEntity
  8
0
  6
Continuous
 62
     7
370
    15
100
AcDbLine
 10
313.4014082782
 20
156.4616756814
 30
0.0
 11
313.4014082782
 21
108.589743294
 31
0.0
  0
LINE
  5
AE
330
1F
100
AcDbEntity
  8
0
  6
Continuous
 62
     7
370
    15
100
AcDbLine
 10
308.4014081572
 20
108.8107368277
 30
0.0
 11
307.4014082261
 21
108.8549355345
 31
0.0
  0
ELLIPSE
  5
AF
330
1F
100
AcDbEntity
  8
0
  6
Continuous
 62
     7
370
    15
100
AcDbEllipse
 10
310.4014082521
 20
108.7223393814
 30
0.0
 11
1.994277577222931
 21
-0.2018746376165552
 31
0.0
210
0.0
220
0.0
230
1.0
 40
0.7489060369
 41
3.217257399043771
 42
6.358850052633563
  0
LINE
  5
B0
330
1F
100
AcDbEntity
  8
0
  6
Continuous
 62
     7
370
    15
100
AcDbLine
 10
313.4014082782
 20
108.589743294
 30
0.0
 11
312.4014083471
 21
108.6339420008
 31
0.0
  0
LINE
  5
B1
330
1F
100
AcDbEntity
  8
0
  6
Continuous
 62
     7
370
    15
100
AcDbLine
 10
308.4014081572
 20
108.8107368277
 30
0.0
 11
308.4014081572
 21
156.4616756814
 31
0.0
  0
LINE
  5
B2
330
1F
100
AcDbEntity
  8
0
  6
Continuous
 62
     7
370
    15
100
AcDbLine
 10
312.4014083471
 20
156.4616756814
 30
0.0
 11
312.4014083471
 21
108.6339420008
 31
0.0
  0
LINE
  5
B3
330
1F
100
AcDbEntity
  8
0
  6
Continuous
 62
     7
370
    15
100
AcDbLine
 10
308.4014081572
 20
156.4616756814
 30
0.0
 11
307.4014082261
 21
156.4616756814
 31
0.0
  0
LINE
  5
B4
330
1F
100
AcDbEntity
  8
0
  6
Continuous
 62
     7
370
    15
100
AcDbLine
 10
313.4014082782
 20
156.4616756814
 30
0.0
 11
312.4014083471
 21
156.4616756814
 31
0.0
  0
ARC
  5
B5
330
1F
100
AcDbEntity
  8
0
  6
Continuous
 62
     7
370
    15
100
AcDbCircle
 10
324.9014082521
 20
215.3424325483
 30
0.0
 40
2.000000000000001
100
AcDbArc
 50
0.0
 51
81.4913232617
  0
ARC
  5
B6
330
1F
100
AcDbEntity
  8
0
  6
Continuous
 62
     7
370
    15
100
AcDbCircle
 10
295.9014082521
 20
215.3424325483
 30
0.0
 40
2.000000000000009
100
AcDbArc
 50
98.5086767383
 51
180.0
  0
LINE
  5
B7
330
1F
100
AcDbEntity
  8
0
  6
Continuous
 62
     7
370
    15
100
AcDbLine
 10
326.9014081627
 20
215.3424294965
 30
0.0
 11
326.9014081627
 21
199.8641463297
 31
0.0
  0
LINE
  5
B8
330
1F
100
AcDbEntity
  8
0
  6
Continuous
 62
     7
370
    15
100
AcDbLine
 10
293.9014083416
 20
199.8641463297
 30
0.0
 11
293.9014083416
 21
215.3424294965
 31
0.0
  0
LINE
  5
B9
330
1F
100
AcDbEntity
  8
0
  6
Continuous
 62
     7
370
    15
100
AcDbLine
 10
294.9014085055
 20
199.8641463297
 30
0.0
 11
295.5897462264
 21
200.5524831193
 31
0.0
  0
LINE
  5
BA
330
1F
100
AcDbEntity
  8
0
  6
Continuous
 62
     7
370
    15
100
AcDbLine
 10
295.5897462264
 20
200.5524831193
 30
0.0
 11
295.6014194235
 21
200.5641432779
 31
0.0
  0
LINE
  5
BB
330
1F
100
AcDbEntity
  8
0
  6
Continuous
 62
     7
370
    15
100
AcDbLine
 10
323.6052917958
 20
200.5641432779
 30
0.0
 11
323.997497809
 21
200.3141464965
 31
0.0
  0
LINE
  5
BC
330
1F
100
AcDbEntity
  8
0
  6
Continuous
 62
     7
370
    15
100
AcDbLine
 10
323.997497809
 20
200.3141464965
 30
0.0
 11
323.9292924002
 21
200.5641432779
 31
0.0
  0
LINE
  5
BD
330
1F
100
AcDbEntity
  8
0
  6
Continuous
 62
     7
370
    15
100
AcDbLine
 10
323.9292924002
 20
200.5641432779
 30
0.0
 11
324.2317971483
 21
200.5641432779
 31
0.0
  0
LINE
  5
BE
330
1F
100
AcDbEntity
  8
0
  6
Continuous
 62
     7
370
    15
100
AcDbLine
 10
324.2317971483
 20
200.5641432779
 30
0.0
 11
324.5976010978
 21
200.3141464965
 31
0.0
  0
LINE
  5
BF
330
1F
100
AcDbEntity
  8
0
  6
Continuous
 62
     7
370
    15
100
AcDbLine
 10
324.5976010978
 20
200.3141464965
 30
0.0
 11
324.4826721669
 21
200.5641432779
 31
0.0
  0
LINE
  5
C0
330
1F
100
AcDbEntity
  8
0
  6
Continuous
 62
     7
370
    15
100
AcDbLine
 10
324.4826721669
 20
200.5641432779
 30
0.0
 11
324.706773524
 21
200.5641432779
 31
0.0
  0
LINE
  5
C1
330
1F
100
AcDbEntity
  8
0
  6
Continuous
 62
     7
370
    15
100
AcDbLine
 10
324.706773524
 20
200.5641432779
 30
0.0
 11
325.0421679288
 21
200.3141464965
 31
0.0
  0
LINE
  5
C2
330
1F
100
AcDbEntity
  8
0
  6
Continuous
 62
     7
370
    15
100
AcDbLine
 10
325.0421679288
 20
200.3141464965
 30
0.0
 11
324.881775555
 21
200.5641432779
 31
0.0
  0
LINE
  5
C3
330
1F
100
AcDbEntity
  8
0
  6
Continuous
 62
     7
370
    15
100
AcDbLine
 10
324.881775555
 20
200.5641432779
 30
0.0
 11
325.0250166923
 21
200.5641432779
 31
0.0
  0
LINE
  5
C4
330
1F
100
AcDbEntity
  8
0
  6
Continuous
 62
     7
370
    15
100
AcDbLine
 10
325.0250166923
 20
200.5641432779
 30
0.0
 11
325.3263274849
 21
200.3141464965
 31
0.0
  0
LINE
  5
C5
330
1F
100
AcDbEntity
  8
0
  6
Continuous
 62
     7
370
    15
100
AcDbLine
 10
325.3263274849
 20
200.3141464965
 30
0.0
 11
325.1222281426
 21
200.5641432779
 31
0.0
  0
LINE
  5
C6
330
1F
100
AcDbEntity
  8
0
  6
Continuous
 62
     7
370
    15
100
AcDbLine
 10
325.1222281426
 20
200.5641432779
 30
0.0
 11
325.1830407128
 21
200.5641432779
 31
0.0
  0
LINE
  5
C7
330
1F
100
AcDbEntity
  8
0
  6
Continuous
 62
     7
370
    15
100
AcDbLine
 10
325.1830407128
 20
200.5641432779
 30
0.0
 11
325.4469663546
 21
200.3141464965
 31
0.0
  0
LINE
  5
C8
330
1F
100
AcDbEntity
  8
0
  6
Continuous
 62
     7
370
    15
100
AcDbLine
 10
325.4469663546
 20
200.3141464965
 30
0.0
 11
325.2130702779
 21
200.5524831193
 31
0.0
  0
LINE
  5
C9
330
1F
100
AcDbEntity
  8
0
  6
Continuous
 62
     7
370
    15
100
AcDbLine
 10
325.2130702779
 20
200.5524831193
 30
0.0
 11
325.9014079988
 21
199.8641463297
 31
0.0
  0
LINE
  5
CA
330
1F
100
AcDbEntity
  8
0
  6
Continuous
 62
     7
370
    15
100
AcDbLine
 10
325.6514084235
 20
215.364147939
 30
0.0
 11
325.6514084235
 21
212.3641493099
 31
0.0
  0
LINE
  5
CB
330
1F
100
AcDbEntity
  8
0
  6
Continuous
 62
     7
370
    15
100
AcDbLine
 10
295.1514080808
 20
212.3641493099
 30
0.0
 11
295.1514080808
 21
215.364147939
 31
0.0
  0
ARC
  5
CC
330
1F
100
AcDbEntity
  8
0
  6
Continuous
 62
     7
370
    15
100
AcDbCircle
 10
324.6514082521
 20
215.3641465032
 30
0.0
 40
1.0
100
AcDbArc
 50
0.0
 51
90.0
  0
ARC
  5
CD
330
1F
100
AcDbEntity
  8
0
  6
Continuous
 62
     7
370
    15
100
AcDbCircle
 10
296.1514082521
 20
215.3641465032
 30
0.0
 40
1.0
100
AcDbArc
 50
90.0
 51
180.0
  0
LINE
  5
CE
330
1F
100
AcDbEntity
  8
0
  6
Continuous
 62
     7
370
    15
100
AcDbLine
 10
325.6514084235
 20
205.8641435878
 30
0.0
 11
325.5514085934
 21
205.8641435878
 31
0.0
  0
LINE
  5
CF
330
1F
100
AcDbEntity
  8
0
  6
Continuous
 62
     7
370
    15
100
AcDbLine
 10
295.2514079109
 20
205.8641435878
 30
0.0
 11
295.1514080808
 21
205.8641435878
 31
0.0
  0
LINE
  5
D0
330
1F
100
AcDbEntity
  8
0
  6
Continuous
 62
     7
370
    15
100
AcDbLine
 10
325.6514084235
 20
205.8641435878
 30
0.0
 11
325.6514084235
 21
200.8641483562
 31
0.0
  0
LINE
  5
D1
330
1F
100
AcDbEntity
  8
0
  6
Continuous
 62
     7
370
    15
100
AcDbLine
 10
295.1514080808
 20
200.8641483562
 30
0.0
 11
295.1514080808
 21
205.8641435878
 31
0.0
  0
LINE
  5
D2
330
1F
100
AcDbEntity
  8
0
  6
Continuous
 62
     7
370
    15
100
AcDbLine
 10
295.1514080808
 20
205.8641435878
 30
0.0
 11
295.5897462264
 21
206.1172249096
 31
0.0
  0
LINE
  5
D3
330
1F
100
AcDbEntity
  8
0
  6
Continuous
 62
     7
370
    15
100
AcDbLine
 10
325.2130702779
 20
206.1172249096
 30
0.0
 11
325.6514084235
 21
205.8641435878
 31
0.0
  0
ARC
  5
D4
330
1F
100
AcDbEntity
  8
0
  6
Continuous
 62
     7
370
    15
100
AcDbCircle
 10
310.4014082521
 20
118.4210726734
 30
0.0
 40
100.0
100
AcDbArc
 50
81.4913232617
 51
83.9502391421
  0
ARC
  5
D5
330
1F
100
AcDbEntity
  8
0
  6
Continuous
 62
     7
370
    15
100
AcDbCircle
 10
310.4014082521
 20
118.4210726734
 30
0.0
 40
100.0
100
AcDbArc
 50
96.0497608579
 51
98.5086767383
  0
ARC
  5
D6
330
1F
100
AcDbEntity
  8
0
  6
Continuous
 62
     7
370
    15
100
AcDbCircle
 10
321.1514082521
 20
219.8530079798
 30
0.0
 40
2.0
100
AcDbArc
 50
180.0
 51
263.9502391421
  0
ARC
  5
D7
330
1F
100
AcDbEntity
  8
0
  6
Continuous
 62
     7
370
    15
100
AcDbCircle
 10
299.6514082521
 20
219.8530079798
 30
0.0
 40
2.0
100
AcDbArc
 50
276.0497608579
 51
0.0
  0
LINE
  5
D8
330
1F
100
AcDbEntity
  8
0
  6
Continuous
 62
     7
370
    15
100
AcDbLine
 10
319.1514082894
 20
227.8641434686
 30
0.0
 11
319.1514082894
 21
219.8530109899
 31
0.0
  0
LINE
  5
D9
330
1F
100
AcDbEntity
  8
0
  6
Continuous
 62
     7
370
    15
100
AcDbLine
 10
301.6514082149
 20
219.8530109899
 30
0.0
 11
301.6514082149
 21
227.8641434686
 31
0.0
  0
LINE
  5
DA
330
1F
100
AcDbEntity
  8
0
  6
Continuous
 62
     7
370
    15
100
AcDbLine
 10
301.6514082149
 20
216.3641499655
 30
0.0
 11
302.6514083788
 21
217.3641445415
 31
0.0
  0
LINE
  5
DB
330
1F
100
AcDbEntity
  8
0
  6
Continuous
 62
     7
370
    15
100
AcDbLine
 10
302.6514083788
 20
217.3641445415
 30
0.0
 11
302.9014084198
 21
217.3641445415
 31
0.0
  0
LINE
  5
DC
330
1F
100
AcDbEntity
  8
0
  6
Continuous
 62
     7
370
    15
100
AcDbLine
 10
317.9014080845
 20
217.3641445415
 30
0.0
 11
318.1514081255
 21
217.3641445415
 31
0.0
  0
LINE
  5
DD
330
1F
100
AcDbEntity
  8
0
  6
Continuous
 62
     7
370
    15
100
AcDbLine
 10
318.1514081255
 20
217.3641445415
 30
0.0
 11
319.1514082894
 21
216.3641499655
 31
0.0
  0
LINE
  5
DE
330
1F
100
AcDbEntity
  8
0
  6
Continuous
 62
     7
370
    15
100
AcDbLine
 10
318.1514081255
 20
227.8641434686
 30
0.0
 11
318.1514081255
 21
217.3641445415
 31
0.0
  0
LINE
  5
DF
330
1F
100
AcDbEntity
  8
0
  6
Continuous
 62
     7
370
    15
100
AcDbLine
 10
302.6514083788
 20
217.3641445415
 30
0.0
 11
302.6514083788
 21
227.8641434686
 31
0.0
  0
LINE
  5
E0
330
1F
100
AcDbEntity
  8
0
  6
Continuous
 62
     7
370
    15
100
AcDbLine
 10
318.1514081255
 20
227.8641434686
 30
0.0
 11
314.5514081873
 21
227.8641434686
 31
0.0
  0
LINE
  5
E1
330
1F
100
AcDbEntity
  8
0
  6
Continuous
 62
     7
370
    15
100
AcDbLine
 10
306.251408317
 20
227.8641434686
 30
0.0
 11
302.6514083788
 21
227.8641434686
 31
0.0
  0
LINE
  5
E2
330
1F
100
AcDbEntity
  8
0
  6
Continuous
 62
     7
370
    15
100
AcDbLine
 10
295.5897462264
 20
200.8641483562
 30
0.0
 11
295.5897462264
 21
200.5524831193
 31
0.0
  0
LINE
  5
E3
330
1F
100
AcDbEntity
  8
0
  6
Continuous
 62
     7
370
    15
100
AcDbLine
 10
295.5897462264
 20
212.3641493099
 30
0.0
 11
295.5897462264
 21
206.1172249096
 31
0.0
  0
LINE
  5
E4
330
1F
100
AcDbEntity
  8
0
  6
Continuous
 62
     7
370
    15
100
AcDbLine
 10
301.6514082149
 20
227.8641434686
 30
0.0
 11
302.6514083788
 21
227.8641434686
 31
0.0
  0
LINE
  5
E5
330
1F
100
AcDbEntity
  8
0
  6
Continuous
 62
     7
370
    15
100
AcDbLine
 10
296.1514082447
 20
216.3641499655
 30
0.0
 11
301.6514082149
 21
216.3641499655
 31
0.0
  0
LINE
  5
E6
330
1F
100
AcDbEntity
  8
0
  6
Continuous
 62
     7
370
    15
100
AcDbLine
 10
295.5897462264
 20
212.3641493099
 30
0.0
 11
295.1514080808
 21
212.3641493099
 31
0.0
  0
LINE
  5
E7
330
1F
100
AcDbEntity
  8
0
  6
Continuous
 62
     7
370
    15
100
AcDbLine
 10
295.5897462264
 20
200.8641483562
 30
0.0
 11
295.1514080808
 21
200.8641483562
 31
0.0
  0
LINE
  5
E8
330
1F
100
AcDbEntity
  8
0
  6
Continuous
 62
     7
370
    15
100
AcDbLine
 10
294.9014085055
 20
199.8641463297
 30
0.0
 11
293.9014083416
 21
199.8641463297
 31
0.0
  0
LINE
  5
E9
330
1F
100
AcDbEntity
  8
0
  6
Continuous
 62
     7
370
    15
100
AcDbLine
 10
325.2130702779
 20
200.5524831193
 30
0.0
 11
325.2130702779
 21
200.8641483562
 31
0.0
  0
LINE
  5
EA
330
1F
100
AcDbEntity
  8
0
  6
Continuous
 62
     7
370
    15
100
AcDbLine
 10
325.2130702779
 20
206.1172249096
 30
0.0
 11
325.2130702779
 21
212.3641493099
 31
0.0
  0
LINE
  5
EB
330
1F
100
AcDbEntity
  8
0
  6
Continuous
 62
     7
370
    15
100
AcDbLine
 10
318.1514081255
 20
227.8641434686
 30
0.0
 11
319.1514082894
 21
227.8641434686
 31
0.0
  0
LINE
  5
EC
330
1F
100
AcDbEntity
  8
0
  6
Continuous
 62
     7
370
    15
100
AcDbLine
 10
319.1514082894
 20
216.3641499655
 30
0.0
 11
324.6514082596
 21
216.3641499655
 31
0.0
  0
LINE
  5
ED
330
1F
100
AcDbEntity
  8
0
  6
Continuous
 62
     7
370
    15
100
AcDbLine
 10
325.6514084235
 20
212.3641493099
 30
0.0
 11
325.2130702779
 21
212.3641493099
 31
0.0
  0
LINE
  5
EE
330
1F
100
AcDbEntity
  8
0
  6
Continuous
 62
     7
370
    15
100
AcDbLine
 10
325.6514084235
 20
200.8641483562
 30
0.0
 11
325.2130702779
 21
200.8641483562
 31
0.0
  0
LINE
  5
EF
330
1F
100
AcDbEntity
  8
0
  6
Continuous
 62
     7
370
    15
100
AcDbLine
 10
326.9014081627
 20
199.8641463297
 30
0.0
 11
325.9014079988
 21
199.8641463297
 31
0.0
  0
LINE
  5
F0
330
1F
100
AcDbEntity
  8
0
  6
Continuous
 62
     7
370
    15
100
AcDbLine
 10
295.6014194235
 20
200.5641432779
 30
0.0
 11
295.6014194235
 21
200.7641466634
 31
0.0
  0
LINE
  5
F1
330
1F
100
AcDbEntity
  8
0
  6
Continuous
 62
     7
370
    15
100
AcDbLine
 10
325.1830407128
 20
200.7641466634
 30
0.0
 11
325.1830407128
 21
200.5641432779
 31
0.0
  0
LINE
  5
F2
330
1F
100
AcDbEntity
  8
0
  6
Continuous
 62
     7
370
    15
100
AcDbLine
 10
325.1222281426
 20
200.5641432779
 30
0.0
 11
325.1222281426
 21
200.7641466634
 31
0.0
  0
LINE
  5
F3
330
1F
100
AcDbEntity
  8
0
  6
Continuous
 62
     7
370
    15
100
AcDbLine
 10
325.0250166923
 20
200.7641466634
 30
0.0
 11
325.0250166923
 21
200.5641432779
 31
0.0
  0
LINE
  5
F4
330
1F
100
AcDbEntity
  8
0
  6
Continuous
 62
     7
370
    15
100
AcDbLine
 10
324.881775555
 20
200.5641432779
 30
0.0
 11
324.881775555
 21
200.7641466634
 31
0.0
  0
LINE
  5
F5
330
1F
100
AcDbEntity
  8
0
  6
Continuous
 62
     7
370
    15
100
AcDbLine
 10
324.706773524
 20
200.7641466634
 30
0.0
 11
324.706773524
 21
200.5641432779
 31
0.0
  0
LINE
  5
F6
330
1F
100
AcDbEntity
  8
0
  6
Continuous
 62
     7
370
    15
100
AcDbLine
 10
324.4826721669
 20
200.5641432779
 30
0.0
 11
324.4826721669
 21
200.7641466634
 31
0.0
  0
LINE
  5
F7
330
1F
100
AcDbEntity
  8
0
  6
Continuous
 62
     7
370
    15
100
AcDbLine
 10
324.2317971483
 20
200.7641466634
 30
0.0
 11
324.2317971483
 21
200.5641432779
 31
0.0
  0
LINE
  5
F8
330
1F
100
AcDbEntity
  8
0
  6
Continuous
 62
     7
370
    15
100
AcDbLine
 10
323.9292924002
 20
200.5641432779
 30
0.0
 11
323.9292924002
 21
200.7641466634
 31
0.0
  0
LINE
  5
F9
330
1F
100
AcDbEntity
  8
0
  6
Continuous
 62
     7
370
    15
100
AcDbLine
 10
323.6052917958
 20
200.7641466634
 30
0.0
 11
323.6052917958
 21
200.5641432779
 31
0.0
  0
LINE
  5
FA
330
1F
100
AcDbEntity
  8
0
  6
Continuous
 62
     7
370
    15
100
AcDbLine
 10
323.2276982338
 20
200.6343202965
 30
0.0
 11
323.2276982338
 21
200.7641466634
 31
0.0
  0
LINE
  5
FB
330
1F
100
AcDbEntity
  8
0
  6
Continuous
 62
     7
370
    15
100
AcDbLine
 10
307.4014082261
 20
156.4616756814
 30
0.0
 11
307.4014082261
 21
147.9616770821
 31
0.0
  0
LINE
  5
FC
330
1F
100
AcDbEntity
  8
0
  6
Continuous
 62
     7
370
    15
100
AcDbLine
 10
307.4014082261
 20
147.9616770821
 30
0.0
 11
306.4014080622
 21
147.9616770821
 31
0.0
  0
LINE
  5
FD
330
1F
100
AcDbEntity
  8
0
  6
Continuous
 62
     7
370
    15
100
AcDbLine
 10
306.4014080622
 20
147.9616770821
 30
0.0
 11
306.4014080622
 21
159.5742376821
 31
0.0
  0
ARC
  5
FE
330
1F
100
AcDbEntity
  8
0
  6
Continuous
 62
     7
370
    15
100
AcDbCircle
 10
315.9556569685
 20
163.8187991342
 30
0.0
 40
10.45466319863521
100
AcDbArc
 50
182.6021827284
 51
203.9536253139
  0
LINE
  5
FF
330
1F
100
AcDbEntity
  8
0
  6
Continuous
 62
     7
370
    15
100
AcDbLine
 10
304.7514080711
 20
174.3441494482
 30
0.0
 11
305.5117742799
 21
163.3441495078
 31
0.0
  0
ARC
  5
100
330
1F
100
AcDbEntity
  8
0
  6
Continuous
 62
     7
370
    15
100
AcDbCircle
 10
310.4215497175
 20
176.5181747963
 30
0.0
 40
6.072635610386397
100
AcDbArc
 50
181.6421950331
 51
200.9776699149
  0
LINE
  5
101
330
1F
100
AcDbEntity
  8
0
  6
Continuous
 62
     7
370
    15
100
AcDbLine
 10
303.2514082909
 20
176.3441460507
 30
0.0
 11
304.3514082849
 21
176.3441460507
 31
0.0
  0
LINE
  5
102
330
1F
100
AcDbEntity
  8
0
  6
Continuous
 62
     7
370
    15
100
AcDbLine
 10
303.2514082909
 20
210.7641445773
 30
0.0
 11
303.2514082909
 21
176.3441460507
 31
0.0
  0
LINE
  5
103
330
1F
100
AcDbEntity
  8
0
  6
Continuous
 62
     7
370
    15
100
AcDbLine
 10
296.901407902
 20
210.7641445773
 30
0.0
 11
303.2514082909
 21
210.7641445773
 31
0.0
  0
LINE
  5
104
330
1F
100
AcDbEntity
  8
0
  6
Continuous
 62
     7
370
    15
100
AcDbLine
 10
296.901407902
 20
210.7641445773
 30
0.0
 11
296.901407902
 21
200.7641466634
 31
0.0
  0
LINE
  5
105
330
1F
100
AcDbEntity
  8
0
  6
Continuous
 62
     7
370
    15
100
AcDbLine
 10
296.901407902
 20
200.7641466634
 30
0.0
 11
295.2514079109
 21
200.7641466634
 31
0.0
  0
LINE
  5
106
330
1F
100
AcDbEntity
  8
0
  6
Continuous
 62
     7
370
    15
100
AcDbLine
 10
295.2514079109
 20
200.7641466634
 30
0.0
 11
295.2514079109
 21
213.7641432064
 31
0.0
  0
LINE
  5
107
330
1F
100
AcDbEntity
  8
0
  6
Continuous
 62
     7
370
    15
100
AcDbLine
 10
300.701407966
 20
213.7641432064
 30
0.0
 11
295.2514079109
 21
213.7641432064
 31
0.0
  0
LINE
  5
108
330
1F
100
AcDbEntity
  8
0
  6
Continuous
 62
     7
370
    15
100
AcDbLine
 10
300.701407966
 20
213.7641432064
 30
0.0
 11
300.701407966
 21
216.3641499655
 31
0.0
  0
LINE
  5
109
330
1F
100
AcDbEntity
  8
0
  6
Continuous
 62
     7
370
    15
100
AcDbLine
 10
302.9014084198
 20
216.3641499655
 30
0.0
 11
300.701407966
 21
216.3641499655
 31
0.0
  0
LINE
  5
10A
330
1F
100
AcDbEntity
  8
0
  6
Continuous
 62
     7
370
    15
100
AcDbLine
 10
302.9014084198
 20
216.3641499655
 30
0.0
 11
302.9014084198
 21
222.6641448515
 31
0.0
  0
LINE
  5
10B
330
1F
100
AcDbEntity
  8
0
  6
Continuous
 62
     7
370
    15
100
AcDbLine
 10
306.251408317
 20
222.6641448515
 30
0.0
 11
302.9014084198
 21
222.6641448515
 31
0.0
  0
LINE
  5
10C
330
1F
100
AcDbEntity
  8
0
  6
Continuous
 62
     7
370
    15
100
AcDbLine
 10
306.251408317
 20
229.9641492145
 30
0.0
 11
306.251408317
 21
222.6641448515
 31
0.0
  0
LINE
  5
10D
330
1F
100
AcDbEntity
  8
0
  6
Continuous
 62
     7
370
    15
100
AcDbLine
 10
307.3014081631
 20
229.9641492145
 30
0.0
 11
306.251408317
 21
229.9641492145
 31
0.0
  0
LINE
  5
10E
330
1F
100
AcDbEntity
  8
0
  6
Continuous
 62
     7
370
    15
100
AcDbLine
 10
307.3014081631
 20
229.9641492145
 30
0.0
 11
307.3014081631
 21
227.9641451614
 31
0.0
  0
LINE
  5
10F
330
1F
100
AcDbEntity
  8
0
  6
Continuous
 62
     7
370
    15
100
AcDbLine
 10
307.8783373524
 20
227.9641451614
 30
0.0
 11
307.3014081631
 21
227.9641451614
 31
0.0
  0
LINE
  5
110
330
1F
100
AcDbEntity
  8
0
  6
Continuous
 62
     7
370
    15
100
AcDbLine
 10
307.8783373524
 20
227.9641451614
 30
0.0
 11
307.8783373524
 21
207.9641493337
 31
0.0
  0
LINE
  5
111
330
1F
100
AcDbEntity
  8
0
  6
Continuous
 62
     7
370
    15
100
AcDbLine
 10
312.9244791519
 20
207.9641493337
 30
0.0
 11
307.8783373524
 21
207.9641493337
 31
0.0
  0
LINE
  5
112
330
1F
100
AcDbEntity
  8
0
  6
Continuous
 62
     7
370
    15
100
AcDbLine
 10
312.9244791519
 20
207.9641493337
 30
0.0
 11
312.9244791519
 21
227.9641451614
 31
0.0
  0
LINE
  5
113
330
1F
100
AcDbEntity
  8
0
  6
Continuous
 62
     7
370
    15
100
AcDbLine
 10
313.5014083412
 20
227.9641451614
 30
0.0
 11
312.9244791519
 21
227.9641451614
 31
0.0
  0
LINE
  5
114
330
1F
100
AcDbEntity
  8
0
  6
Continuous
 62
     7
370
    15
100
AcDbLine
 10
313.5014083412
 20
227.9641451614
 30
0.0
 11
313.5014083412
 21
229.9641492145
 31
0.0
  0
LINE
  5
115
330
1F
100
AcDbEntity
  8
0
  6
Continuous
 62
     7
370
    15
100
AcDbLine
 10
314.5514081873
 20
229.9641492145
 30
0.0
 11
313.5014083412
 21
229.9641492145
 31
0.0
  0
LINE
  5
116
330
1F
100
AcDbEntity
  8
0
  6
Continuous
 62
     7
370
    15
100
AcDbLine
 10
314.5514081873
 20
222.6641448515
 30
0.0
 11
314.5514081873
 21
229.9641492145
 31
0.0
  0
LINE
  5
117
330
1F
100
AcDbEntity
  8
0
  6
Continuous
 62
     7
370
    15
100
AcDbLine
 10
317.9014080845
 20
222.6641448515
 30
0.0
 11
314.5514081873
 21
222.6641448515
 31
0.0
  0
LINE
  5
118
330
1F
100
AcDbEntity
  8
0
  6
Continuous
 62
     7
370
    15
100
AcDbLine
 10
317.9014080845
 20
222.6641448515
 30
0.0
 11
317.9014080845
 21
216.3641499655
 31
0.0
  0
LINE
  5
119
330
1F
100
AcDbEntity
  8
0
  6
Continuous
 62
     7
370
    15
100
AcDbLine
 10
320.1014085382
 20
216.3641499655
 30
0.0
 11
317.9014080845
 21
216.3641499655
 31
0.0
  0
LINE
  5
11A
330
1F
100
AcDbEntity
  8
0
  6
Continuous
 62
     7
370
    15
100
AcDbLine
 10
320.1014085382
 20
216.3641499655
 30
0.0
 11
320.1014085382
 21
213.7641432064
 31
0.0
  0
LINE
  5
11B
330
1F
100
AcDbEntity
  8
0
  6
Continuous
 62
     7
370
    15
100
AcDbLine
 10
325.5514085934
 20
213.7641432064
 30
0.0
 11
320.1014085382
 21
213.7641432064
 31
0.0
  0
LINE
  5
11C
330
1F
100
AcDbEntity
  8
0
  6
Continuous
 62
     7
370
    15
100
AcDbLine
 10
325.5514085934
 20
213.7641432064
 30
0.0
 11
325.5514085934
 21
200.7641466634
 31
0.0
  0
LINE
  5
11D
330
1F
100
AcDbEntity
  8
0
  6
Continuous
 62
     7
370
    15
100
AcDbLine
 10
325.5514085934
 20
200.7641466634
 30
0.0
 11
323.9014086023
 21
200.7641466634
 31
0.0
  0
LINE
  5
11E
330
1F
100
AcDbEntity
  8
0
  6
Continuous
 62
     7
370
    15
100
AcDbLine
 10
323.9014086023
 20
200.7641466634
 30
0.0
 11
323.9014086023
 21
210.7641445773
 31
0.0
  0
LINE
  5
11F
330
1F
100
AcDbEntity
  8
0
  6
Continuous
 62
     7
370
    15
100
AcDbLine
 10
317.5514082134
 20
210.7641445773
 30
0.0
 11
323.9014086023
 21
210.7641445773
 31
0.0
  0
LINE
  5
120
330
1F
100
AcDbEntity
  8
0
  6
Continuous
 62
     7
370
    15
100
AcDbLine
 10
317.5514082134
 20
176.3441460507
 30
0.0
 11
317.5514082134
 21
210.7641445773
 31
0.0
  0
LINE
  5
121
330
1F
100
AcDbEntity
  8
0
  6
Continuous
 62
     7
370
    15
100
AcDbLine
 10
316.4514082194
 20
176.3441460507
 30
0.0
 11
317.5514082134
 21
176.3441460507
 31
0.0
  0
ARC
  5
122
330
1F
100
AcDbEntity
  8
0
  6
Continuous
 62
     7
370
    15
100
AcDbCircle
 10
310.3812667868
 20
176.5181747963
 30
0.0
 40
6.072635610386397
100
AcDbArc
 50
339.0223300851
 51
358.3578049669
  0
LINE
  5
123
330
1F
100
AcDbEntity
  8
0
  6
Continuous
 62
     7
370
    15
100
AcDbLine
 10
315.2910422243
 20
163.3441495078
 30
0.0
 11
316.0514084332
 21
174.3441494482
 31
0.0
  0
ARC
  5
124
330
1F
100
AcDbEntity
  8
0
  6
Continuous
 62
     7
370
    15
100
AcDbCircle
 10
304.8471595358
 20
163.8187991342
 30
0.0
 40
10.45466319863521
100
AcDbArc
 50
336.0463746861
 51
357.3978172716
  0
LINE
  5
125
330
1F
100
AcDbEntity
  8
0
  6
Continuous
 62
     7
370
    15
100
AcDbLine
 10
314.4014084421
 20
159.5742376821
 30
0.0
 11
314.4014084421
 21
147.9616770821
 31
0.0
  0
LINE
  5
126
330
1F
100
AcDbEntity
  8
0
  6
Continuous
 62
     7
370
    15
100
AcDbLine
 10
314.4014084421
 20
147.9616770821
 30
0.0
 11
313.4014082782
 21
147.9616770821
 31
0.0
  0
LINE
  5
127
330
1F
100
AcDbEntity
  8
0
  6
Continuous
 62
     7
370
    15
100
AcDbLine
 10
313.4014082782
 20
147.9616770821
 30
0.0
 11
313.4014082782
 21
156.4616756814
 31
0.0
  0
LINE
  5
128
330
1F
100
AcDbEntity
  8
0
  6
Continuous
 62
     7
370
    15
100
AcDbLine
 10
313.4014082782
 20
156.4616756814
 30
0.0
 11
307.4014082261
 21
156.4616756814
 31
0.0
  0
LINE
  5
129
330
1F
100
AcDbEntity
  8
0
  6
Continuous
 62
     7
370
    15
100
AcDbLine
 10
323.9014086023
 20
200.7641466634
 30
0.0
 11
322.9236158252
 21
200.7641466634
 31
0.0
  0
LINE
  5
12A
330
1F
100
AcDbEntity
  8
0
  6
Continuous
 62
     7
370
    15
100
AcDbLine
 10
297.149414447
 20
200.7641466634
 30
0.0
 11
296.901407902
 21
200.7641466634
 31
0.0
  0
LINE
  5
12B
330
1F
100
AcDbEntity
  8
0
  6
Continuous
 62
     7
370
    15
100
AcDbLine
 10
308.1190134574
 20
207.9641493337
 30
0.0
 11
308.1190134574
 21
217.4819084184
 31
0.0
  0
LINE
  5
12C
330
1F
100
AcDbEntity
  8
0
  6
Continuous
 62
     7
370
    15
100
AcDbLine
 10
310.7908986742
 20
207.9641493337
 30
0.0
 11
310.7908986742
 21
217.4641462343
 31
0.0
  0
LINE
  5
12D
330
1F
100
AcDbEntity
  8
0
  6
Continuous
 62
     7
370
    15
100
AcDbLine
 10
318.4014086321
 20
248.7641396301
 30
0.0
 11
365.4014079541
 21
248.7641396301
 31
0.0
  0
LINE
  5
12E
330
1F
100
AcDbEntity
  8
0
  6
Continuous
 62
     7
370
    15
100
AcDbLine
 10
358.4014086694
 20
242.7641423719
 30
0.0
 11
318.4014086321
 21
242.7641423719
 31
0.0
  0
SPLINE
  5
12F
330
1F
100
AcDbEntity
  8
0
  6
Continuous
 62
     7
370
    15
100
AcDbSpline
210
0.0
220
0.0
230
1.0
 70
     8
 71
     3
 72
    21
 73
    17
 74
     0
 42
0.00000001
 43
0.00000001
 40
0.0
 40
0.0
 40
0.0
 40
0.0
 40
0.0058326846458724
 40
0.0945323348938878
 40
0.1829668912749713
 40
0.2831190598879982
 40
0.3402346190412457
 40
0.3991198697771687
 40
0.48161896763937
 40
0.5643948336073068
 40
0.6432886970378577
 40
0.7380319859857504
 40
0.795042372732056
 40
0.8537644734241159
 40
0.9468651489415659
 40
1.0
 40
1.0
 40
1.0
 40
1.0
 10
358.4014086693802
 20
242.7641423719041
 30
0.0
 10
358.4014855954448
 20
242.7641933709908
 30
0.0
 10
358.4027323627464
 20
242.7650199308054
 30
0.0
 10
358.4696373881632
 20
242.8100489680505
 30
0.0
 10
358.7240833685474
 20
242.9726085296987
 30
0.0
 10
359.0635473871947
 20
243.1654811790315
 30
0.0
 10
359.4271984231569
 20
243.330535353817
 30
0.0
 10
359.8027455342803
 20
243.461252174877
 30
0.0
 10
360.2799577411159
 20
243.5473487091309
 30
0.0
 10
360.8167736552608
 20
243.5086938893822
 30
0.0
 10
361.3266281501059
 20
243.3580448494477
 30
0.0
 10
361.7144712905236
 20
243.17622069615
 30
0.0
 10
362.002639039855
 20
243.0157112760338
 30
0.0
 10
362.231497143955
 20
242.8763881888648
 30
0.0
 10
362.3790847606513
 20
242.7790663426485
 30
0.0
 10
362.3954595324024
 20
242.7681198081317
 30
0.0
 10
362.4014093250313
 20
242.7641423719041
 30
0.0
  0
LINE
  5
130
330
1F
100
AcDbEntity
  8
0
  6
Continuous
 62
     7
370
    15
100
AcDbLine
 10
365.4014079541
 20
242.7641423719
 30
0.0
 11
362.401409325
 21
242.7641423719
 31
0.0
  0
LWPOLYLINE
  5
131
330
1F
100
AcDbEntity
  8
0
  6
Continuous
 62
     7
370
    15
100
AcDbPolyline
 90
       11
 70
   128
 43
0.0
 10
360.4014089972
 20
245.7641484516
 10
360.0885404915
 20
245.4512836712
 10
359.7833758861
 20
245.1461078899
 10
359.4934290916
 20
244.8561610954
 10
359.2258377642
 20
244.5885809438
 10
358.9871956677
 20
244.3499388473
 10
358.7833738596
 20
244.1461058633
 10
358.6193940312
 20
243.9821334856
 10
358.4992943973
 20
243.8620301263
 10
358.4260328383
 20
243.7887760179
 10
358.4014086694
 20
243.7641443985
  0
LWPOLYLINE
  5
132
330
1F
100
AcDbEntity
  8
0
  6
Continuous
 62
     7
370
    15
100
AcDbPolyline
 90
       11
 70
   128
 43
0.0
 10
362.401409325
 20
243.7641443985
 10
362.3767851562
 20
243.7887760179
 10
362.3035198719
 20
243.8620301263
 10
362.1834202379
 20
243.9821334856
 10
362.0194404096
 20
244.1461058633
 10
361.8156223268
 20
244.3499388473
 10
361.5769802302
 20
244.5885809438
 10
361.3093889028
 20
244.8561610954
 10
361.0194421083
 20
245.1461078899
 10
360.7142775029
 20
245.4512836712
 10
360.4014089972
 20
245.7641484516
  0
LINE
  5
133
330
1F
100
AcDbEntity
  8
0
  6
Continuous
 62
     7
370
    15
100
AcDbLine
 10
362.401409325
 20
243.7641443985
 30
0.0
 11
362.401409325
 21
242.7641423719
 31
0.0
  0
LINE
  5
134
330
1F
100
AcDbEntity
  8
0
  6
Continuous
 62
     7
370
    15
100
AcDbLine
 10
358.4014086694
 20
242.7641423719
 30
0.0
 11
358.4014086694
 21
243.7641443985
 31
0.0
  0
LINE
  5
135
330
1F
100
AcDbEntity
  8
0
  6
Continuous
 62
     7
370
    15
100
AcDbLine
 10
317.9014080845
 20
247.7641525047
 30
0.0
 11
317.9014080845
 21
248.2641460674
 31
0.0
  0
LINE
  5
136
330
1F
100
AcDbEntity
  8
0
  6
Continuous
 62
     7
370
    15
100
AcDbLine
 10
318.4014086321
 20
248.7641396301
 30
0.0
 11
317.9014080845
 21
248.2641460674
 31
0.0
  0
LINE
  5
137
330
1F
100
AcDbEntity
  8
0
  6
Continuous
 62
     7
370
    15
100
AcDbLine
 10
365.4014079541
 20
242.7641423719
 30
0.0
 11
365.4014079541
 21
248.7641396301
 31
0.0
  0
LINE
  5
138
330
1F
100
AcDbEntity
  8
0
  6
Continuous
 62
     7
370
    15
100
AcDbLine
 10
362.401409325
 20
243.7641443985
 30
0.0
 11
362.901406613
 21
243.7641443985
 31
0.0
  0
LINE
  5
139
330
1F
100
AcDbEntity
  8
0
  6
Continuous
 62
     7
370
    15
100
AcDbLine
 10
362.901406613
 20
243.7641443985
 30
0.0
 11
364.0561087698
 21
245.7641484516
 31
0.0
  0
LINE
  5
13A
330
1F
100
AcDbEntity
  8
0
  6
Continuous
 62
     7
370
    15
100
AcDbLine
 10
364.0561087698
 20
245.7641484516
 30
0.0
 11
362.901406613
 21
247.7641525047
 31
0.0
  0
LINE
  5
13B
330
1F
100
AcDbEntity
  8
0
  6
Continuous
 62
     7
370
    15
100
AcDbLine
 10
362.901406613
 20
247.7641525047
 30
0.0
 11
317.9014080845
 21
247.7641525047
 31
0.0
  0
LINE
  5
13C
330
1F
100
AcDbEntity
  8
0
  6
Continuous
 62
     7
370
    15
100
AcDbLine
 10
362.901406613
 20
247.7641525047
 30
0.0
 11
362.901406613
 21
243.7641443985
 31
0.0
  0
LINE
  5
13D
330
1F
100
AcDbEntity
  8
0
  6
Continuous
 62
     7
370
    15
100
AcDbLine
 10
317.9014080845
 20
243.7641443985
 30
0.0
 11
358.4014086694
 21
243.7641443985
 31
0.0
  0
LINE
  5
13E
330
1F
100
AcDbEntity
  8
0
  6
Continuous
 62
     7
370
    15
100
AcDbLine
 10
317.9014080845
 20
247.7641525047
 30
0.0
 11
317.9014080845
 21
243.7641443985
 31
0.0
  0
LINE
  5
13F
330
1F
100
AcDbEntity
  8
0
  6
Continuous
 62
     7
370
    15
100
AcDbLine
 10
317.9014080845
 20
243.2641508358
 30
0.0
 11
318.4014086321
 21
242.7641423719
 31
0.0
  0
LINE
  5
140
330
1F
100
AcDbEntity
  8
0
  6
Continuous
 62
     7
370
    15
100
AcDbLine
 10
317.9014080845
 20
243.2641508358
 30
0.0
 11
317.9014080845
 21
243.7641443985
 31
0.0
  0
LINE
  5
141
330
1F
100
AcDbEntity
  8
0
  6
Continuous
 62
     7
370
    15
100
AcDbLine
 10
322.9014084384
 20
226.7641397493
 30
0.0
 11
322.9014084384
 21
242.7641423719
 31
0.0
  0
LINE
  5
142
330
1F
100
AcDbEntity
  8
0
  6
Continuous
 62
     7
370
    15
100
AcDbLine
 10
322.9014084384
 20
248.7641396301
 30
0.0
 11
322.9014084384
 21
251.7641457098
 31
0.0
  0
LINE
  5
143
330
1F
100
AcDbEntity
  8
0
  6
Continuous
 62
     7
370
    15
100
AcDbLine
 10
297.9014080659
 20
251.7641457098
 30
0.0
 11
297.9014080659
 21
226.7641397493
 31
0.0
  0
LINE
  5
144
330
1F
100
AcDbEntity
  8
0
  6
Continuous
 62
     7
370
    15
100
AcDbLine
 10
317.9014080845
 20
242.7641423719
 30
0.0
 11
322.9014084384
 21
242.7641423719
 31
0.0
  0
LINE
  5
145
330
1F
100
AcDbEntity
  8
0
  6
Continuous
 62
     7
370
    15
100
AcDbLine
 10
322.9014084384
 20
248.7641396301
 30
0.0
 11
317.9014080845
 21
248.7641396301
 31
0.0
  0
LINE
  5
146
330
1F
100
AcDbEntity
  8
0
  6
Continuous
 62
     7
370
    15
100
AcDbLine
 10
311.9014082652
 20
243.7641443985
 30
0.0
 11
317.9014080845
 21
243.7641443985
 31
0.0
  0
SPLINE
  5
147
330
1F
100
AcDbEntity
  8
0
  6
Continuous
 62
     7
370
    15
100
AcDbSpline
210
0.0
220
0.0
230
1.0
 70
     8
 71
     3
 72
    20
 73
    16
 74
     0
 42
0.00000001
 43
0.00000001
 40
0.0
 40
0.0
 40
0.0
 40
0.0
 40
0.0671833038016931
 40
0.1498863695387429
 40
0.2420468721890902
 40
0.3524574801925002
 40
0.4389175608058687
 40
0.499963937744694
 40
0.5848286687910094
 40
0.6688475204935793
 40
0.7705238605211293
 40
0.8307195621102725
 40
0.8932060551576728
 40
0.9784486850236688
 40
1.0
 40
1.0
 40
1.0
 40
1.0
 10
308.9014082391092
 20
243.764144398462
 30
0.0
 10
308.9086751737856
 20
243.7696206236553
 30
0.0
 10
308.924887750344
 20
243.7818381161949
 30
0.0
 10
309.0673652891434
 20
243.8870246519956
 30
0.0
 10
309.3251189675485
 20
244.0640808315025
 30
0.0
 10
309.6756382586011
 20
244.2694308686846
 30
0.0
 10
310.0579948031244
 20
244.4121984130023
 30
0.0
 10
310.4405731034009
 20
244.4582045959023
 30
0.0
 10
310.8195816391544
 20
244.3937091113026
 30
0.0
 10
311.2017920243893
 20
244.2281502617588
 30
0.0
 10
311.4882982205724
 20
244.055228377287
 30
0.0
 10
311.6930859776131
 20
243.9162587529949
 30
0.0
 10
311.8353840589787
 20
243.8137516535457
 30
0.0
 10
311.8967738832321
 20
243.7676156209019
 30
0.0
 10
311.9006300749721
 20
243.7647272747463
 30
0.0
 10
311.9014082651862
 20
243.764144398462
 30
0.0
  0
LINE
  5
148
330
1F
100
AcDbEntity
  8
0
  6
Continuous
 62
     7
370
    15
100
AcDbLine
 10
304.901408282
 20
243.7641443985
 30
0.0
 11
308.9014082391
 21
243.7641443985
 31
0.0
  0
LINE
  5
149
330
1F
100
AcDbEntity
  8
0
  6
Continuous
 62
     7
370
    15
100
AcDbLine
 10
304.901408282
 20
243.7641443985
 30
0.0
 11
304.901408282
 21
247.7641525047
 31
0.0
  0
LINE
  5
14A
330
1F
100
AcDbEntity
  8
0
  6
Continuous
 62
     7
370
    15
100
AcDbLine
 10
317.9014080845
 20
247.7641525047
 30
0.0
 11
304.901408282
 21
247.7641525047
 31
0.0
  0
LINE
  5
14B
330
1F
100
AcDbEntity
  8
0
  6
Continuous
 62
     7
370
    15
100
AcDbLine
 10
308.9014082391
 20
243.7641443985
 30
0.0
 11
308.9014082391
 21
217.764143862
 31
0.0
  0
LINE
  5
14C
330
1F
100
AcDbEntity
  8
0
  6
Continuous
 62
     7
370
    15
100
AcDbLine
 10
311.9014082652
 20
217.764143862
 30
0.0
 11
311.9014082652
 21
243.7641443985
 31
0.0
  0
LINE
  5
14D
330
1F
100
AcDbEntity
  8
0
  6
Continuous
 62
     7
370
    15
100
AcDbLine
 10
308.9014082391
 20
217.764143862
 30
0.0
 11
311.9014082652
 21
217.764143862
 31
0.0
  0
LINE
  5
14E
330
1F
100
AcDbEntity
  8
0
  6
Continuous
 62
     7
370
    15
100
AcDbLine
 10
317.9014080845
 20
248.7641396301
 30
0.0
 11
317.9014080845
 21
247.7641525047
 31
0.0
  0
LINE
  5
14F
330
1F
100
AcDbEntity
  8
0
  6
Continuous
 62
     7
370
    15
100
AcDbLine
 10
304.901408282
 20
247.7641525047
 30
0.0
 11
303.699686908
 21
245.7641484516
 31
0.0
  0
LINE
  5
150
330
1F
100
AcDbEntity
  8
0
  6
Continuous
 62
     7
370
    15
100
AcDbLine
 10
303.699686908
 20
245.7641484516
 30
0.0
 11
304.901408282
 21
243.7641443985
 31
0.0
  0
LINE
  5
151
330
1F
100
AcDbEntity
  8
0
  6
Continuous
 62
     7
370
    15
100
AcDbLine
 10
308.6014082831
 20
217.4641462343
 30
0.0
 11
308.9014082391
 21
217.764143862
 31
0.0
  0
LINE
  5
152
330
1F
100
AcDbEntity
  8
0
  6
Continuous
 62
     7
370
    15
100
AcDbLine
 10
308.6014082831
 20
217.4641462343
 30
0.0
 11
308.2014082641
 21
217.4641462343
 31
0.0
  0
ARC
  5
153
330
1F
100
AcDbEntity
  8
0
  6
Continuous
 62
     7
370
    15
100
AcDbCircle
 10
308.2014082521
 20
217.6641465032
 30
0.0
 40
0.2000000000000455
100
AcDbArc
 50
180.0
 51
270.0
  0
LINE
  5
154
330
1F
100
AcDbEntity
  8
0
  6
Continuous
 62
     7
370
    15
100
AcDbLine
 10
308.0014081382
 20
217.6641496198
 30
0.0
 11
308.0014081382
 21
219.4641502874
 31
0.0
  0
LINE
  5
155
330
1F
100
AcDbEntity
  8
0
  6
Continuous
 62
     7
370
    15
100
AcDbLine
 10
308.0014081382
 20
219.4641502874
 30
0.0
 11
307.4014082261
 21
220.0641455429
 31
0.0
  0
LINE
  5
156
330
1F
100
AcDbEntity
  8
0
  6
Continuous
 62
     7
370
    15
100
AcDbLine
 10
307.4014082261
 20
220.0641455429
 30
0.0
 11
307.4014082261
 21
229.9641492145
 31
0.0
  0
LINE
  5
157
330
1F
100
AcDbEntity
  8
0
  6
Continuous
 62
     7
370
    15
100
AcDbLine
 10
307.4014082261
 20
229.9641492145
 30
0.0
 11
305.9014084459
 21
229.9641492145
 31
0.0
  0
LINE
  5
158
330
1F
100
AcDbEntity
  8
0
  6
Continuous
 62
     7
370
    15
100
AcDbLine
 10
305.9014084459
 20
229.9641492145
 30
0.0
 11
305.9014084459
 21
237.9641505258
 31
0.0
  0
LINE
  5
159
330
1F
100
AcDbEntity
  8
0
  6
Continuous
 62
     7
370
    15
100
AcDbLine
 10
305.9014084459
 20
237.9641505258
 30
0.0
 11
299.1514078051
 21
237.9641505258
 31
0.0
  0
LINE
  5
15A
330
1F
100
AcDbEntity
  8
0
  6
Continuous
 62
     7
370
    15
100
AcDbLine
 10
299.1514078051
 20
237.9641505258
 30
0.0
 11
299.1514078051
 21
227.2641482132
 31
0.0
  0
ARC
  5
15B
330
1F
100
AcDbEntity
  8
0
  6
Continuous
 62
     7
370
    15
100
AcDbCircle
 10
298.6514082521
 20
227.2641465032
 30
0.0
 40
0.5
100
AcDbArc
 50
270.0
 51
0.0
  0
LINE
  5
15C
330
1F
100
AcDbEntity
  8
0
  6
Continuous
 62
     7
370
    15
100
AcDbLine
 10
298.6514086545
 20
226.7641397493
 30
0.0
 11
297.9014080659
 21
226.7641397493
 31
0.0
  0
LINE
  5
15D
330
1F
100
AcDbEntity
  8
0
  6
Continuous
 62
     7
370
    15
100
AcDbLine
 10
322.9014084384
 20
251.7641457098
 30
0.0
 11
297.9014080659
 21
251.7641457098
 31
0.0
  0
ARC
  5
15E
330
1F
100
AcDbEntity
  8
0
  6
Continuous
 62
     7
370
    15
100
AcDbCircle
 10
322.1514082521
 20
227.2641465032
 30
0.0
 40
0.5
100
AcDbArc
 50
180.0
 51
270.0
  0
LINE
  5
15F
330
1F
100
AcDbEntity
  8
0
  6
Continuous
 62
     7
370
    15
100
AcDbLine
 10
322.1514078498
 20
226.7641397493
 30
0.0
 11
319.1514082894
 21
226.7641397493
 31
0.0
  0
LINE
  5
160
330
1F
100
AcDbEntity
  8
0
  6
Continuous
 62
     7
370
    15
100
AcDbLine
 10
301.6514082149
 20
226.7641397493
 30
0.0
 11
298.6514086545
 21
226.7641397493
 31
0.0
  0
LINE
  5
161
330
1F
100
AcDbEntity
  8
0
  6
Continuous
 62
     7
370
    15
100
AcDbLine
 10
321.6514086992
 20
227.2641482132
 30
0.0
 11
321.6514086992
 21
237.9641505258
 31
0.0
  0
LINE
  5
162
330
1F
100
AcDbEntity
  8
0
  6
Continuous
 62
     7
370
    15
100
AcDbLine
 10
314.9014080584
 20
237.9641505258
 30
0.0
 11
314.9014080584
 21
229.9641492145
 31
0.0
  0
LINE
  5
163
330
1F
100
AcDbEntity
  8
0
  6
Continuous
 62
     7
370
    15
100
AcDbLine
 10
313.4014082782
 20
220.0641455429
 30
0.0
 11
312.8014083661
 21
219.4641502874
 31
0.0
  0
LINE
  5
164
330
1F
100
AcDbEntity
  8
0
  6
Continuous
 62
     7
370
    15
100
AcDbLine
 10
313.4014082782
 20
229.9641492145
 30
0.0
 11
313.4014082782
 21
220.0641455429
 31
0.0
  0
LINE
  5
165
330
1F
100
AcDbEntity
  8
0
  6
Continuous
 62
     7
370
    15
100
AcDbLine
 10
312.8014083661
 20
219.4641502874
 30
0.0
 11
312.8014083661
 21
217.6641496198
 31
0.0
  0
ARC
  5
166
330
1F
100
AcDbEntity
  8
0
  6
Continuous
 62
     7
370
    15
100
AcDbCircle
 10
312.6014082521
 20
217.6641465032
 30
0.0
 40
0.1999999999999886
100
AcDbArc
 50
270.0
 51
0.0
  0
LINE
  5
167
330
1F
100
AcDbEntity
  8
0
  6
Continuous
 62
     7
370
    15
100
AcDbLine
 10
311.9014082652
 20
217.764143862
 30
0.0
 11
312.2014082212
 21
217.4641462343
 31
0.0
  0
LINE
  5
168
330
1F
100
AcDbEntity
  8
0
  6
Continuous
 62
     7
370
    15
100
AcDbLine
 10
312.2014082212
 20
217.4641462343
 30
0.0
 11
308.6014082831
 21
217.4641462343
 31
0.0
  0
LINE
  5
169
330
1F
100
AcDbEntity
  8
0
  6
Continuous
 62
     7
370
    15
100
AcDbLine
 10
317.9014080845
 20
243.7641443985
 30
0.0
 11
317.9014080845
 21
242.7641423719
 31
0.0
  0
LINE
  5
16A
330
1F
100
AcDbEntity
  8
0
  6
Continuous
 62
     7
370
    15
100
AcDbLine
 10
312.6014082402
 20
217.4641462343
 30
0.0
 11
312.2014082212
 21
217.4641462343
 31
0.0
  0
LINE
  5
16B
330
1F
100
AcDbEntity
  8
0
  6
Continuous
 62
     7
370
    15
100
AcDbLine
 10
314.9014080584
 20
229.9641492145
 30
0.0
 11
313.4014082782
 21
229.9641492145
 31
0.0
  0
LINE
  5
16C
330
1F
100
AcDbEntity
  8
0
  6
Continuous
 62
     7
370
    15
100
AcDbLine
 10
321.6514086992
 20
237.9641505258
 30
0.0
 11
314.9014080584
 21
237.9641505258
 31
0.0
  0
LINE
  5
16D
330
1F
100
AcDbEntity
  8
0
  6
Continuous
 62
     7
370
    15
100
AcDbLine
 10
322.9014084384
 20
226.7641397493
 30
0.0
 11
322.1514078498
 21
226.7641397493
 31
0.0
  0
LINE
  5
16E
330
1F
100
AcDbEntity
  8
0
  6
Continuous
 62
     7
370
    15
100
AcDbLine
 10
278.6514072389
 20
192.5847130196
 30
0.0
 11
280.5273609877
 21
192.9245041983
 31
0.0
  0
LINE
  5
16F
330
1F
100
AcDbEntity
  8
0
  6
Continuous
 62
     7
370
    15
100
AcDbLine
 10
340.2754555166
 20
192.9245041983
 30
0.0
 11
342.1514092654
 21
192.5847130196
 31
0.0
  0
LINE
  5
170
330
1F
100
AcDbEntity
  8
0
  6
Continuous
 62
     7
370
    15
100
AcDbLine
 10
342.1514092654
 20
192.5847130196
 30
0.0
 11
342.1165442735
 21
192.1862336176
 31
0.0
  0
LINE
  5
171
330
1F
100
AcDbEntity
  8
0
  6
Continuous
 62
     7
370
    15
100
AcDbLine
 10
278.6862722308
 20
192.1862336176
 30
0.0
 11
278.6514072389
 21
192.5847130196
 31
0.0
  0
LINE
  5
172
330
1F
100
AcDbEntity
  8
0
  6
Continuous
 62
     7
370
    15
100
AcDbLine
 10
342.1165442735
 20
192.1862336176
 30
0.0
 11
340.2100897104
 21
192.1773599761
 31
0.0
  0
LINE
  5
173
330
1F
100
AcDbEntity
  8
0
  6
Continuous
 62
     7
370
    15
100
AcDbLine
 10
280.5927267939
 20
192.1773599761
 30
0.0
 11
278.6862722308
 21
192.1862336176
 31
0.0
  0
LINE
  5
174
330
1F
100
AcDbEntity
  8
0
  6
Continuous
 62
     7
370
    15
100
AcDbLine
 10
341.9600895316
 20
190.3979229109
 30
0.0
 11
341.925228265
 21
189.9994509595
 31
0.0
  0
LINE
  5
175
330
1F
100
AcDbEntity
  8
0
  6
Continuous
 62
     7
370
    15
100
AcDbLine
 10
278.8775882393
 20
189.9994509595
 30
0.0
 11
278.8427269727
 21
190.3979229109
 31
0.0
  0
LINE
  5
176
330
1F
100
AcDbEntity
  8
0
  6
Continuous
 62
     7
370
    15
100
AcDbLine
 10
278.8427269727
 20
190.3979229109
 30
0.0
 11
280.7186788589
 21
190.7377215402
 31
0.0
  0
LINE
  5
177
330
1F
100
AcDbEntity
  8
0
  6
Continuous
 62
     7
370
    15
100
AcDbLine
 10
340.0841376454
 20
190.7377215402
 30
0.0
 11
341.9600895316
 21
190.3979229109
 31
0.0
  0
LINE
  5
178
330
1F
100
AcDbEntity
  8
0
  6
Continuous
 62
     7
370
    15
100
AcDbLine
 10
341.925228265
 20
189.9994509595
 30
0.0
 11
340.0187699765
 21
189.9905698674
 31
0.0
  0
LINE
  5
179
330
1F
100
AcDbEntity
  8
0
  6
Continuous
 62
     7
370
    15
100
AcDbLine
 10
280.7840465278
 20
189.9905698674
 30
0.0
 11
278.8775882393
 21
189.9994509595
 31
0.0
  0
LINE
  5
17A
330
1F
100
AcDbEntity
  8
0
  6
Continuous
 62
     7
370
    15
100
AcDbLine
 10
279.0340467066
 20
188.2111402528
 30
0.0
 11
280.9099985928
 21
188.5509314315
 31
0.0
  0
LINE
  5
17B
330
1F
100
AcDbEntity
  8
0
  6
Continuous
 62
     7
370
    15
100
AcDbLine
 10
339.8928179115
 20
188.5509314315
 30
0.0
 11
341.7687697977
 21
188.2111402528
 31
0.0
  0
LINE
  5
17C
330
1F
100
AcDbEntity
  8
0
  6
Continuous
 62
     7
370
    15
100
AcDbLine
 10
341.7687697977
 20
188.2111402528
 30
0.0
 11
341.7339085311
 21
187.8126608508
 31
0.0
  0
LINE
  5
17D
330
1F
100
AcDbEntity
  8
0
  6
Continuous
 62
     7
370
    15
100
AcDbLine
 10
279.0689079732
 20
187.8126608508
 30
0.0
 11
279.0340467066
 21
188.2111402528
 31
0.0
  0
LINE
  5
17E
330
1F
100
AcDbEntity
  8
0
  6
Continuous
 62
     7
370
    15
100
AcDbLine
 10
341.7339085311
 20
187.8126608508
 30
0.0
 11
339.8274502427
 21
187.8037872093
 31
0.0
  0
LINE
  5
17F
330
1F
100
AcDbEntity
  8
0
  6
Continuous
 62
     7
370
    15
100
AcDbLine
 10
280.9753662616
 20
187.8037872093
 30
0.0
 11
279.0689079732
 21
187.8126608508
 31
0.0
  0
LINE
  5
180
330
1F
100
AcDbEntity
  8
0
  6
Continuous
 62
     7
370
    15
100
AcDbLine
 10
340.4014075816
 20
194.3641500847
 30
0.0
 11
340.2754555166
 21
192.9245041983
 31
0.0
  0
LINE
  5
181
330
1F
100
AcDbEntity
  8
0
  6
Continuous
 62
     7
370
    15
100
AcDbLine
 10
280.5273609877
 20
192.9245041983
 30
0.0
 11
280.4014089227
 21
194.3641500847
 31
0.0
  0
LINE
  5
182
330
1F
100
AcDbEntity
  8
0
  6
Continuous
 62
     7
370
    15
100
AcDbLine
 10
340.2100897104
 20
192.1773599761
 30
0.0
 11
340.0841376454
 21
190.7377215402
 31
0.0
  0
LINE
  5
183
330
1F
100
AcDbEntity
  8
0
  6
Continuous
 62
     7
370
    15
100
AcDbLine
 10
280.7186788589
 20
190.7377215402
 30
0.0
 11
280.5927267939
 21
192.1773599761
 31
0.0
  0
LINE
  5
184
330
1F
100
AcDbEntity
  8
0
  6
Continuous
 62
     7
370
    15
100
AcDbLine
 10
340.0187699765
 20
189.9905698674
 30
0.0
 11
339.8928179115
 21
188.5509314315
 31
0.0
  0
LINE
  5
185
330
1F
100
AcDbEntity
  8
0
  6
Continuous
 62
     7
370
    15
100
AcDbLine
 10
280.9099985928
 20
188.5509314315
 30
0.0
 11
280.7840465278
 21
189.9905698674
 31
0.0
  0
LINE
  5
186
330
1F
100
AcDbEntity
  8
0
  6
Continuous
 62
     7
370
    15
100
AcDbLine
 10
339.8274502427
 20
187.8037872093
 30
0.0
 11
339.7014981777
 21
186.3641487734
 31
0.0
  0
LINE
  5
187
330
1F
100
AcDbEntity
  8
0
  6
Continuous
 62
     7
370
    15
100
AcDbLine
 10
281.1013183266
 20
186.3641487734
 30
0.0
 11
280.9753662616
 21
187.8037872093
 31
0.0
  0
LINE
  5
188
330
1F
100
AcDbEntity
  8
0
  6
Continuous
 62
     7
370
    15
100
AcDbLine
 10
282.4014073879
 20
194.3641500847
 30
0.0
 11
282.4014073879
 21
186.3641487734
 31
0.0
  0
LINE
  5
189
330
1F
100
AcDbEntity
  8
0
  6
Continuous
 62
     7
370
    15
100
AcDbLine
 10
338.4014091164
 20
186.3641487734
 30
0.0
 11
338.4014091164
 21
194.3641500847
 31
0.0
  0
LINE
  5
18A
330
1F
100
AcDbEntity
  8
0
  6
Continuous
 62
     7
370
    15
100
AcDbLine
 10
282.4014073879
 20
186.3641487734
 30
0.0
 11
281.1013183266
 21
186.3641487734
 31
0.0
  0
LINE
  5
18B
330
1F
100
AcDbEntity
  8
0
  6
Continuous
 62
     7
370
    15
100
AcDbLine
 10
280.4014089227
 20
194.3641500847
 30
0.0
 11
282.4014073879
 21
194.3641500847
 31
0.0
  0
LINE
  5
18C
330
1F
100
AcDbEntity
  8
0
  6
Continuous
 62
     7
370
    15
100
AcDbLine
 10
339.7014981777
 20
186.3641487734
 30
0.0
 11
338.4014091164
 21
186.3641487734
 31
0.0
  0
LINE
  5
18D
330
1F
100
AcDbEntity
  8
0
  6
Continuous
 62
     7
370
    15
100
AcDbLine
 10
338.4014091164
 20
194.3641500847
 30
0.0
 11
340.4014075816
 21
194.3641500847
 31
0.0
  0
LINE
  5
18E
330
1F
100
AcDbEntity
  8
0
  6
Continuous
 62
     7
370
    15
100
AcDbLine
 10
277.1514079243
 20
194.3641500847
 30
0.0
 11
277.1514079243
 21
195.3641446607
 31
0.0
  0
LINE
  5
18F
330
1F
100
AcDbEntity
  8
0
  6
Continuous
 62
     7
370
    15
100
AcDbLine
 10
343.65140858
 20
195.3641446607
 30
0.0
 11
343.65140858
 21
194.3641500847
 31
0.0
  0
ARC
  5
190
330
1F
100
AcDbEntity
  8
0
  6
Continuous
 62
     7
370
    15
100
AcDbCircle
 10
310.4014082521
 20
85.2758296844
 30
0.0
 40
115.0
100
AcDbArc
 50
73.1940964122
 51
81.4990339329
  0
ARC
  5
191
330
1F
100
AcDbEntity
  8
0
  6
Continuous
 62
     7
370
    15
100
AcDbCircle
 10
310.4014082521
 20
85.2758296844
 30
0.0
 40
115.0
100
AcDbArc
 50
98.5009660671
 51
106.8059035878
  0
LINE
  5
192
330
1F
100
AcDbEntity
  8
0
  6
Continuous
 62
     7
370
    15
100
AcDbLine
 10
339.6514079243
 20
186.1641453879
 30
0.0
 11
339.4939287275
 21
184.3641447203
 31
0.0
  0
LINE
  5
193
330
1F
100
AcDbEntity
  8
0
  6
Continuous
 62
     7
370
    15
100
AcDbLine
 10
281.3088877768
 20
184.3641447203
 30
0.0
 11
281.15140858
 21
186.1641453879
 31
0.0
  0
LINE
  5
194
330
1F
100
AcDbEntity
  8
0
  6
Continuous
 62
     7
370
    15
100
AcDbLine
 10
282.4014073879
 20
186.1641453879
 30
0.0
 11
282.4014073879
 21
194.3641500847
 31
0.0
  0
LINE
  5
195
330
1F
100
AcDbEntity
  8
0
  6
Continuous
 62
     7
370
    15
100
AcDbLine
 10
338.4014091164
 20
194.3641500847
 30
0.0
 11
338.4014091164
 21
186.1641453879
 31
0.0
  0
LINE
  5
196
330
1F
100
AcDbEntity
  8
0
  6
Continuous
 62
     7
370
    15
100
AcDbLine
 10
284.8475093663
 20
193.8175456898
 30
0.0
 11
284.5173890412
 21
184.3641447203
 31
0.0
  0
LINE
  5
197
330
1F
100
AcDbEntity
  8
0
  6
Continuous
 62
     7
370
    15
100
AcDbLine
 10
336.2854274631
 20
184.3641447203
 30
0.0
 11
335.955307138
 21
193.8175456898
 31
0.0
  0
LINE
  5
198
330
1F
100
AcDbEntity
  8
0
  6
Continuous
 62
     7
370
    15
100
AcDbLine
 10
284.5173890412
 20
184.3641447203
 30
0.0
 11
303.2514082909
 21
184.3641447203
 31
0.0
  0
LINE
  5
199
330
1F
100
AcDbEntity
  8
0
  6
Continuous
 62
     7
370
    15
100
AcDbLine
 10
317.5514082134
 20
184.3641447203
 30
0.0
 11
336.2854274631
 21
184.3641447203
 31
0.0
  0
ARC
  5
19A
330
1F
100
AcDbEntity
  8
0
  6
Continuous
 62
     7
370
    15
100
AcDbCircle
 10
286.8462903996
 20
193.7477450494
 30
0.0
 40
1.999999999999977
100
AcDbArc
 50
102.2517939182
 51
178.0
  0
ARC
  5
19B
330
1F
100
AcDbEntity
  8
0
  6
Continuous
 62
     7
370
    15
100
AcDbCircle
 10
333.9565261047
 20
193.7477450494
 30
0.0
 40
1.999999999999977
100
AcDbArc
 50
2.0
 51
77.7482060818
  0
ARC
  5
19C
330
1F
100
AcDbEntity
  8
0
  6
Continuous
 62
     7
370
    15
100
AcDbCircle
 10
310.4014082521
 20
85.2758296844
 30
0.0
 40
113.0000000000003
100
AcDbArc
 50
95.9895933419
 51
102.2517939182
  0
ARC
  5
19D
330
1F
100
AcDbEntity
  8
0
  6
Continuous
 62
     7
370
    15
100
AcDbCircle
 10
310.4014082521
 20
85.2758296844
 30
0.0
 40
113.0000000000003
100
AcDbArc
 50
77.7482060818
 51
84.0104066581
  0
LINE
  5
19E
330
1F
100
AcDbEntity
  8
0
  6
Continuous
 62
     7
370
    15
100
AcDbLine
 10
293.4014073283
 20
199.0123661535
 30
0.0
 11
293.4014073283
 21
199.3641453164
 31
0.0
  0
LINE
  5
19F
330
1F
100
AcDbEntity
  8
0
  6
Continuous
 62
     7
370
    15
100
AcDbLine
 10
327.401409176
 20
199.3641453164
 30
0.0
 11
327.401409176
 21
199.0123661535
 31
0.0
  0
ARC
  5
1A0
330
1F
100
AcDbEntity
  8
0
  6
Continuous
 62
     7
370
    15
100
AcDbCircle
 10
293.9014082521
 20
199.3641465032
 30
0.0
 40
0.5
100
AcDbArc
 50
90.0
 51
180.0
  0
ARC
  5
1A1
330
1F
100
AcDbEntity
  8
0
  6
Continuous
 62
     7
370
    15
100
AcDbCircle
 10
326.9014082521
 20
199.3641465032
 30
0.0
 40
0.5
100
AcDbArc
 50
0.0
 51
90.0
  0
SPLINE
  5
1A2
330
1F
100
AcDbEntity
  8
0
  6
Continuous
 62
     7
370
    15
100
AcDbSpline
210
0.0
220
0.0
230
1.0
 70
     8
 71
     3
 72
    17
 73
    13
 74
     0
 42
0.00000001
 43
0.00000001
 40
0.0
 40
0.0
 40
0.0
 40
0.0
 40
0.1073725614127942
 40
0.2147440293931336
 40
0.3221175544364685
 40
0.4294887379527869
 40
0.5368618909881896
 40
0.6442348860152008
 40
0.7516071952243724
 40
0.8589798329246536
 40
0.9663521908798364
 40
1.0
 40
1.0
 40
1.0
 40
1.0
 10
297.9014080658832
 20
202.7193131225221
 30
0.0
 10
297.7720929374582
 20
202.7065975222054
 30
0.0
 10
297.5134639974935
 20
202.6811664510617
 30
0.0
 10
297.1692507481707
 20
202.4829363401609
 30
0.0
 10
296.90759399147
 20
202.1909975408959
 30
0.0
 10
296.757970572907
 20
201.8264870651757
 30
0.0
 10
296.7372731382473
 20
201.4336250115419
 30
0.0
 10
296.8477986905237
 20
201.0559679992689
 30
0.0
 10
297.0771909807944
 20
200.7359121618722
 30
0.0
 10
297.3992120801875
 20
200.511009779297
 30
0.0
 10
297.692040499604
 20
200.4261223154761
 30
0.0
 10
297.8610757733842
 20
200.4206294947502
 30
0.0
 10
297.9014080658832
 20
200.4193188922517
 30
0.0
  0
SPLINE
  5
1A3
330
1F
100
AcDbEntity
  8
0
  6
Continuous
 62
     7
370
    15
100
AcDbSpline
210
0.0
220
0.0
230
1.0
 70
     8
 71
     3
 72
    12
 73
     8
 74
     0
 42
0.00000001
 43
0.00000001
 40
0.0
 40
0.0
 40
0.0
 40
0.0
 40
0.148381475156255
 40
0.4054056069977475
 40
0.6624305251699327
 40
0.919454773697946
 40
1.0
 40
1.0
 40
1.0
 40
1.0
 10
324.0129726648607
 20
199.8641463296525
 30
0.0
 10
323.9897279268279
 20
199.9349255886714
 30
0.0
 10
323.926219007525
 20
200.1283076023977
 30
0.0
 10
323.7244736315772
 20
200.4025346501763
 30
0.0
 10
323.4039228189378
 20
200.6276707324523
 30
0.0
 10
323.1107549111224
 20
200.7124953088556
 30
0.0
 10
322.9417367477836
 20
200.7180024882325
 30
0.0
 10
322.9014084384122
 20
200.7193165199868
 30
0.0
  0
SPLINE
  5
1A4
330
1F
100
AcDbEntity
  8
0
  6
Continuous
 62
     7
370
    15
100
AcDbSpline
210
0.0
220
0.0
230
1.0
 70
     8
 71
     3
 72
    17
 73
    13
 74
     0
 42
0.00000001
 43
0.00000001
 40
0.0
 40
0.0
 40
0.0
 40
0.0
 40
0.1073725661053183
 40
0.2147440387781341
 40
0.3221175685140352
 40
0.429490672917646
 40
0.5368617617447752
 40
0.6442347614643295
 40
0.7516070753660141
 40
0.8589797177588228
 40
0.9663520804065208
 40
1.0
 40
1.0
 40
1.0
 40
1.0
 10
297.9014080658832
 20
206.7193137781732
 30
0.0
 10
297.7720929217178
 20
206.7065981838604
 30
0.0
 10
297.5134639502728
 20
206.6811671247246
 30
0.0
 10
297.169250937053
 20
206.4829369237652
 30
0.0
 10
296.9075917266117
 20
206.1909967300513
 30
0.0
 10
296.7579727313733
 20
205.8264845007389
 30
0.0
 10
296.7372731211308
 20
205.4336234134969
 30
0.0
 10
296.8477988758728
 20
205.0559684289819
 30
0.0
 10
297.0771909663973
 20
204.7359135493525
 30
0.0
 10
297.3992119524258
 20
204.5110077335614
 30
0.0
 10
297.692041004047
 20
204.4261300836735
 30
0.0
 10
297.8610757902417
 20
204.4206255078579
 30
0.0
 10
297.9014080658832
 20
204.4193120973222
 30
0.0
  0
SPLINE
  5
1A5
330
1F
100
AcDbEntity
  8
0
  6
Continuous
 62
     7
370
    15
100
AcDbSpline
210
0.0
220
0.0
230
1.0
 70
     8
 71
     3
 72
    17
 73
    13
 74
     0
 42
0.00000001
 43
0.00000001
 40
0.0
 40
0.0
 40
0.0
 40
0.0
 40
0.1073726244315906
 40
0.2147451596711102
 40
0.3221172002788634
 40
0.429490363009039
 40
0.536861510161638
 40
0.6442345682077002
 40
0.7516069404355202
 40
0.8589796411546426
 40
0.9663520621285024
 40
0.9999999999999999
 40
0.9999999999999999
 40
0.9999999999999999
 40
0.9999999999999999
 10
322.9014084384122
 20
202.419315494787
 30
0.0
 10
323.0307240255088
 20
202.4320303995501
 30
0.0
 10
323.2893550922827
 20
202.4574601985144
 30
0.0
 10
323.6335606765622
 20
202.6557011570208
 30
0.0
 10
323.8952273340844
 20
202.9476323949598
 30
0.0
 10
324.0448432805383
 20
203.3121452810664
 30
0.0
 10
324.0655435151014
 20
203.7050057231153
 30
0.0
 10
323.9550175930644
 20
204.0826608805184
 30
0.0
 10
323.7256255473934
 20
204.4027157137947
 30
0.0
 10
323.403604549246
 20
204.6276215421099
 30
0.0
 10
323.1107755004181
 20
204.7124991891112
 30
0.0
 10
322.9417407140863
 20
204.7180037650684
 30
0.0
 10
322.9014084384122
 20
204.7193171756379
 30
0.0
  0
LINE
  5
1A6
330
1F
100
AcDbEntity
  8
0
  6
Continuous
 62
     7
370
    15
100
AcDbLine
 10
297.9014080659
 20
202.7193131225
 30
0.0
 11
297.9014080659
 21
204.4193120973
 31
0.0
  0
LINE
  5
1A7
330
1F
100
AcDbEntity
  8
0
  6
Continuous
 62
     7
370
    15
100
AcDbLine
 10
322.9014084384
 20
202.4193154948
 30
0.0
 11
322.9014084384
 21
200.71931652
 31
0.0
  0
LINE
  5
1A8
330
1F
100
AcDbEntity
  8
0
  6
Continuous
 62
     7
370
    15
100
AcDbLine
 10
297.9014080659
 20
206.7193137782
 30
0.0
 11
297.9014080659
 21
207.864147641
 31
0.0
  0
LINE
  5
1A9
330
1F
100
AcDbEntity
  8
0
  6
Continuous
 62
     7
370
    15
100
AcDbLine
 10
322.9014084384
 20
207.864147641
 30
0.0
 11
322.9014084384
 21
204.7193171756
 31
0.0
  0
ARC
  5
1AA
330
1F
100
AcDbEntity
  8
0
  6
Continuous
 62
     7
370
    15
100
AcDbCircle
 10
298.9014082521
 20
207.8641465032
 30
0.0
 40
1.0
100
AcDbArc
 50
90.0
 51
180.0
  0
ARC
  5
1AB
330
1F
100
AcDbEntity
  8
0
  6
Continuous
 62
     7
370
    15
100
AcDbCircle
 10
321.9014082521
 20
207.8641465032
 30
0.0
 40
1.0
100
AcDbArc
 50
0.0
 51
90.0
  0
ARC
  5
1AC
330
1F
100
AcDbEntity
  8
0
  6
Continuous
 62
     7
370
    15
100
AcDbCircle
 10
298.4014082521
 20
199.6480291037
 30
0.0
 40
2.0
100
AcDbArc
 50
275.9895933419
 51
0.0
  0
ARC
  5
1AD
330
1F
100
AcDbEntity
  8
0
  6
Continuous
 62
     7
370
    15
100
AcDbCircle
 10
322.4014082521
 20
199.6480291037
 30
0.0
 40
2.000000000000028
100
AcDbArc
 50
180.0
 51
264.0104066581
  0
ARC
  5
1AE
330
1F
100
AcDbEntity
  8
0
  6
Continuous
 62
     7
370
    15
100
AcDbCircle
 10
297.4014082521
 20
200.3641465032
 30
0.0
 40
0.5
100
AcDbArc
 50
270.0
 51
0.0
  0
LINE
  5
1AF
330
1F
100
AcDbEntity
  8
0
  6
Continuous
 62
     7
370
    15
100
AcDbLine
 10
297.9014080659
 20
200.3641473429
 30
0.0
 11
297.9014080659
 21
200.4193188923
 31
0.0
  0
LINE
  5
1B0
330
1F
100
AcDbEntity
  8
0
  6
Continuous
 62
     7
370
    15
100
AcDbLine
 10
298.9014082298
 20
208.8641496675
 30
0.0
 11
300.4014084757
 21
208.8641496675
 31
0.0
  0
LINE
  5
1B1
330
1F
100
AcDbEntity
  8
0
  6
Continuous
 62
     7
370
    15
100
AcDbLine
 10
300.4014084757
 20
208.8641496675
 30
0.0
 11
300.4014084757
 21
199.6480273383
 31
0.0
  0
LINE
  5
1B2
330
1F
100
AcDbEntity
  8
0
  6
Continuous
 62
     7
370
    15
100
AcDbLine
 10
293.9014083416
 20
199.8641463297
 30
0.0
 11
297.4014079839
 21
199.8641463297
 31
0.0
  0
LINE
  5
1B3
330
1F
100
AcDbEntity
  8
0
  6
Continuous
 62
     7
370
    15
100
AcDbLine
 10
284.5173890412
 20
184.3641447203
 30
0.0
 11
281.3088877768
 21
184.3641447203
 31
0.0
  0
LINE
  5
1B4
330
1F
100
AcDbEntity
  8
0
  6
Continuous
 62
     7
370
    15
100
AcDbLine
 10
281.15140858
 20
186.1641453879
 30
0.0
 11
282.4014073879
 21
186.1641453879
 31
0.0
  0
LINE
  5
1B5
330
1F
100
AcDbEntity
  8
0
  6
Continuous
 62
     7
370
    15
100
AcDbLine
 10
282.4014073879
 20
194.3641500847
 30
0.0
 11
277.1514079243
 21
194.3641500847
 31
0.0
  0
LINE
  5
1B6
330
1F
100
AcDbEntity
  8
0
  6
Continuous
 62
     7
370
    15
100
AcDbLine
 10
320.4014080286
 20
199.6480273383
 30
0.0
 11
320.4014080286
 21
208.8641496675
 31
0.0
  0
LINE
  5
1B7
330
1F
100
AcDbEntity
  8
0
  6
Continuous
 62
     7
370
    15
100
AcDbLine
 10
320.4014080286
 20
208.8641496675
 30
0.0
 11
321.9014082745
 21
208.8641496675
 31
0.0
  0
LINE
  5
1B8
330
1F
100
AcDbEntity
  8
0
  6
Continuous
 62
     7
370
    15
100
AcDbLine
 10
324.0129726649
 20
199.8641463297
 30
0.0
 11
326.9014081627
 21
199.8641463297
 31
0.0
  0
LINE
  5
1B9
330
1F
100
AcDbEntity
  8
0
  6
Continuous
 62
     7
370
    15
100
AcDbLine
 10
339.4939287275
 20
184.3641447203
 30
0.0
 11
336.2854274631
 21
184.3641447203
 31
0.0
  0
LINE
  5
1BA
330
1F
100
AcDbEntity
  8
0
  6
Continuous
 62
     7
370
    15
100
AcDbLine
 10
338.4014091164
 20
186.1641453879
 30
0.0
 11
339.6514079243
 21
186.1641453879
 31
0.0
  0
LINE
  5
1BB
330
1F
100
AcDbEntity
  8
0
  6
Continuous
 62
     7
370
    15
100
AcDbLine
 10
343.65140858
 20
194.3641500847
 30
0.0
 11
338.4014091164
 21
194.3641500847
 31
0.0
  0
LINE
  5
1BC
330
1F
100
AcDbEntity
  8
0
  6
Continuous
 62
     7
370
    15
100
AcDbLine
 10
300.4014084757
 20
208.8641496675
 30
0.0
 11
303.2514082909
 21
208.8641496675
 31
0.0
  0
LINE
  5
1BD
330
1F
100
AcDbEntity
  8
0
  6
Continuous
 62
     7
370
    15
100
AcDbLine
 10
317.5514082134
 20
208.8641496675
 30
0.0
 11
320.4014080286
 21
208.8641496675
 31
0.0
  0
ARC
  5
1BE
330
1F
100
AcDbEntity
  8
0
  6
Continuous
 62
     7
370
    15
100
AcDbCircle
 10
342.5264082521
 20
193.1141465032
 30
0.0
 40
1.249999999999984
100
AcDbArc
 50
314.4270040008
 51
225.5729959992
  0
ARC
  5
1BF
330
1F
100
AcDbEntity
  8
0
  6
Continuous
 62
     7
370
    15
100
AcDbCircle
 10
278.2764082521
 20
193.1141465032
 30
0.0
 40
1.250000000000024
100
AcDbArc
 50
314.4270040008
 51
225.5729959992
  0
LINE
  5
1C0
330
1F
100
AcDbEntity
  8
0
  6
Continuous
 62
     7
370
    15
100
AcDbLine
 10
280.6521991909
 20
134.9085578995
 30
0.0
 11
279.1514082521
 21
192.2214674132
 31
0.0
  0
ARC
  5
1C1
330
1F
100
AcDbEntity
  8
0
  6
Continuous
 62
     7
370
    15
100
AcDbCircle
 10
283.4014082521
 20
134.980550133
 30
0.0
 40
2.750151084365204
100
AcDbArc
 50
181.5
 51
236.316451834
  0
LINE
  5
1C2
330
1F
100
AcDbEntity
  8
0
  6
Continuous
 62
     7
370
    15
100
AcDbLine
 10
284.2291707814
 20
131.1238231437
 30
0.0
 11
281.8761600822
 21
132.6921107547
 31
0.0
  0
ARC
  5
1C3
330
1F
100
AcDbEntity
  8
0
  6
Continuous
 62
     7
370
    15
100
AcDbCircle
 10
283.11996041
 20
129.4595976647
 30
0.0
 40
1.999999999999997
100
AcDbArc
 50
2.0
 51
56.316451834
  0
LINE
  5
1C4
330
1F
100
AcDbEntity
  8
0
  6
Continuous
 62
     7
370
    15
100
AcDbLine
 10
285.9014088929
 20
107.1167690979
 30
0.0
 11
285.118742165
 21
129.5293951707
 31
0.0
  0
ARC
  5
1C5
330
1F
100
AcDbEntity
  8
0
  6
Continuous
 62
     7
370
    15
100
AcDbCircle
 10
288.8995807332
 20
107.2214679496
 30
0.0
 40
3.000000000000051
100
AcDbArc
 50
182.0
 51
270.0
  0
LINE
  5
1C6
330
1F
100
AcDbEntity
  8
0
  6
Continuous
 62
     7
370
    15
100
AcDbLine
 10
331.9032362372
 20
104.22146789
 30
0.0
 11
288.8995802671
 21
104.22146789
 31
0.0
  0
ARC
  5
1C7
330
1F
100
AcDbEntity
  8
0
  6
Continuous
 62
     7
370
    15
100
AcDbCircle
 10
331.9032357711
 20
107.2214679496
 30
0.0
 40
3.000000000000051
100
AcDbArc
 50
270.0
 51
358.0
  0
LINE
  5
1C8
330
1F
100
AcDbEntity
  8
0
  6
Continuous
 62
     7
370
    15
100
AcDbLine
 10
335.6840743393
 20
129.5293951707
 30
0.0
 11
334.9014076114
 21
107.1167690979
 31
0.0
  0
ARC
  5
1C9
330
1F
100
AcDbEntity
  8
0
  6
Continuous
 62
     7
370
    15
100
AcDbCircle
 10
337.6828560943
 20
129.4595976647
 30
0.0
 40
1.999999999999997
100
AcDbArc
 50
123.683548166
 51
178.0
  0
LINE
  5
1CA
330
1F
100
AcDbEntity
  8
0
  6
Continuous
 62
     7
370
    15
100
AcDbLine
 10
338.926656422
 20
132.6921107547
 30
0.0
 11
336.5736457229
 21
131.1238231437
 31
0.0
  0
ARC
  5
1CB
330
1F
100
AcDbEntity
  8
0
  6
Continuous
 62
     7
370
    15
100
AcDbCircle
 10
337.4014082521
 20
134.980550133
 30
0.0
 40
2.750151084365235
100
AcDbArc
 50
303.683548166
 51
358.5
  0
LINE
  5
1CC
330
1F
100
AcDbEntity
  8
0
  6
Continuous
 62
     7
370
    15
100
AcDbLine
 10
341.6514082521
 20
192.2214674132
 30
0.0
 11
340.1506173134
 21
134.9085578995
 31
0.0
  0
LINE
  5
1CD
330
1F
100
AcDbEntity
  8
0
  6
Continuous
 62
     7
370
    15
100
AcDbLine
 10
343.4014080733
 20
192.2214674132
 30
0.0
 11
343.4014080733
 21
134.9805491345
 31
0.0
  0
ARC
  5
1CE
330
1F
100
AcDbEntity
  8
0
  6
Continuous
 62
     7
370
    15
100
AcDbCircle
 10
337.4014082521
 20
134.980550133
 30
0.0
 40
6.0
100
AcDbArc
 50
320.0
 51
0.0
  0
LINE
  5
1CF
330
1F
100
AcDbEntity
  8
0
  6
Continuous
 62
     7
370
    15
100
AcDbLine
 10
341.9976739854
 20
131.1238231437
 30
0.0
 11
341.1032746256
 21
130.0579207318
 31
0.0
  0
ARC
  5
1D0
330
1F
100
AcDbEntity
  8
0
  6
Continuous
 62
     7
370
    15
100
AcDbCircle
 10
343.4014082521
 20
128.1295572468
 30
0.0
 40
3.000000000000041
100
AcDbArc
 50
140.0
 51
180.0
  0
LINE
  5
1D1
330
1F
100
AcDbEntity
  8
0
  6
Continuous
 62
     7
370
    15
100
AcDbLine
 10
340.4014075816
 20
128.1295577364
 30
0.0
 11
340.4014075816
 21
102.2214675622
 31
0.0
  0
ARC
  5
1D2
330
1F
100
AcDbEntity
  8
0
  6
Continuous
 62
     7
370
    15
100
AcDbCircle
 10
337.4014082521
 20
102.2214679496
 30
0.0
 40
3.0
100
AcDbArc
 50
270.0
 51
0.0
  0
LINE
  5
1D3
330
1F
100
AcDbEntity
  8
0
  6
Continuous
 62
     7
370
    15
100
AcDbLine
 10
337.4014089525
 20
99.2214680018
 30
0.0
 11
283.4014075518
 21
99.2214680018
 31
0.0
  0
ARC
  5
1D4
330
1F
100
AcDbEntity
  8
0
  6
Continuous
 62
     7
370
    15
100
AcDbCircle
 10
283.4014082521
 20
102.2214679496
 30
0.0
 40
3.0
100
AcDbArc
 50
180.0
 51
270.0
  0
LINE
  5
1D5
330
1F
100
AcDbEntity
  8
0
  6
Continuous
 62
     7
370
    15
100
AcDbLine
 10
280.4014089227
 20
102.2214675622
 30
0.0
 11
280.4014089227
 21
128.1295577364
 31
0.0
  0
ARC
  5
1D6
330
1F
100
AcDbEntity
  8
0
  6
Continuous
 62
     7
370
    15
100
AcDbCircle
 10
277.4014082521
 20
128.1295572468
 30
0.0
 40
3.000000000000041
100
AcDbArc
 50
0.0
 51
40.0
  0
LINE
  5
1D7
330
1F
100
AcDbEntity
  8
0
  6
Continuous
 62
     7
370
    15
100
AcDbLine
 10
279.6995418787
 20
130.0579207318
 30
0.0
 11
278.8051425189
 21
131.1238231437
 31
0.0
  0
ARC
  5
1D8
330
1F
100
AcDbEntity
  8
0
  6
Continuous
 62
     7
370
    15
100
AcDbCircle
 10
283.4014082521
 20
134.980550133
 30
0.0
 40
6.0
100
AcDbArc
 50
180.0
 51
220.0
  0
LINE
  5
1D9
330
1F
100
AcDbEntity
  8
0
  6
Continuous
 62
     7
370
    15
100
AcDbLine
 10
277.401408431
 20
134.9805491345
 30
0.0
 11
277.401408431
 21
192.2214674132
 31
0.0
  0
LINE
  5
1DA
330
1F
100
AcDbEntity
  8
0
  6
Continuous
 62
     7
370
    15
100
AcDbLine
 10
277.9014094442
 20
92.2214679021
 30
0.0
 11
277.9014094442
 21
93.2214679496
 31
0.0
  0
LINE
  5
1DB
330
1F
100
AcDbEntity
  8
0
  6
Continuous
 62
     7
370
    15
100
AcDbLine
 10
342.9014070601
 20
93.2214679496
 30
0.0
 11
342.9014070601
 21
92.2214679021
 31
0.0
  0
LINE
  5
1DC
330
1F
100
AcDbEntity
  8
0
  6
Continuous
 62
     7
370
    15
100
AcDbLine
 10
277.9014094442
 20
128.2214680987
 30
0.0
 11
277.9014094442
 21
129.2214663999
 31
0.0
  0
LINE
  5
1DD
330
1F
100
AcDbEntity
  8
0
  6
Continuous
 62
     7
370
    15
100
AcDbLine
 10
342.9014070601
 20
129.2214663999
 30
0.0
 11
342.9014070601
 21
128.2214680987
 31
0.0
  0
LINE
  5
1DE
330
1F
100
AcDbEntity
  8
0
  6
Continuous
 62
     7
370
    15
100
AcDbLine
 10
279.4014087588
 20
93.2214679496
 30
0.0
 11
279.4014087588
 21
128.2214680987
 31
0.0
  0
LINE
  5
1DF
330
1F
100
AcDbEntity
  8
0
  6
Continuous
 62
     7
370
    15
100
AcDbLine
 10
341.4014077455
 20
128.2214680987
 30
0.0
 11
341.4014077455
 21
93.2214679496
 31
0.0
  0
ARC
  5
1E0
330
1F
100
AcDbEntity
  8
0
  6
Continuous
 62
     7
370
    15
100
AcDbCircle
 10
279.9014082521
 20
128.7214679496
 30
0.0
 40
0.5
100
AcDbArc
 50
0.0
 51
90.0
  0
ARC
  5
1E1
330
1F
100
AcDbEntity
  8
0
  6
Continuous
 62
     7
370
    15
100
AcDbCircle
 10
340.9014082521
 20
128.7214679496
 30
0.0
 40
0.5
100
AcDbArc
 50
90.0
 51
180.0
  0
LINE
  5
1E2
330
1F
100
AcDbEntity
  8
0
  6
Continuous
 62
     7
370
    15
100
AcDbLine
 10
279.9014079094
 20
129.2214663999
 30
0.0
 11
280.1956406504
 21
129.2214663999
 31
0.0
  0
LINE
  5
1E3
330
1F
100
AcDbEntity
  8
0
  6
Continuous
 62
     7
370
    15
100
AcDbLine
 10
340.6071758539
 20
129.2214663999
 30
0.0
 11
340.9014085949
 21
129.2214663999
 31
0.0
  0
LINE
  5
1E4
330
1F
100
AcDbEntity
  8
0
  6
Continuous
 62
     7
370
    15
100
AcDbLine
 10
322.4320209295
 20
92.2214679021
 30
0.0
 11
322.4320209295
 21
93.2214679496
 31
0.0
  0
LINE
  5
1E5
330
1F
100
AcDbEntity
  8
0
  6
Continuous
 62
     7
370
    15
100
AcDbLine
 10
321.4936473117
 20
93.2214679496
 30
0.0
 11
321.4936473117
 21
92.2214679021
 31
0.0
  0
LINE
  5
1E6
330
1F
100
AcDbEntity
  8
0
  6
Continuous
 62
     7
370
    15
100
AcDbLine
 10
280.4014089227
 20
128.7214691119
 30
0.0
 11
280.4014089227
 21
93.2214679496
 31
0.0
  0
LINE
  5
1E7
330
1F
100
AcDbEntity
  8
0
  6
Continuous
 62
     7
370
    15
100
AcDbLine
 10
340.4014075816
 20
93.2214679496
 30
0.0
 11
340.4014075816
 21
128.7214691119
 31
0.0
  0
LINE
  5
1E8
330
1F
100
AcDbEntity
  8
0
  6
Continuous
 62
     7
370
    15
100
AcDbLine
 10
322.4320209295
 20
92.2214679021
 30
0.0
 11
321.4936473117
 21
92.2214679021
 31
0.0
  0
LINE
  5
1E9
330
1F
100
AcDbEntity
  8
0
  6
Continuous
 62
     7
370
    15
100
AcDbLine
 10
280.4014089227
 20
93.2214679496
 30
0.0
 11
281.4014090866
 21
93.2214679496
 31
0.0
  0
LINE
  5
1EA
330
1F
100
AcDbEntity
  8
0
  6
Continuous
 62
     7
370
    15
100
AcDbLine
 10
281.4014090866
 20
93.2214679496
 30
0.0
 11
281.4014090866
 21
92.2214679021
 31
0.0
  0
LINE
  5
1EB
330
1F
100
AcDbEntity
  8
0
  6
Continuous
 62
     7
370
    15
100
AcDbLine
 10
279.4014087588
 20
128.2214680987
 30
0.0
 11
277.9014094442
 21
128.2214680987
 31
0.0
  0
LINE
  5
1EC
330
1F
100
AcDbEntity
  8
0
  6
Continuous
 62
     7
370
    15
100
AcDbLine
 10
277.9014094442
 20
93.2214679496
 30
0.0
 11
279.4014087588
 21
93.2214679496
 31
0.0
  0
LINE
  5
1ED
330
1F
100
AcDbEntity
  8
0
  6
Continuous
 62
     7
370
    15
100
AcDbLine
 10
277.9014094442
 20
129.2214663999
 30
0.0
 11
279.9014079094
 21
129.2214663999
 31
0.0
  0
LINE
  5
1EE
330
1F
100
AcDbEntity
  8
0
  6
Continuous
 62
     7
370
    15
100
AcDbLine
 10
281.4014090866
 20
92.2214679021
 30
0.0
 11
277.9014094442
 21
92.2214679021
 31
0.0
  0
LINE
  5
1EF
330
1F
100
AcDbEntity
  8
0
  6
Continuous
 62
     7
370
    15
100
AcDbLine
 10
339.4014074177
 20
93.2214679496
 30
0.0
 11
340.4014075816
 21
93.2214679496
 31
0.0
  0
LINE
  5
1F0
330
1F
100
AcDbEntity
  8
0
  6
Continuous
 62
     7
370
    15
100
AcDbLine
 10
339.4014074177
 20
92.2214679021
 30
0.0
 11
339.4014074177
 21
93.2214679496
 31
0.0
  0
LINE
  5
1F1
330
1F
100
AcDbEntity
  8
0
  6
Continuous
 62
     7
370
    15
100
AcDbLine
 10
342.9014070601
 20
128.2214680987
 30
0.0
 11
341.4014077455
 21
128.2214680987
 31
0.0
  0
LINE
  5
1F2
330
1F
100
AcDbEntity
  8
0
  6
Continuous
 62
     7
370
    15
100
AcDbLine
 10
341.4014077455
 20
93.2214679496
 30
0.0
 11
342.9014070601
 21
93.2214679496
 31
0.0
  0
LINE
  5
1F3
330
1F
100
AcDbEntity
  8
0
  6
Continuous
 62
     7
370
    15
100
AcDbLine
 10
340.9014085949
 20
129.2214663999
 30
0.0
 11
342.9014070601
 21
129.2214663999
 31
0.0
  0
LINE
  5
1F4
330
1F
100
AcDbEntity
  8
0
  6
Continuous
 62
     7
370
    15
100
AcDbLine
 10
342.9014070601
 20
92.2214679021
 30
0.0
 11
339.4014074177
 21
92.2214679021
 31
0.0
  0
LINE
  5
1F5
330
1F
100
AcDbEntity
  8
0
  6
Continuous
 62
     7
370
    15
100
AcDbLine
 10
283.1083687663
 20
92.2214679021
 30
0.0
 11
283.1083687663
 21
93.2214679496
 31
0.0
  0
LINE
  5
1F6
330
1F
100
AcDbEntity
  8
0
  6
Continuous
 62
     7
370
    15
100
AcDbLine
 10
281.4014090866
 20
93.2214679496
 30
0.0
 11
283.1083687663
 21
93.2214679496
 31
0.0
  0
LINE
  5
1F7
330
1F
100
AcDbEntity
  8
0
  6
Continuous
 62
     7
370
    15
100
AcDbLine
 10
281.4014090866
 20
92.2214679021
 30
0.0
 11
283.1083687663
 21
92.2214679021
 31
0.0
  0
LINE
  5
1F8
330
1F
100
AcDbEntity
  8
0
  6
Continuous
 62
     7
370
    15
100
AcDbLine
 10
322.9252419144
 20
93.2214679496
 30
0.0
 11
322.9252419144
 21
92.2214679021
 31
0.0
  0
LINE
  5
1F9
330
1F
100
AcDbEntity
  8
0
  6
Continuous
 62
     7
370
    15
100
AcDbLine
 10
322.9252419144
 20
93.2214679496
 30
0.0
 11
339.4014074177
 21
93.2214679496
 31
0.0
  0
LINE
  5
1FA
330
1F
100
AcDbEntity
  8
0
  6
Continuous
 62
     7
370
    15
100
AcDbLine
 10
322.9252419144
 20
92.2214679021
 30
0.0
 11
339.4014074177
 21
92.2214679021
 31
0.0
  0
LINE
  5
1FB
330
1F
100
AcDbEntity
  8
0
  6
Continuous
 62
     7
370
    15
100
AcDbLine
 10
284.245077771
 20
93.2214679496
 30
0.0
 11
284.245077771
 21
92.2214679021
 31
0.0
  0
LINE
  5
1FC
330
1F
100
AcDbEntity
  8
0
  6
Continuous
 62
     7
370
    15
100
AcDbLine
 10
320.2039573983
 20
92.2214679021
 30
0.0
 11
320.2039573983
 21
93.2214679496
 31
0.0
  0
LINE
  5
1FD
330
1F
100
AcDbEntity
  8
0
  6
Continuous
 62
     7
370
    15
100
AcDbLine
 10
284.245077771
 20
93.2214679496
 30
0.0
 11
320.2039573983
 21
93.2214679496
 31
0.0
  0
LINE
  5
1FE
330
1F
100
AcDbEntity
  8
0
  6
Continuous
 62
     7
370
    15
100
AcDbLine
 10
284.245077771
 20
92.2214679021
 30
0.0
 11
320.2039573983
 21
92.2214679021
 31
0.0
  0
LINE
  5
1FF
330
1F
100
AcDbEntity
  8
0
  6
Continuous
 62
     7
370
    15
100
AcDbLine
 10
283.1083687663
 20
93.2214679496
 30
0.0
 11
283.1377985597
 21
93.2214679496
 31
0.0
  0
LINE
  5
200
330
1F
100
AcDbEntity
  8
0
  6
Continuous
 62
     7
370
    15
100
AcDbLine
 10
283.1377985597
 20
92.2214679021
 30
0.0
 11
283.1083687663
 21
92.2214679021
 31
0.0
  0
LINE
  5
201
330
1F
100
AcDbEntity
  8
0
  6
Continuous
 62
     7
370
    15
100
AcDbLine
 10
283.5700868339
 20
93.2214679496
 30
0.0
 11
283.5700868339
 21
92.2214679021
 31
0.0
  0
LINE
  5
202
330
1F
100
AcDbEntity
  8
0
  6
Continuous
 62
     7
370
    15
100
AcDbLine
 10
283.1377985597
 20
93.2214679496
 30
0.0
 11
283.5700868339
 21
93.2214679496
 31
0.0
  0
LINE
  5
203
330
1F
100
AcDbEntity
  8
0
  6
Continuous
 62
     7
370
    15
100
AcDbLine
 10
283.5700868339
 20
92.2214679021
 30
0.0
 11
283.1377985597
 21
92.2214679021
 31
0.0
  0
LINE
  5
204
330
1F
100
AcDbEntity
  8
0
  6
Continuous
 62
     7
370
    15
100
AcDbLine
 10
283.6013885856
 20
92.2214679021
 30
0.0
 11
283.6013885856
 21
93.2214679496
 31
0.0
  0
LINE
  5
205
330
1F
100
AcDbEntity
  8
0
  6
Continuous
 62
     7
370
    15
100
AcDbLine
 10
283.6013885856
 20
93.2214679496
 30
0.0
 11
284.245077771
 21
93.2214679496
 31
0.0
  0
LINE
  5
206
330
1F
100
AcDbEntity
  8
0
  6
Continuous
 62
     7
370
    15
100
AcDbLine
 10
284.245077771
 20
92.2214679021
 30
0.0
 11
283.6013885856
 21
92.2214679021
 31
0.0
  0
LINE
  5
207
330
1F
100
AcDbEntity
  8
0
  6
Continuous
 62
     7
370
    15
100
AcDbLine
 10
283.6013885856
 20
93.2214679496
 30
0.0
 11
283.5700868339
 21
93.2214679496
 31
0.0
  0
LINE
  5
208
330
1F
100
AcDbEntity
  8
0
  6
Continuous
 62
     7
370
    15
100
AcDbLine
 10
283.6013885856
 20
92.2214679021
 30
0.0
 11
283.5700868339
 21
92.2214679021
 31
0.0
  0
LINE
  5
209
330
1F
100
AcDbEntity
  8
0
  6
Continuous
 62
     7
370
    15
100
AcDbLine
 10
322.6411699027
 20
93.2214679496
 30
0.0
 11
322.9252419144
 21
93.2214679496
 31
0.0
  0
LINE
  5
20A
330
1F
100
AcDbEntity
  8
0
  6
Continuous
 62
     7
370
    15
100
AcDbLine
 10
322.9252419144
 20
92.2214679021
 30
0.0
 11
322.6411699027
 21
92.2214679021
 31
0.0
  0
LINE
  5
20B
330
1F
100
AcDbEntity
  8
0
  6
Continuous
 62
     7
370
    15
100
AcDbLine
 10
322.4320209295
 20
93.2214679496
 30
0.0
 11
322.6411699027
 21
93.2214679496
 31
0.0
  0
LINE
  5
20C
330
1F
100
AcDbEntity
  8
0
  6
Continuous
 62
     7
370
    15
100
AcDbLine
 10
322.6411699027
 20
92.2214679021
 30
0.0
 11
322.4320209295
 21
92.2214679021
 31
0.0
  0
LINE
  5
20D
330
1F
100
AcDbEntity
  8
0
  6
Continuous
 62
     7
370
    15
100
AcDbLine
 10
320.8343342588
 20
93.2214679496
 30
0.0
 11
320.8343342588
 21
92.2214679021
 31
0.0
  0
LINE
  5
20E
330
1F
100
AcDbEntity
  8
0
  6
Continuous
 62
     7
370
    15
100
AcDbLine
 10
320.2039573983
 20
93.2214679496
 30
0.0
 11
320.8343342588
 21
93.2214679496
 31
0.0
  0
LINE
  5
20F
330
1F
100
AcDbEntity
  8
0
  6
Continuous
 62
     7
370
    15
100
AcDbLine
 10
320.8343342588
 20
92.2214679021
 30
0.0
 11
320.2039573983
 21
92.2214679021
 31
0.0
  0
LINE
  5
210
330
1F
100
AcDbEntity
  8
0
  6
Continuous
 62
     7
370
    15
100
AcDbLine
 10
320.8474090964
 20
92.2214679021
 30
0.0
 11
320.8474090964
 21
93.2214679496
 31
0.0
  0
LINE
  5
211
330
1F
100
AcDbEntity
  8
0
  6
Continuous
 62
     7
370
    15
100
AcDbLine
 10
320.8474090964
 20
93.2214679496
 30
0.0
 11
321.4936473117
 21
93.2214679496
 31
0.0
  0
LINE
  5
212
330
1F
100
AcDbEntity
  8
0
  6
Continuous
 62
     7
370
    15
100
AcDbLine
 10
321.4936473117
 20
92.2214679021
 30
0.0
 11
320.8474090964
 21
92.2214679021
 31
0.0
  0
LINE
  5
213
330
1F
100
AcDbEntity
  8
0
  6
Continuous
 62
     7
370
    15
100
AcDbLine
 10
320.8474090964
 20
93.2214679496
 30
0.0
 11
320.8343342588
 21
93.2214679496
 31
0.0
  0
LINE
  5
214
330
1F
100
AcDbEntity
  8
0
  6
Continuous
 62
     7
370
    15
100
AcDbLine
 10
320.8474090964
 20
92.2214679021
 30
0.0
 11
320.8343342588
 21
92.2214679021
 31
0.0
  0
LINE
  5
215
330
1F
100
AcDbEntity
  8
0
  6
Continuous
 62
     7
370
    15
100
AcDbLine
 10
277.401408431
 20
93.2214679496
 30
0.0
 11
277.401408431
 21
128.2214680987
 31
0.0
  0
LINE
  5
216
330
1F
100
AcDbEntity
  8
0
  6
Continuous
 62
     7
370
    15
100
AcDbLine
 10
278.9014077455
 20
128.2214680987
 30
0.0
 11
277.401408431
 21
128.2214680987
 31
0.0
  0
ARC
  5
217
330
1F
100
AcDbEntity
  8
0
  6
Continuous
 62
     7
370
    15
100
AcDbCircle
 10
278.9014082521
 20
127.7214679496
 30
0.0
 40
0.5
100
AcDbArc
 50
0.0
 51
90.0
  0
LINE
  5
218
330
1F
100
AcDbEntity
  8
0
  6
Continuous
 62
     7
370
    15
100
AcDbLine
 10
279.4014087588
 20
93.7214679734
 30
0.0
 11
279.4014087588
 21
127.7214670854
 31
0.0
  0
ARC
  5
219
330
1F
100
AcDbEntity
  8
0
  6
Continuous
 62
     7
370
    15
100
AcDbCircle
 10
278.9014082521
 20
93.7214679496
 30
0.0
 40
0.5000000000000142
100
AcDbArc
 50
270.0
 51
0.0
  0
LINE
  5
21A
330
1F
100
AcDbEntity
  8
0
  6
Continuous
 62
     7
370
    15
100
AcDbLine
 10
278.9014077455
 20
93.2214679496
 30
0.0
 11
277.401408431
 21
93.2214679496
 31
0.0
  0
LINE
  5
21B
330
1F
100
AcDbEntity
  8
0
  6
Continuous
 62
     7
370
    15
100
AcDbLine
 10
343.4014080733
 20
128.2214680987
 30
0.0
 11
343.4014080733
 21
93.2214679496
 31
0.0
  0
ARC
  5
21C
330
1F
100
AcDbEntity
  8
0
  6
Continuous
 62
     7
370
    15
100
AcDbCircle
 10
341.9014082521
 20
127.7214679496
 30
0.0
 40
0.5
100
AcDbArc
 50
90.0
 51
180.0
  0
ARC
  5
21D
330
1F
100
AcDbEntity
  8
0
  6
Continuous
 62
     7
370
    15
100
AcDbCircle
 10
341.9014082521
 20
93.7214679496
 30
0.0
 40
0.5000000000000142
100
AcDbArc
 50
180.0
 51
270.0
  0
LINE
  5
21E
330
1F
100
AcDbEntity
  8
0
  6
Continuous
 62
     7
370
    15
100
AcDbLine
 10
341.4014077455
 20
127.7214670854
 30
0.0
 11
341.4014077455
 21
93.7214679734
 31
0.0
  0
LINE
  5
21F
330
1F
100
AcDbEntity
  8
0
  6
Continuous
 62
     7
370
    15
100
AcDbLine
 10
343.4014080733
 20
128.2214680987
 30
0.0
 11
341.9014087588
 21
128.2214680987
 31
0.0
  0
LINE
  5
220
330
1F
100
AcDbEntity
  8
0
  6
Continuous
 62
     7
370
    15
100
AcDbLine
 10
343.4014080733
 20
93.2214679496
 30
0.0
 11
341.9014087588
 21
93.2214679496
 31
0.0
  0
LINE
  5
221
330
1F
100
AcDbEntity
  8
0
  6
Continuous
 62
     8
370
    15
100
AcDbLine
 10
325.6514084235
 20
215.364147939
 30
0.0
 11
320.1014085382
 21
215.364147939
 31
0.0
  0
LINE
  5
222
330
1F
100
AcDbEntity
  8
0
  6
Continuous
 62
     8
370
    15
100
AcDbLine
 10
300.701407966
 20
215.364147939
 30
0.0
 11
295.1514080808
 21
215.364147939
 31
0.0
  0
LINE
  5
223
330
1F
100
AcDbEntity
  8
0
  6
Continuous
 62
     8
370
    15
100
AcDbLine
 10
299.1514078051
 20
227.2641482132
 30
0.0
 11
301.6514082149
 21
227.2641482132
 31
0.0
  0
LINE
  5
224
330
1F
100
AcDbEntity
  8
0
  6
Continuous
 62
     8
370
    15
100
AcDbLine
 10
319.1514082894
 20
227.2641482132
 30
0.0
 11
321.6514086992
 21
227.2641482132
 31
0.0
  0
LINE
  5
225
330
1F
100
AcDbEntity
  8
0
  6
Continuous
 62
     8
370
    15
100
AcDbLine
 10
335.955307138
 20
193.8175456898
 30
0.0
 11
317.5514082134
 21
193.8175456898
 31
0.0
  0
LINE
  5
226
330
1F
100
AcDbEntity
  8
0
  6
Continuous
 62
     8
370
    15
100
AcDbLine
 10
303.2514082909
 20
193.8175456898
 30
0.0
 11
284.8475093663
 21
193.8175456898
 31
0.0
  0
LINE
  5
227
330
1F
100
AcDbEntity
  8
0
  6
Continuous
 62
     8
370
    15
100
AcDbLine
 10
286.4218747884
 20
195.7021924036
 30
0.0
 11
303.2514082909
 21
195.7021924036
 31
0.0
  0
LINE
  5
228
330
1F
100
AcDbEntity
  8
0
  6
Continuous
 62
     8
370
    15
100
AcDbLine
 10
317.5514082134
 20
195.7021924036
 30
0.0
 11
334.3809417159
 21
195.7021924036
 31
0.0
  0
LINE
  5
229
330
1F
100
AcDbEntity
  8
0
  6
Continuous
 62
     8
370
    15
100
AcDbLine
 10
322.1927129373
 20
197.6589458363
 30
0.0
 11
317.5514082134
 21
197.6589458363
 31
0.0
  0
LINE
  5
22A
330
1F
100
AcDbEntity
  8
0
  6
Continuous
 62
     8
370
    15
100
AcDbLine
 10
303.2514082909
 20
197.6589458363
 30
0.0
 11
298.610103567
 21
197.6589458363
 31
0.0
  0
LINE
  5
22B
330
1F
100
AcDbEntity
  8
0
  6
Continuous
 62
     8
370
    15
100
AcDbLine
 10
300.4014084757
 20
199.6480273383
 30
0.0
 11
303.2514082909
 21
199.6480273383
 31
0.0
  0
LINE
  5
22C
330
1F
100
AcDbEntity
  8
0
  6
Continuous
 62
     8
370
    15
100
AcDbLine
 10
317.5514082134
 20
199.6480273383
 30
0.0
 11
320.4014080286
 21
199.6480273383
 31
0.0
  0
LINE
  5
22D
330
1F
100
AcDbEntity
  8
0
  6
Continuous
 62
     8
370
    15
100
AcDbLine
 10
280.6521991909
 20
134.9085578995
 30
0.0
 11
307.4014082261
 21
134.9085578995
 31
0.0
  0
LINE
  5
22E
330
1F
100
AcDbEntity
  8
0
  6
Continuous
 62
     8
370
    15
100
AcDbLine
 10
313.4014082782
 20
134.9085578995
 30
0.0
 11
340.1506173134
 21
134.9085578995
 31
0.0
  0
LINE
  5
22F
330
1F
100
AcDbEntity
  8
0
  6
Continuous
 62
     8
370
    15
100
AcDbLine
 10
281.8761600822
 20
132.6921107547
 30
0.0
 11
307.4014082261
 21
132.6921107547
 31
0.0
  0
LINE
  5
230
330
1F
100
AcDbEntity
  8
0
  6
Continuous
 62
     8
370
    15
100
AcDbLine
 10
313.4014082782
 20
132.6921107547
 30
0.0
 11
338.926656422
 21
132.6921107547
 31
0.0
  0
LINE
  5
231
330
1F
100
AcDbEntity
  8
0
  6
Continuous
 62
     8
370
    15
100
AcDbLine
 10
284.2291707814
 20
131.1238231437
 30
0.0
 11
307.4014082261
 21
131.1238231437
 31
0.0
  0
LINE
  5
232
330
1F
100
AcDbEntity
  8
0
  6
Continuous
 62
     8
370
    15
100
AcDbLine
 10
313.4014082782
 20
131.1238231437
 30
0.0
 11
336.5736457229
 21
131.1238231437
 31
0.0
  0
LINE
  5
233
330
1F
100
AcDbEntity
  8
0
  6
Continuous
 62
     8
370
    15
100
AcDbLine
 10
285.118742165
 20
129.5293951707
 30
0.0
 11
307.4014082261
 21
129.5293951707
 31
0.0
  0
LINE
  5
234
330
1F
100
AcDbEntity
  8
0
  6
Continuous
 62
     8
370
    15
100
AcDbLine
 10
313.4014082782
 20
129.5293951707
 30
0.0
 11
335.6840743393
 21
129.5293951707
 31
0.0
  0
LINE
  5
235
330
1F
100
AcDbEntity
  8
0
  6
Continuous
 62
     8
370
    15
100
AcDbLine
 10
285.9014088929
 20
107.1167690979
 30
0.0
 11
308.4180795297
 21
107.1167690979
 31
0.0
  0
LINE
  5
236
330
1F
100
AcDbEntity
  8
0
  6
Continuous
 62
     8
370
    15
100
AcDbLine
 10
312.6346797392
 20
107.1167690979
 30
0.0
 11
334.9014076114
 21
107.1167690979
 31
0.0
  0
HATCH
  5
237
330
1F
100
AcDbEntity
  8
0
  6
Continuous
 62
     7
370
     0
100
AcDbHatch
 10
0.0
 20
0.0
 30
0.0
210
0.0
220
0.0
230
1.0
  2
ANSI33
 70
     0
 71
     0
 91
        1
 92
        0
 93
        6
 72
     1
 10
341.9014082521476
 20
93.22146794964
 11
343.4014082521477
 21
93.22146794964
 72
     1
 10
343.4014082521477
 20
93.22146794964
 11
343.4014082521477
 21
128.22146794964
 72
     1
 10
343.4014082521477
 20
128.22146794964
 11
341.9014082521476
 21
128.22146794964
 72
     2
 10
341.9014082521476
 20
127.72146794964
 40
0.5
 50
90.0
 51
180.0
 73
     1
 72
     1
 10
341.4014082521477
 20
127.72146794964
 11
341.4014082521477
 21
93.72146794964002
 72
     2
 10
341.9014082521476
 20
93.72146794964002
 40
0.5
 50
180.0
 51
270.0000000000008
 73
     1
 97
        0
 75
     0
 76
     1
 52
0.0
 41
1.0
 77
     0
 78
     2
 53
45.0
 43
0.0
 44
0.0
 45
-4.490128060534576
 46
4.490128060534577
 79
     0
 53
45.0
 43
4.49013
 44
0.0
 45
-4.490128060534576
 46
4.490128060534577
 79
     2
 49
3.175
 49
-1.5875
 98
        1
 10
0.0
 20
0.0
  0
HATCH
  5
238
330
1F
100
AcDbEntity
  8
0
  6
Continuous
 62
     7
370
     0
100
AcDbHatch
 10
0.0
 20
0.0
 30
0.0
210
0.0
220
0.0
230
1.0
  2
ANSI33
 70
     0
 71
     0
 91
        1
 92
        0
 93
        6
 72
     1
 10
277.4014082521476
 20
93.22146794964
 11
278.9014082521477
 21
93.22146794964
 72
     2
 10
278.9014082521477
 20
93.72146794964002
 40
0.5
 50
270.0000000000008
 51
360.0000000000008
 73
     1
 72
     1
 10
279.4014082521476
 20
93.72146794964002
 11
279.4014082521476
 21
127.72146794964
 72
     2
 10
278.9014082521477
 20
127.72146794964
 40
0.5
 50
0.0
 51
90.0
 73
     1
 72
     1
 10
278.9014082521477
 20
128.22146794964
 11
277.4014082521476
 21
128.22146794964
 72
     1
 10
277.4014082521476
 20
128.22146794964
 11
277.4014082521476
 21
93.22146794964
 97
        0
 75
     0
 76
     1
 52
0.0
 41
1.0
 77
     0
 78
     2
 53
45.0
 43
0.0
 44
0.0
 45
-4.490128060534576
 46
4.490128060534577
 79
     0
 53
45.0
 43
4.49013
 44
0.0
 45
-4.490128060534576
 46
4.490128060534577
 79
     2
 49
3.175
 49
-1.5875
 98
        1
 10
0.0
 20
0.0
  0
HATCH
  5
239
330
1F
100
AcDbEntity
  8
0
  6
Continuous
 62
     7
370
     0
100
AcDbHatch
 10
0.0
 20
0.0
 30
0.0
210
0.0
220
0.0
230
1.0
  2
ANSI34
 70
     0
 71
     0
 91
        1
 92
        0
 93
       11
 72
     1
 10
339.4014082521477
 20
93.22146794964
 11
339.4014082521477
 21
92.22146794964
 72
     1
 10
339.4014082521477
 20
92.22146794964
 11
342.9014082521477
 21
92.22146794964
 72
     1
 10
342.9014082521477
 20
92.22146794964
 11
342.9014082521477
 21
93.22146794964
 72
     1
 10
342.9014082521477
 20
93.22146794964
 11
341.4014082521477
 21
93.22146794964
 72
     1
 10
341.4014082521477
 20
93.22146794964
 11
341.4014082521477
 21
128.22146794964
 72
     1
 10
341.4014082521477
 20
128.22146794964
 11
342.9014082521477
 21
128.22146794964
 72
     1
 10
342.9014082521477
 20
128.22146794964
 11
342.9014082521477
 21
129.22146794964
 72
     1
 10
342.9014082521477
 20
129.22146794964
 11
340.9014082521477
 21
129.22146794964
 72
     2
 10
340.9014082521477
 20
128.72146794964
 40
0.5
 50
90.0
 51
180.0
 73
     1
 72
     1
 10
340.4014082521477
 20
128.72146794964
 11
340.4014082521477
 21
93.22146794964
 72
     1
 10
340.4014082521477
 20
93.22146794964
 11
339.4014082521477
 21
93.22146794964
 97
        0
 75
     0
 76
     1
 52
0.0
 41
1.0
 77
     0
 78
     4
 53
45.0
 43
0.0
 44
0.0
 45
-13.47038418160373
 46
13.47038418160373
 79
     0
 53
45.0
 43
4.49013
 44
0.0
 45
-13.47038418160373
 46
13.47038418160373
 79
     0
 53
45.0
 43
8.98026
 44
0.0
 45
-13.47038418160373
 46
13.47038418160373
 79
     0
 53
45.0
 43
13.4704
 44
0.0
 45
-13.47038418160373
 46
13.47038418160373
 79
     0
 98
        1
 10
0.0
 20
0.0
  0
HATCH
  5
23A
330
1F
100
AcDbEntity
  8
0
  6
Continuous
 62
     7
370
     0
100
AcDbHatch
 10
0.0
 20
0.0
 30
0.0
210
0.0
220
0.0
230
1.0
  2
ANSI34
 70
     0
 71
     0
 91
        1
 92
        0
 93
       11
 72
     1
 10
281.4014082521476
 20
92.22146794964
 11
281.4014082521476
 21
93.22146794964
 72
     1
 10
281.4014082521476
 20
93.22146794964
 11
280.4014082521476
 21
93.22146794964
 72
     1
 10
280.4014082521476
 20
93.22146794964
 11
280.4014082521476
 21
128.72146794964
 72
     2
 10
279.9014082521476
 20
128.72146794964
 40
0.5
 50
0.0
 51
90.0
 73
     1
 72
     1
 10
279.9014082521476
 20
129.22146794964
 11
277.9014082521476
 21
129.22146794964
 72
     1
 10
277.9014082521476
 20
129.22146794964
 11
277.9014082521476
 21
128.22146794964
 72
     1
 10
277.9014082521476
 20
128.22146794964
 11
279.4014082521476
 21
128.22146794964
 72
     1
 10
279.4014082521476
 20
128.22146794964
 11
279.4014082521476
 21
93.22146794964
 72
     1
 10
279.4014082521476
 20
93.22146794964
 11
277.9014082521476
 21
93.22146794964
 72
     1
 10
277.9014082521476
 20
93.22146794964
 11
277.9014082521476
 21
92.22146794964
 72
     1
 10
277.9014082521476
 20
92.22146794964
 11
281.4014082521476
 21
92.22146794964
 97
        0
 75
     0
 76
     1
 52
0.0
 41
1.0
 77
     0
 78
     4
 53
45.0
 43
0.0
 44
0.0
 45
-13.47038418160373
 46
13.47038418160373
 79
     0
 53
45.0
 43
4.49013
 44
0.0
 45
-13.47038418160373
 46
13.47038418160373
 79
     0
 53
45.0
 43
8.98026
 44
0.0
 45
-13.47038418160373
 46
13.47038418160373
 79
     0
 53
45.0
 43
13.4704
 44
0.0
 45
-13.47038418160373
 46
13.47038418160373
 79
     0
 98
        1
 10
0.0
 20
0.0
  0
HATCH
  5
23B
330
1F
100
AcDbEntity
  8
0
  6
Continuous
 62
     7
370
     0
100
AcDbHatch
 10
0.0
 20
0.0
 30
0.0
210
0.0
220
0.0
230
1.0
  2
ANSI35
 70
     0
 71
     0
 91
        1
 92
        0
 93
       28
 72
     1
 10
277.4014082521476
 20
192.22146794964
 11
277.4014082521476
 21
134.9805501330198
 72
     2
 10
283.4014082521476
 20
134.9805501330198
 40
6.0
 50
180.0
 51
220.0000000000014
 73
     1
 72
     1
 10
278.8051415934339
 20
131.1238244749006
 11
279.6995415815046
 21
130.057920075901
 72
     2
 10
277.4014082521476
 20
128.1295572468414
 40
3.0
 50
320.000000000001
 51
360.0000000000008
 73
     0
 72
     1
 10
280.4014082521476
 20
128.1295572468414
 11
280.4014082521476
 21
102.22146794964
 72
     2
 10
283.4014082521476
 20
102.22146794964
 40
3.0
 50
180.0
 51
270.0000000000008
 73
     1
 72
     1
 10
283.4014082521476
 20
99.22146794964002
 11
337.4014082521477
 21
99.22146794964002
 72
     2
 10
337.4014082521477
 20
102.22146794964
 40
3.0
 50
270.0000000000008
 51
360.0000000000008
 73
     1
 72
     1
 10
340.4014082521477
 20
102.22146794964
 11
340.4014082521477
 21
128.1295572468414
 72
     2
 10
343.4014082521477
 20
128.1295572468414
 40
3.0
 50
180.0
 51
220.0000000000006
 73
     0
 72
     1
 10
341.1032749227907
 20
130.057920075901
 11
341.9976749108615
 21
131.1238244749006
 72
     2
 10
337.4014082521477
 20
134.9805501330198
 40
6.0
 50
320.0000000000005
 51
360.0000000000008
 73
     1
 72
     1
 10
343.4014082521477
 20
134.9805501330198
 11
343.4014082521477
 21
192.22146794964
 72
     2
 10
342.5264082521477
 20
193.1141465032078
 40
1.249999999999998
 50
314.4270040008072
 51
585.5729959991951
 73
     1
 72
     1
 10
341.6514082521477
 20
192.22146794964
 11
340.1506169284228
 21
134.9085595702456
 72
     2
 10
337.4014082521477
 20
134.9805501330198
 40
2.750151084365223
 50
1.49999999999982
 51
56.31645183403803
 73
     0
 72
     1
 10
338.9266572199056
 20
132.6921125496043
 11
336.5736450575372
 21
131.1238244749006
 72
     2
 10
337.6828560942901
 20
129.4595976646534
 40
1.999999999999999
 50
123.6835481659611
 51
177.9999999999996
 73
     1
 72
     1
 10
335.6840744402519
 20
129.5293966580584
 11
334.9014082521477
 21
107.1167694595325
 72
     2
 10
331.9032357710904
 20
107.22146794964
 40
2.999999999999999
 50
2.000000000000086
 51
89.99999999999892
 73
     0
 72
     1
 10
331.9032357710904
 20
104.22146794964
 11
288.899580733205
 21
104.22146794964
 72
     2
 10
288.899580733205
 20
107.22146794964
 40
2.999999999999999
 50
90.0
 51
177.9999999999999
 73
     0
 72
     1
 10
285.9014082521476
 20
107.1167694595325
 11
285.1187420640435
 21
129.5293966580584
 72
     2
 10
283.1199604100053
 20
129.4595976646534
 40
1.999999999999999
 50
2.000000000000414
 51
56.31645183403896
 73
     1
 72
     1
 10
284.2291714467582
 20
131.1238244749006
 11
281.8761592843898
 21
132.6921125496043
 72
     2
 10
283.4014082521476
 20
134.9805501330198
 40
2.750151084365223
 50
123.683548165961
 51
178.4999999999996
 73
     0
 72
     1
 10
280.6521995758725
 20
134.9085595702456
 11
279.1514082521477
 21
192.22146794964
 72
     2
 10
278.2764082521477
 20
193.1141465032078
 40
1.249999999999998
 50
314.4270040008072
 51
585.5729959991934
 73
     1
 97
        0
 75
     0
 76
     1
 52
0.0
 41
1.0
 77
     0
 78
     2
 53
45.0
 43
0.0
 44
0.0
 45
-4.490128060534576
 46
4.490128060534577
 79
     0
 53
45.0
 43
4.49013
 44
0.0
 45
-4.490128060534576
 46
4.490128060534577
 79
     4
 49
7.9375
 49
-1.5875
 49
0.0
 49
-1.5875
 98
        1
 10
0.0
 20
0.0
  0
HATCH
  5
23C
330
1F
100
AcDbEntity
  8
0
  6
Continuous
 62
     7
370
     0
100
AcDbHatch
 10
0.0
 20
0.0
 30
0.0
210
0.0
220
0.0
230
1.0
  2
NET
 70
     0
 71
     0
 91
        1
 92
        0
 93
       21
 72
     1
 10
343.6514082521477
 20
194.3641465032078
 11
343.6514082521479
 21
195.3641465032078
 72
     2
 10
310.4014082521477
 20
85.27582968439187
 40
115.0
 50
73.19409641216174
 51
81.49903393288098
 73
     1
 72
     1
 10
327.4014082521477
 20
199.0123673492953
 11
327.4014082521477
 21
199.3641465032078
 72
     2
 10
326.9014082521477
 20
199.3641465032078
 40
0.5
 50
0.0
 51
90.0
 73
     1
 72
     1
 10
326.9014082521477
 20
199.8641465032078
 11
324.0129723102057
 21
199.8641465032078
 72
     4
 94
        3
 73
     1
 74
     0
 95
        8
 96
        4
 40
0.0
 40
0.0
 40
0.0
 40
0.0
 40
0.1923346093382555
 40
0.1923346093382555
 40
0.1923346093382555
 40
0.1923346093382555
 10
324.0129723102056
 20
199.8641465032082
 42
0.7830807949853968
 10
323.8866736854779
 20
200.3403141742241
 42
0.5889745962967238
 10
323.4912343874517
 20
200.7193154586522
 42
0.491921496952388
 10
322.9014082521477
 20
200.7193154586522
 42
0.4919214969523893
 72
     1
 10
322.9014082521477
 20
200.7193154586522
 11
322.9014082521444
 21
202.4193154586522
 72
     4
 94
        3
 73
     1
 74
     0
 95
       11
 96
        7
 40
0.0
 40
0.0
 40
0.0
 40
0.0
 40
0.2500000000003578
 40
0.2500000000003578
 40
0.2500000000003578
 40
0.5000000000003592
 40
0.5000000000003592
 40
0.5000000000003592
 40
0.5000000000003592
 10
322.9014082521444
 20
202.4193154586521
 42
0.4919214969523895
 10
323.6680749188129
 20
202.4193154586499
 42
0.4919214969519201
 10
324.0514082521477
 20
202.9943154586509
 42
0.6558953292693832
 10
324.0514082521477
 20
203.5693154586521
 42
0.9838429939047788
 10
324.0514082521477
 20
204.1443154586521
 42
0.6558953292698508
 10
323.6680749188144
 20
204.7193154586521
 42
0.4919214969523877
 10
322.9014082521477
 20
204.7193154586521
 42
0.4919214969523895
 72
     1
 10
322.9014082521477
 20
204.7193154586521
 11
322.9014082521477
 21
207.8641465032078
 72
     2
 10
321.9014082521477
 20
207.8641465032078
 40
1.0
 50
0.0
 51
90.0
 73
     1
 72
     1
 10
321.9014082521477
 20
208.8641465032078
 11
320.4014082521477
 21
208.8641465032078
 72
     1
 10
320.4014082521477
 20
208.8641465032078
 11
320.4014082521477
 21
199.6480291036564
 72
     2
 10
322.4014082521477
 20
199.6480291036564
 40
2.0
 50
180.0
 51
264.0104066581108
 73
     1
 72
     2
 10
310.4014082521477
 20
85.27582968439187
 40
113.0
 50
275.9895933418929
 51
282.2517939181764
 73
     0
 72
     2
 10
333.9565261047198
 20
193.7477450493912
 40
2.0
 50
282.2517939182119
 51
358.0000000000011
 73
     0
 72
     1
 10
335.955307758758
 20
193.8175440427962
 11
336.2854276751518
 21
184.364146503208
 72
     1
 10
336.2854276751518
 20
184.364146503208
 11
339.4939286578011
 21
184.3641465032078
 72
     1
 10
339.4939286578011
 20
184.3641465032078
 11
339.6514082521477
 21
186.1641465032078
 72
     1
 10
339.6514082521477
 20
186.1641465032078
 11
338.4014082521477
 21
186.1641465032078
 72
     1
 10
338.4014082521477
 20
186.1641465032078
 11
338.4014082521477
 21
194.3641465032078
 72
     1
 10
338.4014082521477
 20
194.3641465032078
 11
343.6514082521477
 21
194.3641465032078
 97
        0
 75
     0
 76
     1
 52
0.0
 41
1.0
 77
     0
 78
     2
 53
0.0
 43
0.0
 44
0.0
 45
0.0
 46
3.175
 79
     0
 53
90.0
 43
0.0
 44
0.0
 45
-3.175
 46
0.0000000000000002
 79
     0
 98
        1
 10
0.0
 20
0.0
  0
HATCH
  5
23D
330
1F
100
AcDbEntity
  8
0
  6
Continuous
 62
     7
370
     0
100
AcDbHatch
 10
0.0
 20
0.0
 30
0.0
210
0.0
220
0.0
230
1.0
  2
NET
 70
     0
 71
     0
 91
        1
 92
        0
 93
       23
 72
     2
 10
310.4014082521477
 20
85.27582968439187
 40
115.0
 50
98.50096606711901
 51
106.8059035878382
 73
     1
 72
     1
 10
277.1514082521476
 20
195.3641465032078
 11
277.1514082521476
 21
194.3641465032078
 72
     1
 10
277.1514082521476
 20
194.3641465032078
 11
282.4014082521476
 21
194.3641465032078
 72
     1
 10
282.4014082521476
 20
194.3641465032078
 11
282.4014082521476
 21
186.1641465032078
 72
     1
 10
282.4014082521476
 20
186.1641465032078
 11
281.1514082521476
 21
186.1641465032078
 72
     1
 10
281.1514082521476
 20
186.1641465032078
 11
281.3088878464943
 21
184.3641465032078
 72
     1
 10
281.3088878464943
 20
184.3641465032078
 11
284.5173888291436
 21
184.364146503208
 72
     1
 10
284.5173888291436
 20
184.364146503208
 11
284.8475087455373
 21
193.8175440427962
 72
     2
 10
286.8462903995755
 20
193.7477450493912
 40
2.0
 50
182.0000000000003
 51
257.7482060817881
 73
     0
 72
     2
 10
310.4014082521477
 20
85.27582968439187
 40
113.0
 50
257.7482060818251
 51
264.0104066581086
 73
     0
 72
     2
 10
298.4014082521477
 20
199.6480291036564
 40
2.0
 50
275.989593341891
 51
360.0000000000008
 73
     1
 72
     1
 10
300.4014082521477
 20
199.6480291036564
 11
300.4014082521477
 21
208.8641465032078
 72
     1
 10
300.4014082521477
 20
208.8641465032078
 11
298.9014082521477
 21
208.8641465032078
 72
     2
 10
298.9014082521477
 20
207.8641465032078
 40
1.0
 50
90.0
 51
180.0
 73
     1
 72
     1
 10
297.9014082521477
 20
207.8641465032078
 11
297.9014082521477
 21
206.7193154586521
 72
     4
 94
        3
 73
     1
 74
     0
 95
       11
 96
        7
 40
0.2499999999999991
 40
0.2499999999999991
 40
0.2499999999999991
 40
0.2499999999999991
 40
0.5
 40
0.5
 40
0.5
 40
0.7500000000003562
 40
0.7500000000003562
 40
0.7500000000003562
 40
0.7500000000003562
 10
297.9014082521477
 20
206.7193154586521
 42
0.4919214969523893
 10
297.134741585481
 20
206.7193154586522
 42
0.4919214969523882
 10
296.7514082521477
 20
206.1443154586522
 42
0.6558953292698514
 10
296.7514082521477
 20
205.5693154586521
 42
0.9838429939047788
 10
296.7514082521477
 20
204.9943154586509
 42
0.6558953292693853
 10
297.1347415854824
 20
204.41931545865
 42
0.4919214969519222
 10
297.9014082521509
 20
204.4193154586522
 42
0.4919214969523894
 72
     1
 10
297.9014082521509
 20
204.4193154586522
 11
297.9014082521476
 21
202.7193154586521
 72
     4
 94
        3
 73
     1
 74
     0
 95
       11
 96
        7
 40
0.2500000000000003
 40
0.2500000000000003
 40
0.2500000000000003
 40
0.2500000000000003
 40
0.5
 40
0.5
 40
0.5
 40
0.7500000000003572
 40
0.7500000000003572
 40
0.7500000000003572
 40
0.7500000000003572
 10
297.9014082521477
 20
202.7193154586522
 42
0.4919214969523895
 10
297.134741585481
 20
202.7193154586522
 42
0.4919214969523899
 10
296.7514082521477
 20
202.1443154586522
 42
0.6558953292698531
 10
296.7514082521477
 20
201.5693154586521
 42
0.983842993904779
 10
296.7514082521477
 20
200.9943154586509
 42
0.6558953292693841
 10
297.1347415854824
 20
200.41931545865
 42
0.4919214969519209
 10
297.9014082521509
 20
200.4193154586522
 42
0.4919214969523895
 72
     1
 10
297.9014082521509
 20
200.4193154586522
 11
297.9014082521477
 21
200.3641465032078
 72
     2
 10
297.4014082521477
 20
200.3641465032078
 40
0.5
 50
0.0
 51
90.0
 73
     0
 72
     1
 10
297.4014082521477
 20
199.8641465032078
 11
293.9014082521477
 21
199.8641465032078
 72
     2
 10
293.9014082521477
 20
199.3641465032078
 40
0.5
 50
90.0
 51
180.0
 73
     1
 72
     1
 10
293.4014082521477
 20
199.3641465032078
 11
293.4014082521477
 21
199.0123673492953
 97
        0
 75
     0
 76
     1
 52
0.0
 41
1.0
 77
     0
 78
     2
 53
0.0
 43
0.0
 44
0.0
 45
0.0
 46
3.175
 79
     0
 53
90.0
 43
0.0
 44
0.0
 45
-3.175
 46
0.0000000000000002
 79
     0
 98
        1
 10
0.0
 20
0.0
  0
HATCH
  5
23E
330
1F
100
AcDbEntity
  8
0
  6
Continuous
 62
     7
370
     0
100
AcDbHatch
 10
0.0
 20
0.0
 30
0.0
210
0.0
220
0.0
230
1.0
  2
ANSI31
 70
     0
 71
     0
 91
        1
 92
        0
 93
       16
 72
     1
 10
278.6862705492467
 20
192.1862351173578
 11
280.5927272809647
 21
192.1773599973157
 72
     1
 10
280.5927272809647
 20
192.1773599973157
 11
280.7186795027209
 21
190.7377195149922
 72
     1
 10
280.7186795027209
 20
190.7377195149922
 11
278.8427272809646
 21
190.3979264907022
 72
     1
 10
278.8427272809646
 20
190.3979264907022
 11
278.8775895780636
 21
189.9994486114656
 72
     1
 10
278.8775895780636
 20
189.9994486114656
 11
280.7840463097817
 21
189.9905734914234
 72
     1
 10
280.7840463097817
 20
189.9905734914234
 11
280.9099985315379
 21
188.5509330091
 72
     1
 10
280.9099985315379
 20
188.5509330091
 11
279.0340463097816
 21
188.2111399848101
 72
     1
 10
279.0340463097816
 20
188.2111399848101
 11
279.0689086068807
 21
187.8126621055733
 72
     1
 10
279.0689086068807
 20
187.8126621055733
 11
280.9753653385986
 21
187.8037869855312
 72
     1
 10
280.9753653385986
 20
187.8037869855312
 11
281.101317560355
 21
186.3641465032079
 72
     1
 10
281.101317560355
 20
186.3641465032079
 11
282.4014082521476
 21
186.3641465032079
 72
     1
 10
282.4014082521476
 20
186.3641465032079
 11
282.4014082521476
 21
194.3641465032078
 72
     1
 10
282.4014082521476
 20
194.3641465032078
 11
280.4014082521476
 21
194.3641465032078
 72
     1
 10
280.4014082521476
 20
194.3641465032078
 11
280.5273604739039
 21
192.9245060208845
 72
     1
 10
280.5273604739039
 20
192.9245060208845
 11
278.6514082521476
 21
192.5847129965945
 72
     1
 10
278.6514082521476
 20
192.5847129965945
 11
278.6862705492467
 21
192.1862351173578
 97
        0
 75
     0
 76
     1
 52
0.0
 41
1.0
 77
     0
 78
     1
 53
45.0
 43
0.0
 44
0.0
 45
-2.245064030267288
 46
2.245064030267288
 79
     0
 98
        1
 10
0.0
 20
0.0
  0
HATCH
  5
23F
330
1F
100
AcDbEntity
  8
0
  6
Continuous
 62
     7
370
     0
100
AcDbHatch
 10
0.0
 20
0.0
 30
0.0
210
0.0
220
0.0
230
1.0
  2
ANSI31
 70
     0
 71
     0
 91
        1
 92
        0
 93
       16
 72
     1
 10
340.2100892233307
 20
192.1773599973157
 11
342.1165459550487
 21
192.1862351173578
 72
     1
 10
342.1165459550487
 20
192.1862351173578
 11
342.1514082521477
 21
192.5847129965945
 72
     1
 10
342.1514082521477
 20
192.5847129965945
 11
340.2754560303915
 21
192.9245060208845
 72
     1
 10
340.2754560303915
 20
192.9245060208845
 11
340.4014082521477
 21
194.3641465032078
 72
     1
 10
340.4014082521477
 20
194.3641465032078
 11
338.4014082521477
 21
194.3641465032078
 72
     1
 10
338.4014082521477
 20
194.3641465032078
 11
338.4014082521477
 21
186.3641465032079
 72
     1
 10
338.4014082521477
 20
186.3641465032079
 11
339.7014989439404
 21
186.3641465032079
 72
     1
 10
339.7014989439404
 20
186.3641465032079
 11
339.8274511656967
 21
187.8037869855312
 72
     1
 10
339.8274511656967
 20
187.8037869855312
 11
341.7339078974147
 21
187.8126621055733
 72
     1
 10
341.7339078974147
 20
187.8126621055733
 11
341.7687701945138
 21
188.2111399848101
 72
     1
 10
341.7687701945138
 20
188.2111399848101
 11
339.8928179727574
 21
188.5509330091
 72
     1
 10
339.8928179727574
 20
188.5509330091
 11
340.0187701945136
 21
189.9905734914234
 72
     1
 10
340.0187701945136
 20
189.9905734914234
 11
341.9252269262317
 21
189.9994486114656
 72
     1
 10
341.9252269262317
 20
189.9994486114656
 11
341.9600892233307
 21
190.3979264907022
 72
     1
 10
341.9600892233307
 20
190.3979264907022
 11
340.0841370015744
 21
190.7377195149922
 72
     1
 10
340.0841370015744
 20
190.7377195149922
 11
340.2100892233307
 21
192.1773599973157
 97
        0
 75
     0
 76
     1
 52
0.0
 41
1.0
 77
     0
 78
     1
 53
45.0
 43
0.0
 44
0.0
 45
-2.245064030267288
 46
2.245064030267288
 79
     0
 98
        1
 10
0.0
 20
0.0
  0
HATCH
  5
240
330
1F
100
AcDbEntity
  8
0
  6
Continuous
 62
     7
370
     0
100
AcDbHatch
 10
0.0
 20
0.0
 30
0.0
210
0.0
220
0.0
230
1.0
  2
ANSI31
 70
     0
 71
     0
 91
        1
 92
        0
 93
       17
 72
     1
 10
322.1514082521477
 20
226.7641465032077
 11
322.9014082521477
 21
226.7641465032077
 72
     1
 10
322.9014082521477
 20
226.7641465032077
 11
322.9014082521477
 21
242.7641465032077
 72
     1
 10
322.9014082521477
 20
242.7641465032077
 11
317.9014082521477
 21
242.7641465032077
 72
     1
 10
317.9014082521477
 20
242.7641465032077
 11
317.9014082521477
 21
243.7641465032077
 72
     1
 10
317.9014082521477
 20
243.7641465032077
 11
311.9014082521485
 21
243.7641465032071
 72
     1
 10
311.9014082521485
 20
243.7641465032071
 11
311.9014082521477
 21
217.7641465032077
 72
     1
 10
311.9014082521477
 20
217.7641465032077
 11
312.2014082521477
 21
217.4641465032078
 72
     1
 10
312.2014082521477
 20
217.4641465032078
 11
312.6014082521477
 21
217.4641465032078
 72
     2
 10
312.6014082521477
 20
217.6641465032077
 40
0.2
 50
270.0000000000008
 51
360.0000000000008
 73
     1
 72
     1
 10
312.8014082521477
 20
217.6641465032077
 11
312.8014082521477
 21
219.4641465032078
 72
     1
 10
312.8014082521477
 20
219.4641465032078
 11
313.4014082521477
 21
220.0641465032078
 72
     1
 10
313.4014082521477
 20
220.0641465032078
 11
313.4014082521477
 21
229.9641465032078
 72
     1
 10
313.4014082521477
 20
229.9641465032078
 11
314.9014082521477
 21
229.9641465032078
 72
     1
 10
314.9014082521477
 20
229.9641465032078
 11
314.9014082521477
 21
237.9641465032077
 72
     1
 10
314.9014082521477
 20
237.9641465032077
 11
321.6514082521477
 21
237.9641465032078
 72
     1
 10
321.6514082521477
 20
237.9641465032078
 11
321.6514082521477
 21
227.2641465032077
 72
     2
 10
322.1514082521477
 20
227.2641465032077
 40
0.5
 50
180.0
 51
270.0000000000008
 73
     1
 97
        0
 75
     0
 76
     1
 52
0.0
 41
1.0
 77
     0
 78
     1
 53
45.0
 43
0.0
 44
0.0
 45
-2.245064030267288
 46
2.245064030267288
 79
     0
 98
        1
 10
0.0
 20
0.0
  0
HATCH
  5
241
330
1F
100
AcDbEntity
  8
0
  6
Continuous
 62
     7
370
     0
100
AcDbHatch
 10
0.0
 20
0.0
 30
0.0
210
0.0
220
0.0
230
1.0
  2
ANSI31
 70
     0
 71
     0
 91
        1
 92
        0
 93
       22
 72
     1
 10
317.9014082521477
 20
248.7641465032077
 11
322.9014082521477
 21
248.7641465032077
 72
     1
 10
322.9014082521477
 20
248.7641465032077
 11
322.9014082521477
 21
251.7641465032078
 72
     1
 10
322.9014082521477
 20
251.7641465032078
 11
297.9014082521477
 21
251.7641465032078
 72
     1
 10
297.9014082521477
 20
251.7641465032078
 11
297.9014082521477
 21
226.7641465032077
 72
     1
 10
297.9014082521477
 20
226.7641465032077
 11
298.6514082521477
 21
226.7641465032077
 72
     2
 10
298.6514082521477
 20
227.2641465032077
 40
0.5
 50
270.0000000000008
 51
360.0000000000008
 73
     1
 72
     1
 10
299.1514082521477
 20
227.2641465032077
 11
299.1514082521477
 21
237.9641465032078
 72
     1
 10
299.1514082521477
 20
237.9641465032078
 11
305.9014082521477
 21
237.9641465032077
 72
     1
 10
305.9014082521477
 20
237.9641465032077
 11
305.9014082521477
 21
229.9641465032078
 72
     1
 10
305.9014082521477
 20
229.9641465032078
 11
307.4014082521477
 21
229.9641465032078
 72
     1
 10
307.4014082521477
 20
229.9641465032078
 11
307.4014082521477
 21
220.0641465032078
 72
     1
 10
307.4014082521477
 20
220.0641465032078
 11
308.0014082521477
 21
219.4641465032078
 72
     1
 10
308.0014082521477
 20
219.4641465032078
 11
308.0014082521477
 21
217.6641465032077
 72
     2
 10
308.2014082521477
 20
217.6641465032077
 40
0.2
 50
180.0
 51
270.0000000000008
 73
     1
 72
     1
 10
308.2014082521477
 20
217.4641465032078
 11
308.6014082521477
 21
217.4641465032078
 72
     1
 10
308.6014082521477
 20
217.4641465032078
 11
308.9014082521477
 21
217.7641465032077
 72
     1
 10
308.9014082521477
 20
217.7641465032077
 11
308.9014082521475
 21
243.7641465032076
 72
     1
 10
308.9014082521475
 20
243.7641465032076
 11
304.9014082521477
 21
243.7641465032077
 72
     1
 10
304.9014082521477
 20
243.7641465032077
 11
303.6996870140925
 21
245.7641465032077
 72
     1
 10
303.6996870140925
 20
245.7641465032077
 11
304.9014082521477
 21
247.7641465032077
 72
     1
 10
304.9014082521477
 20
247.7641465032077
 11
317.9014082521477
 21
247.7641465032077
 72
     1
 10
317.9014082521477
 20
247.7641465032077
 11
317.9014082521477
 21
248.7641465032077
 97
        0
 75
     0
 76
     1
 52
0.0
 41
1.0
 77
     0
 78
     1
 53
45.0
 43
0.0
 44
0.0
 45
-2.245064030267288
 46
2.245064030267288
 79
     0
 98
        1
 10
0.0
 20
0.0
  0
HATCH
  5
242
330
1F
100
AcDbEntity
  8
0
  6
Continuous
 62
     7
370
     0
100
AcDbHatch
 10
0.0
 20
0.0
 30
0.0
210
0.0
220
0.0
230
1.0
  2
ANSI31
 70
     0
 71
     0
 91
        1
 92
        0
 93
        5
 72
     1
 10
317.9014082521477
 20
243.7641465032077
 11
317.9014082521477
 21
243.2641465032077
 72
     1
 10
317.9014082521477
 20
243.2641465032077
 11
318.4014082521477
 21
242.7641465032077
 72
     1
 10
318.4014082521477
 20
242.7641465032077
 11
358.4014082521477
 21
242.7641465032077
 72
     1
 10
358.4014082521477
 20
242.7641465032077
 11
358.4014082521477
 21
243.7641465032077
 72
     1
 10
358.4014082521477
 20
243.7641465032077
 11
317.9014082521477
 21
243.7641465032077
 97
        0
 75
     0
 76
     1
 52
0.0
 41
1.0
 77
     0
 78
     1
 53
45.0
 43
0.0
 44
0.0
 45
-2.245064030267288
 46
2.245064030267288
 79
     0
 98
        1
 10
0.0
 20
0.0
  0
HATCH
  5
243
330
1F
100
AcDbEntity
  8
0
  6
Continuous
 62
     7
370
     0
100
AcDbHatch
 10
0.0
 20
0.0
 30
0.0
210
0.0
220
0.0
230
1.0
  2
ANSI31
 70
     0
 71
     0
 91
        1
 92
        0
 93
       10
 72
     1
 10
317.9014082521477
 20
247.7641465032077
 11
362.9014082521477
 21
247.7641465032077
 72
     1
 10
362.9014082521477
 20
247.7641465032077
 11
364.056108790527
 21
245.7641465032077
 72
     1
 10
364.056108790527
 20
245.7641465032077
 11
362.9014082521477
 21
243.7641465032077
 72
     1
 10
362.9014082521477
 20
243.7641465032077
 11
362.4014082521477
 21
243.7641465032077
 72
     1
 10
362.4014082521477
 20
243.7641465032077
 11
362.4014082521477
 21
242.7641465032077
 72
     1
 10
362.4014082521477
 20
242.7641465032077
 11
365.4014082521478
 21
242.7641465032077
 72
     1
 10
365.4014082521478
 20
242.7641465032077
 11
365.4014082521478
 21
248.7641465032077
 72
     1
 10
365.4014082521478
 20
248.7641465032077
 11
318.4014082521477
 21
248.7641465032077
 72
     1
 10
318.4014082521477
 20
248.7641465032077
 11
317.9014082521477
 21
248.2641465032077
 72
     1
 10
317.9014082521477
 20
248.2641465032077
 11
317.9014082521477
 21
247.7641465032077
 97
        0
 75
     0
 76
     1
 52
0.0
 41
1.0
 77
     0
 78
     1
 53
45.0
 43
0.0
 44
0.0
 45
-2.245064030267288
 46
2.245064030267288
 79
     0
 98
        1
 10
0.0
 20
0.0
  0
HATCH
  5
244
330
1F
100
AcDbEntity
  8
0
  6
Continuous
 62
     7
370
     0
100
AcDbHatch
 10
0.0
 20
0.0
 30
0.0
210
0.0
220
0.0
230
1.0
  2
ANSI34
 70
     0
 71
     0
 91
        1
 92
        0
 93
       46
 72
     1
 10
307.4014082521477
 20
156.4616772310745
 11
313.4014082521477
 21
156.4616772310744
 72
     1
 10
313.4014082521477
 20
156.4616772310744
 11
313.4014082521477
 21
147.9616772310744
 72
     1
 10
313.4014082521477
 20
147.9616772310744
 11
314.4014082521476
 21
147.9616772310744
 72
     1
 10
314.4014082521476
 20
147.9616772310744
 11
314.4014082521475
 21
159.5742362516346
 72
     2
 10
304.8471595358318
 20
163.8187991341557
 40
10.45466319863517
 50
336.0463746861001
 51
357.397817271636
 73
     1
 72
     1
 10
315.2910423136508
 20
163.3441465032019
 11
316.051408252148
 21
174.3441465032086
 72
     2
 10
310.3812667867663
 20
176.518174796284
 40
6.072635610386357
 50
339.0223300850967
 51
358.3578049668747
 73
     1
 72
     1
 10
316.4514082521476
 20
176.3441465032078
 11
317.5514082521476
 21
176.3441465032078
 72
     1
 10
317.5514082521476
 20
176.3441465032078
 11
317.5514082521474
 21
210.7641465032079
 72
     1
 10
317.5514082521474
 20
210.7641465032079
 11
323.9014082521478
 21
210.7641465032079
 72
     1
 10
323.9014082521478
 20
210.7641465032079
 11
323.9014082521478
 21
200.7641465032079
 72
     1
 10
323.9014082521478
 20
200.7641465032079
 11
325.5514082521474
 21
200.7641465032079
 72
     1
 10
325.5514082521474
 20
200.7641465032079
 11
325.5514082521474
 21
213.7641465032079
 72
     1
 10
325.5514082521474
 20
213.7641465032079
 11
320.1014082521476
 21
213.7641465032079
 72
     1
 10
320.1014082521476
 20
213.7641465032079
 11
320.1014082521476
 21
216.3641465032078
 72
     1
 10
320.1014082521476
 20
216.3641465032078
 11
317.9014082521477
 21
216.3641465032078
 72
     1
 10
317.9014082521477
 20
216.3641465032078
 11
317.9014082521477
 21
222.6641465032078
 72
     1
 10
317.9014082521477
 20
222.6641465032078
 11
314.5514082521473
 21
222.6641465032078
 72
     1
 10
314.5514082521473
 20
222.6641465032078
 11
314.5514082521473
 21
229.9641465032078
 72
     1
 10
314.5514082521473
 20
229.9641465032078
 11
313.5014082521477
 21
229.9641465032078
 72
     1
 10
313.5014082521477
 20
229.9641465032078
 11
313.5014082521477
 21
227.9641465032078
 72
     1
 10
313.5014082521477
 20
227.9641465032078
 11
312.9244791466105
 21
227.9641465032078
 72
     1
 10
312.9244791466105
 20
227.9641465032078
 11
312.9244791466105
 21
207.9641465032077
 72
     1
 10
312.9244791466105
 20
207.9641465032077
 11
307.8783373576848
 21
207.9641465032077
 72
     1
 10
307.8783373576848
 20
207.9641465032077
 11
307.8783373576848
 21
227.9641465032078
 72
     1
 10
307.8783373576848
 20
227.9641465032078
 11
307.3014082521477
 21
227.9641465032078
 72
     1
 10
307.3014082521477
 20
227.9641465032078
 11
307.3014082521477
 21
229.9641465032078
 72
     1
 10
307.3014082521477
 20
229.9641465032078
 11
306.2514082521481
 21
229.9641465032078
 72
     1
 10
306.2514082521481
 20
229.9641465032078
 11
306.2514082521481
 21
222.6641465032078
 72
     1
 10
306.2514082521481
 20
222.6641465032078
 11
302.9014082521477
 21
222.6641465032078
 72
     1
 10
302.9014082521477
 20
222.6641465032078
 11
302.9014082521476
 21
216.3641465032078
 72
     1
 10
302.9014082521476
 20
216.3641465032078
 11
300.7014082521478
 21
216.3641465032078
 72
     1
 10
300.7014082521478
 20
216.3641465032078
 11
300.7014082521478
 21
213.7641465032079
 72
     1
 10
300.7014082521478
 20
213.7641465032079
 11
295.2514082521479
 21
213.7641465032079
 72
     1
 10
295.2514082521479
 20
213.7641465032079
 11
295.2514082521479
 21
200.7641465032079
 72
     1
 10
295.2514082521479
 20
200.7641465032079
 11
296.9014082521475
 21
200.7641465032079
 72
     1
 10
296.9014082521475
 20
200.7641465032079
 11
296.9014082521476
 21
210.7641465032079
 72
     1
 10
296.9014082521476
 20
210.7641465032079
 11
303.251408252148
 21
210.7641465032079
 72
     1
 10
303.251408252148
 20
210.7641465032079
 11
303.2514082521478
 21
176.3441465032079
 72
     1
 10
303.2514082521478
 20
176.3441465032079
 11
304.3514082521478
 21
176.3441465032078
 72
     2
 10
310.4215497175291
 20
176.518174796284
 40
6.072635610386357
 50
181.642195033127
 51
200.977669914905
 73
     1
 72
     1
 10
304.7514082521474
 20
174.3441465032086
 11
305.5117741906445
 21
163.3441465032019
 72
     2
 10
315.9556569684636
 20
163.8187991341558
 40
10.45466319863517
 50
182.602182728366
 51
203.9536253139016
 73
     1
 72
     1
 10
306.4014082521479
 20
159.5742362516346
 11
306.4014082521478
 21
147.9616772310744
 72
     1
 10
306.4014082521478
 20
147.9616772310744
 11
307.4014082521477
 21
147.9616772310744
 72
     1
 10
307.4014082521477
 20
147.9616772310744
 11
307.4014082521477
 21
156.4616772310745
 97
        0
 75
     0
 76
     1
 52
0.0
 41
1.0
 77
     0
 78
     4
 53
45.0
 43
0.0
 44
0.0
 45
-13.47038418160373
 46
13.47038418160373
 79
     0
 53
45.0
 43
4.49013
 44
0.0
 45
-13.47038418160373
 46
13.47038418160373
 79
     0
 53
45.0
 43
8.98026
 44
0.0
 45
-13.47038418160373
 46
13.47038418160373
 79
     0
 53
45.0
 43
13.4704
 44
0.0
 45
-13.47038418160373
 46
13.47038418160373
 79
     0
 98
        1
 10
0.0
 20
0.0
  0
HATCH
  5
245
330
1F
100
AcDbEntity
  8
0
  6
Continuous
 62
     7
370
     0
100
AcDbHatch
 10
0.0
 20
0.0
 30
0.0
210
0.0
220
0.0
230
1.0
  2
ANSI31
 70
     0
 71
     0
 91
        1
 92
        0
 93
       19
 72
     1
 10
295.5897466864961
 20
206.1172213162751
 11
295.5897466864961
 21
212.3641465032078
 72
     1
 10
295.5897466864961
 20
212.3641465032078
 11
295.1514082521476
 21
212.3641465032078
 72
     1
 10
295.1514082521476
 20
212.3641465032078
 11
295.1514082521476
 21
215.3641465032078
 72
     2
 10
296.1514082521476
 20
215.3641465032078
 40
1.000000000000001
 50
180.0
 51
270.0000000000008
 73
     0
 72
     1
 10
296.1514082521476
 20
216.3641465032078
 11
301.6514082521476
 21
216.3641465032078
 72
     1
 10
301.6514082521476
 20
216.3641465032078
 11
302.6514082521476
 21
217.3641465032078
 72
     1
 10
302.6514082521476
 20
217.3641465032078
 11
302.6514082521476
 21
227.8641465032078
 72
     1
 10
302.6514082521476
 20
227.8641465032078
 11
301.6514082521476
 21
227.8641465032078
 72
     1
 10
301.6514082521476
 20
227.8641465032078
 11
301.6514082521476
 21
219.8530079798037
 72
     2
 10
299.6514082521476
 20
219.8530079798037
 40
2.000000000000001
 50
0.0
 51
83.95023914210996
 73
     0
 72
     2
 10
310.4014082521477
 20
118.4210726734122
 40
100.0
 50
96.04976085789394
 51
98.50867673827128
 73
     1
 72
     2
 10
295.9014082521477
 20
215.3424325483128
 40
2.000000000000006
 50
98.50867673827256
 51
180.0
 73
     1
 72
     1
 10
293.9014082521477
 20
215.3424325483128
 11
293.9014082521477
 21
199.8641465032078
 72
     1
 10
293.9014082521477
 20
199.8641465032078
 11
294.9014082521477
 21
199.8641465032078
 72
     1
 10
294.9014082521477
 20
199.8641465032078
 11
295.5897466864961
 21
200.5524849375562
 72
     1
 10
295.5897466864961
 20
200.5524849375562
 11
295.5897466864961
 21
200.8641465032078
 72
     1
 10
295.5897466864961
 20
200.8641465032078
 11
295.1514082521476
 21
200.8641465032078
 72
     1
 10
295.1514082521476
 20
200.8641465032078
 11
295.1514082521476
 21
205.8641465032078
 72
     1
 10
295.1514082521476
 20
205.8641465032078
 11
295.5897466864961
 21
206.1172213162751
 97
        0
 75
     0
 76
     1
 52
0.0
 41
1.0
 77
     0
 78
     1
 53
45.0
 43
0.0
 44
0.0
 45
-2.245064030267288
 46
2.245064030267288
 79
     0
 98
        1
 10
0.0
 20
0.0
  0
HATCH
  5
246
330
1F
100
AcDbEntity
  8
0
  6
Continuous
 62
     7
370
     0
100
AcDbHatch
 10
0.0
 20
0.0
 30
0.0
210
0.0
220
0.0
230
1.0
  2
ANSI31
 70
     0
 71
     0
 91
        1
 92
        0
 93
       19
 72
     1
 10
325.6514082521477
 20
215.3641465032078
 11
325.6514082521477
 21
212.3641465032078
 72
     1
 10
325.6514082521477
 20
212.3641465032078
 11
325.2130698177992
 21
212.3641465032078
 72
     1
 10
325.2130698177992
 20
212.3641465032078
 11
325.2130698177992
 21
206.1172213162751
 72
     1
 10
325.2130698177992
 20
206.1172213162751
 11
325.6514082521477
 21
205.8641465032078
 72
     1
 10
325.6514082521477
 20
205.8641465032078
 11
325.6514082521477
 21
200.8641465032078
 72
     1
 10
325.6514082521477
 20
200.8641465032078
 11
325.2130698177992
 21
200.8641465032078
 72
     1
 10
325.2130698177992
 20
200.8641465032078
 11
325.2130698177992
 21
200.5524849375563
 72
     1
 10
325.2130698177992
 20
200.5524849375563
 11
325.9014082521477
 21
199.8641465032078
 72
     1
 10
325.9014082521477
 20
199.8641465032078
 11
326.9014082521477
 21
199.8641465032078
 72
     1
 10
326.9014082521477
 20
199.8641465032078
 11
326.9014082521477
 21
215.3424325483128
 72
     2
 10
324.9014082521477
 20
215.3424325483128
 40
2.000000000000006
 50
0.0
 51
81.49132326172905
 73
     1
 72
     2
 10
310.4014082521477
 20
118.4210726734122
 40
100.0
 50
81.49132326172875
 51
83.95023914210606
 73
     1
 72
     2
 10
321.1514082521477
 20
219.8530079798037
 40
2.000000000000001
 50
96.04976085789004
 51
180.0
 73
     0
 72
     1
 10
319.1514082521477
 20
219.8530079798037
 11
319.1514082521477
 21
227.8641465032078
 72
     1
 10
319.1514082521477
 20
227.8641465032078
 11
318.1514082521477
 21
227.8641465032078
 72
     1
 10
318.1514082521477
 20
227.8641465032078
 11
318.1514082521477
 21
217.3641465032078
 72
     1
 10
318.1514082521477
 20
217.3641465032078
 11
319.1514082521477
 21
216.3641465032078
 72
     1
 10
319.1514082521477
 20
216.3641465032078
 11
324.6514082521477
 21
216.3641465032078
 72
     2
 10
324.6514082521477
 20
215.3641465032078
 40
1.000000000000001
 50
270.0000000000008
 51
360.0000000000008
 73
     0
 97
        0
 75
     0
 76
     1
 52
0.0
 41
1.0
 77
     0
 78
     1
 53
45.0
 43
0.0
 44
0.0
 45
-2.245064030267288
 46
2.245064030267288
 79
     0
 98
        1
 10
0.0
 20
0.0
  0
HATCH
  5
247
330
1F
100
AcDbEntity
  8
0
  6
Continuous
 62
     7
370
     0
100
AcDbHatch
 10
0.0
 20
0.0
 30
0.0
210
0.0
220
0.0
230
1.0
  2
ANSI31
 70
     0
 71
     0
 91
        1
 92
        0
 93
        4
 72
     1
 10
308.4014082521477
 20
108.8107369090987
 11
308.4014082521477
 21
156.4616772310744
 72
     1
 10
308.4014082521477
 20
156.4616772310744
 11
307.4014082521477
 21
156.4616772310744
 72
     1
 10
307.4014082521477
 20
156.4616772310744
 11
307.4014082521477
 21
108.8549356729566
 72
     1
 10
307.4014082521477
 20
108.8549356729566
 11
308.4014082521477
 21
108.8107369090987
 97
        0
 75
     0
 76
     1
 52
0.0
 41
1.0
 77
     0
 78
     1
 53
45.0
 43
0.0
 44
0.0
 45
-2.245064030267288
 46
2.245064030267288
 79
     0
 98
        1
 10
0.0
 20
0.0
  0
HATCH
  5
248
330
1F
100
AcDbEntity
  8
0
  6
Continuous
 62
     7
370
     0
100
AcDbHatch
 10
0.0
 20
0.0
 30
0.0
210
0.0
220
0.0
230
1.0
  2
ANSI31
 70
     0
 71
     0
 91
        1
 92
        0
 93
        4
 72
     1
 10
313.4014082521477
 20
108.5897430898092
 11
313.4014082521477
 21
156.4616772310744
 72
     1
 10
313.4014082521477
 20
156.4616772310744
 11
312.4014082521477
 21
156.4616772310744
 72
     1
 10
312.4014082521477
 20
156.4616772310744
 11
312.4014082521476
 21
108.6339418536671
 72
     1
 10
312.4014082521476
 20
108.6339418536671
 11
313.4014082521477
 21
108.5897430898092
 97
        0
 75
     0
 76
     1
 52
0.0
 41
1.0
 77
     0
 78
     1
 53
45.0
 43
0.0
 44
0.0
 45
-2.245064030267288
 46
2.245064030267288
 79
     0
 98
        1
 10
0.0
 20
0.0
  0
DIMENSION
  5
249
330
1F
100
AcDbEntity
  8
0
  6
Continuous
 62
     7
370
     0
100
AcDbDimension
  2
*D3
 10
277.1514082521
 20
261.7641465032
 30
0.0
 11
321.2764082521
 21
261.7641465032
 31
0.0
 70
   160
 71
     2
 42
-1.0
  3
SLDDIMSTYLE0
100
AcDbAlignedDimension
 13
365.4014082521
 23
248.7641465032
 33
0.0
 14
277.1514082521
 24
195.3641465032
 34
0.0
100
AcDbRotatedDimension
  0
MTEXT
  5
253
330
1F
100
AcDbEntity
  8
0
  6
Continuous
 62
     7
370
     0
100
AcDbMText
 10
322.3897193051
 20
276.8357706084
 30
0.0
 40
3.5
 41
0.0
 71
     2
 72
     1
  1
A-A
  7
SLDTEXTSTYLE0
 73
     1
 44
1.0
  0
CIRCLE
  5
254
330
1F
100
AcDbEntity
  8
0
  6
Continuous
 62
     7
370
     0
100
AcDbCircle
 10
338.5629279649
 20
193.1253784219
 30
0.0
 40
10.13598095487004
  0
MTEXT
  5
255
330
1F
100
AcDbEntity
  8
0
  6
Continuous
 62
     7
370
     0
100
AcDbMText
 10
344.6441913375
 20
214.0344201305
 30
0.0
 40
7.0
 41
0.0
 71
     1
 72
     1
  1
B
  7
SLDTEXTSTYLE0
 73
     1
 44
1.0
  0
ARC
  5
256
330
1F
100
AcDbEntity
  8
0
  6
Continuous
 62
     7
370
     0
100
AcDbCircle
 10
315.3482711139
 20
58.2498703449
 30
0.0
 40
20.27196323737273
100
AcDbArc
 50
147.4047783838
 51
298.5129089537
  0
LINE
  5
257
330
1F
100
AcDbEntity
  8
0
  6
Continuous
 62
     7
370
    15
100
AcDbLine
 10
318.7733244659
 20
57.8481202067
 30
0.0
 11
322.5252319636
 21
57.1685378493
 31
0.0
  0
LINE
  5
258
330
1F
100
AcDbEntity
  8
0
  6
Continuous
 62
     7
370
    15
100
AcDbLine
 10
322.5252319636
 20
57.1685378493
 30
0.0
 11
322.4555019798
 21
56.3715790451
 31
0.0
  0
LINE
  5
259
330
1F
100
AcDbEntity
  8
0
  6
Continuous
 62
     7
370
    15
100
AcDbLine
 10
322.4555019798
 20
56.3715790451
 30
0.0
 11
318.6425928535
 21
56.3538317621
 31
0.0
  0
LINE
  5
25A
330
1F
100
AcDbEntity
  8
0
  6
Continuous
 62
     7
370
    15
100
AcDbLine
 10
322.1425924959
 20
52.7949576319
 30
0.0
 11
322.0728699626
 21
51.9980137289
 31
0.0
  0
LINE
  5
25B
330
1F
100
AcDbEntity
  8
0
  6
Continuous
 62
     7
370
    15
100
AcDbLine
 10
318.3906887235
 20
53.4745548905
 30
0.0
 11
322.1425924959
 21
52.7949576319
 31
0.0
  0
LINE
  5
25C
330
1F
100
AcDbEntity
  8
0
  6
Continuous
 62
     7
370
    15
100
AcDbLine
 10
322.0728699626
 20
51.9980137289
 30
0.0
 11
318.2599533858
 21
51.9802515448
 31
0.0
  0
LINE
  5
25D
330
1F
100
AcDbEntity
  8
0
  6
Continuous
 62
     7
370
    15
100
AcDbLine
 10
318.0080492558
 20
49.1009746731
 30
0.0
 11
321.7599530282
 21
48.4213923157
 31
0.0
  0
LINE
  5
25E
330
1F
100
AcDbEntity
  8
0
  6
Continuous
 62
     7
370
    15
100
AcDbLine
 10
321.7599530282
 20
48.4213923157
 30
0.0
 11
321.6902304949
 21
47.6244335116
 31
0.0
  0
LINE
  5
25F
330
1F
100
AcDbEntity
  8
0
  6
Continuous
 62
     7
370
    15
100
AcDbLine
 10
321.6902304949
 20
47.6244335116
 30
0.0
 11
317.8773139181
 21
47.6066862286
 31
0.0
  0
LINE
  5
260
330
1F
100
AcDbEntity
  8
0
  6
Continuous
 62
     7
370
    15
100
AcDbLine
 10
319.0252285959
 20
60.7274119795
 30
0.0
 11
318.7733244659
 21
57.8481202067
 31
0.0
  0
LINE
  5
261
330
1F
100
AcDbEntity
  8
0
  6
Continuous
 62
     7
370
    15
100
AcDbLine
 10
318.6425928535
 20
56.3538317621
 30
0.0
 11
318.3906887235
 21
53.4745548905
 31
0.0
  0
LINE
  5
262
330
1F
100
AcDbEntity
  8
0
  6
Continuous
 62
     7
370
    15
100
AcDbLine
 10
318.2599533858
 20
51.9802515448
 30
0.0
 11
318.0080492558
 21
49.1009746731
 31
0.0
  0
LINE
  5
263
330
1F
100
AcDbEntity
  8
0
  6
Continuous
 62
     7
370
    15
100
AcDbLine
 10
317.8773139181
 20
47.6066862286
 30
0.0
 11
317.6254097881
 21
44.7274093569
 31
0.0
  0
LINE
  5
264
330
1F
100
AcDbEntity
  8
0
  6
Continuous
 62
     7
370
    15
100
AcDbLine
 10
315.0252316656
 20
44.7274093569
 30
0.0
 11
315.0252316656
 21
60.7274119795
 31
0.0
  0
LINE
  5
265
330
1F
100
AcDbEntity
  8
0
  6
Continuous
 62
     7
370
    15
100
AcDbLine
 10
317.6254097881
 20
44.7274093569
 30
0.0
 11
315.0252316656
 21
44.7274093569
 31
0.0
  0
LINE
  5
266
330
1F
100
AcDbEntity
  8
0
  6
Continuous
 62
     7
370
    15
100
AcDbLine
 10
315.0252316656
 20
60.7274119795
 30
0.0
 11
319.0252285959
 21
60.7274119795
 31
0.0
  0
LINE
  5
267
330
1F
100
AcDbEntity
  8
0
  6
Continuous
 62
     7
370
    15
100
AcDbLine
 10
325.5252305927
 20
62.7274011315
 30
0.0
 11
325.5252305927
 21
60.7274119795
 31
0.0
  0
ARC
  5
268
330
1F
100
AcDbEntity
  8
0
  6
Continuous
 62
     7
370
    15
100
AcDbCircle
 10
259.655328079
 20
-155.0521330012
 30
0.0
 40
227.5231187026714
100
AcDbArc
 50
73.1714603104
 51
80.2288067045
  0
LINE
  5
269
330
1F
100
AcDbEntity
  8
0
  6
Continuous
 62
     7
370
    15
100
AcDbLine
 10
317.5252292814
 20
44.3274025858
 30
0.0
 11
317.2102708878
 21
40.7274012507
 31
0.0
  0
LINE
  5
26A
330
1F
100
AcDbEntity
  8
0
  6
Continuous
 62
     7
370
    15
100
AcDbLine
 10
315.0252316656
 20
60.7274119795
 30
0.0
 11
315.0252316656
 21
44.3274025858
 31
0.0
  0
LINE
  5
26B
330
1F
100
AcDbEntity
  8
0
  6
Continuous
 62
     7
370
    15
100
AcDbLine
 10
310.7932683589
 20
40.7274012507
 30
0.0
 11
310.1330277087
 21
59.6342031897
 31
0.0
  0
LINE
  5
26C
330
1F
100
AcDbEntity
  8
0
  6
Continuous
 62
     7
370
    15
100
AcDbLine
 10
305.1543709399
 20
40.7274012507
 30
0.0
 11
310.7932683589
 21
40.7274012507
 31
0.0
  0
ARC
  5
26D
330
1F
100
AcDbEntity
  8
0
  6
Continuous
 62
     7
370
    15
100
AcDbCircle
 10
306.1354653277
 20
59.4945991644
 30
0.0
 40
3.999999284209754
100
AcDbArc
 50
2.0000869052
 51
77.7482264144
  0
ARC
  5
26E
330
1F
100
AcDbEntity
  8
0
  6
Continuous
 62
     7
370
    15
100
AcDbCircle
 10
261.0827523092
 20
-147.3064408842
 30
0.0
 40
215.651639350088
100
AcDbArc
 50
77.7105526548
 51
80.5762867668
  0
LINE
  5
26F
330
1F
100
AcDbEntity
  8
0
  6
Continuous
 62
     7
370
    15
100
AcDbLine
 10
317.2102708878
 20
40.7274012507
 30
0.0
 11
310.7932683589
 21
40.7274012507
 31
0.0
  0
LINE
  5
270
330
1F
100
AcDbEntity
  8
0
  6
Continuous
 62
     7
370
    15
100
AcDbLine
 10
315.0252316656
 20
44.3274025858
 30
0.0
 11
317.5252292814
 21
44.3274025858
 31
0.0
  0
LINE
  5
271
330
1F
100
AcDbEntity
  8
0
  6
Continuous
 62
     7
370
    15
100
AcDbLine
 10
325.5252305927
 20
60.7274119795
 30
0.0
 11
315.0252316656
 21
60.7274119795
 31
0.0
  0
ARC
  5
272
330
1F
100
AcDbEntity
  8
0
  6
Continuous
 62
     7
370
    15
100
AcDbCircle
 10
323.2752297582
 20
58.2274086213
 30
0.0
 40
2.500003358228478
100
AcDbArc
 50
314.4269228217
 51
225.5730771783
  0
LINE
  5
273
330
1F
100
AcDbEntity
  8
0
  6
Continuous
 62
     7
370
    15
100
AcDbLine
 10
321.525229937
 20
56.4420466364
 30
0.0
 11
321.0632604124
 21
38.8001558424
 31
0.0
  0
LINE
  5
274
330
1F
100
AcDbEntity
  8
0
  6
Continuous
 62
     7
370
    15
100
AcDbLine
 10
325.0252295794
 20
56.4420466364
 30
0.0
 11
325.0252295794
 21
40.4367019475
 31
0.0
  0
LINE
  5
275
330
1F
100
AcDbEntity
  8
0
  6
Continuous
 62
     8
370
    15
100
AcDbLine
 10
310.1330277087
 20
59.6342031897
 30
0.0
 11
295.1236300679
 21
59.6342031897
 31
0.0
  0
LINE
  5
276
330
1F
100
AcDbEntity
  8
0
  6
Continuous
 62
     8
370
    15
100
AcDbLine
 10
295.7423374565
 20
63.4034966171
 30
0.0
 11
306.9842968645
 21
63.4034966171
 31
0.0
  0
INSERT
  5
298
330
1F
100
AcDbEntity
  8
0
  6
Continuous
 62
     7
370
     0
100
AcDbBlockReference
  2
SW_HATCH_0
 10
321.5038206937
 20
55.6244795264
 30
0.0
  0
MTEXT
  5
29A
330
1F
100
AcDbEntity
  8
0
  6
Continuous
 62
     7
370
     0
100
AcDbMText
 10
311.2028411452
 20
34.0939313051
 30
0.0
 40
3.5
 41
0.0
 71
     2
 72
     1
  1
B  (2 : 1)
  7
SLDTEXTSTYLE1
 73
     1
 44
1.0
  0
ENDSEC
  0
SECTION
  2
OBJECTS
  0
DICTIONARY
  5
C
330
0
100
AcDbDictionary
281
     1
  3
ACAD_GROUP
350
D
  3
ACAD_LAYOUT
350
1A
  3
ACAD_MLINESTYLE
350
17
  3
ACAD_PLOTSETTINGS
350
19
  3
ACAD_PLOTSTYLENAME
350
E
  0
DICTIONARY
  5
D
102
{ACAD_REACTORS
330
C
102
}
330
C
100
AcDbDictionary
281
     1
  0
DICTIONARY
  5
1A
102
{ACAD_REACTORS
330
C
102
}
330
C
100
AcDbDictionary
281
     1
  3
Layout1
350
1E
  3
Layout2
350
26
  3
Model
350
22
  0
DICTIONARY
  5
17
102
{ACAD_REACTORS
330
C
102
}
330
C
100
AcDbDictionary
281
     1
  3
Standard
350
18
  0
DICTIONARY
  5
19
102
{ACAD_REACTORS
330
C
102
}
330
C
100
AcDbDictionary
281
     1
  0
ACDBDICTIONARYWDFLT
  5
E
102
{ACAD_REACTORS
330
C
102
}
330
C
100
AcDbDictionary
281
     1
  3
Normal
350
F
100
AcDbDictionaryWithDefault
340
F
  0
LAYOUT
  5
1E
102
{ACAD_REACTORS
330
1A
102
}
330
1A
100
AcDbPlotSettings
  1

  2
none_device
  4

  6

 40
0.0
 41
0.0
 42
0.0
 43
0.0
 44
0.0
 45
0.0
 46
0.0
 47
0.0
 48
0.0
 49
0.0
140
0.0
141
0.0
142
1.0
143
1.0
 70
   688
 72
     0
 73
     0
 74
     5
  7

 75
    16
147
1.0
148
0.0
149
0.0
100
AcDbLayout
  1
Layout1
 70
     1
 71
     1
 10
0.0
 20
0.0
 11
420.0
 21
297.0
 12
0.0
 22
0.0
 32
0.0
 14
1.0000000000E+20
 24
1.0000000000E+20
 34
1.0000000000E+20
 15
-1.0000000000E+20
 25
-1.0000000000E+20
 35
-1.0000000000E+20
146
0.0
 13
0.0
 23
0.0
 33
0.0
 16
1.0
 26
0.0
 36
0.0
 17
0.0
 27
1.0
 37
0.0
 76
     0
330
1B
  0
LAYOUT
  5
26
102
{ACAD_REACTORS
330
1A
102
}
330
1A
100
AcDbPlotSettings
  1

  2
none_device
  4

  6

 40
0.0
 41
0.0
 42
0.0
 43
0.0
 44
0.0
 45
0.0
 46
0.0
 47
0.0
 48
0.0
 49
0.0
140
0.0
141
0.0
142
1.0
143
1.0
 70
   688
 72
     0
 73
     0
 74
     5
  7

 75
    16
147
1.0
148
0.0
149
0.0
100
AcDbLayout
  1
Layout2
 70
     1
 71
     2
 10
0.0
 20
0.0
 11
0.0
 21
0.0
 12
0.0
 22
0.0
 32
0.0
 14
0.0
 24
0.0
 34
0.0
 15
0.0
 25
0.0
 35
0.0
146
0.0
 13
0.0
 23
0.0
 33
0.0
 16
1.0
 26
0.0
 36
0.0
 17
0.0
 27
1.0
 37
0.0
 76
     0
330
23
  0
LAYOUT
  5
22
102
{ACAD_REACTORS
330
1A
102
}
330
1A
100
AcDbPlotSettings
  1

  2
none_device
  4

  6

 40
0.0
 41
0.0
 42
0.0
 43
0.0
 44
0.0
 45
0.0
 46
0.0
 47
0.0
 48
0.0
 49
0.0
140
0.0
141
0.0
142
1.0
143
1.0
 70
  1712
 72
     0
 73
     0
 74
     0
  7

 75
     0
147
1.0
148
0.0
149
0.0
100
AcDbLayout
  1
Model
 70
     1
 71
     0
 10
0.0
 20
0.0
 11
420.0
 21
297.0
 12
0.0
 22
0.0
 32
0.0
 14
0.0
 24
0.0
 34
0.0
 15
420.0
 25
297.0
 35
0.0
146
0.0
 13
0.0
 23
0.0
 33
0.0
 16
1.0
 26
0.0
 36
0.0
 17
0.0
 27
1.0
 37
0.0
 76
     0
330
1F
331
29
  0
MLINESTYLE
  5
18
102
{ACAD_REACTORS
330
17
102
}
330
17
100
AcDbMlineStyle
  2
Standard
 70
     0
  3

 62
   256
 51
90.0
 52
90.0
 71
     2
 49
0.5
 62
   256
  6
BYLAYER
 49
-0.5
 62
   256
  6
BYLAYER
  0
ACDBPLACEHOLDER
  5
F
102
{ACAD_REACTORS
330
E
102
}
330
E
  0
ENDSEC
  0
EOF
