  0
SECTION
  2
HEADER
  9
$ACADVER
  1
AC1015
  9
$ACADMAINTVER
 70
     6
  9
$DWGCODEPAGE
  3
ANSI_1252
  9
$INSBASE
 10
0.0
 20
0.0
 30
0.0
  9
$EXTMIN
 10
0.0
 20
0.0
 30
0.0
  9
$EXTMAX
 10
420.0
 20
297.0
 30
0.0
  9
$LIMMIN
 10
0.0
 20
0.0
  9
$LIMMAX
 10
420.0
 20
297.0
  9
$ORTHOMODE
 70
     0
  9
$REGENMODE
 70
     1
  9
$FILLMODE
 70
     1
  9
$QTEXTMODE
 70
     0
  9
$MIRRTEXT
 70
     1
  9
$LTSCALE
 40
1.0
  9
$ATTMODE
 70
     1
  9
$TEXTSIZE
 40
3.5
  9
$TRACEWID
 40
1.0
  9
$TEXTSTYLE
  7
Standard
  9
$CLAYER
  8
0
  9
$CELTYPE
  6
ByLayer
  9
$CECOLOR
 62
   256
  9
$CELTSCALE
 40
1.0
  9
$DISPSILH
 70
     0
  9
$DIMSCALE
 40
1.0
  9
$DIMASZ
 40
3.5
  9
$DIMEXO
 40
1.0
  9
$DIMDLI
 40
3.75
  9
$DIMRND
 40
0.0
  9
$DIMDLE
 40
0.0
  9
$DIMEXE
 40
1.0
  9
$DIMTP
 40
0.0
  9
$DIMTM
 40
0.0
  9
$DIMTXT
 40
3.5
  9
$DIMCEN
 40
2.5
  9
$DIMTSZ
 40
0.0
  9
$DIMTOL
 70
     0
  9
$DIMLIM
 70
     0
  9
$DIMTIH
 70
     1
  9
$DIMTOH
 70
     1
  9
$DIMSE1
 70
     0
  9
$DIMSE2
 70
     0
  9
$DIMTAD
 70
     1
  9
$DIMZIN
 70
     0
  9
$DIMBLK
  1

  9
$DIMASO
 70
     1
  9
$DIMSHO
 70
     1
  9
$DIMPOST
  1

  9
$DIMAPOST
  1

  9
$DIMALT
 70
     0
  9
$DIMALTD
 70
     3
  9
$DIMALTF
 40
0.0393700787
  9
$DIMLFAC
 40
1.0
  9
$DIMTOFL
 70
     1
  9
$DIMTVP
 40
0.0
  9
$DIMTIX
 70
     0
  9
$DIMSOXD
 70
     0
  9
$DIMSAH
 70
     0
  9
$DIMBLK1
  1

  9
$DIMBLK2
  1

  9
$DIMSTYLE
  2
ISO-25
  9
$DIMCLRD
 70
     0
  9
$DIMCLRE
 70
     0
  9
$DIMCLRT
 70
     0
  9
$DIMTFAC
 40
1.0
  9
$DIMGAP
 40
4.0
  9
$DIMJUST
 70
     0
  9
$DIMSD1
 70
     0
  9
$DIMSD2
 70
     0
  9
$DIMTOLJ
 70
     0
  9
$DIMTZIN
 70
     0
  9
$DIMALTZ
 70
     0
  9
$DIMALTTZ
 70
     0
  9
$DIMUPT
 70
     0
  9
$DIMDEC
 70
     1
  9
$DIMTDEC
 70
     2
  9
$DIMALTU
 70
     2
  9
$DIMALTTD
 70
     3
  9
$DIMTXSTY
  7
Standard
  9
$DIMAUNIT
 70
     0
  9
$DIMADEC
 70
     1
  9
$DIMALTRND
 40
0.0
  9
$DIMAZIN
 70
     0
  9
$DIMDSEP
 70
    44
  9
$DIMATFIT
 70
     3
  9
$DIMFRAC
 70
     0
  9
$DIMLDRBLK
  1

  9
$DIMLUNIT
 70
     2
  9
$DIMLWD
 70
    -2
  9
$DIMLWE
 70
    -2
  9
$DIMTMOVE
 70
     0
  9
$LUNITS
 70
     2
  9
$LUPREC
 70
     1
  9
$SKETCHINC
 40
1.0
  9
$FILLETRAD
 40
10.0
  9
$AUNITS
 70
     0
  9
$AUPREC
 70
     1
  9
$MENU
  1
.
  9
$ELEVATION
 40
0.0
  9
$PELEVATION
 40
0.0
  9
$THICKNESS
 40
0.0
  9
$LIMCHECK
 70
     0
  9
$CHAMFERA
 40
10.0
  9
$CHAMFERB
 40
10.0
  9
$CHAMFERC
 40
20.0
  9
$CHAMFERD
 40
0.0
  9
$SKPOLY
 70
     0
  9
$TDCREATE
 40
2456156.456926678
  9
$TDUCREATE
 40
2456156.373593345
  9
$TDUPDATE
 40
2456156.45692669
  9
$TDUUPDATE
 40
2456156.373593356
  9
$TDINDWG
 40
0.0000000116
  9
$TDUSRTIMER
 40
0.0000000116
  9
$USRTIMER
 70
     1
  9
$ANGBASE
 50
0.0
  9
$ANGDIR
 70
     0
  9
$PDMODE
 70
     0
  9
$PDSIZE
 40
-1.0
  9
$PLINEWID
 40
0.0
  9
$SPLFRAME
 70
     0
  9
$SPLINETYPE
 70
     6
  9
$SPLINESEGS
 70
     8
  9
$HANDSEED
  5
2A1
  9
$SURFTAB1
 70
     6
  9
$SURFTAB2
 70
     6
  9
$SURFTYPE
 70
     6
  9
$SURFU
 70
     6
  9
$SURFV
 70
     6
  9
$UCSBASE
  2

  9
$UCSNAME
  2

  9
$UCSORG
 10
0.0
 20
0.0
 30
0.0
  9
$UCSXDIR
 10
1.0
 20
0.0
 30
0.0
  9
$UCSYDIR
 10
0.0
 20
1.0
 30
0.0
  9
$UCSORTHOREF
  2

  9
$UCSORTHOVIEW
 70
     0
  9
$UCSORGTOP
 10
0.0
 20
0.0
 30
0.0
  9
$UCSORGBOTTOM
 10
0.0
 20
0.0
 30
0.0
  9
$UCSORGLEFT
 10
0.0
 20
0.0
 30
0.0
  9
$UCSORGRIGHT
 10
0.0
 20
0.0
 30
0.0
  9
$UCSORGFRONT
 10
0.0
 20
0.0
 30
0.0
  9
$UCSORGBACK
 10
0.0
 20
0.0
 30
0.0
  9
$PUCSBASE
  2

  9
$PUCSNAME
  2

  9
$PUCSORG
 10
0.0
 20
0.0
 30
0.0
  9
$PUCSXDIR
 10
1.0
 20
0.0
 30
0.0
  9
$PUCSYDIR
 10
0.0
 20
1.0
 30
0.0
  9
$PUCSORTHOREF
  2

  9
$PUCSORTHOVIEW
 70
     0
  9
$PUCSORGTOP
 10
0.0
 20
0.0
 30
0.0
  9
$PUCSORGBOTTOM
 10
0.0
 20
0.0
 30
0.0
  9
$PUCSORGLEFT
 10
0.0
 20
0.0
 30
0.0
  9
$PUCSORGRIGHT
 10
0.0
 20
0.0
 30
0.0
  9
$PUCSORGFRONT
 10
0.0
 20
0.0
 30
0.0
  9
$PUCSORGBACK
 10
0.0
 20
0.0
 30
0.0
  9
$USERI1
 70
     0
  9
$USERI2
 70
     0
  9
$USERI3
 70
     0
  9
$USERI4
 70
     0
  9
$USERI5
 70
     0
  9
$USERR1
 40
0.0
  9
$USERR2
 40
0.0
  9
$USERR3
 40
0.0
  9
$USERR4
 40
0.0
  9
$USERR5
 40
0.0
  9
$WORLDVIEW
 70
     1
  9
$SHADEDGE
 70
     3
  9
$SHADEDIF
 70
    70
  9
$TILEMODE
 70
     1
  9
$MAXACTVP
 70
    64
  9
$PINSBASE
 10
0.0
 20
0.0
 30
0.0
  9
$PLIMCHECK
 70
     0
  9
$PEXTMIN
 10
1.0000000000E+20
 20
1.0000000000E+20
 30
1.0000000000E+20
  9
$PEXTMAX
 10
-1.0000000000E+20
 20
-1.0000000000E+20
 30
-1.0000000000E+20
  9
$PLIMMIN
 10
0.0
 20
0.0
  9
$PLIMMAX
 10
420.0
 20
297.0
  9
$UNITMODE
 70
     0
  9
$VISRETAIN
 70
     1
  9
$PLINEGEN
 70
     0
  9
$PSLTSCALE
 70
     1
  9
$TREEDEPTH
 70
  3020
  9
$CMLSTYLE
  2
Standard
  9
$CMLJUST
 70
     0
  9
$CMLSCALE
 40
20.0
  9
$PROXYGRAPHICS
 70
     1
  9
$MEASUREMENT
 70
     1
  9
$CELWEIGHT
370
    -1
  9
$ENDCAPS
280
     0
  9
$JOINSTYLE
280
     0
  9
$LWDISPLAY
290
     1
  9
$INSUNITS
 70
     4
  9
$HYPERLINKBASE
  1

  9
$STYLESHEET
  1

  9
$XEDIT
290
     1
  9
$CEPSNTYPE
380
     0
  9
$PSTYLEMODE
290
     1
  9
$FINGERPRINTGUID
  2
{CB683938-6961-4E32-B5EF-34BD323AEA0D}
  9
$VERSIONGUID
  2
{FAEB1C32-E019-11D5-929B-00C0DF256EC4}
  9
$EXTNAMES
290
     1
  9
$PSVPSCALE
 40
0.0
  9
$OLESTARTUP
290
     0
  0
ENDSEC
  0
SECTION
  2
CLASSES
  0
CLASS
  1
ACDBDICTIONARYWDFLT
  2
AcDbDictionaryWithDefault
  3
ObjectDBX Classes
 90
        0
280
     0
281
     0
  0
CLASS
  1
VISUALSTYLE
  2
AcDbVisualStyle
  3
ObjectDBX Classes
 90
     4095
280
     0
281
     0
  0
CLASS
  1
MATERIAL
  2
AcDbMaterial
  3
ObjectDBX Classes
 90
     1153
280
     0
281
     0
  0
CLASS
  1
ACDBPLACEHOLDER
  2
AcDbPlaceHolder
  3
ObjectDBX Classes
 90
        0
280
     0
281
     0
  0
CLASS
  1
LAYOUT
  2
AcDbLayout
  3
ObjectDBX Classes
 90
        0
280
     0
281
     0
  0
ENDSEC
  0
SECTION
  2
TABLES
  0
TABLE
  2
VPORT
  5
8
330
0
100
AcDbSymbolTable
 70
     1
  0
VPORT
  5
29
330
8
100
AcDbSymbolTableRecord
100
AcDbViewportTableRecord
  2
*Active
 70
     0
 10
0.0
 20
0.0
 11
1.0
 21
1.0
 12
210.0
 22
148.5
 13
0.0
 23
0.0
 14
10.0
 24
10.0
 15
10.0
 25
10.0
 16
0.0
 26
0.0
 36
1.0
 17
0.0
 27
0.0
 37
0.0
 40
297.0
 41
1.4141414141
 42
50.0
 43
0.0
 44
0.0
 50
0.0
 51
0.0
 71
     0
 72
  2000
 73
     1
 74
     3
 75
     0
 76
     0
 77
     0
 78
     0
281
     0
 65
     1
110
0.0
120
0.0
130
0.0
111
1.0
121
0.0
131
0.0
112
0.0
122
1.0
132
0.0
 79
     0
146
0.0
  0
ENDTAB
  0
TABLE
  2
LTYPE
  5
5
330
0
100
AcDbSymbolTable
 70
     6
  0
LTYPE
  5
14
330
5
100
AcDbSymbolTableRecord
100
AcDbLinetypeTableRecord
  2
ByBlock
 70
     0
  3

 72
    65
 73
     0
 40
0.0
  0
LTYPE
  5
15
330
5
100
AcDbSymbolTableRecord
100
AcDbLinetypeTableRecord
  2
ByLayer
 70
     0
  3

 72
    65
 73
     0
 40
0.0
  0
LTYPE
  5
16
330
5
100
AcDbSymbolTableRecord
100
AcDbLinetypeTableRecord
  2
Continuous
 70
     0
  3
Solid line
 72
    65
 73
     0
 40
0.0
  0
LTYPE
  5
3F
330
5
100
AcDbSymbolTableRecord
100
AcDbLinetypeTableRecord
  2
HIDDEN
 70
     0
  3
Hidden __ __ __ __ __ __ __ __ __ __ __ __ __ __
 72
    65
 73
     2
 40
1.905
 49
1.27
 74
     0
 49
-0.635
 74
     0
  0
LTYPE
  5
40
330
5
100
AcDbSymbolTableRecord
100
AcDbLinetypeTableRecord
  2
PHANTOM
 70
     0
  3
Phantom ______  __  __  ______  __  __  ______
 72
    65
 73
     6
 40
12.7
 49
6.35
 74
     0
 49
-1.27
 74
     0
 49
1.27
 74
     0
 49
-1.27
 74
     0
 49
1.27
 74
     0
 49
-1.27
 74
     0
  0
LTYPE
  5
41
330
5
100
AcDbSymbolTableRecord
100
AcDbLinetypeTableRecord
  2
CENTER
 70
     0
  3
Center ____ _ ____ _ ____ _ ____ _ ____ _ ____
 72
    65
 73
     4
 40
10.16
 49
6.35
 74
     0
 49
-1.27
 74
     0
 49
1.27
 74
     0
 49
-1.27
 74
     0
  0
LTYPE
  5
42
330
5
100
AcDbSymbolTableRecord
100
AcDbLinetypeTableRecord
  2
CENTERX2
 70
     0
  3
Center (2x) ________  __  ________  __  _____
 72
    65
 73
     4
 40
20.32
 49
12.7
 74
     0
 49
-2.54
 74
     0
 49
2.54
 74
     0
 49
-2.54
 74
     0
  0
LTYPE
  5
43
330
5
100
AcDbSymbolTableRecord
100
AcDbLinetypeTableRecord
  2
DOT2
 70
     0
  3
Dot (.5x) ........................................
 72
    65
 73
     2
 40
0.635
 49
0.0
 74
     0
 49
-0.635
 74
     0
  0
ENDTAB
  0
TABLE
  2
LAYER
  5
2
330
0
100
AcDbSymbolTable
 70
     5
  0
LAYER
  5
10
330
2
100
AcDbSymbolTableRecord
100
AcDbLayerTableRecord
  2
0
 70
     0
 62
     7
  6
Continuous
370
    -3
390
F
  0
LAYER
  5
44
330
2
100
AcDbSymbolTableRecord
100
AcDbLayerTableRecord
  2
VORLAGE
 70
     0
 62
    -1
  6
Continuous
370
    -3
390
F
  0
LAYER
  5
45
330
2
100
AcDbSymbolTableRecord
100
AcDbLayerTableRecord
  2
RAHMEN
 70
     0
 62
   179
  6
Continuous
370
    -3
390
F
  0
LAYER
  5
46
330
2
100
AcDbSymbolTableRecord
100
AcDbLayerTableRecord
  2
KOPF
 70
     0
 62
     7
  6
Continuous
370
    -3
390
F
  0
LAYER
  5
47
330
2
100
AcDbSymbolTableRecord
100
AcDbLayerTableRecord
  2
TEMP
 70
     0
 62
     7
  6
Continuous
370
    -3
390
F
  0
ENDTAB
  0
TABLE
  2
STYLE
  5
3
330
0
100
AcDbSymbolTable
 70
     2
  0
STYLE
  5
11
330
3
100
AcDbSymbolTableRecord
100
AcDbTextStyleTableRecord
  2
Standard
 70
     0
 40
0.0
 41
1.0
 50
0.0
 71
     0
 42
2.5
  3
txt
  4

  0
STYLE
  5
A5
330
3
100
AcDbSymbolTableRecord
100
AcDbTextStyleTableRecord
  2
SLDTEXTSTYLE0
 70
     0
 40
0.0
 41
0.605
 50
0.0
 71
     0
 42
0.2
  3
TXT
  4

  0
ENDTAB
  0
TABLE
  2
VIEW
  5
6
330
0
100
AcDbSymbolTable
 70
     0
  0
ENDTAB
  0
TABLE
  2
UCS
  5
7
330
0
100
AcDbSymbolTable
 70
     0
  0
ENDTAB
  0
TABLE
  2
APPID
  5
9
330
0
100
AcDbSymbolTable
 70
     1
  0
APPID
  5
12
330
9
100
AcDbSymbolTableRecord
100
AcDbRegAppTableRecord
  2
ACAD
 70
     0
  0
ENDTAB
  0
TABLE
  2
DIMSTYLE
  5
A
330
0
100
AcDbSymbolTable
 70
     2
100
AcDbDimStyleTable
  0
DIMSTYLE
105
27
330
A
100
AcDbSymbolTableRecord
100
AcDbDimStyleTableRecord
  2
ISO-25
 70
     0
 41
2.5
 42
0.625
 43
3.75
 44
1.25
 73
     0
 74
     0
 77
     1
 78
     8
140
2.5
141
2.5
143
0.0393700787
147
0.625
171
     3
172
     1
178
     0
271
     2
272
     2
274
     3
278
    44
283
     0
284
     8
340
11
  0
DIMSTYLE
105
A6
102
{ACAD_REACTORS
330
A4
330
15C
330
168
102
}
330
A
100
AcDbSymbolTableRecord
100
AcDbDimStyleTableRecord
  2
SLDDIMSTYLE0
 70
     0
 41
3.5
 44
0.0
 45
0.000000001
 73
     0
 74
     0
 77
     1
 78
    12
 79
     3
140
3.5
147
0.875
173
     1
178
     0
271
     1
272
     2
276
     2
284
    12
340
A5
  0
ENDTAB
  0
TABLE
  2
BLOCK_RECORD
  5
1
330
0
100
AcDbSymbolTable
 70
     4
  0
BLOCK_RECORD
  5
1F
330
1
100
AcDbSymbolTableRecord
100
AcDbBlockTableRecord
  2
*Model_Space
340
22
  0
BLOCK_RECORD
  5
1B
330
1
100
AcDbSymbolTableRecord
100
AcDbBlockTableRecord
  2
*Paper_Space
340
1E
  0
BLOCK_RECORD
  5
23
330
1
100
AcDbSymbolTableRecord
100
AcDbBlockTableRecord
  2
*Paper_Space0
340
26
  0
BLOCK_RECORD
  5
A7
330
1
100
AcDbSymbolTableRecord
100
AcDbBlockTableRecord
  2
*D1
340
0
  0
BLOCK_RECORD
  5
15D
330
1
100
AcDbSymbolTableRecord
100
AcDbBlockTableRecord
  2
*D2
340
0
  0
BLOCK_RECORD
  5
169
330
1
100
AcDbSymbolTableRecord
100
AcDbBlockTableRecord
  2
*D3
340
0
  0
ENDTAB
  0
ENDSEC
  0
SECTION
  2
BLOCKS
  0
BLOCK
  5
20
330
1F
100
AcDbEntity
  8
0
100
AcDbBlockBegin
  2
*Model_Space
 70
     0
 10
0.0
 20
0.0
 30
0.0
  3
*Model_Space
  1

  0
ENDBLK
  5
21
330
1F
100
AcDbEntity
  8
0
100
AcDbBlockEnd
  0
BLOCK
  5
1C
330
1B
100
AcDbEntity
 67
     1
  8
0
100
AcDbBlockBegin
  2
*Paper_Space
 70
     0
 10
0.0
 20
0.0
 30
0.0
  3
*Paper_Space
  1

  0
ENDBLK
  5
1D
330
1B
100
AcDbEntity
 67
     1
  8
0
100
AcDbBlockEnd
  0
BLOCK
  5
24
330
23
100
AcDbEntity
  8
0
100
AcDbBlockBegin
  2
*Paper_Space0
 70
     0
 10
0.0
 20
0.0
 30
0.0
  3
*Paper_Space0
  1

  0
ENDBLK
  5
25
330
23
100
AcDbEntity
  8
0
100
AcDbBlockEnd
  0
BLOCK
  5
A8
330
A7
100
AcDbEntity
  8
0
100
AcDbBlockBegin
  2
*D1
 70
     1
 10
0.0
 20
0.0
 30
0.0
  3
*D1
  1

  0
ARC
  5
AA
330
A7
100
AcDbEntity
  8
0
  6
Continuous
 62
     7
370
     0
100
AcDbCircle
 10
23.0392818348
 20
215.1746442808
 30
0.0
 40
6.003866087856005
100
AcDbArc
 50
243.4349488229
 51
296.5650511771
  0
ARC
  5
AB
330
A7
100
AcDbEntity
  8
0
  6
Continuous
 62
     7
370
     0
100
AcDbCircle
 10
23.0392818348
 20
212.9545296442
 30
0.0
 40
6.00386608785596
100
AcDbArc
 50
63.4349488229
 51
116.5650511771
  0
SOLID
  5
AC
330
A7
100
AcDbEntity
  8
0
  6
Continuous
 62
     7
370
     0
100
AcDbTrace
 10
25.7242923749
 20
247.5245776753
 30
0.0
 11
24.8242923749
 21
244.0245776753
 31
0.0
 12
26.6242923749
 22
244.0245776753
 32
0.0
 13
26.6242923749
 23
244.0245776753
 33
0.0
  0
SOLID
  5
AD
330
A7
100
AcDbEntity
  8
0
  6
Continuous
 62
     7
370
     0
100
AcDbTrace
 10
25.7242923749
 20
184.5245776753
 30
0.0
 11
26.6242923749
 21
188.0245776753
 31
0.0
 12
24.8242923749
 22
188.0245776753
 32
0.0
 13
24.8242923749
 23
188.0245776753
 33
0.0
  0
LINE
  5
AE
330
A7
100
AcDbEntity
  8
0
  6
Continuous
 62
     7
370
     0
100
AcDbLine
 10
34.9579181468
 20
247.5245776753
 30
0.0
 11
24.7242923749
 21
247.5245776753
 31
0.0
  0
LINE
  5
AF
330
A7
100
AcDbEntity
  8
0
  6
Continuous
 62
     7
370
     0
100
AcDbLine
 10
69.6937115176
 20
184.5245776753
 30
0.0
 11
24.7242923749
 21
184.5245776753
 31
0.0
  0
LINE
  5
B0
330
A7
100
AcDbEntity
  8
0
  6
Continuous
 62
     7
370
     0
100
AcDbLine
 10
25.7242923749
 20
247.5245776753
 30
0.0
 11
25.7242923749
 21
184.5245776753
 31
0.0
  0
MTEXT
  5
B1
330
A7
100
AcDbEntity
  8
0
  6
Continuous
 62
     7
370
     0
100
AcDbMText
 10
21.2125550529
 20
211.3921232007
 30
0.0
 40
3.5
 41
0.0
 71
     1
 72
     1
  1
63
  7
SLDTEXTSTYLE0
 11
-7.044195017643634E-15
 21
1.0
 31
0.0
 73
     1
 44
1.0
  0
ENDBLK
  5
A9
330
A7
100
AcDbEntity
  8
0
100
AcDbBlockEnd
  0
BLOCK
  5
15E
330
15D
100
AcDbEntity
  8
0
100
AcDbBlockBegin
  2
*D2
 70
     1
 10
0.0
 20
0.0
 30
0.0
  3
*D2
  1

  0
ARC
  5
160
330
15D
100
AcDbEntity
  8
0
  6
Continuous
 62
     7
370
     0
100
AcDbCircle
 10
22.5401854493
 20
92.2216549376
 30
0.0
 40
6.003866087855973
100
AcDbArc
 50
243.4349488229
 51
296.5650511771
  0
ARC
  5
161
330
15D
100
AcDbEntity
  8
0
  6
Continuous
 62
     7
370
     0
100
AcDbCircle
 10
22.5401854493
 20
94.0133726384
 30
0.0
 40
6.003866087855981
100
AcDbArc
 50
63.4349488229
 51
116.5650511771
  0
SOLID
  5
162
330
15D
100
AcDbEntity
  8
0
  6
Continuous
 62
     7
370
     0
100
AcDbTrace
 10
25.2251959894
 20
141.5868938471
 30
0.0
 11
24.3251959894
 21
138.0868938471
 31
0.0
 12
26.1251959894
 22
138.0868938471
 32
0.0
 13
26.1251959894
 23
138.0868938471
 33
0.0
  0
SOLID
  5
163
330
15D
100
AcDbEntity
  8
0
  6
Continuous
 62
     7
370
     0
100
AcDbTrace
 10
25.2251959894
 20
42.6511004764
 30
0.0
 11
26.1251959894
 21
46.1511004764
 31
0.0
 12
24.3251959894
 22
46.1511004764
 32
0.0
 13
24.3251959894
 23
46.1511004764
 33
0.0
  0
LINE
  5
164
330
15D
100
AcDbEntity
  8
0
  6
Continuous
 62
     7
370
     0
100
AcDbLine
 10
69.6937115176
 20
141.5868938471
 30
0.0
 11
24.2251959894
 21
141.5868938471
 31
0.0
  0
LINE
  5
165
330
15D
100
AcDbEntity
  8
0
  6
Continuous
 62
     7
370
     0
100
AcDbLine
 10
48.3937115214
 20
42.6511004764
 30
0.0
 11
24.2251959894
 21
42.6511004764
 31
0.0
  0
LINE
  5
166
330
15D
100
AcDbEntity
  8
0
  6
Continuous
 62
     7
370
     0
100
AcDbLine
 10
25.2251959894
 20
141.5868938471
 30
0.0
 11
25.2251959894
 21
42.6511004764
 31
0.0
  0
MTEXT
  5
167
330
15D
100
AcDbEntity
  8
0
  6
Continuous
 62
     7
370
     0
100
AcDbMText
 10
20.7134586674
 20
88.4391338575
 30
0.0
 40
3.5
 41
0.0
 71
     1
 72
     1
  1
98.9
  7
SLDTEXTSTYLE0
 11
-7.044195017643634E-15
 21
1.0
 31
0.0
 73
     1
 44
1.0
  0
ENDBLK
  5
15F
330
15D
100
AcDbEntity
  8
0
100
AcDbBlockEnd
  0
BLOCK
  5
16A
330
169
100
AcDbEntity
  8
0
100
AcDbBlockBegin
  2
*D3
 70
     1
 10
0.0
 20
0.0
 30
0.0
  3
*D3
  1

  0
ARC
  5
16C
330
169
100
AcDbEntity
  8
0
  6
Continuous
 62
     7
370
     0
100
AcDbCircle
 10
94.3706724415
 20
36.5076370646
 30
0.0
 40
6.003866087855946
100
AcDbArc
 50
153.4349488229
 51
206.5650511771
  0
ARC
  5
16D
330
169
100
AcDbEntity
  8
0
  6
Continuous
 62
     7
370
     0
100
AcDbCircle
 10
98.8348539041
 20
36.5076370646
 30
0.0
 40
6.003866087855946
100
AcDbArc
 50
333.4349488229
 51
26.5650511771
  0
SOLID
  5
16E
330
169
100
AcDbEntity
  8
0
  6
Continuous
 62
     7
370
     0
100
AcDbTrace
 10
34.4579181468
 20
33.8226265246
 30
0.0
 11
37.9579181468
 21
32.9226265246
 31
0.0
 12
37.9579181468
 22
34.7226265246
 32
0.0
 13
37.9579181468
 23
34.7226265246
 33
0.0
  0
SOLID
  5
16F
330
169
100
AcDbEntity
  8
0
  6
Continuous
 62
     7
370
     0
100
AcDbTrace
 10
158.3295048883
 20
33.8226265246
 30
0.0
 11
154.8295048883
 21
34.7226265246
 31
0.0
 12
154.8295048883
 22
32.9226265246
 32
0.0
 13
154.8295048883
 23
32.9226265246
 33
0.0
  0
LINE
  5
170
330
169
100
AcDbEntity
  8
0
  6
Continuous
 62
     7
370
     0
100
AcDbLine
 10
34.4579181468
 20
56.5868938444
 30
0.0
 11
34.4579181468
 21
32.8226265246
 31
0.0
  0
LINE
  5
171
330
169
100
AcDbEntity
  8
0
  6
Continuous
 62
     7
370
     0
100
AcDbLine
 10
158.3295048883
 20
56.5868938471
 30
0.0
 11
158.3295048883
 21
32.8226265246
 31
0.0
  0
LINE
  5
172
330
169
100
AcDbEntity
  8
0
  6
Continuous
 62
     7
370
     0
100
AcDbLine
 10
34.4579181468
 20
33.8226265246
 30
0.0
 11
158.3295048883
 21
33.8226265246
 31
0.0
  0
MTEXT
  5
173
330
169
100
AcDbEntity
  8
0
  6
Continuous
 62
     7
370
     0
100
AcDbMText
 10
90.5881513614
 20
38.3343638466
 30
0.0
 40
3.5
 41
0.0
 71
     1
 72
     1
  1
123.9
  7
SLDTEXTSTYLE0
 73
     1
 44
1.0
  0
ENDBLK
  5
16B
330
169
100
AcDbEntity
  8
0
100
AcDbBlockEnd
  0
ENDSEC
  0
SECTION
  2
ENTITIES
  0
LINE
  5
48
330
1F
100
AcDbEntity
  8
0
  6
Continuous
 62
     7
370
    30
100
AcDbLine
 10
156.8295058114
 20
247.5245771091
 30
0.0
 11
143.3937099082
 21
247.5245771091
 31
0.0
  0
LINE
  5
49
330
1F
100
AcDbEntity
  8
0
  6
Continuous
 62
     7
370
    30
100
AcDbLine
 10
143.3937099082
 20
247.5245771091
 30
0.0
 11
49.3937131269
 21
247.5245771091
 31
0.0
  0
LINE
  5
4A
330
1F
100
AcDbEntity
  8
0
  6
Continuous
 62
     7
370
    30
100
AcDbLine
 10
49.3937131269
 20
247.5245771091
 30
0.0
 11
35.9579172237
 21
247.5245771091
 31
0.0
  0
LWPOLYLINE
  5
4B
330
1F
100
AcDbEntity
  8
0
  6
Continuous
 62
     7
370
    30
100
AcDbPolyline
 90
        3
 70
   128
 43
0.0
 10
128.3764425916
 20
232.9348650853
 10
138.8342079027
 20
234.2234523128
 10
149.3937108917
 20
235.5245770048
  0
LWPOLYLINE
  5
4C
330
1F
100
AcDbEntity
  8
0
  6
Continuous
 62
     7
370
    30
100
AcDbPolyline
 90
        3
 70
   128
 43
0.0
 10
43.3937121434
 20
235.5245770048
 10
53.9532151325
 20
234.2234523128
 10
64.4477304323
 20
232.930336995
  0
ARC
  5
4D
330
1F
100
AcDbEntity
  8
0
  6
Continuous
 62
     7
370
    30
100
AcDbCircle
 10
156.8295048883
 20
246.0245776753
 30
0.0
 40
1.5
100
AcDbArc
 50
318.0
 51
90.0
  0
ARC
  5
4E
330
1F
100
AcDbEntity
  8
0
  6
Continuous
 62
     7
370
    30
100
AcDbCircle
 10
35.9579181468
 20
246.0245776753
 30
0.0
 40
1.500000000000021
100
AcDbArc
 50
90.0
 51
222.0
  0
SPLINE
  5
4F
330
1F
100
AcDbEntity
  8
0
  6
Continuous
 62
     7
370
    30
100
AcDbSpline
210
0.0
220
0.0
230
1.0
 70
     8
 71
     3
 72
    17
 73
    13
 74
     0
 42
0.00000001
 43
0.00000001
 40
0.0
 40
0.0
 40
0.0
 40
0.0
 40
0.0957242939037197
 40
0.1936969024948625
 40
0.2995272474545763
 40
0.408425480149582
 40
0.5142609544081007
 40
0.6231643578656876
 40
0.7289701526789757
 40
0.8378338249347735
 40
0.918266663059961
 40
0.9999999999999999
 40
0.9999999999999999
 40
0.9999999999999999
 40
0.9999999999999999
 10
43.39371214340398
 20
235.5245770047505
 30
0.0
 10
43.40681901052214
 20
235.5245720231331
 30
0.0
 10
43.43334059097646
 20
235.524561942893
 30
0.0
 10
43.65399121648896
 20
235.5245820124081
 30
0.0
 10
44.02403585009516
 20
235.5245732123034
 30
0.0
 10
44.55830142357944
 20
235.524575520638
 30
0.0
 10
45.23447647647092
 20
235.524564587972
 30
0.0
 10
46.02223004553674
 20
235.5246408729576
 30
0.0
 10
46.91311901978924
 20
235.5243285173781
 30
0.0
 10
47.79047342858629
 20
235.5252433545921
 30
0.0
 10
48.62782800942976
 20
235.5236398208442
 30
0.0
 10
49.13705682672114
 20
235.5242629443928
 30
0.0
 10
49.39371312688062
 20
235.5245770047505
 30
0.0
  0
LINE
  5
50
330
1F
100
AcDbEntity
  8
0
  6
Continuous
 62
     7
370
    30
100
AcDbLine
 10
34.843202333
 20
245.02088028
 30
0.0
 11
43.3937121434
 21
235.5245770048
 31
0.0
  0
LINE
  5
51
330
1F
100
AcDbEntity
  8
0
  6
Continuous
 62
     7
370
    30
100
AcDbLine
 10
157.9442207022
 20
245.02088028
 30
0.0
 11
149.3937108917
 21
235.5245770048
 31
0.0
  0
SPLINE
  5
52
330
1F
100
AcDbEntity
  8
0
  6
Continuous
 62
     7
370
    30
100
AcDbSpline
210
0.0
220
0.0
230
1.0
 70
     8
 71
     3
 72
    17
 73
    13
 74
     0
 42
0.00000001
 43
0.00000001
 40
0.0
 40
0.0
 40
0.0
 40
0.0
 40
0.0678547062465202
 40
0.1364820107607847
 40
0.2417605638004639
 40
0.3500795506637811
 40
0.4556287334065193
 40
0.564224474013703
 40
0.6700359425666793
 40
0.7789143913541935
 40
0.8877820476952033
 40
1.0
 40
1.0
 40
1.0
 40
1.0
 10
143.3937099082298
 20
235.5245770047505
 30
0.0
 10
143.6067328889542
 20
235.524276923908
 30
0.0
 10
144.0352043444474
 20
235.5236733454821
 30
0.0
 10
144.7856237795263
 20
235.5249577029946
 30
0.0
 10
145.6365814330481
 20
235.5245188213208
 30
0.0
 10
146.5361228739545
 20
235.5245116829026
 30
0.0
 10
147.3560322918182
 20
235.524636974314
 30
0.0
 10
148.0580927590073
 20
235.5245372146566
 30
0.0
 10
148.6355428283341
 20
235.5245987545319
 30
0.0
 10
149.0608337117889
 20
235.5245636943394
 30
0.0
 10
149.3403852315948
 20
235.5245860409699
 30
0.0
 10
149.3757569989669
 20
235.5245800471003
 30
0.0
 10
149.3937108917064
 20
235.5245770047505
 30
0.0
  0
LINE
  5
53
330
1F
100
AcDbEntity
  8
0
  6
Continuous
 62
     7
370
    30
100
AcDbLine
 10
49.3937131269
 20
235.5245770048
 30
0.0
 11
143.3937099082
 21
235.5245770048
 31
0.0
  0
SPLINE
  5
54
330
1F
100
AcDbEntity
  8
0
  6
Continuous
 62
     7
370
    30
100
AcDbSpline
210
0.0
220
0.0
230
1.0
 70
     8
 71
     3
 72
     9
 73
     5
 74
     0
 42
0.00000001
 43
0.00000001
 40
0.0
 40
0.0
 40
0.0
 40
0.0
 40
0.8539733862773734
 40
0.9999999999999999
 40
0.9999999999999999
 40
0.9999999999999999
 40
0.9999999999999999
 10
64.41098044346045
 20
232.9348650853236
 30
0.0
 10
64.41178480221737
 20
232.9340310935224
 30
0.0
 10
64.41272670365115
 20
232.9330544918922
 30
0.0
 10
64.44330276627223
 20
232.9309546844727
 30
0.0
 10
64.44776768515776
 20
232.9306480567057
 30
0.0
  0
ARC
  5
55
330
1F
100
AcDbEntity
  8
0
  6
Continuous
 62
     7
370
    30
100
AcDbCircle
 10
128.8656166774
 20
228.9648891924
 30
0.0
 40
4.000000000000012
100
AcDbArc
 50
97.024482183
 51
177.0
  0
ARC
  5
56
330
1F
100
AcDbEntity
  8
0
  6
Continuous
 62
     7
370
    30
100
AcDbCircle
 10
63.9218063577
 20
228.9648891924
 30
0.0
 40
4.000000000000017
100
AcDbArc
 50
3.0
 51
82.975517817
  0
LINE
  5
57
330
1F
100
AcDbEntity
  8
0
  6
Continuous
 62
     7
370
    30
100
AcDbLine
 10
124.8710990203
 20
229.1742329578
 30
0.0
 11
124.8370517297
 21
228.52457772
 31
0.0
  0
LINE
  5
58
330
1F
100
AcDbEntity
  8
0
  6
Continuous
 62
     7
370
    30
100
AcDbLine
 10
67.9503713054
 20
228.52457772
 30
0.0
 11
67.9163240148
 21
229.1742329578
 31
0.0
  0
LINE
  5
59
330
1F
100
AcDbEntity
  8
0
  6
Continuous
 62
     7
370
    30
100
AcDbLine
 10
70.6888117148
 20
203.3937377016
 30
0.0
 11
70.5247313036
 21
206.5245777228
 31
0.0
  0
LINE
  5
5A
330
1F
100
AcDbEntity
  8
0
  6
Continuous
 62
     7
370
    30
100
AcDbLine
 10
122.2626917316
 20
206.5245777228
 30
0.0
 11
122.0986113204
 21
203.3937377016
 31
0.0
  0
LINE
  5
5B
330
1F
100
AcDbEntity
  8
0
  6
Continuous
 62
     7
370
    30
100
AcDbLine
 10
116.1068339152
 20
201.024577869
 30
0.0
 11
76.6805891199
 21
201.024577869
 31
0.0
  0
LINE
  5
5C
330
1F
100
AcDbEntity
  8
0
  6
Continuous
 62
     7
370
    30
100
AcDbLine
 10
119.6020372463
 20
201.024577869
 30
0.0
 11
116.1068339152
 21
201.024577869
 31
0.0
  0
ARC
  5
5D
330
1F
100
AcDbEntity
  8
0
  6
Continuous
 62
     7
370
    30
100
AcDbCircle
 10
119.6020378665
 20
203.5245776753
 30
0.0
 40
2.500000000000005
100
AcDbArc
 50
270.0
 51
357.0
  0
LINE
  5
5E
330
1F
100
AcDbEntity
  8
0
  6
Continuous
 62
     7
370
    30
100
AcDbLine
 10
76.6805891199
 20
201.024577869
 30
0.0
 11
73.1853857888
 21
201.024577869
 31
0.0
  0
ARC
  5
5F
330
1F
100
AcDbEntity
  8
0
  6
Continuous
 62
     7
370
    30
100
AcDbCircle
 10
73.1853851686
 20
203.5245776753
 30
0.0
 40
2.500000000000005
100
AcDbArc
 50
183.0
 51
270.0
  0
LINE
  5
60
330
1F
100
AcDbEntity
  8
0
  6
Continuous
 62
     7
370
    30
100
AcDbLine
 10
63.8937127096
 20
228.52457772
 30
0.0
 11
63.8937127096
 21
206.5245777228
 31
0.0
  0
LINE
  5
61
330
1F
100
AcDbEntity
  8
0
  6
Continuous
 62
     7
370
    30
100
AcDbLine
 10
63.8937127096
 20
228.52457772
 30
0.0
 11
69.8937118305
 21
228.52457772
 31
0.0
  0
LINE
  5
62
330
1F
100
AcDbEntity
  8
0
  6
Continuous
 62
     7
370
    30
100
AcDbLine
 10
63.8937127096
 20
206.5245777228
 30
0.0
 11
69.8937118305
 21
206.5245777228
 31
0.0
  0
LINE
  5
63
330
1F
100
AcDbEntity
  8
0
  6
Continuous
 62
     7
370
    30
100
AcDbLine
 10
122.8937112046
 20
228.52457772
 30
0.0
 11
128.8937103255
 21
228.52457772
 31
0.0
  0
LINE
  5
64
330
1F
100
AcDbEntity
  8
0
  6
Continuous
 62
     7
370
    30
100
AcDbLine
 10
128.8937103255
 20
228.52457772
 30
0.0
 11
128.8937103255
 21
206.5245777228
 31
0.0
  0
LINE
  5
65
330
1F
100
AcDbEntity
  8
0
  6
Continuous
 62
     7
370
    30
100
AcDbLine
 10
122.8937112046
 20
206.5245777228
 30
0.0
 11
128.8937103255
 21
206.5245777228
 31
0.0
  0
LINE
  5
66
330
1F
100
AcDbEntity
  8
0
  6
Continuous
 62
     7
370
    30
100
AcDbLine
 10
69.8937118305
 20
228.52457772
 30
0.0
 11
122.8937112046
 21
228.52457772
 31
0.0
  0
LINE
  5
67
330
1F
100
AcDbEntity
  8
0
  6
Continuous
 62
     7
370
    30
100
AcDbLine
 10
69.8937118305
 20
206.5245777228
 30
0.0
 11
122.8937112046
 21
206.5245777228
 31
0.0
  0
ELLIPSE
  5
68
330
1F
100
AcDbEntity
  8
0
  6
Continuous
 62
     7
370
    30
100
AcDbEllipse
 10
70.6937115176
 20
205.7740223254
 30
0.0
 11
0.3000000000000114
 21
0.0
 31
0.0
210
0.0
220
0.0
230
1.0
 40
0.5773502692
 41
2.047703340550111
 42
3.141592653589793
  0
LINE
  5
69
330
1F
100
AcDbEntity
  8
0
  6
Continuous
 62
     7
370
    30
100
AcDbLine
 10
70.3937109811
 20
205.7740223279
 30
0.0
 11
70.3937109811
 21
206.2245776503
 31
0.0
  0
ARC
  5
6A
330
1F
100
AcDbEntity
  8
0
  6
Continuous
 62
     7
370
    30
100
AcDbCircle
 10
70.6937115176
 20
206.2245776753
 30
0.0
 40
0.3000000000000024
100
AcDbArc
 50
123.6745284734
 51
180.0
  0
ARC
  5
6B
330
1F
100
AcDbEntity
  8
0
  6
Continuous
 62
     7
370
    30
100
AcDbCircle
 10
70.6937115176
 20
203.3245776753
 30
0.0
 40
0.3000000000000114
100
AcDbArc
 50
180.0
 51
270.0
  0
LINE
  5
6C
330
1F
100
AcDbEntity
  8
0
  6
Continuous
 62
     7
370
    30
100
AcDbLine
 10
70.3937109811
 20
203.3245776872
 30
0.0
 11
70.3937109811
 21
205.7740223279
 31
0.0
  0
LINE
  5
6D
330
1F
100
AcDbEntity
  8
0
  6
Continuous
 62
     7
370
    30
100
AcDbLine
 10
122.393712054
 20
205.7740223279
 30
0.0
 11
122.393712054
 21
203.3245776872
 31
0.0
  0
ARC
  5
6E
330
1F
100
AcDbEntity
  8
0
  6
Continuous
 62
     7
370
    30
100
AcDbCircle
 10
122.0937115176
 20
203.3245776753
 30
0.0
 40
0.3000000000000114
100
AcDbArc
 50
270.0
 51
0.0
  0
ELLIPSE
  5
6F
330
1F
100
AcDbEntity
  8
0
  6
Continuous
 62
     7
370
    30
100
AcDbEllipse
 10
122.0937115176
 20
205.7740223254
 30
0.0
 11
0.2999999999999829
 21
0.0
 31
0.0
210
0.0
220
0.0
230
1.0
 40
0.5773502692
 41
0.0
 42
1.093889313046252
  0
ARC
  5
70
330
1F
100
AcDbEntity
  8
0
  6
Continuous
 62
     7
370
    30
100
AcDbCircle
 10
122.0937115176
 20
206.2245776753
 30
0.0
 40
0.2999999999999951
100
AcDbArc
 50
0.0
 51
56.325471527
  0
LINE
  5
71
330
1F
100
AcDbEntity
  8
0
  6
Continuous
 62
     7
370
    30
100
AcDbLine
 10
122.393712054
 20
206.2245776503
 30
0.0
 11
122.393712054
 21
205.7740223279
 31
0.0
  0
LINE
  5
72
330
1F
100
AcDbEntity
  8
0
  6
Continuous
 62
     7
370
    30
100
AcDbLine
 10
70.3937109811
 20
200.0245777051
 30
0.0
 11
70.3937109811
 21
203.3245776872
 31
0.0
  0
LINE
  5
73
330
1F
100
AcDbEntity
  8
0
  6
Continuous
 62
     7
370
    30
100
AcDbLine
 10
122.393712054
 20
203.3245776872
 30
0.0
 11
122.393712054
 21
200.0245777051
 31
0.0
  0
LINE
  5
74
330
1F
100
AcDbEntity
  8
0
  6
Continuous
 62
     7
370
    30
100
AcDbLine
 10
70.3937109811
 20
206.2245776503
 30
0.0
 11
70.3937109811
 21
206.5245777228
 31
0.0
  0
LINE
  5
75
330
1F
100
AcDbEntity
  8
0
  6
Continuous
 62
     7
370
    30
100
AcDbLine
 10
70.3937109811
 20
184.8245774488
 30
0.0
 11
70.3937109811
 21
200.0245777051
 31
0.0
  0
LINE
  5
76
330
1F
100
AcDbEntity
  8
0
  6
Continuous
 62
     7
370
    30
100
AcDbLine
 10
122.393712054
 20
206.5245777228
 30
0.0
 11
122.393712054
 21
206.2245776503
 31
0.0
  0
LINE
  5
77
330
1F
100
AcDbEntity
  8
0
  6
Continuous
 62
     7
370
    30
100
AcDbLine
 10
122.393712054
 20
200.0245777051
 30
0.0
 11
122.393712054
 21
184.8245774488
 31
0.0
  0
ARC
  5
78
330
1F
100
AcDbEntity
  8
0
  6
Continuous
 62
     7
370
    30
100
AcDbCircle
 10
122.0937115176
 20
184.8245776753
 30
0.0
 40
0.2999999999999829
100
AcDbArc
 50
270.0
 51
0.0
  0
ARC
  5
79
330
1F
100
AcDbEntity
  8
0
  6
Continuous
 62
     7
370
    30
100
AcDbCircle
 10
70.6937115176
 20
184.8245776753
 30
0.0
 40
0.2999999999999972
100
AcDbArc
 50
180.0
 51
270.0
  0
LINE
  5
7A
330
1F
100
AcDbEntity
  8
0
  6
Continuous
 62
     7
370
    30
100
AcDbLine
 10
122.093710701
 20
184.5245779584
 30
0.0
 11
70.6937123341
 21
184.5245779584
 31
0.0
  0
LINE
  5
7B
330
1F
100
AcDbEntity
  8
0
  6
Continuous
 62
     8
370
     0
100
AcDbLine
 10
143.3937099082
 20
245.02088028
 30
0.0
 11
157.9442207022
 21
245.02088028
 31
0.0
  0
LINE
  5
7C
330
1F
100
AcDbEntity
  8
0
  6
Continuous
 62
     8
370
     0
100
AcDbLine
 10
143.3937099082
 20
247.5245771091
 30
0.0
 11
143.3937099082
 21
245.02088028
 31
0.0
  0
LINE
  5
7D
330
1F
100
AcDbEntity
  8
0
  6
Continuous
 62
     8
370
     0
100
AcDbLine
 10
143.3937099082
 20
245.02088028
 30
0.0
 11
49.3937131269
 21
245.02088028
 31
0.0
  0
LINE
  5
7E
330
1F
100
AcDbEntity
  8
0
  6
Continuous
 62
     8
370
     0
100
AcDbLine
 10
49.3937131269
 20
247.5245771091
 30
0.0
 11
49.3937131269
 21
245.02088028
 31
0.0
  0
LINE
  5
7F
330
1F
100
AcDbEntity
  8
0
  6
Continuous
 62
     8
370
     0
100
AcDbLine
 10
34.843202333
 20
245.02088028
 30
0.0
 11
49.3937131269
 21
245.02088028
 31
0.0
  0
LINE
  5
80
330
1F
100
AcDbEntity
  8
0
  6
Continuous
 62
     8
370
     0
100
AcDbLine
 10
49.3937131269
 20
245.02088028
 30
0.0
 11
49.3937131269
 21
235.5245770048
 31
0.0
  0
LINE
  5
81
330
1F
100
AcDbEntity
  8
0
  6
Continuous
 62
     8
370
     0
100
AcDbLine
 10
143.3937099082
 20
245.02088028
 30
0.0
 11
143.3937099082
 21
235.5245770048
 31
0.0
  0
SPLINE
  5
82
330
1F
100
AcDbEntity
  8
0
  6
Continuous
 62
     8
370
     0
100
AcDbSpline
210
0.0
220
0.0
230
1.0
 70
     8
 71
     3
 72
    13
 73
     9
 74
     0
 42
0.00000001
 43
0.00000001
 40
0.0
 40
0.0
 40
0.0
 40
0.0
 40
0.1212907374175143
 40
0.3681206729477532
 40
0.6160534173371178
 40
0.8629847550305902
 40
0.9999896349371382
 40
1.0
 40
1.0
 40
1.0
 40
1.0
 10
118.9453579736776
 20
233.6261765192349
 30
0.0
 10
119.1228853451839
 20
233.624384724741
 30
0.0
 10
119.6616857256333
 20
233.6189465799252
 30
0.0
 10
120.558812259947
 20
233.5528466067844
 30
0.0
 10
121.6073156535158
 20
233.4064808159136
 30
0.0
 10
122.4729948691791
 20
233.2153907884826
 30
0.0
 10
122.9568746102783
 20
233.0852489050511
 30
0.0
 10
123.1374377015109
 20
233.0277967980117
 30
0.0
 10
123.1374513609237
 20
233.0277924518187
 30
0.0
  0
LINE
  5
83
330
1F
100
AcDbEntity
  8
0
  6
Continuous
 62
     8
370
     0
100
AcDbLine
 10
73.8420650614
 20
233.6261765192
 30
0.0
 11
118.9453579737
 21
233.6261765192
 31
0.0
  0
SPLINE
  5
84
330
1F
100
AcDbEntity
  8
0
  6
Continuous
 62
     8
370
     0
100
AcDbSpline
210
0.0
220
0.0
230
1.0
 70
     8
 71
     3
 72
    14
 73
    10
 74
     0
 42
0.00000001
 43
0.00000001
 40
0.0
 40
0.0
 40
0.0
 40
0.0
 40
0.0000133566188133
 40
0.1493248124600961
 40
0.2994815328518332
 40
0.4715784117520474
 40
0.6436675005218657
 40
0.8218337266128574
 40
1.0
 40
1.0
 40
1.0
 40
1.0
 10
69.64997167418669
 20
233.0277924518187
 30
0.0
 10
69.64998905888636
 20
233.0277974188735
 30
0.0
 10
69.84434715615635
 20
233.0833282787954
 30
0.0
 10
70.22541299008161
 20
233.1938845572423
 30
0.0
 10
70.86209646477543
 20
233.3377563326891
 30
0.0
 10
71.5476011894638
 20
233.4606791782944
 30
0.0
 10
72.29231153931862
 20
233.5545508533598
 30
0.0
 10
73.05921436990337
 20
233.6147657380058
 30
0.0
 10
73.58111480783232
 20
233.6223729251553
 30
0.0
 10
73.84206506143282
 20
233.6261765192349
 30
0.0
  0
ARC
  5
85
330
1F
100
AcDbEntity
  8
0
  6
Continuous
 62
     8
370
     0
100
AcDbCircle
 10
67.9836184918
 20
182.9222510032
 30
0.0
 40
50.13324263184619
100
AcDbArc
 50
88.0952240799
 51
94.0443756077
  0
LWPOLYLINE
  5
86
330
1F
100
AcDbEntity
  8
0
  6
Continuous
 62
     8
370
     0
100
AcDbPolyline
 90
        2
 70
   128
 43
0.0
 10
128.3764425916
 20
232.9348650853
 10
128.3764425916
 20
232.9348650853
  0
SPLINE
  5
87
330
1F
100
AcDbEntity
  8
0
  6
Continuous
 62
     8
370
     0
100
AcDbSpline
210
0.0
220
0.0
230
1.0
 70
     8
 71
     3
 72
    21
 73
    17
 74
     0
 42
0.00000001
 43
0.00000001
 40
0.0
 40
0.0
 40
0.0
 40
0.0
 40
0.0000061017949068
 40
0.0289462481588556
 40
0.0876053659141368
 40
0.1460082698790325
 40
0.2054258202670848
 40
0.2698084647989203
 40
0.3346488296715971
 40
0.3993582824330891
 40
0.5012479627880381
 40
0.6062266386902456
 40
0.7116386123727125
 40
0.8166766719259364
 40
0.9083220455068044
 40
1.0
 40
1.0
 40
1.0
 40
1.0
 10
123.1374513609237
 20
233.0277924518187
 30
0.0
 10
123.1374712291471
 20
233.0277936935938
 30
0.0
 10
123.2317239094718
 20
233.033684538872
 30
0.0
 10
123.5152481220108
 20
233.0491324967479
 30
0.0
 10
123.9932606752096
 20
233.0643431998104
 30
0.0
 10
124.5661640950846
 20
233.0601459501333
 30
0.0
 10
125.1180950691186
 20
233.0366852871065
 30
0.0
 10
125.6346067203998
 20
233.0115020409943
 30
0.0
 10
126.1093671975734
 20
232.9874483767675
 30
0.0
 10
126.6170188645399
 20
232.9636346992774
 30
0.0
 10
127.1340568229883
 20
232.9443769185652
 30
0.0
 10
127.6143023735944
 20
232.9301119452333
 30
0.0
 10
127.9843611597606
 20
232.9237699868625
 30
0.0
 10
128.2248050368601
 20
232.9230318676115
 30
0.0
 10
128.3550531567069
 20
232.9311505176486
 30
0.0
 10
128.3693119352944
 20
232.9336267494035
 30
0.0
 10
128.37644259165
 20
232.9348650853236
 30
0.0
  0
SPLINE
  5
88
330
1F
100
AcDbEntity
  8
0
  6
Continuous
 62
     8
370
     0
100
AcDbSpline
210
0.0
220
0.0
230
1.0
 70
     8
 71
     3
 72
    20
 73
    16
 74
     0
 42
0.00000001
 43
0.00000001
 40
0.0
 40
0.0
 40
0.0
 40
0.0
 40
0.0590075642705201
 40
0.1180199350284168
 40
0.2236758753668527
 40
0.3293315865453934
 40
0.4358699759217145
 40
0.5423610251133965
 40
0.6143847863009025
 40
0.686871527757278
 40
0.7591877347521138
 40
0.831736715889772
 40
0.9042352199479644
 40
0.9664518011512565
 40
0.9999999999999999
 40
0.9999999999999999
 40
0.9999999999999999
 40
0.9999999999999999
 10
124.8710990203447
 20
229.1742329578001
 30
0.0
 10
124.866236062564
 20
229.1791693201475
 30
0.0
 10
124.8565097508882
 20
229.1890424469356
 30
0.0
 10
124.7544235095097
 20
229.1993438950035
 30
0.0
 10
124.5250415087587
 20
229.2244115815871
 30
0.0
 10
124.0974065576924
 20
229.2654693539554
 30
0.0
 10
123.5193735863411
 20
229.3261444875309
 30
0.0
 10
122.8882731289672
 20
229.4121182606958
 30
0.0
 10
122.2739723008015
 20
229.5835058254791
 30
0.0
 10
121.7195765585556
 20
229.8007408988843
 30
0.0
 10
121.1420572362897
 20
230.0525246509032
 30
0.0
 10
120.5223261305808
 20
230.2703341914296
 30
0.0
 10
119.8886526475151
 20
230.396741004326
 30
0.0
 10
119.3564253900224
 20
230.4413507852827
 30
0.0
 10
119.0520028869802
 20
230.436121845282
 30
0.0
 10
118.9453579736776
 20
230.4342900495131
 30
0.0
  0
LINE
  5
89
330
1F
100
AcDbEntity
  8
0
  6
Continuous
 62
     8
370
     0
100
AcDbLine
 10
118.9453579737
 20
233.6261765192
 30
0.0
 11
118.9453579737
 21
230.4342900495
 31
0.0
  0
LINE
  5
8A
330
1F
100
AcDbEntity
  8
0
  6
Continuous
 62
     8
370
     0
100
AcDbLine
 10
73.8420650614
 20
230.4342900495
 30
0.0
 11
73.9421487106
 21
228.52457772
 31
0.0
  0
LINE
  5
8B
330
1F
100
AcDbEntity
  8
0
  6
Continuous
 62
     8
370
     0
100
AcDbLine
 10
118.9453579737
 20
230.4342900495
 30
0.0
 11
73.8420650614
 21
230.4342900495
 31
0.0
  0
LINE
  5
8C
330
1F
100
AcDbEntity
  8
0
  6
Continuous
 62
     8
370
     0
100
AcDbLine
 10
118.8452743245
 20
228.52457772
 30
0.0
 11
118.9453579737
 21
230.4342900495
 31
0.0
  0
SPLINE
  5
8D
330
1F
100
AcDbEntity
  8
0
  6
Continuous
 62
     8
370
     0
100
AcDbSpline
210
0.0
220
0.0
230
1.0
 70
     8
 71
     3
 72
    20
 73
    16
 74
     0
 42
0.00000001
 43
0.00000001
 40
0.0
 40
0.0
 40
0.0
 40
0.0
 40
0.0717447570222172
 40
0.1435021354224583
 40
0.1945562840553826
 40
0.2605806190821984
 40
0.3268481240049961
 40
0.3927667974606125
 40
0.4626210754404558
 40
0.5327864887347062
 40
0.6027358038486171
 40
0.7057307076141635
 40
0.808726359361512
 40
0.9043671718023821
 40
1.0
 40
1.0
 40
1.0
 40
1.0
 10
73.84206506143282
 20
230.4342900495131
 30
0.0
 10
73.6135582946663
 20
230.4337165540759
 30
0.0
 10
73.15650456209427
 20
230.4325694623119
 30
0.0
 10
72.55184570798528
 20
230.333314325421
 30
0.0
 10
71.99293723136505
 20
230.1836000222856
 30
0.0
 10
71.48385906778044
 20
229.9808399129127
 30
0.0
 10
70.96728563556496
 20
229.7423231362645
 30
0.0
 10
70.45336740834547
 20
229.5468122216548
 30
0.0
 10
69.94849225199792
 20
229.4322132504574
 30
0.0
 10
69.47679034869265
 20
229.3543125458426
 30
0.0
 10
68.9888841730808
 20
229.2966386741193
 30
0.0
 10
68.53283036613769
 20
229.2497814146127
 30
0.0
 10
68.17366827561482
 20
229.2142408550791
 30
0.0
 10
67.95585734505622
 20
229.1976231131807
 30
0.0
 10
67.9295014248084
 20
229.1820294592875
 30
0.0
 10
67.91632401476572
 20
229.1742329578001
 30
0.0
  0
LINE
  5
8E
330
1F
100
AcDbEntity
  8
0
  6
Continuous
 62
     8
370
     0
100
AcDbLine
 10
73.8420650614
 20
233.6261765192
 30
0.0
 11
73.8420650614
 21
230.4342900495
 31
0.0
  0
ELLIPSE
  5
8F
330
1F
100
AcDbEntity
  8
0
  6
Continuous
 62
     8
370
     0
100
AcDbEllipse
 10
76.6901883796
 20
203.5245776753
 30
0.0
 11
6.001380269595814
 21
0.1307530340092456
 31
0.0
210
0.0
220
0.0
230
1.0
 40
0.0217565016
 41
3.142258091231207
 42
4.710315362284604
  0
LINE
  5
90
330
1F
100
AcDbEntity
  8
0
  6
Continuous
 62
     8
370
     0
100
AcDbLine
 10
76.5165087087
 20
206.5245777228
 30
0.0
 11
76.6805891199
 21
203.3937377016
 31
0.0
  0
ELLIPSE
  5
91
330
1F
100
AcDbEntity
  8
0
  6
Continuous
 62
     8
370
     0
100
AcDbEllipse
 10
116.0972346555
 20
203.5245776753
 30
0.0
 11
6.001380269595828
 21
-0.130753034009274
 31
0.0
210
0.0
220
0.0
230
1.0
 40
0.0217565016
 41
4.714462598484781
 42
6.282519869539687
  0
LINE
  5
92
330
1F
100
AcDbEntity
  8
0
  6
Continuous
 62
     8
370
     0
100
AcDbLine
 10
116.1068339152
 20
203.3937377016
 30
0.0
 11
116.2709143264
 21
206.5245777228
 31
0.0
  0
LINE
  5
93
330
1F
100
AcDbEntity
  8
0
  6
Continuous
 62
     8
370
     0
100
AcDbLine
 10
76.6805891199
 20
203.3937377016
 30
0.0
 11
116.1068339152
 21
203.3937377016
 31
0.0
  0
LINE
  5
94
330
1F
100
AcDbEntity
  8
0
  6
Continuous
 62
     8
370
     0
100
AcDbLine
 10
76.6805891199
 20
201.024577869
 30
0.0
 11
76.6805891199
 21
203.3937377016
 31
0.0
  0
LINE
  5
95
330
1F
100
AcDbEntity
  8
0
  6
Continuous
 62
     8
370
     0
100
AcDbLine
 10
116.1068339152
 20
201.024577869
 30
0.0
 11
116.1068339152
 21
203.3937377016
 31
0.0
  0
LINE
  5
96
330
1F
100
AcDbEntity
  8
0
  6
Continuous
 62
     8
370
     0
100
AcDbLine
 10
69.8937118305
 20
228.52457772
 30
0.0
 11
69.8937118305
 21
206.5245777228
 31
0.0
  0
LINE
  5
97
330
1F
100
AcDbEntity
  8
0
  6
Continuous
 62
     8
370
     0
100
AcDbLine
 10
122.8937112046
 20
228.52457772
 30
0.0
 11
122.8937112046
 21
206.5245777228
 31
0.0
  0
LINE
  5
98
330
1F
100
AcDbEntity
  8
0
  6
Continuous
 62
     8
370
     0
100
AcDbLine
 10
122.093710701
 20
200.0245777051
 30
0.0
 11
122.093710701
 21
203.0245777312
 31
0.0
  0
LINE
  5
99
330
1F
100
AcDbEntity
  8
0
  6
Continuous
 62
     8
370
     0
100
AcDbLine
 10
122.093710701
 20
200.0245777051
 30
0.0
 11
70.6937123341
 21
200.0245777051
 31
0.0
  0
LINE
  5
9A
330
1F
100
AcDbEntity
  8
0
  6
Continuous
 62
     8
370
     0
100
AcDbLine
 10
70.6937123341
 20
203.0245777312
 30
0.0
 11
70.6937123341
 21
200.0245777051
 31
0.0
  0
LINE
  5
9B
330
1F
100
AcDbEntity
  8
0
  6
Continuous
 62
     8
370
     0
100
AcDbLine
 10
70.3937109811
 20
200.0245777051
 30
0.0
 11
70.6937123341
 21
200.0245777051
 31
0.0
  0
LINE
  5
9C
330
1F
100
AcDbEntity
  8
0
  6
Continuous
 62
     8
370
     0
100
AcDbLine
 10
122.393712054
 20
200.0245777051
 30
0.0
 11
122.093710701
 21
200.0245777051
 31
0.0
  0
LINE
  5
9D
330
1F
100
AcDbEntity
  8
0
  6
Continuous
 62
     8
370
     0
100
AcDbLine
 10
70.6937123341
 20
200.0245777051
 30
0.0
 11
70.6937123341
 21
184.8245774488
 31
0.0
  0
LINE
  5
9E
330
1F
100
AcDbEntity
  8
0
  6
Continuous
 62
     8
370
     0
100
AcDbLine
 10
70.3937109811
 20
184.8245774488
 30
0.0
 11
70.6937123341
 21
184.8245774488
 31
0.0
  0
LINE
  5
9F
330
1F
100
AcDbEntity
  8
0
  6
Continuous
 62
     8
370
     0
100
AcDbLine
 10
122.393712054
 20
184.8245774488
 30
0.0
 11
122.093710701
 21
184.8245774488
 31
0.0
  0
LINE
  5
A0
330
1F
100
AcDbEntity
  8
0
  6
Continuous
 62
     8
370
     0
100
AcDbLine
 10
122.093710701
 20
184.8245774488
 30
0.0
 11
122.093710701
 21
200.0245777051
 31
0.0
  0
LINE
  5
A1
330
1F
100
AcDbEntity
  8
0
  6
Continuous
 62
     8
370
     0
100
AcDbLine
 10
122.093710701
 20
184.5245779584
 30
0.0
 11
122.093710701
 21
184.8245774488
 31
0.0
  0
LINE
  5
A2
330
1F
100
AcDbEntity
  8
0
  6
Continuous
 62
     8
370
     0
100
AcDbLine
 10
70.6937123341
 20
184.5245779584
 30
0.0
 11
70.6937123341
 21
184.8245774488
 31
0.0
  0
LINE
  5
A3
330
1F
100
AcDbEntity
  8
0
  6
Continuous
 62
     8
370
     0
100
AcDbLine
 10
70.6937123341
 20
184.8245774488
 30
0.0
 11
122.093710701
 21
184.8245774488
 31
0.0
  0
DIMENSION
  5
A4
330
1F
100
AcDbEntity
  8
0
  6
Continuous
 62
     7
370
     0
100
AcDbDimension
  2
*D1
 10
25.7242923749
 20
184.5245776753
 30
0.0
 11
25.7242923749
 21
214.0645869625
 31
0.0
 70
   160
  1
(<>)
 71
     2
 42
-1.0
  3
SLDDIMSTYLE0
100
AcDbAlignedDimension
 13
35.9579181468
 23
247.5245776753
 33
0.0
 14
70.6937115176
 24
184.5245776753
 34
0.0
 50
90.0
100
AcDbRotatedDimension
  0
LINE
  5
B2
330
1F
100
AcDbEntity
  8
0
  6
CENTER
 62
     7
370
     0
100
AcDbLine
 10
96.3937115191
 20
266.1802068144
 30
0.0
 11
96.3937115191
 21
166.4421557264
 31
0.0
  0
LINE
  5
B3
330
1F
100
AcDbEntity
  8
0
  6
Continuous
 62
     7
370
     0
100
AcDbLine
 10
84.3937115191
 20
264.1802068144
 30
0.0
 11
96.3937115191
 21
264.1802068144
 31
0.0
  0
SOLID
  5
B4
330
1F
100
AcDbEntity
  8
0
  6
Continuous
 62
     7
370
     0
100
AcDbTrace
 10
96.3937115191
 20
264.1802068144
 30
0.0
 11
90.3937115191
 21
265.6802068144
 31
0.0
 12
90.3937115191
 22
262.6802068144
 32
0.0
 13
90.3937115191
 23
262.6802068144
 33
0.0
  0
LINE
  5
B5
330
1F
100
AcDbEntity
  8
0
  6
Continuous
 62
     7
370
     0
100
AcDbLine
 10
84.3937115191
 20
168.4421557264
 30
0.0
 11
96.3937115191
 21
168.4421557264
 31
0.0
  0
SOLID
  5
B6
330
1F
100
AcDbEntity
  8
0
  6
Continuous
 62
     7
370
     0
100
AcDbTrace
 10
96.3937115191
 20
168.4421557264
 30
0.0
 11
90.3937115191
 21
169.9421557264
 31
0.0
 12
90.3937115191
 22
166.9421557264
 32
0.0
 13
90.3937115191
 23
166.9421557264
 33
0.0
  0
MTEXT
  5
B7
330
1F
100
AcDbEntity
  8
0
  6
Continuous
 62
     7
100
AcDbMText
 10
78.3882636953
 20
267.1315166188
 30
0.0
 40
5.0
 41
0.0
 71
     1
 72
     1
  1
A
  7
SLDTEXTSTYLE0
 73
     1
 44
1.0
  0
MTEXT
  5
B8
330
1F
100
AcDbEntity
  8
0
  6
Continuous
 62
     7
100
AcDbMText
 10
78.6016964934
 20
171.5180659088
 30
0.0
 40
5.0
 41
0.0
 71
     1
 72
     1
  1
A
  7
SLDTEXTSTYLE0
 73
     1
 44
1.0
  0
LINE
  5
B9
330
1F
100
AcDbEntity
  8
0
  6
Continuous
 62
     7
370
    30
100
AcDbLine
 10
143.3937099082
 20
127.5226871054
 30
0.0
 11
49.3937131269
 21
127.5226871054
 31
0.0
  0
ARC
  5
BA
330
1F
100
AcDbEntity
  8
0
  6
Continuous
 62
     7
370
    30
100
AcDbCircle
 10
49.3937115176
 20
112.5868938471
 30
0.0
 40
14.93579337071779
100
AcDbArc
 50
89.9999999999
 51
180.0000000177
  0
ARC
  5
BB
330
1F
100
AcDbEntity
  8
0
  6
Continuous
 62
     7
370
    30
100
AcDbCircle
 10
143.3937115176
 20
112.5868938471
 30
0.0
 40
14.93579337071779
100
AcDbArc
 50
359.999999999
 51
90.0000000015
  0
LINE
  5
BC
330
1F
100
AcDbEntity
  8
0
  6
Continuous
 62
     7
370
    30
100
AcDbLine
 10
158.329505126
 20
57.5868949796
 30
0.0
 11
158.329505126
 21
112.5868946816
 31
0.0
  0
LINE
  5
BD
330
1F
100
AcDbEntity
  8
0
  6
Continuous
 62
     7
370
    30
100
AcDbLine
 10
34.4579179091
 20
112.5868946816
 30
0.0
 11
34.4579179091
 21
57.5868949796
 31
0.0
  0
ARC
  5
BE
330
1F
100
AcDbEntity
  8
0
  6
Continuous
 62
     7
370
    30
100
AcDbCircle
 10
143.3937115176
 20
57.5868938471
 30
0.0
 40
14.93579337071779
100
AcDbArc
 50
270.0
 51
0.0
  0
ARC
  5
BF
330
1F
100
AcDbEntity
  8
0
  6
Continuous
 62
     7
370
    30
100
AcDbCircle
 10
49.3937115176
 20
57.5868938471
 30
0.0
 40
14.93579337071778
100
AcDbArc
 50
180.0000000104
 51
270.0000000146
  0
LINE
  5
C0
330
1F
100
AcDbEntity
  8
0
  6
Continuous
 62
     7
370
    30
100
AcDbLine
 10
49.3937131269
 20
42.6511034872
 30
0.0
 11
143.3937099082
 21
42.6511034872
 31
0.0
  0
LINE
  5
C1
330
1F
100
AcDbEntity
  8
0
  6
Continuous
 62
     7
370
    30
100
AcDbLine
 10
111.8937112642
 20
142.2868938222
 30
0.0
 11
118.8937124116
 21
142.2868938222
 31
0.0
  0
LINE
  5
C2
330
1F
100
AcDbEntity
  8
0
  6
Continuous
 62
     7
370
    30
100
AcDbLine
 10
118.8937124116
 20
142.2868938222
 30
0.0
 11
118.8937124116
 21
141.5868938471
 31
0.0
  0
LINE
  5
C3
330
1F
100
AcDbEntity
  8
0
  6
Continuous
 62
     7
370
    30
100
AcDbLine
 10
111.8937112642
 20
142.2868938222
 30
0.0
 11
80.8937117709
 21
142.2868938222
 31
0.0
  0
LINE
  5
C4
330
1F
100
AcDbEntity
  8
0
  6
Continuous
 62
     7
370
    30
100
AcDbLine
 10
73.8937106235
 20
141.5868938471
 30
0.0
 11
73.8937106235
 21
142.2868938222
 31
0.0
  0
LINE
  5
C5
330
1F
100
AcDbEntity
  8
0
  6
Continuous
 62
     7
370
    30
100
AcDbLine
 10
73.8937106235
 20
142.2868938222
 30
0.0
 11
80.8937117709
 21
142.2868938222
 31
0.0
  0
ARC
  5
C6
330
1F
100
AcDbEntity
  8
0
  6
Continuous
 62
     7
370
    30
100
AcDbCircle
 10
70.6937115176
 20
141.2868938471
 30
0.0
 40
0.3000000000000114
100
AcDbArc
 50
90.0
 51
180.0
  0
LINE
  5
C7
330
1F
100
AcDbEntity
  8
0
  6
Continuous
 62
     7
370
    30
100
AcDbLine
 10
70.6937123341
 20
141.5868938471
 30
0.0
 11
122.093710701
 21
141.5868938471
 31
0.0
  0
ARC
  5
C8
330
1F
100
AcDbEntity
  8
0
  6
Continuous
 62
     7
370
    30
100
AcDbCircle
 10
122.0937115176
 20
141.2868938471
 30
0.0
 40
0.3000000000000114
100
AcDbArc
 50
0.0
 51
90.0
  0
LINE
  5
C9
330
1F
100
AcDbEntity
  8
0
  6
Continuous
 62
     7
370
    30
100
AcDbLine
 10
70.3937109811
 20
127.5226871054
 30
0.0
 11
70.3937109811
 21
141.2868938329
 31
0.0
  0
LINE
  5
CA
330
1F
100
AcDbEntity
  8
0
  6
Continuous
 62
     7
370
    30
100
AcDbLine
 10
122.393712054
 20
141.2868938329
 30
0.0
 11
122.393712054
 21
127.5226871054
 31
0.0
  0
LINE
  5
CB
330
1F
100
AcDbEntity
  8
0
  6
Continuous
 62
     8
370
     0
100
AcDbLine
 10
111.8937112642
 20
141.5868938471
 30
0.0
 11
111.8937112642
 21
142.2868938222
 31
0.0
  0
LINE
  5
CC
330
1F
100
AcDbEntity
  8
0
  6
Continuous
 62
     8
370
     0
100
AcDbLine
 10
80.8937117709
 20
142.2868938222
 30
0.0
 11
80.8937117709
 21
141.5868938471
 31
0.0
  0
LINE
  5
CD
330
1F
100
AcDbEntity
  8
0
  6
Continuous
 62
     8
370
     0
100
AcDbLine
 10
143.3937099082
 20
124.9256559218
 30
0.0
 11
49.3937131269
 21
124.9256559218
 31
0.0
  0
LINE
  5
CE
330
1F
100
AcDbEntity
  8
0
  6
Continuous
 62
     8
370
     0
100
AcDbLine
 10
49.3937131269
 20
124.9256559218
 30
0.0
 11
49.3937131269
 21
127.5226871054
 31
0.0
  0
LINE
  5
CF
330
1F
100
AcDbEntity
  8
0
  6
Continuous
 62
     8
370
     0
100
AcDbLine
 10
143.3937099082
 20
124.9256559218
 30
0.0
 11
143.3937099082
 21
127.5226871054
 31
0.0
  0
ARC
  5
D0
330
1F
100
AcDbEntity
  8
0
  6
Continuous
 62
     8
370
     0
100
AcDbCircle
 10
49.3937115176
 20
112.5868938471
 30
0.0
 40
12.33876281828903
100
AcDbArc
 50
89.9999999994
 51
180.0000000171
  0
LINE
  5
D1
330
1F
100
AcDbEntity
  8
0
  6
Continuous
 62
     8
370
     0
100
AcDbLine
 10
37.0549481613
 20
112.5868946816
 30
0.0
 11
34.4579179091
 21
112.5868946816
 31
0.0
  0
ARC
  5
D2
330
1F
100
AcDbEntity
  8
0
  6
Continuous
 62
     8
370
     0
100
AcDbCircle
 10
143.3937115176
 20
112.5868938471
 30
0.0
 40
12.33876281828904
100
AcDbArc
 50
359.9999999988
 51
90.0000000013
  0
LINE
  5
D3
330
1F
100
AcDbEntity
  8
0
  6
Continuous
 62
     8
370
     0
100
AcDbLine
 10
155.7324748738
 20
112.5868946816
 30
0.0
 11
158.329505126
 21
112.5868946816
 31
0.0
  0
LINE
  5
D4
330
1F
100
AcDbEntity
  8
0
  6
Continuous
 62
     8
370
     0
100
AcDbLine
 10
155.7324748738
 20
57.5868949796
 30
0.0
 11
155.7324748738
 21
112.5868946816
 31
0.0
  0
LINE
  5
D5
330
1F
100
AcDbEntity
  8
0
  6
Continuous
 62
     8
370
     0
100
AcDbLine
 10
155.7324748738
 20
57.5868949796
 30
0.0
 11
158.329505126
 21
57.5868949796
 31
0.0
  0
LINE
  5
D6
330
1F
100
AcDbEntity
  8
0
  6
Continuous
 62
     8
370
     0
100
AcDbLine
 10
37.0549481613
 20
112.5868946816
 30
0.0
 11
37.0549481613
 21
57.5868949796
 31
0.0
  0
LINE
  5
D7
330
1F
100
AcDbEntity
  8
0
  6
Continuous
 62
     8
370
     0
100
AcDbLine
 10
37.0549481613
 20
57.5868949796
 30
0.0
 11
34.4579179091
 21
57.5868949796
 31
0.0
  0
ARC
  5
D8
330
1F
100
AcDbEntity
  8
0
  6
Continuous
 62
     8
370
     0
100
AcDbCircle
 10
143.3937115176
 20
57.5868938471
 30
0.0
 40
12.33876281828902
100
AcDbArc
 50
270.0
 51
0.0
  0
LINE
  5
D9
330
1F
100
AcDbEntity
  8
0
  6
Continuous
 62
     8
370
     0
100
AcDbLine
 10
143.3937099082
 20
45.2481300141
 30
0.0
 11
143.3937099082
 21
42.6511034872
 31
0.0
  0
ARC
  5
DA
330
1F
100
AcDbEntity
  8
0
  6
Continuous
 62
     8
370
     0
100
AcDbCircle
 10
49.3937115176
 20
57.5868938471
 30
0.0
 40
12.33876281828902
100
AcDbArc
 50
180.0000000083
 51
270.0000000126
  0
LINE
  5
DB
330
1F
100
AcDbEntity
  8
0
  6
Continuous
 62
     8
370
     0
100
AcDbLine
 10
49.3937131269
 20
45.2481300141
 30
0.0
 11
49.3937131269
 21
42.6511034872
 31
0.0
  0
LINE
  5
DC
330
1F
100
AcDbEntity
  8
0
  6
Continuous
 62
     8
370
     0
100
AcDbLine
 10
143.3937099082
 20
45.2481300141
 30
0.0
 11
49.3937131269
 21
45.2481300141
 31
0.0
  0
ARC
  5
DD
330
1F
100
AcDbEntity
  8
0
  6
Continuous
 62
     8
370
     0
100
AcDbCircle
 10
49.3937115176
 20
112.5868938471
 30
0.0
 40
4.348047926874571
100
AcDbArc
 50
89.9999999936
 51
180.0000000114
  0
LINE
  5
DE
330
1F
100
AcDbEntity
  8
0
  6
Continuous
 62
     8
370
     0
100
AcDbLine
 10
45.0456623239
 20
112.5868946816
 30
0.0
 11
37.0549481613
 21
112.5868946816
 31
0.0
  0
LINE
  5
DF
330
1F
100
AcDbEntity
  8
0
  6
Continuous
 62
     8
370
     0
100
AcDbLine
 10
49.3937131269
 20
116.9349417593
 30
0.0
 11
49.3937131269
 21
124.9256559218
 31
0.0
  0
LINE
  5
E0
330
1F
100
AcDbEntity
  8
0
  6
Continuous
 62
     8
370
     0
100
AcDbLine
 10
143.3937099082
 20
116.9349417593
 30
0.0
 11
49.3937131269
 21
116.9349417593
 31
0.0
  0
LINE
  5
E1
330
1F
100
AcDbEntity
  8
0
  6
Continuous
 62
     8
370
     0
100
AcDbLine
 10
143.3937099082
 20
116.9349417593
 30
0.0
 11
143.3937099082
 21
124.9256559218
 31
0.0
  0
ARC
  5
E2
330
1F
100
AcDbEntity
  8
0
  6
Continuous
 62
     8
370
     0
100
AcDbCircle
 10
143.3937115176
 20
112.5868938471
 30
0.0
 40
4.348047926874557
100
AcDbArc
 50
359.9999999965
 51
89.999999999
  0
LINE
  5
E3
330
1F
100
AcDbEntity
  8
0
  6
Continuous
 62
     8
370
     0
100
AcDbLine
 10
147.7417607112
 20
112.5868946816
 30
0.0
 11
155.7324748738
 21
112.5868946816
 31
0.0
  0
LINE
  5
E4
330
1F
100
AcDbEntity
  8
0
  6
Continuous
 62
     8
370
     0
100
AcDbLine
 10
147.7417607112
 20
57.5868949796
 30
0.0
 11
147.7417607112
 21
112.5868946816
 31
0.0
  0
LINE
  5
E5
330
1F
100
AcDbEntity
  8
0
  6
Continuous
 62
     8
370
     0
100
AcDbLine
 10
147.7417607112
 20
57.5868949796
 30
0.0
 11
155.7324748738
 21
57.5868949796
 31
0.0
  0
LINE
  5
E6
330
1F
100
AcDbEntity
  8
0
  6
Continuous
 62
     8
370
     0
100
AcDbLine
 10
45.0456623239
 20
112.5868946816
 30
0.0
 11
45.0456623239
 21
57.5868949796
 31
0.0
  0
LINE
  5
E7
330
1F
100
AcDbEntity
  8
0
  6
Continuous
 62
     8
370
     0
100
AcDbLine
 10
45.0456623239
 20
57.5868949796
 30
0.0
 11
37.0549481613
 21
57.5868949796
 31
0.0
  0
ARC
  5
E8
330
1F
100
AcDbEntity
  8
0
  6
Continuous
 62
     8
370
     0
100
AcDbCircle
 10
143.3937115176
 20
57.5868938471
 30
0.0
 40
4.348047926874557
100
AcDbArc
 50
270.0
 51
0.0
  0
LINE
  5
E9
330
1F
100
AcDbEntity
  8
0
  6
Continuous
 62
     8
370
     0
100
AcDbLine
 10
143.3937099082
 20
53.238847902
 30
0.0
 11
143.3937099082
 21
45.2481300141
 31
0.0
  0
ARC
  5
EA
330
1F
100
AcDbEntity
  8
0
  6
Continuous
 62
     8
370
     0
100
AcDbCircle
 10
49.3937115176
 20
57.5868938471
 30
0.0
 40
4.348047926874557
100
AcDbArc
 50
179.9999999865
 51
269.9999999907
  0
LINE
  5
EB
330
1F
100
AcDbEntity
  8
0
  6
Continuous
 62
     8
370
     0
100
AcDbLine
 10
49.3937131269
 20
53.238847902
 30
0.0
 11
49.3937131269
 21
45.2481300141
 31
0.0
  0
LINE
  5
EC
330
1F
100
AcDbEntity
  8
0
  6
Continuous
 62
     8
370
     0
100
AcDbLine
 10
143.3937099082
 20
53.238847902
 30
0.0
 11
49.3937131269
 21
53.238847902
 31
0.0
  0
ARC
  5
ED
330
1F
100
AcDbEntity
  8
0
  6
Continuous
 62
     8
370
     0
100
AcDbCircle
 10
79.3937115176
 20
102.0868938471
 30
0.0
 40
5.199999999999989
100
AcDbArc
 50
90.0
 51
180.0
  0
LINE
  5
EE
330
1F
100
AcDbEntity
  8
0
  6
Continuous
 62
     8
370
     0
100
AcDbLine
 10
74.1937119765
 20
102.0868920292
 30
0.0
 11
72.5937109692
 21
102.0868920292
 31
0.0
  0
ARC
  5
EF
330
1F
100
AcDbEntity
  8
0
  6
Continuous
 62
     8
370
     0
100
AcDbCircle
 10
79.3937115176
 20
102.0868938471
 30
0.0
 40
6.800000000000011
100
AcDbArc
 50
90.0
 51
180.0
  0
LINE
  5
F0
330
1F
100
AcDbEntity
  8
0
  6
Continuous
 62
     8
370
     0
100
AcDbLine
 10
79.3937105937
 20
107.2868943717
 30
0.0
 11
79.3937105937
 21
108.886895379
 31
0.0
  0
ARC
  5
F1
330
1F
100
AcDbEntity
  8
0
  6
Continuous
 62
     8
370
     0
100
AcDbCircle
 10
113.3937115176
 20
102.0868938471
 30
0.0
 40
5.200000000000003
100
AcDbArc
 50
0.0
 51
90.0
  0
LINE
  5
F2
330
1F
100
AcDbEntity
  8
0
  6
Continuous
 62
     8
370
     0
100
AcDbLine
 10
113.3937124414
 20
107.2868943717
 30
0.0
 11
113.3937124414
 21
108.886895379
 31
0.0
  0
ARC
  5
F3
330
1F
100
AcDbEntity
  8
0
  6
Continuous
 62
     8
370
     0
100
AcDbCircle
 10
113.3937115176
 20
102.0868938471
 30
0.0
 40
6.799999999999997
100
AcDbArc
 50
0.0
 51
90.0
  0
LINE
  5
F4
330
1F
100
AcDbEntity
  8
0
  6
Continuous
 62
     8
370
     0
100
AcDbLine
 10
118.5937110586
 20
102.0868920292
 30
0.0
 11
120.1937120659
 21
102.0868920292
 31
0.0
  0
LINE
  5
F5
330
1F
100
AcDbEntity
  8
0
  6
Continuous
 62
     8
370
     0
100
AcDbLine
 10
113.3937124414
 20
107.2868943717
 30
0.0
 11
79.3937105937
 21
107.2868943717
 31
0.0
  0
LINE
  5
F6
330
1F
100
AcDbEntity
  8
0
  6
Continuous
 62
     8
370
     0
100
AcDbLine
 10
113.3937124414
 20
108.886895379
 30
0.0
 11
79.3937105937
 21
108.886895379
 31
0.0
  0
LINE
  5
F7
330
1F
100
AcDbEntity
  8
0
  6
Continuous
 62
     8
370
     0
100
AcDbLine
 10
118.5937110586
 20
68.0868939067
 30
0.0
 11
118.5937110586
 21
102.0868920292
 31
0.0
  0
LINE
  5
F8
330
1F
100
AcDbEntity
  8
0
  6
Continuous
 62
     8
370
     0
100
AcDbLine
 10
120.1937120659
 20
68.0868939067
 30
0.0
 11
120.1937120659
 21
102.0868920292
 31
0.0
  0
LINE
  5
F9
330
1F
100
AcDbEntity
  8
0
  6
Continuous
 62
     8
370
     0
100
AcDbLine
 10
118.5937110586
 20
68.0868939067
 30
0.0
 11
120.1937120659
 21
68.0868939067
 31
0.0
  0
LINE
  5
FA
330
1F
100
AcDbEntity
  8
0
  6
Continuous
 62
     8
370
     0
100
AcDbLine
 10
74.1937119765
 20
102.0868920292
 30
0.0
 11
74.1937119765
 21
68.0868939067
 31
0.0
  0
LINE
  5
FB
330
1F
100
AcDbEntity
  8
0
  6
Continuous
 62
     8
370
     0
100
AcDbLine
 10
74.1937119765
 20
68.0868939067
 30
0.0
 11
72.5937109692
 21
68.0868939067
 31
0.0
  0
LINE
  5
FC
330
1F
100
AcDbEntity
  8
0
  6
Continuous
 62
     8
370
     0
100
AcDbLine
 10
72.5937109692
 20
102.0868920292
 30
0.0
 11
72.5937109692
 21
68.0868939067
 31
0.0
  0
ARC
  5
FD
330
1F
100
AcDbEntity
  8
0
  6
Continuous
 62
     8
370
     0
100
AcDbCircle
 10
79.3937115176
 20
68.0868938471
 30
0.0
 40
5.199999999999989
100
AcDbArc
 50
180.0
 51
270.0
  0
LINE
  5
FE
330
1F
100
AcDbEntity
  8
0
  6
Continuous
 62
     8
370
     0
100
AcDbLine
 10
79.3937105937
 20
62.8868952896
 30
0.0
 11
79.3937105937
 21
61.286890557
 31
0.0
  0
ARC
  5
FF
330
1F
100
AcDbEntity
  8
0
  6
Continuous
 62
     8
370
     0
100
AcDbCircle
 10
79.3937115176
 20
68.0868938471
 30
0.0
 40
6.799999999999997
100
AcDbArc
 50
180.0
 51
270.0
  0
ARC
  5
100
330
1F
100
AcDbEntity
  8
0
  6
Continuous
 62
     8
370
     0
100
AcDbCircle
 10
113.3937115176
 20
68.0868938471
 30
0.0
 40
5.200000000000003
100
AcDbArc
 50
270.0
 51
0.0
  0
ARC
  5
101
330
1F
100
AcDbEntity
  8
0
  6
Continuous
 62
     8
370
     0
100
AcDbCircle
 10
113.3937115176
 20
68.0868938471
 30
0.0
 40
6.800000000000004
100
AcDbArc
 50
270.0
 51
0.0
  0
LINE
  5
102
330
1F
100
AcDbEntity
  8
0
  6
Continuous
 62
     8
370
     0
100
AcDbLine
 10
113.3937124414
 20
62.8868952896
 30
0.0
 11
113.3937124414
 21
61.286890557
 31
0.0
  0
LINE
  5
103
330
1F
100
AcDbEntity
  8
0
  6
Continuous
 62
     8
370
     0
100
AcDbLine
 10
113.3937124414
 20
61.286890557
 30
0.0
 11
79.3937105937
 21
61.286890557
 31
0.0
  0
LINE
  5
104
330
1F
100
AcDbEntity
  8
0
  6
Continuous
 62
     8
370
     0
100
AcDbLine
 10
113.3937124414
 20
62.8868952896
 30
0.0
 11
79.3937105937
 21
62.8868952896
 31
0.0
  0
LINE
  5
105
330
1F
100
AcDbEntity
  8
0
  6
Continuous
 62
     8
370
     0
100
AcDbLine
 10
79.3937105937
 20
108.886895379
 30
0.0
 11
79.3937105937
 21
109.9368945266
 31
0.0
  0
LINE
  5
106
330
1F
100
AcDbEntity
  8
0
  6
Continuous
 62
     8
370
     0
100
AcDbLine
 10
113.3937124414
 20
109.9368945266
 30
0.0
 11
79.3937105937
 21
109.9368945266
 31
0.0
  0
LINE
  5
107
330
1F
100
AcDbEntity
  8
0
  6
Continuous
 62
     8
370
     0
100
AcDbLine
 10
113.3937124414
 20
108.886895379
 30
0.0
 11
113.3937124414
 21
109.9368945266
 31
0.0
  0
LINE
  5
108
330
1F
100
AcDbEntity
  8
0
  6
Continuous
 62
     8
370
     0
100
AcDbLine
 10
72.5937109692
 20
102.0868920292
 30
0.0
 11
71.5437118215
 21
102.0868920292
 31
0.0
  0
ARC
  5
109
330
1F
100
AcDbEntity
  8
0
  6
Continuous
 62
     8
370
     0
100
AcDbCircle
 10
79.3937115176
 20
102.0868938471
 30
0.0
 40
7.850000000000009
100
AcDbArc
 50
90.0
 51
180.0
  0
ARC
  5
10A
330
1F
100
AcDbEntity
  8
0
  6
Continuous
 62
     8
370
     0
100
AcDbCircle
 10
113.3937115176
 20
102.0868938471
 30
0.0
 40
7.850000000000009
100
AcDbArc
 50
0.0
 51
90.0
  0
LINE
  5
10B
330
1F
100
AcDbEntity
  8
0
  6
Continuous
 62
     8
370
     0
100
AcDbLine
 10
120.1937120659
 20
102.0868920292
 30
0.0
 11
121.2437112136
 21
102.0868920292
 31
0.0
  0
LINE
  5
10C
330
1F
100
AcDbEntity
  8
0
  6
Continuous
 62
     8
370
     0
100
AcDbLine
 10
117.5437119109
 20
102.0868920292
 30
0.0
 11
118.5937110586
 21
102.0868920292
 31
0.0
  0
ARC
  5
10D
330
1F
100
AcDbEntity
  8
0
  6
Continuous
 62
     8
370
     0
100
AcDbCircle
 10
113.3937115176
 20
102.0868938471
 30
0.0
 40
4.149999999999991
100
AcDbArc
 50
0.0
 51
90.0
  0
LINE
  5
10E
330
1F
100
AcDbEntity
  8
0
  6
Continuous
 62
     8
370
     0
100
AcDbLine
 10
113.3937124414
 20
106.236895224
 30
0.0
 11
113.3937124414
 21
107.2868943717
 31
0.0
  0
LINE
  5
10F
330
1F
100
AcDbEntity
  8
0
  6
Continuous
 62
     8
370
     0
100
AcDbLine
 10
79.3937105937
 20
106.236895224
 30
0.0
 11
79.3937105937
 21
107.2868943717
 31
0.0
  0
ARC
  5
110
330
1F
100
AcDbEntity
  8
0
  6
Continuous
 62
     8
370
     0
100
AcDbCircle
 10
79.3937115176
 20
102.0868938471
 30
0.0
 40
4.149999999999991
100
AcDbArc
 50
90.0
 51
180.0
  0
LINE
  5
111
330
1F
100
AcDbEntity
  8
0
  6
Continuous
 62
     8
370
     0
100
AcDbLine
 10
75.2437111242
 20
102.0868920292
 30
0.0
 11
74.1937119765
 21
102.0868920292
 31
0.0
  0
LINE
  5
112
330
1F
100
AcDbEntity
  8
0
  6
Continuous
 62
     8
370
     0
100
AcDbLine
 10
79.3937105937
 20
106.236895224
 30
0.0
 11
113.3937124414
 21
106.236895224
 31
0.0
  0
LINE
  5
113
330
1F
100
AcDbEntity
  8
0
  6
Continuous
 62
     8
370
     0
100
AcDbLine
 10
121.2437112136
 20
68.0868939067
 30
0.0
 11
121.2437112136
 21
102.0868920292
 31
0.0
  0
LINE
  5
114
330
1F
100
AcDbEntity
  8
0
  6
Continuous
 62
     8
370
     0
100
AcDbLine
 10
120.1937120659
 20
68.0868939067
 30
0.0
 11
121.2437112136
 21
68.0868939067
 31
0.0
  0
LINE
  5
115
330
1F
100
AcDbEntity
  8
0
  6
Continuous
 62
     8
370
     0
100
AcDbLine
 10
72.5937109692
 20
68.0868939067
 30
0.0
 11
71.5437118215
 21
68.0868939067
 31
0.0
  0
LINE
  5
116
330
1F
100
AcDbEntity
  8
0
  6
Continuous
 62
     8
370
     0
100
AcDbLine
 10
71.5437118215
 20
102.0868920292
 30
0.0
 11
71.5437118215
 21
68.0868939067
 31
0.0
  0
LINE
  5
117
330
1F
100
AcDbEntity
  8
0
  6
Continuous
 62
     8
370
     0
100
AcDbLine
 10
117.5437119109
 20
68.0868939067
 30
0.0
 11
118.5937110586
 21
68.0868939067
 31
0.0
  0
LINE
  5
118
330
1F
100
AcDbEntity
  8
0
  6
Continuous
 62
     8
370
     0
100
AcDbLine
 10
117.5437119109
 20
102.0868920292
 30
0.0
 11
117.5437119109
 21
68.0868939067
 31
0.0
  0
LINE
  5
119
330
1F
100
AcDbEntity
  8
0
  6
Continuous
 62
     8
370
     0
100
AcDbLine
 10
75.2437111242
 20
68.0868939067
 30
0.0
 11
75.2437111242
 21
102.0868920292
 31
0.0
  0
LINE
  5
11A
330
1F
100
AcDbEntity
  8
0
  6
Continuous
 62
     8
370
     0
100
AcDbLine
 10
75.2437111242
 20
68.0868939067
 30
0.0
 11
74.1937119765
 21
68.0868939067
 31
0.0
  0
LINE
  5
11B
330
1F
100
AcDbEntity
  8
0
  6
Continuous
 62
     8
370
     0
100
AcDbLine
 10
113.3937124414
 20
63.9368907119
 30
0.0
 11
113.3937124414
 21
62.8868952896
 31
0.0
  0
ARC
  5
11C
330
1F
100
AcDbEntity
  8
0
  6
Continuous
 62
     8
370
     0
100
AcDbCircle
 10
113.3937115176
 20
68.0868938471
 30
0.0
 40
4.150000000000013
100
AcDbArc
 50
270.0
 51
0.0
  0
LINE
  5
11D
330
1F
100
AcDbEntity
  8
0
  6
Continuous
 62
     8
370
     0
100
AcDbLine
 10
79.3937105937
 20
61.286890557
 30
0.0
 11
79.3937105937
 21
60.2368951346
 31
0.0
  0
ARC
  5
11E
330
1F
100
AcDbEntity
  8
0
  6
Continuous
 62
     8
370
     0
100
AcDbCircle
 10
79.3937115176
 20
68.0868938471
 30
0.0
 40
7.850000000000001
100
AcDbArc
 50
180.0
 51
270.0
  0
ARC
  5
11F
330
1F
100
AcDbEntity
  8
0
  6
Continuous
 62
     8
370
     0
100
AcDbCircle
 10
79.3937115176
 20
68.0868938471
 30
0.0
 40
4.149999999999991
100
AcDbArc
 50
180.0
 51
270.0
  0
LINE
  5
120
330
1F
100
AcDbEntity
  8
0
  6
Continuous
 62
     8
370
     0
100
AcDbLine
 10
79.3937105937
 20
63.9368907119
 30
0.0
 11
79.3937105937
 21
62.8868952896
 31
0.0
  0
ARC
  5
121
330
1F
100
AcDbEntity
  8
0
  6
Continuous
 62
     8
370
     0
100
AcDbCircle
 10
113.3937115176
 20
68.0868938471
 30
0.0
 40
7.850000000000001
100
AcDbArc
 50
270.0
 51
0.0
  0
LINE
  5
122
330
1F
100
AcDbEntity
  8
0
  6
Continuous
 62
     8
370
     0
100
AcDbLine
 10
113.3937124414
 20
61.286890557
 30
0.0
 11
113.3937124414
 21
60.2368951346
 31
0.0
  0
LINE
  5
123
330
1F
100
AcDbEntity
  8
0
  6
Continuous
 62
     8
370
     0
100
AcDbLine
 10
113.3937124414
 20
63.9368907119
 30
0.0
 11
79.3937105937
 21
63.9368907119
 31
0.0
  0
LINE
  5
124
330
1F
100
AcDbEntity
  8
0
  6
Continuous
 62
     8
370
     0
100
AcDbLine
 10
79.3937105937
 20
60.2368951346
 30
0.0
 11
113.3937124414
 21
60.2368951346
 31
0.0
  0
ARC
  5
125
330
1F
100
AcDbEntity
  8
0
  6
Continuous
 62
     8
370
     0
100
AcDbCircle
 10
49.3937115176
 20
112.5868938471
 30
0.0
 40
2.15398682201706
100
AcDbArc
 50
89.9999999846
 51
180.0000000023
  0
LINE
  5
126
330
1F
100
AcDbEntity
  8
0
  6
Continuous
 62
     8
370
     0
100
AcDbLine
 10
47.2397241993
 20
112.5868946816
 30
0.0
 11
45.0456623239
 21
112.5868946816
 31
0.0
  0
LINE
  5
127
330
1F
100
AcDbEntity
  8
0
  6
Continuous
 62
     8
370
     0
100
AcDbLine
 10
49.3937131269
 20
114.7408798839
 30
0.0
 11
49.3937131269
 21
116.9349417593
 31
0.0
  0
LINE
  5
128
330
1F
100
AcDbEntity
  8
0
  6
Continuous
 62
     8
370
     0
100
AcDbLine
 10
143.3937099082
 20
114.7408798839
 30
0.0
 11
49.3937131269
 21
114.7408798839
 31
0.0
  0
LINE
  5
129
330
1F
100
AcDbEntity
  8
0
  6
Continuous
 62
     8
370
     0
100
AcDbLine
 10
143.3937099082
 20
114.7408798839
 30
0.0
 11
143.3937099082
 21
116.9349417593
 31
0.0
  0
ARC
  5
12A
330
1F
100
AcDbEntity
  8
0
  6
Continuous
 62
     8
370
     0
100
AcDbCircle
 10
143.3937115176
 20
112.5868938471
 30
0.0
 40
2.15398682201706
100
AcDbArc
 50
359.999999993
 51
89.9999999955
  0
LINE
  5
12B
330
1F
100
AcDbEntity
  8
0
  6
Continuous
 62
     8
370
     0
100
AcDbLine
 10
145.5476988358
 20
112.5868946816
 30
0.0
 11
147.7417607112
 21
112.5868946816
 31
0.0
  0
LINE
  5
12C
330
1F
100
AcDbEntity
  8
0
  6
Continuous
 62
     8
370
     0
100
AcDbLine
 10
47.2397241993
 20
112.5868946816
 30
0.0
 11
47.2397241993
 21
57.5868949796
 31
0.0
  0
LINE
  5
12D
330
1F
100
AcDbEntity
  8
0
  6
Continuous
 62
     8
370
     0
100
AcDbLine
 10
47.2397241993
 20
57.5868949796
 30
0.0
 11
45.0456623239
 21
57.5868949796
 31
0.0
  0
LINE
  5
12E
330
1F
100
AcDbEntity
  8
0
  6
Continuous
 62
     8
370
     0
100
AcDbLine
 10
145.5476988358
 20
57.5868949796
 30
0.0
 11
145.5476988358
 21
112.5868946816
 31
0.0
  0
LINE
  5
12F
330
1F
100
AcDbEntity
  8
0
  6
Continuous
 62
     8
370
     0
100
AcDbLine
 10
145.5476988358
 20
57.5868949796
 30
0.0
 11
147.7417607112
 21
57.5868949796
 31
0.0
  0
ARC
  5
130
330
1F
100
AcDbEntity
  8
0
  6
Continuous
 62
     8
370
     0
100
AcDbCircle
 10
143.3937115176
 20
57.5868938471
 30
0.0
 40
2.15398682201706
100
AcDbArc
 50
270.0
 51
0.0
  0
LINE
  5
131
330
1F
100
AcDbEntity
  8
0
  6
Continuous
 62
     8
370
     0
100
AcDbLine
 10
143.3937099082
 20
55.4329097773
 30
0.0
 11
143.3937099082
 21
53.238847902
 31
0.0
  0
ARC
  5
132
330
1F
100
AcDbEntity
  8
0
  6
Continuous
 62
     8
370
     0
100
AcDbCircle
 10
49.3937115176
 20
57.5868938471
 30
0.0
 40
2.153986822017046
100
AcDbArc
 50
179.9999999521
 51
269.9999999563
  0
LINE
  5
133
330
1F
100
AcDbEntity
  8
0
  6
Continuous
 62
     8
370
     0
100
AcDbLine
 10
49.3937131269
 20
55.4329097773
 30
0.0
 11
49.3937131269
 21
53.238847902
 31
0.0
  0
LINE
  5
134
330
1F
100
AcDbEntity
  8
0
  6
Continuous
 62
     8
370
     0
100
AcDbLine
 10
143.3937099082
 20
55.4329097773
 30
0.0
 11
49.3937131269
 21
55.4329097773
 31
0.0
  0
LINE
  5
135
330
1F
100
AcDbEntity
  8
0
  6
Continuous
 62
     8
370
     0
100
AcDbLine
 10
71.5437118215
 20
102.0868920292
 30
0.0
 11
71.1437106384
 21
102.0868920292
 31
0.0
  0
ARC
  5
136
330
1F
100
AcDbEntity
  8
0
  6
Continuous
 62
     8
370
     0
100
AcDbCircle
 10
79.3937115176
 20
102.0868938471
 30
0.0
 40
8.25
100
AcDbArc
 50
90.0
 51
180.0
  0
LINE
  5
137
330
1F
100
AcDbEntity
  8
0
  6
Continuous
 62
     8
370
     0
100
AcDbLine
 10
79.3937105937
 20
110.3368938471
 30
0.0
 11
79.3937105937
 21
109.9368945266
 31
0.0
  0
LINE
  5
138
330
1F
100
AcDbEntity
  8
0
  6
Continuous
 62
     8
370
     0
100
AcDbLine
 10
79.3937105937
 20
110.3368938471
 30
0.0
 11
113.3937124414
 21
110.3368938471
 31
0.0
  0
LINE
  5
139
330
1F
100
AcDbEntity
  8
0
  6
Continuous
 62
     8
370
     0
100
AcDbLine
 10
113.3937124414
 20
110.3368938471
 30
0.0
 11
113.3937124414
 21
109.9368945266
 31
0.0
  0
ARC
  5
13A
330
1F
100
AcDbEntity
  8
0
  6
Continuous
 62
     8
370
     0
100
AcDbCircle
 10
113.3937115176
 20
102.0868938471
 30
0.0
 40
8.25
100
AcDbArc
 50
0.0
 51
90.0
  0
LINE
  5
13B
330
1F
100
AcDbEntity
  8
0
  6
Continuous
 62
     8
370
     0
100
AcDbLine
 10
121.6437123967
 20
102.0868920292
 30
0.0
 11
121.2437112136
 21
102.0868920292
 31
0.0
  0
ARC
  5
13C
330
1F
100
AcDbEntity
  8
0
  6
Continuous
 62
     8
370
     0
100
AcDbCircle
 10
113.3937115176
 20
102.0868938471
 30
0.0
 40
3.75
100
AcDbArc
 50
0.0
 51
90.0
  0
LINE
  5
13D
330
1F
100
AcDbEntity
  8
0
  6
Continuous
 62
     8
370
     0
100
AcDbLine
 10
113.3937124414
 20
105.8368921782
 30
0.0
 11
113.3937124414
 21
106.236895224
 31
0.0
  0
LINE
  5
13E
330
1F
100
AcDbEntity
  8
0
  6
Continuous
 62
     8
370
     0
100
AcDbLine
 10
117.1437107278
 20
102.0868920292
 30
0.0
 11
117.5437119109
 21
102.0868920292
 31
0.0
  0
LINE
  5
13F
330
1F
100
AcDbEntity
  8
0
  6
Continuous
 62
     8
370
     0
100
AcDbLine
 10
113.3937124414
 20
105.8368921782
 30
0.0
 11
79.3937105937
 21
105.8368921782
 31
0.0
  0
LINE
  5
140
330
1F
100
AcDbEntity
  8
0
  6
Continuous
 62
     8
370
     0
100
AcDbLine
 10
79.3937105937
 20
105.8368921782
 30
0.0
 11
79.3937105937
 21
106.236895224
 31
0.0
  0
ARC
  5
141
330
1F
100
AcDbEntity
  8
0
  6
Continuous
 62
     8
370
     0
100
AcDbCircle
 10
79.3937115176
 20
102.0868938471
 30
0.0
 40
3.750000000000014
100
AcDbArc
 50
90.0
 51
180.0
  0
LINE
  5
142
330
1F
100
AcDbEntity
  8
0
  6
Continuous
 62
     8
370
     0
100
AcDbLine
 10
75.2437111242
 20
102.0868920292
 30
0.0
 11
75.6437123073
 21
102.0868920292
 31
0.0
  0
LINE
  5
143
330
1F
100
AcDbEntity
  8
0
  6
Continuous
 62
     8
370
     0
100
AcDbLine
 10
117.1437107278
 20
68.0868939067
 30
0.0
 11
117.1437107278
 21
102.0868920292
 31
0.0
  0
LINE
  5
144
330
1F
100
AcDbEntity
  8
0
  6
Continuous
 62
     8
370
     0
100
AcDbLine
 10
117.1437107278
 20
68.0868939067
 30
0.0
 11
117.5437119109
 21
68.0868939067
 31
0.0
  0
LINE
  5
145
330
1F
100
AcDbEntity
  8
0
  6
Continuous
 62
     8
370
     0
100
AcDbLine
 10
121.6437123967
 20
102.0868920292
 30
0.0
 11
121.6437123967
 21
68.0868939067
 31
0.0
  0
LINE
  5
146
330
1F
100
AcDbEntity
  8
0
  6
Continuous
 62
     8
370
     0
100
AcDbLine
 10
121.6437123967
 20
68.0868939067
 30
0.0
 11
121.2437112136
 21
68.0868939067
 31
0.0
  0
LINE
  5
147
330
1F
100
AcDbEntity
  8
0
  6
Continuous
 62
     8
370
     0
100
AcDbLine
 10
71.5437118215
 20
68.0868939067
 30
0.0
 11
71.1437106384
 21
68.0868939067
 31
0.0
  0
LINE
  5
148
330
1F
100
AcDbEntity
  8
0
  6
Continuous
 62
     8
370
     0
100
AcDbLine
 10
71.1437106384
 20
68.0868939067
 30
0.0
 11
71.1437106384
 21
102.0868920292
 31
0.0
  0
LINE
  5
149
330
1F
100
AcDbEntity
  8
0
  6
Continuous
 62
     8
370
     0
100
AcDbLine
 10
75.6437123073
 20
102.0868920292
 30
0.0
 11
75.6437123073
 21
68.0868939067
 31
0.0
  0
LINE
  5
14A
330
1F
100
AcDbEntity
  8
0
  6
Continuous
 62
     8
370
     0
100
AcDbLine
 10
75.2437111242
 20
68.0868939067
 30
0.0
 11
75.6437123073
 21
68.0868939067
 31
0.0
  0
LINE
  5
14B
330
1F
100
AcDbEntity
  8
0
  6
Continuous
 62
     8
370
     0
100
AcDbLine
 10
79.3937105937
 20
60.2368951346
 30
0.0
 11
79.3937105937
 21
59.8368958141
 31
0.0
  0
ARC
  5
14C
330
1F
100
AcDbEntity
  8
0
  6
Continuous
 62
     8
370
     0
100
AcDbCircle
 10
79.3937115176
 20
68.0868938471
 30
0.0
 40
8.249999999999993
100
AcDbArc
 50
180.0
 51
270.0
  0
ARC
  5
14D
330
1F
100
AcDbEntity
  8
0
  6
Continuous
 62
     8
370
     0
100
AcDbCircle
 10
113.3937115176
 20
68.0868938471
 30
0.0
 40
3.75
100
AcDbArc
 50
270.0
 51
0.0
  0
LINE
  5
14E
330
1F
100
AcDbEntity
  8
0
  6
Continuous
 62
     8
370
     0
100
AcDbLine
 10
113.3937124414
 20
63.9368907119
 30
0.0
 11
113.3937124414
 21
64.336897483
 31
0.0
  0
ARC
  5
14F
330
1F
100
AcDbEntity
  8
0
  6
Continuous
 62
     8
370
     0
100
AcDbCircle
 10
79.3937115176
 20
68.0868938471
 30
0.0
 40
3.75
100
AcDbArc
 50
180.0
 51
270.0
  0
LINE
  5
150
330
1F
100
AcDbEntity
  8
0
  6
Continuous
 62
     8
370
     0
100
AcDbLine
 10
79.3937105937
 20
63.9368907119
 30
0.0
 11
79.3937105937
 21
64.336897483
 31
0.0
  0
ARC
  5
151
330
1F
100
AcDbEntity
  8
0
  6
Continuous
 62
     8
370
     0
100
AcDbCircle
 10
113.3937115176
 20
68.0868938471
 30
0.0
 40
8.25
100
AcDbArc
 50
270.0
 51
0.0
  0
LINE
  5
152
330
1F
100
AcDbEntity
  8
0
  6
Continuous
 62
     8
370
     0
100
AcDbLine
 10
113.3937124414
 20
60.2368951346
 30
0.0
 11
113.3937124414
 21
59.8368958141
 31
0.0
  0
LINE
  5
153
330
1F
100
AcDbEntity
  8
0
  6
Continuous
 62
     8
370
     0
100
AcDbLine
 10
79.3937105937
 20
64.336897483
 30
0.0
 11
113.3937124414
 21
64.336897483
 31
0.0
  0
LINE
  5
154
330
1F
100
AcDbEntity
  8
0
  6
Continuous
 62
     8
370
     0
100
AcDbLine
 10
113.3937124414
 20
59.8368958141
 30
0.0
 11
79.3937105937
 21
59.8368958141
 31
0.0
  0
LINE
  5
155
330
1F
100
AcDbEntity
  8
0
  6
Continuous
 62
     8
370
     0
100
AcDbLine
 10
70.6937123341
 20
141.2868938329
 30
0.0
 11
70.6937123341
 21
141.5868938471
 31
0.0
  0
LINE
  5
156
330
1F
100
AcDbEntity
  8
0
  6
Continuous
 62
     8
370
     0
100
AcDbLine
 10
70.6937123341
 20
141.2868938329
 30
0.0
 11
70.3937109811
 21
141.2868938329
 31
0.0
  0
LINE
  5
157
330
1F
100
AcDbEntity
  8
0
  6
Continuous
 62
     8
370
     0
100
AcDbLine
 10
122.093710701
 20
141.2868938329
 30
0.0
 11
70.6937123341
 21
141.2868938329
 31
0.0
  0
LINE
  5
158
330
1F
100
AcDbEntity
  8
0
  6
Continuous
 62
     8
370
     0
100
AcDbLine
 10
122.093710701
 20
141.2868938329
 30
0.0
 11
122.093710701
 21
141.5868938471
 31
0.0
  0
LINE
  5
159
330
1F
100
AcDbEntity
  8
0
  6
Continuous
 62
     8
370
     0
100
AcDbLine
 10
122.393712054
 20
141.2868938329
 30
0.0
 11
122.093710701
 21
141.2868938329
 31
0.0
  0
LINE
  5
15A
330
1F
100
AcDbEntity
  8
0
  6
Continuous
 62
     8
370
     0
100
AcDbLine
 10
70.6937123341
 20
141.2868938329
 30
0.0
 11
70.6937123341
 21
127.5226871054
 31
0.0
  0
LINE
  5
15B
330
1F
100
AcDbEntity
  8
0
  6
Continuous
 62
     8
370
     0
100
AcDbLine
 10
122.093710701
 20
127.5226871054
 30
0.0
 11
122.093710701
 21
141.2868938329
 31
0.0
  0
DIMENSION
  5
15C
330
1F
100
AcDbEntity
  8
0
  6
Continuous
 62
     7
370
     0
100
AcDbDimension
  2
*D2
 10
25.2251959894
 20
42.6511004764
 30
0.0
 11
25.2251959894
 21
93.117513788
 31
0.0
 70
   160
  1
(<>)
 71
     2
 42
-1.0
  3
SLDDIMSTYLE0
100
AcDbAlignedDimension
 13
70.6937115176
 23
141.5868938471
 33
0.0
 14
49.3937115214
 24
42.6511004764
 34
0.0
 50
90.0
100
AcDbRotatedDimension
  0
DIMENSION
  5
168
330
1F
100
AcDbEntity
  8
0
  6
Continuous
 62
     7
370
     0
100
AcDbDimension
  2
*D3
 10
158.3295048883
 20
33.8226265246
 30
0.0
 11
96.6027631728
 21
33.8226265246
 31
0.0
 70
   160
  1
(<>)
 71
     2
 42
-1.0
  3
SLDDIMSTYLE0
100
AcDbAlignedDimension
 13
34.4579181468
 23
57.5868938444
 33
0.0
 14
158.3295048883
 24
57.5868938471
 34
0.0
100
AcDbRotatedDimension
  0
LINE
  5
174
330
1F
100
AcDbEntity
  8
0
  6
CENTERX2
 62
     7
370
     0
100
AcDbLine
 10
96.3937115176
 20
40.482997752
 30
0.0
 11
96.3937115176
 21
146.3658223935
 31
0.0
  0
LINE
  5
175
330
1F
100
AcDbEntity
  8
0
  6
CENTERX2
 62
     7
370
     0
100
AcDbLine
 10
160.644794206
 20
85.0868938471
 30
0.0
 11
31.0237233948
 21
85.0868938471
 31
0.0
  0
LINE
  5
176
330
1F
100
AcDbEntity
  8
0
  6
Continuous
 62
     7
370
    30
100
AcDbLine
 10
196.6210820825
 20
239.524579523
 30
0.0
 11
190.621081099
 21
239.524579523
 31
0.0
  0
LINE
  5
177
330
1F
100
AcDbEntity
  8
0
  6
Continuous
 62
     7
370
    30
100
AcDbLine
 10
236.6210774631
 20
239.524579523
 30
0.0
 11
230.6210802049
 21
239.524579523
 31
0.0
  0
LINE
  5
178
330
1F
100
AcDbEntity
  8
0
  6
Continuous
 62
     7
370
    30
100
AcDbLine
 10
230.6210802049
 20
239.524579523
 30
0.0
 11
196.6210820825
 21
239.524579523
 31
0.0
  0
LINE
  5
179
330
1F
100
AcDbEntity
  8
0
  6
Continuous
 62
     7
370
    30
100
AcDbLine
 10
186.12107943
 20
247.5245771091
 30
0.0
 11
172.6852872521
 21
247.5245771091
 31
0.0
  0
LINE
  5
17A
330
1F
100
AcDbEntity
  8
0
  6
Continuous
 62
     7
370
    30
100
AcDbLine
 10
254.5568750352
 20
247.5245771091
 30
0.0
 11
241.121079132
 21
247.5245771091
 31
0.0
  0
LINE
  5
17B
330
1F
100
AcDbEntity
  8
0
  6
Continuous
 62
     7
370
    30
100
AcDbLine
 10
241.121079132
 20
247.5245771091
 30
0.0
 11
186.12107943
 21
247.5245771091
 31
0.0
  0
LINE
  5
17C
330
1F
100
AcDbEntity
  8
0
  6
Continuous
 62
     7
370
    30
100
AcDbLine
 10
173.1210810245
 20
222.5245785992
 30
0.0
 11
170.6720416547
 21
222.2671740781
 31
0.0
  0
LINE
  5
17D
330
1F
100
AcDbEntity
  8
0
  6
Continuous
 62
     7
370
    30
100
AcDbLine
 10
170.6720416547
 20
212.7819819468
 30
0.0
 11
173.1210810245
 21
212.5245778914
 31
0.0
  0
ARC
  5
17E
330
1F
100
AcDbEntity
  8
0
  6
Continuous
 62
     7
370
    30
100
AcDbCircle
 10
178.3210802645
 20
217.5245776753
 30
0.0
 40
9.000000000000007
100
AcDbArc
 50
194.4775121859
 51
211.7999516825
  0
ARC
  5
17F
330
1F
100
AcDbEntity
  8
0
  6
Continuous
 62
     7
370
    30
100
AcDbCircle
 10
178.3210802645
 20
217.5245776753
 30
0.0
 40
9.000000000000002
100
AcDbArc
 50
148.2000483175
 51
165.5224878141
  0
LINE
  5
180
330
1F
100
AcDbEntity
  8
0
  6
Continuous
 62
     7
370
    30
100
AcDbLine
 10
167.121080041
 20
191.5245772432
 30
0.0
 11
164.1210804806
 21
194.5245777349
 31
0.0
  0
LINE
  5
181
330
1F
100
AcDbEntity
  8
0
  6
Continuous
 62
     7
370
    30
100
AcDbLine
 10
164.1210804806
 20
194.5245777349
 30
0.0
 11
161.1210804545
 21
191.5245772432
 31
0.0
  0
LINE
  5
182
330
1F
100
AcDbEntity
  8
0
  6
Continuous
 62
     7
370
    30
100
AcDbLine
 10
167.121080041
 20
184.8447182308
 30
0.0
 11
167.121080041
 21
191.5245772432
 31
0.0
  0
LINE
  5
183
330
1F
100
AcDbEntity
  8
0
  6
Continuous
 62
     7
370
    30
100
AcDbLine
 10
161.1210804545
 20
191.5245772432
 30
0.0
 11
161.1210804545
 21
184.8447182308
 31
0.0
  0
LINE
  5
184
330
1F
100
AcDbEntity
  8
0
  6
Continuous
 62
     7
370
    30
100
AcDbLine
 10
161.1210804545
 20
184.8447182308
 30
0.0
 11
161.6755801365
 21
184.5245779584
 31
0.0
  0
LINE
  5
185
330
1F
100
AcDbEntity
  8
0
  6
Continuous
 62
     7
370
    30
100
AcDbLine
 10
166.5665798933
 20
184.5245779584
 30
0.0
 11
167.121080041
 21
184.8447182308
 31
0.0
  0
LINE
  5
186
330
1F
100
AcDbEntity
  8
0
  6
Continuous
 62
     7
370
    30
100
AcDbLine
 10
159.6210802086
 20
191.5245772432
 30
0.0
 11
156.4210802895
 21
191.5245772432
 31
0.0
  0
LINE
  5
187
330
1F
100
AcDbEntity
  8
0
  6
Continuous
 62
     7
370
    30
100
AcDbLine
 10
156.4210802895
 20
223.5245769004
 30
0.0
 11
156.4210802895
 21
191.5245772432
 31
0.0
  0
LINE
  5
188
330
1F
100
AcDbEntity
  8
0
  6
Continuous
 62
     7
370
    30
100
AcDbLine
 10
159.6210802086
 20
223.5245769004
 30
0.0
 11
159.6210802086
 21
191.5245772432
 31
0.0
  0
LINE
  5
189
330
1F
100
AcDbEntity
  8
0
  6
Continuous
 62
     7
370
    30
100
AcDbLine
 10
156.4210802895
 20
223.5245769004
 30
0.0
 11
159.6210802086
 21
223.5245769004
 31
0.0
  0
LINE
  5
18A
330
1F
100
AcDbEntity
  8
0
  6
Continuous
 62
     7
370
    30
100
AcDbLine
 10
164.1210804806
 20
220.52457734
 30
0.0
 11
166.1210798771
 21
222.5245785992
 31
0.0
  0
LINE
  5
18B
330
1F
100
AcDbEntity
  8
0
  6
Continuous
 62
     7
370
    30
100
AcDbLine
 10
168.1210802049
 20
222.5245785992
 30
0.0
 11
166.1210798771
 21
222.5245785992
 31
0.0
  0
LINE
  5
18C
330
1F
100
AcDbEntity
  8
0
  6
Continuous
 62
     7
370
    30
100
AcDbLine
 10
168.1210802049
 20
222.5245785992
 30
0.0
 11
168.1210802049
 21
221.3174709211
 31
0.0
  0
ARC
  5
18D
330
1F
100
AcDbEntity
  8
0
  6
Continuous
 62
     7
370
    30
100
AcDbCircle
 10
165.6210802645
 20
221.3174708941
 30
0.0
 40
2.5
100
AcDbArc
 50
315.0
 51
0.0
  0
LINE
  5
18E
330
1F
100
AcDbEntity
  8
0
  6
Continuous
 62
     7
370
    30
100
AcDbLine
 10
167.3888473884
 20
219.5497042592
 30
0.0
 11
165.7068667114
 21
217.8677235822
 31
0.0
  0
ARC
  5
18F
330
1F
100
AcDbEntity
  8
0
  6
Continuous
 62
     7
370
    30
100
AcDbCircle
 10
167.1210802645
 20
216.4535098634
 30
0.0
 40
2.0
100
AcDbArc
 50
135.0
 51
180.0
  0
LINE
  5
190
330
1F
100
AcDbEntity
  8
0
  6
Continuous
 62
     7
370
    30
100
AcDbLine
 10
165.1210806445
 20
216.4535102527
 30
0.0
 11
165.1210806445
 21
202.4266372061
 31
0.0
  0
LINE
  5
191
330
1F
100
AcDbEntity
  8
0
  6
Continuous
 62
     7
370
    30
100
AcDbLine
 10
165.021079883
 20
202.4266372061
 30
0.0
 11
165.1210806445
 21
202.4266372061
 31
0.0
  0
LINE
  5
192
330
1F
100
AcDbEntity
  8
0
  6
Continuous
 62
     7
370
    30
100
AcDbLine
 10
165.1210806445
 20
202.2132923919
 30
0.0
 11
165.1210806445
 21
201.5076604764
 31
0.0
  0
LINE
  5
193
330
1F
100
AcDbEntity
  8
0
  6
Continuous
 62
     7
370
    30
100
AcDbLine
 10
165.021079883
 20
201.5076604764
 30
0.0
 11
165.1210806445
 21
201.5076604764
 31
0.0
  0
LINE
  5
194
330
1F
100
AcDbEntity
  8
0
  6
Continuous
 62
     7
370
    30
100
AcDbLine
 10
165.021079883
 20
201.3497472833
 30
0.0
 11
165.021079883
 21
201.5076604764
 31
0.0
  0
LINE
  5
195
330
1F
100
AcDbEntity
  8
0
  6
Continuous
 62
     7
370
    30
100
AcDbLine
 10
165.1210806445
 20
201.3497472833
 30
0.0
 11
165.021079883
 21
201.3497472833
 31
0.0
  0
LINE
  5
196
330
1F
100
AcDbEntity
  8
0
  6
Continuous
 62
     7
370
    30
100
AcDbLine
 10
165.1210806445
 20
201.3497472833
 30
0.0
 11
165.1210806445
 21
200.771898413
 31
0.0
  0
LINE
  5
197
330
1F
100
AcDbEntity
  8
0
  6
Continuous
 62
     7
370
    30
100
AcDbLine
 10
165.021079883
 20
200.7718988787
 30
0.0
 11
165.1210806445
 21
200.771898413
 31
0.0
  0
LINE
  5
198
330
1F
100
AcDbEntity
  8
0
  6
Continuous
 62
     7
370
    30
100
AcDbLine
 10
165.021079883
 20
200.6151503044
 30
0.0
 11
165.021079883
 21
200.7718988787
 31
0.0
  0
LINE
  5
199
330
1F
100
AcDbEntity
  8
0
  6
Continuous
 62
     7
370
    30
100
AcDbLine
 10
165.1210806445
 20
200.6151503044
 30
0.0
 11
165.021079883
 21
200.6151503044
 31
0.0
  0
LINE
  5
19A
330
1F
100
AcDbEntity
  8
0
  6
Continuous
 62
     7
370
    30
100
AcDbLine
 10
165.1210806445
 20
200.6151503044
 30
0.0
 11
165.1210806445
 21
198.5956452879
 31
0.0
  0
ARC
  5
19B
330
1F
100
AcDbEntity
  8
0
  6
Continuous
 62
     7
370
    30
100
AcDbCircle
 10
167.1210802645
 20
198.5956454872
 30
0.0
 40
2.000000000000016
100
AcDbArc
 50
180.0
 51
225.0
  0
LINE
  5
19C
330
1F
100
AcDbEntity
  8
0
  6
Continuous
 62
     7
370
    30
100
AcDbLine
 10
165.7068667114
 20
197.1814314927
 30
0.0
 11
167.3888473884
 21
195.4994517471
 31
0.0
  0
ARC
  5
19D
330
1F
100
AcDbEntity
  8
0
  6
Continuous
 62
     7
370
    30
100
AcDbCircle
 10
165.6210802645
 20
193.7316844565
 30
0.0
 40
2.5
100
AcDbArc
 50
0.0
 51
45.0
  0
LINE
  5
19E
330
1F
100
AcDbEntity
  8
0
  6
Continuous
 62
     7
370
    30
100
AcDbLine
 10
168.1210802049
 20
193.7316841538
 30
0.0
 11
168.1210802049
 21
192.5245774071
 31
0.0
  0
LINE
  5
19F
330
1F
100
AcDbEntity
  8
0
  6
Continuous
 62
     7
370
    30
100
AcDbLine
 10
168.1210802049
 20
192.5245774071
 30
0.0
 11
166.1210798771
 21
192.5245774071
 31
0.0
  0
LINE
  5
1A0
330
1F
100
AcDbEntity
  8
0
  6
Continuous
 62
     7
370
    30
100
AcDbLine
 10
166.1210798771
 20
192.5245774071
 30
0.0
 11
164.1210804806
 21
194.5245777349
 31
0.0
  0
LINE
  5
1A1
330
1F
100
AcDbEntity
  8
0
  6
Continuous
 62
     7
370
    30
100
AcDbLine
 10
164.1210804806
 20
194.5245777349
 30
0.0
 11
162.1210801528
 21
192.5245774071
 31
0.0
  0
LINE
  5
1A2
330
1F
100
AcDbEntity
  8
0
  6
Continuous
 62
     7
370
    30
100
AcDbLine
 10
162.1210801528
 20
192.5245774071
 30
0.0
 11
159.6210802086
 21
192.5245774071
 31
0.0
  0
LINE
  5
1A3
330
1F
100
AcDbEntity
  8
0
  6
Continuous
 62
     7
370
    30
100
AcDbLine
 10
159.6210802086
 20
192.5245774071
 30
0.0
 11
159.6210802086
 21
222.5245785992
 31
0.0
  0
LINE
  5
1A4
330
1F
100
AcDbEntity
  8
0
  6
Continuous
 62
     7
370
    30
100
AcDbLine
 10
162.1210801528
 20
222.5245785992
 30
0.0
 11
159.6210802086
 21
222.5245785992
 31
0.0
  0
LINE
  5
1A5
330
1F
100
AcDbEntity
  8
0
  6
Continuous
 62
     7
370
    30
100
AcDbLine
 10
162.1210801528
 20
222.5245785992
 30
0.0
 11
164.1210804806
 21
220.52457734
 31
0.0
  0
LINE
  5
1A6
330
1F
100
AcDbEntity
  8
0
  6
Continuous
 62
     7
370
    30
100
AcDbLine
 10
165.021079883
 20
202.2132923919
 30
0.0
 11
165.021079883
 21
202.4266372061
 31
0.0
  0
LINE
  5
1A7
330
1F
100
AcDbEntity
  8
0
  6
Continuous
 62
     7
370
    30
100
AcDbLine
 10
165.1210806445
 20
202.2132923919
 30
0.0
 11
165.021079883
 21
202.2132923919
 31
0.0
  0
SPLINE
  5
1A8
330
1F
100
AcDbEntity
  8
0
  6
Continuous
 62
     7
370
    30
100
AcDbSpline
210
0.0
220
0.0
230
1.0
 70
    24
 71
     3
 72
     9
 73
     5
 74
     0
 42
0.00000001
 43
0.00000001
 40
0.0
 40
0.0
 40
0.0
 40
0.0
 40
0.5597370894916702
 40
1.0
 40
1.0
 40
1.0
 40
1.0
 10
165.1210806444934
 20
202.4266372061421
 30
0.0
 10
165.1210806444934
 20
202.4181537222476
 30
0.0
 10
165.1210806444934
 20
202.4029975282885
 30
0.0
 10
165.1210806444934
 20
202.3866247046359
 30
0.0
 10
165.1210806444934
 20
202.3794163576413
 30
0.0
  0
LINE
  5
1A9
330
1F
100
AcDbEntity
  8
0
  6
Continuous
 62
     7
370
    30
100
AcDbLine
 10
165.021079883
 20
202.3794163576
 30
0.0
 11
165.1210806445
 21
202.3794163576
 31
0.0
  0
LINE
  5
1AA
330
1F
100
AcDbEntity
  8
0
  6
Continuous
 62
     7
370
    30
100
AcDbLine
 10
161.1210804545
 20
223.5245769004
 30
0.0
 11
159.6210802086
 21
223.5245769004
 31
0.0
  0
LINE
  5
1AB
330
1F
100
AcDbEntity
  8
0
  6
Continuous
 62
     7
370
    30
100
AcDbLine
 10
159.6210802086
 20
191.5245772432
 30
0.0
 11
161.1210804545
 21
191.5245772432
 31
0.0
  0
LINE
  5
1AC
330
1F
100
AcDbEntity
  8
0
  6
Continuous
 62
     7
370
    30
100
AcDbLine
 10
168.1210802049
 20
223.5245769004
 30
0.0
 11
167.121080041
 21
223.5245769004
 31
0.0
  0
LINE
  5
1AD
330
1F
100
AcDbEntity
  8
0
  6
Continuous
 62
     7
370
    30
100
AcDbLine
 10
168.1210802049
 20
222.5245785992
 30
0.0
 11
168.1210802049
 21
223.5245769004
 31
0.0
  0
LINE
  5
1AE
330
1F
100
AcDbEntity
  8
0
  6
Continuous
 62
     7
370
    30
100
AcDbLine
 10
168.1210802049
 20
191.5245772432
 30
0.0
 11
168.1210802049
 21
192.5245774071
 31
0.0
  0
LINE
  5
1AF
330
1F
100
AcDbEntity
  8
0
  6
Continuous
 62
     7
370
    30
100
AcDbLine
 10
168.1210802049
 20
191.5245772432
 30
0.0
 11
167.121080041
 21
191.5245772432
 31
0.0
  0
LINE
  5
1B0
330
1F
100
AcDbEntity
  8
0
  6
Continuous
 62
     7
370
    30
100
AcDbLine
 10
165.1210806445
 20
200.7471964787
 30
0.0
 11
165.1210806445
 21
200.6151503044
 31
0.0
  0
SPLINE
  5
1B1
330
1F
100
AcDbEntity
  8
0
  6
Continuous
 62
     7
370
    30
100
AcDbSpline
210
0.0
220
0.0
230
1.0
 70
    24
 71
     3
 72
     9
 73
     5
 74
     0
 42
0.00000001
 43
0.00000001
 40
0.0
 40
0.0
 40
0.0
 40
0.0
 40
0.7145776726676139
 40
0.9999999999999999
 40
0.9999999999999999
 40
0.9999999999999999
 40
0.9999999999999999
 10
165.1210806444934
 20
201.5076604764063
 30
0.0
 10
165.1210806444934
 20
201.4838471839772
 30
0.0
 10
165.1210806444934
 20
201.4505221958898
 30
0.0
 10
165.1210806444934
 20
201.3913488548667
 30
0.0
 10
165.1210806444934
 20
201.3744594621558
 30
0.0
  0
LINE
  5
1B2
330
1F
100
AcDbEntity
  8
0
  6
Continuous
 62
     7
370
    30
100
AcDbLine
 10
165.1210806445
 20
202.3742158524
 30
0.0
 11
165.1210806445
 21
202.2132923919
 31
0.0
  0
LWPOLYLINE
  5
1B3
330
1F
100
AcDbEntity
  8
0
  6
Continuous
 62
     7
370
    30
100
AcDbPolyline
 90
        3
 70
   128
 43
0.0
 10
180.1210803092
 20
235.5245770048
 10
182.2232765258
 20
234.2234523128
 10
183.1882813126
 20
233.6261765192
  0
LWPOLYLINE
  5
1B4
330
1F
100
AcDbEntity
  8
0
  6
Continuous
 62
     7
370
    30
100
AcDbPolyline
 90
        2
 70
   128
 43
0.0
 10
183.1882813126
 20
233.6261765192
 10
183.1882813126
 20
233.6261765192
  0
LWPOLYLINE
  5
1B5
330
1F
100
AcDbEntity
  8
0
  6
Continuous
 62
     7
370
    30
100
AcDbPolyline
 90
        2
 70
   128
 43
0.0
 10
244.0538809747
 20
233.6261765192
 10
244.0538809747
 20
233.6261765192
  0
LWPOLYLINE
  5
1B6
330
1F
100
AcDbEntity
  8
0
  6
Continuous
 62
     7
370
    30
100
AcDbPolyline
 90
        3
 70
   128
 43
0.0
 10
244.0538809747
 20
233.6261765192
 10
245.0188876242
 20
234.2234523128
 10
247.1210838408
 20
235.5245770048
  0
LWPOLYLINE
  5
1B7
330
1F
100
AcDbEntity
  8
0
  6
Continuous
 62
     7
370
    30
100
AcDbPolyline
 90
        2
 70
   128
 43
0.0
 10
186.6639454961
 20
209.9817119631
 10
186.6639454961
 20
209.9817119631
  0
ARC
  5
1B8
330
1F
100
AcDbEntity
  8
0
  6
Continuous
 62
     7
370
    30
100
AcDbCircle
 10
188.0781595513
 20
211.3959255132
 30
0.0
 40
2.000000000000048
100
AcDbArc
 50
183.0
 51
225.0
  0
LWPOLYLINE
  5
1B9
330
1F
100
AcDbEntity
  8
0
  6
Continuous
 62
     7
370
    30
100
AcDbPolyline
 90
        2
 70
   128
 43
0.0
 10
240.5782149286
 20
209.9817119631
 10
240.5782149286
 20
209.9817119631
  0
SPLINE
  5
1BA
330
1F
100
AcDbEntity
  8
0
  6
Continuous
 62
     7
370
    30
100
AcDbSpline
210
0.0
220
0.0
230
1.0
 70
     8
 71
     3
 72
     9
 73
     5
 74
     0
 42
0.00000001
 43
0.00000001
 40
0.0
 40
0.0
 40
0.0
 40
0.0
 40
0.9999213659217354
 40
1.0
 40
1.0
 40
1.0
 40
1.0
 10
240.4825420231274
 20
209.9403929057617
 30
0.0
 10
240.514584310025
 20
209.9442719239243
 30
0.0
 10
240.5466291167363
 20
209.9481512471339
 30
0.0
 10
240.5782124450466
 20
209.9817093242986
 30
0.0
 10
240.5782149285725
 20
209.9817119631071
 30
0.0
  0
LINE
  5
1BB
330
1F
100
AcDbEntity
  8
0
  6
Continuous
 62
     7
370
    30
100
AcDbLine
 10
186.6639454961
 20
209.9817119631
 30
0.0
 11
187.0782145411
 21
209.5674433838
 31
0.0
  0
LINE
  5
1BC
330
1F
100
AcDbEntity
  8
0
  6
Continuous
 62
     7
370
    30
100
AcDbLine
 10
240.1639477462
 20
209.5674433838
 30
0.0
 11
240.5782149286
 21
209.9817119631
 31
0.0
  0
ARC
  5
1BD
330
1F
100
AcDbEntity
  8
0
  6
Continuous
 62
     7
370
    30
100
AcDbCircle
 10
185.6640009777
 20
208.1532298374
 30
0.0
 40
1.999999999999993
100
AcDbArc
 50
3.0
 51
45.0
  0
ARC
  5
1BE
330
1F
100
AcDbEntity
  8
0
  6
Continuous
 62
     7
370
    30
100
AcDbCircle
 10
241.5781595513
 20
208.1532298374
 30
0.0
 40
1.999999999999992
100
AcDbArc
 50
135.0
 51
177.0
  0
LINE
  5
1BF
330
1F
100
AcDbEntity
  8
0
  6
Continuous
 62
     7
370
    30
100
AcDbLine
 10
210.5889313967
 20
230.1245768647
 30
0.0
 11
210.5889313967
 21
230.0245770346
 31
0.0
  0
LINE
  5
1C0
330
1F
100
AcDbEntity
  8
0
  6
Continuous
 62
     7
370
    30
100
AcDbLine
 10
210.5889313967
 20
230.0245770346
 30
0.0
 11
201.6800598354
 21
230.0245770346
 31
0.0
  0
ARC
  5
1C1
330
1F
100
AcDbEntity
  8
0
  6
Continuous
 62
     7
370
    30
100
AcDbCircle
 10
201.6800608609
 20
225.0245776753
 30
0.0
 40
5.0
100
AcDbArc
 50
90.0
 51
170.0
  0
LINE
  5
1C2
330
1F
100
AcDbEntity
  8
0
  6
Continuous
 62
     7
370
    30
100
AcDbLine
 10
196.7560232729
 20
225.892818449
 30
0.0
 11
192.589643702
 21
202.2641053516
 31
0.0
  0
ARC
  5
1C3
330
1F
100
AcDbEntity
  8
0
  6
Continuous
 62
     7
370
    30
100
AcDbCircle
 10
191.1124308177
 20
202.5245776753
 30
0.0
 40
1.5
100
AcDbArc
 50
270.0
 51
350.0
  0
LINE
  5
1C4
330
1F
100
AcDbEntity
  8
0
  6
Continuous
 62
     7
370
    30
100
AcDbLine
 10
191.1124319882
 20
201.024577869
 30
0.0
 11
190.4127554149
 21
201.024577869
 31
0.0
  0
ARC
  5
1C5
330
1F
100
AcDbEntity
  8
0
  6
Continuous
 62
     7
370
    30
100
AcDbCircle
 10
190.4127539156
 20
203.5245776753
 30
0.0
 40
2.5
100
AcDbArc
 50
183.0
 51
270.0
  0
ARC
  5
1C6
330
1F
100
AcDbEntity
  8
0
  6
Continuous
 62
     7
370
    30
100
AcDbCircle
 10
172.6852868938
 20
246.0245776753
 30
0.0
 40
1.500000000000021
100
AcDbArc
 50
43.0
 51
222.0
  0
LINE
  5
1C7
330
1F
100
AcDbEntity
  8
0
  6
Continuous
 62
     7
370
    30
100
AcDbLine
 10
181.7730323524
 20
238.4785813372
 30
0.0
 11
173.7823181898
 21
247.0475760381
 31
0.0
  0
ARC
  5
1C8
330
1F
100
AcDbEntity
  8
0
  6
Continuous
 62
     7
370
    30
100
AcDbCircle
 10
183.9670934425
 20
240.5245776753
 30
0.0
 40
3.0
100
AcDbArc
 50
223.0
 51
270.0
  0
LINE
  5
1C9
330
1F
100
AcDbEntity
  8
0
  6
Continuous
 62
     7
370
    30
100
AcDbLine
 10
188.3710802645
 20
237.5245791952
 30
0.0
 11
183.9670942277
 21
237.5245791952
 31
0.0
  0
ARC
  5
1CA
330
1F
100
AcDbEntity
  8
0
  6
Continuous
 62
     7
370
    30
100
AcDbCircle
 10
188.3710802645
 20
238.0245776753
 30
0.0
 40
0.5
100
AcDbArc
 50
270.0
 51
323.1301023542
  0
LINE
  5
1CB
330
1F
100
AcDbEntity
  8
0
  6
Continuous
 62
     7
370
    30
100
AcDbLine
 10
189.8210787327
 20
239.1245764772
 30
0.0
 11
188.771079585
 21
237.7245788555
 31
0.0
  0
ARC
  5
1CC
330
1F
100
AcDbEntity
  8
0
  6
Continuous
 62
     7
370
    30
100
AcDbCircle
 10
190.6210802645
 20
238.5245776753
 30
0.0
 40
1.000000000000023
100
AcDbArc
 50
36.8698976458
 51
143.1301023542
  0
LINE
  5
1CD
330
1F
100
AcDbEntity
  8
0
  6
Continuous
 62
     7
370
    30
100
AcDbLine
 10
192.4710788876
 20
237.7245788555
 30
0.0
 11
191.42107974
 21
239.1245764772
 31
0.0
  0
ARC
  5
1CE
330
1F
100
AcDbEntity
  8
0
  6
Continuous
 62
     7
370
    30
100
AcDbCircle
 10
192.8710802645
 20
238.0245776753
 30
0.0
 40
0.5
100
AcDbArc
 50
216.8698976458
 51
270.0
  0
LINE
  5
1CF
330
1F
100
AcDbEntity
  8
0
  6
Continuous
 62
     7
370
    30
100
AcDbLine
 10
234.3710766286
 20
237.5245791952
 30
0.0
 11
192.8710819334
 21
237.5245791952
 31
0.0
  0
ARC
  5
1D0
330
1F
100
AcDbEntity
  8
0
  6
Continuous
 62
     7
370
    30
100
AcDbCircle
 10
234.3710802645
 20
238.0245776753
 30
0.0
 40
0.5
100
AcDbArc
 50
270.0
 51
323.1301023542
  0
LINE
  5
1D1
330
1F
100
AcDbEntity
  8
0
  6
Continuous
 62
     7
370
    30
100
AcDbLine
 10
234.7710833997
 20
237.7245788555
 30
0.0
 11
235.8210788221
 21
239.1245764772
 31
0.0
  0
ARC
  5
1D2
330
1F
100
AcDbEntity
  8
0
  6
Continuous
 62
     7
370
    30
100
AcDbCircle
 10
236.6210802645
 20
238.5245776753
 30
0.0
 40
1.000000000000023
100
AcDbArc
 50
36.8698976458
 51
143.1301023542
  0
LINE
  5
1D3
330
1F
100
AcDbEntity
  8
0
  6
Continuous
 62
     7
370
    30
100
AcDbLine
 10
237.4210835547
 20
239.1245764772
 30
0.0
 11
238.4710789771
 21
237.7245788555
 31
0.0
  0
ARC
  5
1D4
330
1F
100
AcDbEntity
  8
0
  6
Continuous
 62
     7
370
    30
100
AcDbCircle
 10
238.8710802645
 20
238.0245776753
 30
0.0
 40
0.5
100
AcDbArc
 50
216.8698976458
 51
270.0
  0
LINE
  5
1D5
330
1F
100
AcDbEntity
  8
0
  6
Continuous
 62
     7
370
    30
100
AcDbLine
 10
243.2750643343
 20
237.5245791952
 30
0.0
 11
238.8710782976
 21
237.5245791952
 31
0.0
  0
ARC
  5
1D6
330
1F
100
AcDbEntity
  8
0
  6
Continuous
 62
     7
370
    30
100
AcDbCircle
 10
243.2750670865
 20
240.5245776753
 30
0.0
 40
3.000000000000021
100
AcDbArc
 50
270.0
 51
317.0
  0
LINE
  5
1D7
330
1F
100
AcDbEntity
  8
0
  6
Continuous
 62
     7
370
    30
100
AcDbLine
 10
245.4691262097
 20
238.4785813372
 30
0.0
 11
253.4598440976
 21
247.0475760381
 31
0.0
  0
ARC
  5
1D8
330
1F
100
AcDbEntity
  8
0
  6
Continuous
 62
     7
370
    30
100
AcDbCircle
 10
254.5568736352
 20
246.0245776753
 30
0.0
 40
1.500000000000042
100
AcDbArc
 50
318.0
 51
137.0
  0
LINE
  5
1D9
330
1F
100
AcDbEntity
  8
0
  6
Continuous
 62
     7
370
    30
100
AcDbLine
 10
255.6715936512
 20
245.02088028
 30
0.0
 11
247.1210838408
 21
235.5245770048
 31
0.0
  0
ARC
  5
1DA
330
1F
100
AcDbEntity
  8
0
  6
Continuous
 62
     7
370
    30
100
AcDbCircle
 10
239.1640009777
 20
211.3959255132
 30
0.0
 40
2.000000000000022
100
AcDbArc
 50
315.0
 51
357.0
  0
ARC
  5
1DB
330
1F
100
AcDbEntity
  8
0
  6
Continuous
 62
     7
370
    30
100
AcDbCircle
 10
236.8294066135
 20
203.5245776753
 30
0.0
 40
2.5
100
AcDbArc
 50
270.0
 51
357.0
  0
LINE
  5
1DC
330
1F
100
AcDbEntity
  8
0
  6
Continuous
 62
     7
370
    30
100
AcDbLine
 10
236.8294031472
 20
201.024577869
 30
0.0
 11
236.1297265739
 21
201.024577869
 31
0.0
  0
ARC
  5
1DD
330
1F
100
AcDbEntity
  8
0
  6
Continuous
 62
     7
370
    30
100
AcDbCircle
 10
236.1297297113
 20
202.5245776753
 30
0.0
 40
1.5
100
AcDbArc
 50
190.0
 51
270.0
  0
LINE
  5
1DE
330
1F
100
AcDbEntity
  8
0
  6
Continuous
 62
     7
370
    30
100
AcDbLine
 10
234.6525148601
 20
202.2641053516
 30
0.0
 11
230.4861352891
 21
225.892818449
 31
0.0
  0
ARC
  5
1DF
330
1F
100
AcDbEntity
  8
0
  6
Continuous
 62
     7
370
    30
100
AcDbCircle
 10
225.5620996681
 20
225.0245776753
 30
0.0
 40
5.0
100
AcDbArc
 50
10.0
 51
90.0
  0
LINE
  5
1E0
330
1F
100
AcDbEntity
  8
0
  6
Continuous
 62
     7
370
    30
100
AcDbLine
 10
225.5620987267
 20
230.0245770346
 30
0.0
 11
215.9436599464
 21
230.0245770346
 31
0.0
  0
LINE
  5
1E1
330
1F
100
AcDbEntity
  8
0
  6
Continuous
 62
     7
370
    30
100
AcDbLine
 10
215.9436599464
 20
230.0245770346
 30
0.0
 11
215.9436599464
 21
230.1245768647
 31
0.0
  0
LINE
  5
1E2
330
1F
100
AcDbEntity
  8
0
  6
Continuous
 62
     7
370
    30
100
AcDbLine
 10
215.9436599464
 20
230.1245768647
 30
0.0
 11
215.8129693121
 21
230.1245768647
 31
0.0
  0
LINE
  5
1E3
330
1F
100
AcDbEntity
  8
0
  6
Continuous
 62
     7
370
    30
100
AcDbLine
 10
215.8129693121
 20
230.1245768647
 30
0.0
 11
215.8129693121
 21
230.0245770346
 31
0.0
  0
LINE
  5
1E4
330
1F
100
AcDbEntity
  8
0
  6
Continuous
 62
     7
370
    30
100
AcDbLine
 10
215.8129693121
 20
230.0245770346
 30
0.0
 11
212.6533270926
 21
230.0245770346
 31
0.0
  0
LINE
  5
1E5
330
1F
100
AcDbEntity
  8
0
  6
Continuous
 62
     7
370
    30
100
AcDbLine
 10
212.6533270926
 20
230.0245770346
 30
0.0
 11
212.6533270926
 21
230.1245768647
 31
0.0
  0
LINE
  5
1E6
330
1F
100
AcDbEntity
  8
0
  6
Continuous
 62
     7
370
    30
100
AcDbLine
 10
212.6533270926
 20
230.1245768647
 30
0.0
 11
212.5241601021
 21
230.1245768647
 31
0.0
  0
LINE
  5
1E7
330
1F
100
AcDbEntity
  8
0
  6
Continuous
 62
     7
370
    30
100
AcDbLine
 10
212.5241601021
 20
230.1245768647
 30
0.0
 11
212.5241601021
 21
230.0245770346
 31
0.0
  0
LINE
  5
1E8
330
1F
100
AcDbEntity
  8
0
  6
Continuous
 62
     7
370
    30
100
AcDbLine
 10
212.5241601021
 20
230.0245770346
 30
0.0
 11
211.65113087
 21
230.0245770346
 31
0.0
  0
LINE
  5
1E9
330
1F
100
AcDbEntity
  8
0
  6
Continuous
 62
     7
370
    30
100
AcDbLine
 10
211.65113087
 20
230.0245770346
 30
0.0
 11
211.65113087
 21
230.1245768647
 31
0.0
  0
LINE
  5
1EA
330
1F
100
AcDbEntity
  8
0
  6
Continuous
 62
     7
370
    30
100
AcDbLine
 10
211.65113087
 20
230.1245768647
 30
0.0
 11
211.518748954
 21
230.1245768647
 31
0.0
  0
LINE
  5
1EB
330
1F
100
AcDbEntity
  8
0
  6
Continuous
 62
     7
370
    30
100
AcDbLine
 10
211.518748954
 20
230.1245768647
 30
0.0
 11
211.518748954
 21
230.0245770346
 31
0.0
  0
LINE
  5
1EC
330
1F
100
AcDbEntity
  8
0
  6
Continuous
 62
     7
370
    30
100
AcDbLine
 10
211.518748954
 20
230.0245770346
 30
0.0
 11
210.7179121227
 21
230.0245770346
 31
0.0
  0
LINE
  5
1ED
330
1F
100
AcDbEntity
  8
0
  6
Continuous
 62
     7
370
    30
100
AcDbLine
 10
210.7179121227
 20
230.0245770346
 30
0.0
 11
210.7179121227
 21
230.1245768647
 31
0.0
  0
LINE
  5
1EE
330
1F
100
AcDbEntity
  8
0
  6
Continuous
 62
     7
370
    30
100
AcDbLine
 10
210.7179121227
 20
230.1245768647
 30
0.0
 11
210.5889313967
 21
230.1245768647
 31
0.0
  0
LINE
  5
1EF
330
1F
100
AcDbEntity
  8
0
  6
Continuous
 62
     7
370
    30
100
AcDbLine
 10
242.1645031423
 20
230.4342900495
 30
0.0
 11
241.1612601132
 21
211.2912534828
 31
0.0
  0
LINE
  5
1F0
330
1F
100
AcDbEntity
  8
0
  6
Continuous
 62
     7
370
    30
100
AcDbLine
 10
239.5809025616
 20
208.257901864
 30
0.0
 11
239.3259809465
 21
203.3937377016
 31
0.0
  0
ARC
  5
1F1
330
1F
100
AcDbEntity
  8
0
  6
Continuous
 62
     7
370
    30
100
AcDbCircle
 10
246.1590221947
 20
230.2249458332
 30
0.0
 40
4.000000000000015
100
AcDbArc
 50
121.7548507948
 51
177.0
  0
LINE
  5
1F2
330
1F
100
AcDbEntity
  8
0
  6
Continuous
 62
     7
370
    30
100
AcDbLine
 10
187.9161794782
 20
203.3937377016
 30
0.0
 11
187.6612597258
 21
208.257901864
 31
0.0
  0
LINE
  5
1F3
330
1F
100
AcDbEntity
  8
0
  6
Continuous
 62
     7
370
    30
100
AcDbLine
 10
186.0809003115
 20
211.2912534828
 30
0.0
 11
185.0776572824
 21
230.4342900495
 31
0.0
  0
ARC
  5
1F4
330
1F
100
AcDbEntity
  8
0
  6
Continuous
 62
     7
370
    30
100
AcDbCircle
 10
181.0831383343
 20
230.2249458332
 30
0.0
 40
3.999999999999987
100
AcDbArc
 50
3.0
 51
58.2451492052
  0
LINE
  5
1F5
330
1F
100
AcDbEntity
  8
0
  6
Continuous
 62
     7
370
    30
100
AcDbLine
 10
171.5705695674
 20
245.02088028
 30
0.0
 11
180.1210803092
 21
235.5245770048
 31
0.0
  0
LINE
  5
1F6
330
1F
100
AcDbEntity
  8
0
  6
Continuous
 62
     7
370
    30
100
AcDbLine
 10
212.5243053884
 20
230.1245768647
 30
0.0
 11
212.5243053884
 21
230.0245770346
 31
0.0
  0
SPLINE
  5
1F7
330
1F
100
AcDbEntity
  8
0
  6
Continuous
 62
     7
370
    30
100
AcDbSpline
210
0.0
220
0.0
230
1.0
 70
    24
 71
     3
 72
     9
 73
     5
 74
     0
 42
0.00000001
 43
0.00000001
 40
0.0
 40
0.0
 40
0.0
 40
0.0
 40
0.5599997490706844
 40
1.0
 40
1.0
 40
1.0
 40
1.0
 10
212.5241601020745
 20
230.0245770345528
 30
0.0
 10
212.5241875473117
 20
230.0245770345528
 30
0.0
 10
212.5242365566858
 20
230.0245770345528
 30
0.0
 10
212.5242843564763
 20
230.0245770345528
 30
0.0
 10
212.5243053883961
 20
230.0245770345528
 30
0.0
  0
LINE
  5
1F8
330
1F
100
AcDbEntity
  8
0
  6
Continuous
 62
     7
370
    30
100
AcDbLine
 10
210.7178562433
 20
230.1245768647
 30
0.0
 11
210.7178562433
 21
230.0245770346
 31
0.0
  0
SPLINE
  5
1F9
330
1F
100
AcDbEntity
  8
0
  6
Continuous
 62
     7
370
    30
100
AcDbSpline
210
0.0
220
0.0
230
1.0
 70
    24
 71
     3
 72
     9
 73
     5
 74
     0
 42
0.00000001
 43
0.00000001
 40
0.0
 40
0.0
 40
0.0
 40
0.0
 40
0.5599871437195767
 40
1.0
 40
1.0
 40
1.0
 40
1.0
 10
210.7178562433175
 20
230.0245770345528
 30
0.0
 10
210.7178658615086
 20
230.0245770345528
 30
0.0
 10
210.7178830372441
 20
230.0245770345528
 30
0.0
 10
210.7179032352776
 20
230.0245770345528
 30
0.0
 10
210.7179121226719
 20
230.0245770345528
 30
0.0
  0
LINE
  5
1FA
330
1F
100
AcDbEntity
  8
0
  6
Continuous
 62
     7
370
    30
100
AcDbLine
 10
211.518748954
 20
230.0245770346
 30
0.0
 11
211.5243070871
 21
230.0245770346
 31
0.0
  0
LINE
  5
1FB
330
1F
100
AcDbEntity
  8
0
  6
Continuous
 62
     7
370
    30
100
AcDbLine
 10
215.8141241521
 20
230.1245768647
 30
0.0
 11
215.8141241521
 21
230.0245770346
 31
0.0
  0
LINE
  5
1FC
330
1F
100
AcDbEntity
  8
0
  6
Continuous
 62
     7
370
    30
100
AcDbLine
 10
215.8129693121
 20
230.0245770346
 30
0.0
 11
215.8141241521
 21
230.0245770346
 31
0.0
  0
SPLINE
  5
1FD
330
1F
100
AcDbEntity
  8
0
  6
Continuous
 62
     7
370
    30
100
AcDbSpline
210
0.0
220
0.0
230
1.0
 70
    24
 71
     3
 72
     9
 73
     5
 74
     0
 42
0.00000001
 43
0.00000001
 40
0.0
 40
0.0
 40
0.0
 40
0.0
 40
0.4723856173991338
 40
1.0
 40
1.0
 40
1.0
 40
1.0
 10
212.5565626770905
 20
230.0245770345528
 30
0.0
 10
212.5853830738024
 20
230.0245770345528
 30
0.0
 10
212.6463933917511
 20
230.0245770345528
 30
0.0
 10
212.6509396154525
 20
230.0245770345528
 30
0.0
 10
212.653338268464
 20
230.0245770345528
 30
0.0
  0
SPLINE
  5
1FE
330
1F
100
AcDbEntity
  8
0
  6
Continuous
 62
     7
370
    30
100
AcDbSpline
210
0.0
220
0.0
230
1.0
 70
    24
 71
     3
 72
     9
 73
     5
 74
     0
 42
0.00000001
 43
0.00000001
 40
0.0
 40
0.0
 40
0.0
 40
0.0
 40
0.7855172772846809
 40
1.0
 40
1.0
 40
1.0
 40
1.0
 10
210.5888233632496
 20
230.0245770345528
 30
0.0
 10
210.5933022165021
 20
230.0245770345528
 30
0.0
 10
210.5990040048422
 20
230.0245770345528
 30
0.0
 10
210.6703028573257
 20
230.0245770345528
 30
0.0
 10
210.6855952293328
 20
230.0245770345528
 30
0.0
  0
SPLINE
  5
1FF
330
1F
100
AcDbEntity
  8
0
  6
Continuous
 62
     7
370
    30
100
AcDbSpline
210
0.0
220
0.0
230
1.0
 70
    24
 71
     3
 72
     9
 73
     5
 74
     0
 42
0.00000001
 43
0.00000001
 40
0.0
 40
0.0
 40
0.0
 40
0.0
 40
0.3473244378883453
 40
1.0
 40
1.0
 40
1.0
 40
1.0
 10
211.5496539623192
 20
230.0245770345528
 30
0.0
 10
211.5550077853133
 20
230.0245770345528
 30
0.0
 10
211.5704222578064
 20
230.0245770345528
 30
0.0
 10
211.6032082120252
 20
230.0245770345528
 30
0.0
 10
211.6246068031243
 20
230.0245770345528
 30
0.0
  0
LINE
  5
200
330
1F
100
AcDbEntity
  8
0
  6
Continuous
 62
     7
370
    30
100
AcDbLine
 10
215.8141241521
 20
230.0245770346
 30
0.0
 11
215.9436599464
 21
230.0245770346
 31
0.0
  0
LINE
  5
201
330
1F
100
AcDbEntity
  8
0
  6
Continuous
 62
     7
370
    30
100
AcDbLine
 10
198.4984905571
 20
201.024577869
 30
0.0
 11
191.1124319882
 21
201.024577869
 31
0.0
  0
LINE
  5
202
330
1F
100
AcDbEntity
  8
0
  6
Continuous
 62
     7
370
    30
100
AcDbLine
 10
236.1297265739
 20
201.024577869
 30
0.0
 11
228.7436680049
 21
201.024577869
 31
0.0
  0
LINE
  5
203
330
1F
100
AcDbEntity
  8
0
  6
Continuous
 62
     7
370
    30
100
AcDbLine
 10
228.7436680049
 20
201.024577869
 30
0.0
 11
198.4984905571
 21
201.024577869
 31
0.0
  0
ARC
  5
204
330
1F
100
AcDbEntity
  8
0
  6
Continuous
 62
     7
370
    30
100
AcDbCircle
 10
186.4641775168
 20
208.5245776753
 30
0.0
 40
1.000000000000008
100
AcDbArc
 50
270.0
 51
60.0
  0
LINE
  5
205
330
1F
100
AcDbEntity
  8
0
  6
Continuous
 62
     7
370
    30
100
AcDbLine
 10
184.1151093245
 20
207.5245777703
 30
0.0
 11
186.4641768039
 21
207.5245777703
 31
0.0
  0
LINE
  5
206
330
1F
100
AcDbEntity
  8
0
  6
Continuous
 62
     7
370
    30
100
AcDbLine
 10
183.706165582
 20
209.0245633478
 30
0.0
 11
184.1151093245
 21
207.5245777703
 31
0.0
  0
LINE
  5
207
330
1F
100
AcDbEntity
  8
0
  6
Continuous
 62
     7
370
    30
100
AcDbLine
 10
183.6341706217
 20
225.5245772283
 30
0.0
 11
183.706165582
 21
209.0245633478
 31
0.0
  0
LINE
  5
208
330
1F
100
AcDbEntity
  8
0
  6
Continuous
 62
     7
370
    30
100
AcDbLine
 10
180.4097549171
 20
225.5245772283
 30
0.0
 11
183.6341706217
 21
225.5245772283
 31
0.0
  0
LINE
  5
209
330
1F
100
AcDbEntity
  8
0
  6
Continuous
 62
     7
370
    30
100
AcDbLine
 10
180.1210803092
 20
226.0245782415
 30
0.0
 11
180.4097549171
 21
225.5245772283
 31
0.0
  0
ARC
  5
20A
330
1F
100
AcDbEntity
  8
0
  6
Continuous
 62
     7
370
    30
100
AcDbCircle
 10
187.1210802645
 20
211.6094163122
 30
0.0
 40
2.0
100
AcDbArc
 50
180.0
 51
240.0
  0
LINE
  5
20B
330
1F
100
AcDbEntity
  8
0
  6
Continuous
 62
     7
370
    30
100
AcDbLine
 10
186.12107943
 20
209.8773656505
 30
0.0
 11
186.9641778172
 21
209.3906031548
 31
0.0
  0
LINE
  5
20C
330
1F
100
AcDbEntity
  8
0
  6
Continuous
 62
     7
370
    30
100
AcDbLine
 10
180.1210803092
 20
226.0245782415
 30
0.0
 11
180.1210803092
 21
228.52457772
 31
0.0
  0
LINE
  5
20D
330
1F
100
AcDbEntity
  8
0
  6
Continuous
 62
     7
370
    30
100
AcDbLine
 10
185.1210811288
 20
228.52457772
 30
0.0
 11
185.1210811288
 21
211.6094160917
 31
0.0
  0
LINE
  5
20E
330
1F
100
AcDbEntity
  8
0
  6
Continuous
 62
     7
370
    30
100
AcDbLine
 10
180.1210803092
 20
228.52457772
 30
0.0
 11
185.1210811288
 21
228.52457772
 31
0.0
  0
ARC
  5
20F
330
1F
100
AcDbEntity
  8
0
  6
Continuous
 62
     7
370
    30
100
AcDbCircle
 10
240.1210802645
 20
211.6094163122
 30
0.0
 40
2.0
100
AcDbArc
 50
300.0
 51
0.0
  0
LINE
  5
210
330
1F
100
AcDbEntity
  8
0
  6
Continuous
 62
     7
370
    30
100
AcDbLine
 10
244.6210787744
 20
228.52457772
 30
0.0
 11
244.6210787744
 21
226.0245782415
 31
0.0
  0
LINE
  5
211
330
1F
100
AcDbEntity
  8
0
  6
Continuous
 62
     7
370
    30
100
AcDbLine
 10
244.3324060292
 20
225.5245772283
 30
0.0
 11
244.6210787744
 21
226.0245782415
 31
0.0
  0
LINE
  5
212
330
1F
100
AcDbEntity
  8
0
  6
Continuous
 62
     7
370
    30
100
AcDbLine
 10
243.535998568
 20
209.0245633478
 30
0.0
 11
243.6079935283
 21
225.5245772283
 31
0.0
  0
LINE
  5
213
330
1F
100
AcDbEntity
  8
0
  6
Continuous
 62
     7
370
    30
100
AcDbLine
 10
243.1270511002
 20
207.5245777703
 30
0.0
 11
243.535998568
 21
209.0245633478
 31
0.0
  0
ARC
  5
214
330
1F
100
AcDbEntity
  8
0
  6
Continuous
 62
     7
370
    30
100
AcDbCircle
 10
240.7779830122
 20
208.5245776753
 30
0.0
 40
1.000000000000008
100
AcDbArc
 50
120.0
 51
270.0
  0
LINE
  5
215
330
1F
100
AcDbEntity
  8
0
  6
Continuous
 62
     7
370
    30
100
AcDbLine
 10
240.2779863328
 20
209.3906031548
 30
0.0
 11
241.121079132
 21
209.8773656505
 31
0.0
  0
LINE
  5
216
330
1F
100
AcDbEntity
  8
0
  6
Continuous
 62
     7
370
    30
100
AcDbLine
 10
240.7779798955
 20
207.5245777703
 30
0.0
 11
243.1270511002
 21
207.5245777703
 31
0.0
  0
LINE
  5
217
330
1F
100
AcDbEntity
  8
0
  6
Continuous
 62
     7
370
    30
100
AcDbLine
 10
243.6079935283
 20
225.5245772283
 30
0.0
 11
244.3324060292
 21
225.5245772283
 31
0.0
  0
LINE
  5
218
330
1F
100
AcDbEntity
  8
0
  6
Continuous
 62
     7
370
    30
100
AcDbLine
 10
242.1210811586
 20
211.6094160917
 30
0.0
 11
242.1210811586
 21
228.52457772
 31
0.0
  0
LINE
  5
219
330
1F
100
AcDbEntity
  8
0
  6
Continuous
 62
     7
370
    30
100
AcDbLine
 10
242.1210811586
 20
228.52457772
 30
0.0
 11
244.6210787744
 21
228.52457772
 31
0.0
  0
LINE
  5
21A
330
1F
100
AcDbEntity
  8
0
  6
Continuous
 62
     7
370
    30
100
AcDbLine
 10
242.0644194931
 20
228.52457772
 30
0.0
 11
242.1210811586
 21
228.52457772
 31
0.0
  0
LINE
  5
21B
330
1F
100
AcDbEntity
  8
0
  6
Continuous
 62
     7
370
    30
100
AcDbLine
 10
185.1777409316
 20
228.52457772
 30
0.0
 11
185.1210811288
 21
228.52457772
 31
0.0
  0
LINE
  5
21C
330
1F
100
AcDbEntity
  8
0
  6
Continuous
 62
     7
370
    30
100
AcDbLine
 10
186.4641768039
 20
207.5245777703
 30
0.0
 11
187.6996916831
 21
207.5245777703
 31
0.0
  0
LINE
  5
21D
330
1F
100
AcDbEntity
  8
0
  6
Continuous
 62
     7
370
    30
100
AcDbLine
 10
239.5424650163
 20
207.5245777703
 30
0.0
 11
240.7779798955
 21
207.5245777703
 31
0.0
  0
LINE
  5
21E
330
1F
100
AcDbEntity
  8
0
  6
Continuous
 62
     7
370
    30
100
AcDbLine
 10
178.6210809947
 20
206.5245777228
 30
0.0
 11
178.6210809947
 21
228.52457772
 31
0.0
  0
LINE
  5
21F
330
1F
100
AcDbEntity
  8
0
  6
Continuous
 62
     7
370
    30
100
AcDbLine
 10
180.1210803092
 20
228.52457772
 30
0.0
 11
180.1210803092
 21
225.5245772283
 31
0.0
  0
LINE
  5
220
330
1F
100
AcDbEntity
  8
0
  6
Continuous
 62
     7
370
    30
100
AcDbLine
 10
183.6341706217
 20
225.5245772283
 30
0.0
 11
180.1210803092
 21
225.5245772283
 31
0.0
  0
LINE
  5
221
330
1F
100
AcDbEntity
  8
0
  6
Continuous
 62
     7
370
    30
100
AcDbLine
 10
183.6341706217
 20
225.5245772283
 30
0.0
 11
183.717073232
 21
206.5245777228
 31
0.0
  0
LINE
  5
222
330
1F
100
AcDbEntity
  8
0
  6
Continuous
 62
     7
370
    30
100
AcDbLine
 10
183.717073232
 20
206.5245777228
 30
0.0
 11
178.6210809947
 21
206.5245777228
 31
0.0
  0
LINE
  5
223
330
1F
100
AcDbEntity
  8
0
  6
Continuous
 62
     7
370
    30
100
AcDbLine
 10
180.1210803092
 20
228.52457772
 30
0.0
 11
178.6210809947
 21
228.52457772
 31
0.0
  0
LINE
  5
224
330
1F
100
AcDbEntity
  8
0
  6
Continuous
 62
     7
370
    30
100
AcDbLine
 10
243.5250834674
 20
206.5245777228
 30
0.0
 11
243.6079935283
 21
225.5245772283
 31
0.0
  0
LINE
  5
225
330
1F
100
AcDbEntity
  8
0
  6
Continuous
 62
     7
370
    30
100
AcDbLine
 10
244.6210787744
 20
225.5245772283
 30
0.0
 11
244.6210787744
 21
228.52457772
 31
0.0
  0
LINE
  5
226
330
1F
100
AcDbEntity
  8
0
  6
Continuous
 62
     7
370
    30
100
AcDbLine
 10
246.1210818142
 20
228.52457772
 30
0.0
 11
246.1210818142
 21
206.5245777228
 31
0.0
  0
LINE
  5
227
330
1F
100
AcDbEntity
  8
0
  6
Continuous
 62
     7
370
    30
100
AcDbLine
 10
244.6210787744
 20
225.5245772283
 30
0.0
 11
243.6079935283
 21
225.5245772283
 31
0.0
  0
LINE
  5
228
330
1F
100
AcDbEntity
  8
0
  6
Continuous
 62
     7
370
    30
100
AcDbLine
 10
246.1210818142
 20
206.5245777228
 30
0.0
 11
243.5250834674
 21
206.5245777228
 31
0.0
  0
LINE
  5
229
330
1F
100
AcDbEntity
  8
0
  6
Continuous
 62
     7
370
    30
100
AcDbLine
 10
246.1210818142
 20
228.52457772
 30
0.0
 11
244.6210787744
 21
228.52457772
 31
0.0
  0
LINE
  5
22A
330
1F
100
AcDbEntity
  8
0
  6
Continuous
 62
     7
370
    30
100
AcDbLine
 10
187.121079594
 20
206.5245777228
 30
0.0
 11
183.717073232
 21
206.5245777228
 31
0.0
  0
LINE
  5
22B
330
1F
100
AcDbEntity
  8
0
  6
Continuous
 62
     7
370
    30
100
AcDbLine
 10
243.5250834674
 20
206.5245777228
 30
0.0
 11
240.1210771055
 21
206.5245777228
 31
0.0
  0
LINE
  5
22C
330
1F
100
AcDbEntity
  8
0
  6
Continuous
 62
     7
370
    30
100
AcDbLine
 10
240.1210771055
 20
206.5245777228
 30
0.0
 11
239.4900576324
 21
206.5245777228
 31
0.0
  0
LINE
  5
22D
330
1F
100
AcDbEntity
  8
0
  6
Continuous
 62
     7
370
    30
100
AcDbLine
 10
187.752099067
 20
206.5245777228
 30
0.0
 11
187.121079594
 21
206.5245777228
 31
0.0
  0
LINE
  5
22E
330
1F
100
AcDbEntity
  8
0
  6
Continuous
 62
     7
370
    30
100
AcDbLine
 10
177.1210798175
 20
226.5245773922
 30
0.0
 11
177.1210798175
 21
206.5245777228
 31
0.0
  0
LINE
  5
22F
330
1F
100
AcDbEntity
  8
0
  6
Continuous
 62
     7
370
    30
100
AcDbLine
 10
177.1210798175
 20
226.5245773922
 30
0.0
 11
178.6210809947
 21
226.5245773922
 31
0.0
  0
LINE
  5
230
330
1F
100
AcDbEntity
  8
0
  6
Continuous
 62
     7
370
    30
100
AcDbLine
 10
178.6210809947
 20
226.5245773922
 30
0.0
 11
178.6210809947
 21
206.5245777228
 31
0.0
  0
LINE
  5
231
330
1F
100
AcDbEntity
  8
0
  6
Continuous
 62
     7
370
    30
100
AcDbLine
 10
178.6210809947
 20
206.5245777228
 30
0.0
 11
177.1210798175
 21
206.5245777228
 31
0.0
  0
LINE
  5
232
330
1F
100
AcDbEntity
  8
0
  6
Continuous
 62
     7
370
    30
100
AcDbLine
 10
157.1210802645
 20
189.0245777647
 30
0.0
 11
161.1210804545
 21
189.0245777647
 31
0.0
  0
LINE
  5
233
330
1F
100
AcDbEntity
  8
0
  6
Continuous
 62
     7
370
    30
100
AcDbLine
 10
161.1210804545
 20
185.0245771091
 30
0.0
 11
160.6210803725
 21
184.5245779584
 31
0.0
  0
LINE
  5
234
330
1F
100
AcDbEntity
  8
0
  6
Continuous
 62
     7
370
    30
100
AcDbLine
 10
160.6210803725
 20
184.5245779584
 30
0.0
 11
157.4210802788
 21
184.5245779584
 31
0.0
  0
ARC
  5
235
330
1F
100
AcDbEntity
  8
0
  6
Continuous
 62
     7
370
    30
100
AcDbCircle
 10
157.4210802645
 20
184.8245776753
 30
0.0
 40
0.2999999999999829
100
AcDbArc
 50
180.0
 51
270.0
  0
LINE
  5
236
330
1F
100
AcDbEntity
  8
0
  6
Continuous
 62
     7
370
    30
100
AcDbLine
 10
157.1210802645
 20
184.8245774488
 30
0.0
 11
157.1210802645
 21
189.0245777647
 31
0.0
  0
LINE
  5
237
330
1F
100
AcDbEntity
  8
0
  6
Continuous
 62
     7
370
    30
100
AcDbLine
 10
167.621080123
 20
184.5245779584
 30
0.0
 11
167.121080041
 21
185.0245771091
 31
0.0
  0
LINE
  5
238
330
1F
100
AcDbEntity
  8
0
  6
Continuous
 62
     7
370
    30
100
AcDbLine
 10
160.6210803725
 20
184.5245779584
 30
0.0
 11
161.6755801365
 21
184.5245779584
 31
0.0
  0
LINE
  5
239
330
1F
100
AcDbEntity
  8
0
  6
Continuous
 62
     7
370
    30
100
AcDbLine
 10
166.5665798933
 20
184.5245779584
 30
0.0
 11
167.621080123
 21
184.5245779584
 31
0.0
  0
LINE
  5
23A
330
1F
100
AcDbEntity
  8
0
  6
Continuous
 62
     7
370
    30
100
AcDbLine
 10
177.1210798175
 20
206.5245777228
 30
0.0
 11
180.1210803092
 21
206.5245777228
 31
0.0
  0
LINE
  5
23B
330
1F
100
AcDbEntity
  8
0
  6
Continuous
 62
     7
370
    30
100
AcDbLine
 10
181.1210804731
 20
205.9472274011
 30
0.0
 11
180.1210803092
 21
206.5245777228
 31
0.0
  0
LINE
  5
23C
330
1F
100
AcDbEntity
  8
0
  6
Continuous
 62
     7
370
    30
100
AcDbLine
 10
181.1210804731
 20
205.9472274011
 30
0.0
 11
181.1210804731
 21
203.0245777312
 31
0.0
  0
LINE
  5
23D
330
1F
100
AcDbEntity
  8
0
  6
Continuous
 62
     7
370
    30
100
AcDbLine
 10
181.1210804731
 20
203.0245777312
 30
0.0
 11
180.1210803092
 21
203.0245777312
 31
0.0
  0
ARC
  5
23E
330
1F
100
AcDbEntity
  8
0
  6
Continuous
 62
     7
370
    30
100
AcDbCircle
 10
180.1210802645
 20
200.0245776753
 30
0.0
 40
3.0
100
AcDbArc
 50
90.0
 51
180.0
  0
LINE
  5
23F
330
1F
100
AcDbEntity
  8
0
  6
Continuous
 62
     7
370
    30
100
AcDbLine
 10
177.1210798175
 20
200.0245777051
 30
0.0
 11
177.1210798175
 21
184.8245774488
 31
0.0
  0
ARC
  5
240
330
1F
100
AcDbEntity
  8
0
  6
Continuous
 62
     7
370
    30
100
AcDbCircle
 10
176.8210802645
 20
184.8245776753
 30
0.0
 40
0.2999999999999829
100
AcDbArc
 50
270.0
 51
0.0
  0
LINE
  5
241
330
1F
100
AcDbEntity
  8
0
  6
Continuous
 62
     7
370
    30
100
AcDbLine
 10
176.8210803271
 20
184.5245779584
 30
0.0
 11
167.621080123
 21
184.5245779584
 31
0.0
  0
LINE
  5
242
330
1F
100
AcDbEntity
  8
0
  6
Continuous
 62
     7
370
    30
100
AcDbLine
 10
167.121080041
 20
189.0245777647
 30
0.0
 11
172.1210799292
 21
189.0245777647
 31
0.0
  0
ARC
  5
243
330
1F
100
AcDbEntity
  8
0
  6
Continuous
 62
     7
370
    30
100
AcDbCircle
 10
172.1210802645
 20
190.0245776753
 30
0.0
 40
1.0
100
AcDbArc
 50
270.0
 51
0.0
  0
LINE
  5
244
330
1F
100
AcDbEntity
  8
0
  6
Continuous
 62
     7
370
    30
100
AcDbLine
 10
173.1210810245
 20
190.0245779286
 30
0.0
 11
173.1210810245
 21
223.5245769004
 31
0.0
  0
ARC
  5
245
330
1F
100
AcDbEntity
  8
0
  6
Continuous
 62
     7
370
    30
100
AcDbCircle
 10
172.1210802645
 20
223.5245776753
 30
0.0
 40
1.0
100
AcDbArc
 50
0.0
 51
90.0
  0
LINE
  5
246
330
1F
100
AcDbEntity
  8
0
  6
Continuous
 62
     7
370
    30
100
AcDbLine
 10
172.1210799292
 20
224.5245770644
 30
0.0
 11
168.1210802049
 21
224.5245770644
 31
0.0
  0
LINE
  5
247
330
1F
100
AcDbEntity
  8
0
  6
Continuous
 62
     7
370
    30
100
AcDbLine
 10
168.1210802049
 20
224.5245770644
 30
0.0
 11
165.1210806445
 21
221.5245784353
 31
0.0
  0
LINE
  5
248
330
1F
100
AcDbEntity
  8
0
  6
Continuous
 62
     7
370
    30
100
AcDbLine
 10
165.1210806445
 20
221.5245784353
 30
0.0
 11
163.1210803167
 21
221.5245784353
 31
0.0
  0
LINE
  5
249
330
1F
100
AcDbEntity
  8
0
  6
Continuous
 62
     7
370
    30
100
AcDbLine
 10
163.1210803167
 20
221.5245784353
 30
0.0
 11
160.1210802906
 21
224.5245770644
 31
0.0
  0
LINE
  5
24A
330
1F
100
AcDbEntity
  8
0
  6
Continuous
 62
     7
370
    30
100
AcDbLine
 10
160.1210802906
 20
224.5245770644
 30
0.0
 11
157.1210802645
 21
224.5245770644
 31
0.0
  0
ARC
  5
24B
330
1F
100
AcDbEntity
  8
0
  6
Continuous
 62
     7
370
    30
100
AcDbCircle
 10
157.4210802645
 20
226.2245776753
 30
0.0
 40
0.2999999999999829
100
AcDbArc
 50
90.0
 51
180.0
  0
LINE
  5
24C
330
1F
100
AcDbEntity
  8
0
  6
Continuous
 62
     7
370
    30
100
AcDbLine
 10
157.4210802788
 20
226.5245773922
 30
0.0
 11
176.8210803271
 21
226.5245773922
 31
0.0
  0
ARC
  5
24D
330
1F
100
AcDbEntity
  8
0
  6
Continuous
 62
     7
370
    30
100
AcDbCircle
 10
176.8210802645
 20
226.2245776753
 30
0.0
 40
0.3000000000000114
100
AcDbArc
 50
0.0
 51
90.0
  0
LINE
  5
24E
330
1F
100
AcDbEntity
  8
0
  6
Continuous
 62
     7
370
    30
100
AcDbLine
 10
177.1210798175
 20
226.2245779018
 30
0.0
 11
177.1210798175
 21
206.5245777228
 31
0.0
  0
LINE
  5
24F
330
1F
100
AcDbEntity
  8
0
  6
Continuous
 62
     7
370
    30
100
AcDbLine
 10
157.1210802645
 20
224.5245770644
 30
0.0
 11
157.1210802645
 21
226.2245779018
 31
0.0
  0
LINE
  5
250
330
1F
100
AcDbEntity
  8
0
  6
Continuous
 62
     7
370
    30
100
AcDbLine
 10
160.1210802906
 20
224.5245770644
 30
0.0
 11
160.1210802906
 21
223.5245769004
 31
0.0
  0
LINE
  5
251
330
1F
100
AcDbEntity
  8
0
  6
Continuous
 62
     7
370
    30
100
AcDbLine
 10
157.1210802645
 20
189.0245777647
 30
0.0
 11
157.1210802645
 21
191.5245772432
 31
0.0
  0
LINE
  5
252
330
1F
100
AcDbEntity
  8
0
  6
Continuous
 62
     7
370
    30
100
AcDbLine
 10
157.1210802645
 20
223.5245769004
 30
0.0
 11
157.1210802645
 21
224.5245770644
 31
0.0
  0
LINE
  5
253
330
1F
100
AcDbEntity
  8
0
  6
Continuous
 62
     7
370
    30
100
AcDbLine
 10
170.6720416547
 20
217.5245777796
 30
0.0
 11
170.6720416547
 21
222.2671740781
 31
0.0
  0
LINE
  5
254
330
1F
100
AcDbEntity
  8
0
  6
Continuous
 62
     7
370
    30
100
AcDbLine
 10
170.6720416547
 20
212.7819819468
 30
0.0
 11
170.6720416547
 21
217.5245777796
 31
0.0
  0
LINE
  5
255
330
1F
100
AcDbEntity
  8
0
  6
Continuous
 62
     7
370
    30
100
AcDbLine
 10
169.606867537
 20
215.2745778765
 30
0.0
 11
169.606867537
 21
216.3995773624
 31
0.0
  0
LINE
  5
256
330
1F
100
AcDbEntity
  8
0
  6
Continuous
 62
     7
370
    30
100
AcDbLine
 10
169.606867537
 20
216.3995773624
 30
0.0
 11
169.606867537
 21
218.6495772655
 31
0.0
  0
LINE
  5
257
330
1F
100
AcDbEntity
  8
0
  6
Continuous
 62
     7
370
    30
100
AcDbLine
 10
169.606867537
 20
218.6495772655
 30
0.0
 11
169.606867537
 21
219.7745776828
 31
0.0
  0
LINE
  5
258
330
1F
100
AcDbEntity
  8
0
  6
Continuous
 62
     7
370
    30
100
AcDbLine
 10
167.121080041
 20
191.5245772432
 30
0.0
 11
161.1210804545
 21
191.5245772432
 31
0.0
  0
LINE
  5
259
330
1F
100
AcDbEntity
  8
0
  6
Continuous
 62
     7
370
    30
100
AcDbLine
 10
167.121080041
 20
184.8447182308
 30
0.0
 11
161.1210804545
 21
184.8447182308
 31
0.0
  0
LINE
  5
25A
330
1F
100
AcDbEntity
  8
0
  6
Continuous
 62
     7
370
    30
100
AcDbLine
 10
166.5665798933
 20
184.5245779584
 30
0.0
 11
161.6755801365
 21
184.5245779584
 31
0.0
  0
LWPOLYLINE
  5
25B
330
1F
100
AcDbEntity
  8
0
  6
Continuous
 62
     8
370
     0
100
AcDbPolyline
 90
        2
 70
   128
 43
0.0
 10
240.1639477462
 20
209.5674433838
 10
240.1639477462
 20
209.5674433838
  0
LINE
  5
25C
330
1F
100
AcDbEntity
  8
0
  6
Continuous
 62
     8
370
     0
100
AcDbLine
 10
211.5243070871
 20
230.1245768647
 30
0.0
 11
211.5243070871
 21
230.0245770346
 31
0.0
  0
LINE
  5
25D
330
1F
100
AcDbEntity
  8
0
  6
Continuous
 62
     8
370
     0
100
AcDbLine
 10
211.6246068031
 20
230.1245768647
 30
0.0
 11
211.6246068031
 21
230.0245770346
 31
0.0
  0
ELLIPSE
  5
25E
330
1F
100
AcDbEntity
  8
0
  6
Continuous
 62
     8
370
     0
100
AcDbEllipse
 10
202.6954874728
 20
225.0245776753
 30
0.0
 11
5.940045884884882
 21
-0.8646332272018071
 31
0.0
210
0.0
220
0.0
230
0.9999999999999999
 40
0.1424476503
 41
1.596681604965234
 42
3.137319670767179
  0
LINE
  5
25F
330
1F
100
AcDbEntity
  8
0
  6
Continuous
 62
     8
370
     0
100
AcDbLine
 10
202.6648701281
 20
225.892818449
 30
0.0
 11
198.4984905571
 21
202.2641053516
 31
0.0
  0
ELLIPSE
  5
260
330
1F
100
AcDbEntity
  8
0
  6
Continuous
 62
     8
370
     0
100
AcDbEllipse
 10
198.7281304069
 20
202.5245776753
 30
0.0
 11
6.13864036329818
 21
0.2627376088907738
 31
0.0
210
0.0
220
0.0
230
0.9999999999999999
 40
0.0407870686
 41
3.132587360648753
 42
4.673225426450618
  0
LINE
  5
261
330
1F
100
AcDbEntity
  8
0
  6
Continuous
 62
     8
370
     0
100
AcDbLine
 10
202.6648701281
 20
230.0245770346
 30
0.0
 11
202.6648701281
 21
225.892818449
 31
0.0
  0
ELLIPSE
  5
262
330
1F
100
AcDbEntity
  8
0
  6
Continuous
 62
     8
370
     0
100
AcDbEllipse
 10
224.5466730562
 20
225.0245776753
 30
0.0
 11
5.940045884884825
 21
0.8646332272018071
 31
0.0
210
0.0
220
0.0
230
0.9999999999999998
 40
0.1424476503
 41
0.0042729828226391
 42
1.544911048624564
  0
ELLIPSE
  5
263
330
1F
100
AcDbEntity
  8
0
  6
Continuous
 62
     8
370
     0
100
AcDbEllipse
 10
228.5140301221
 20
202.5245776753
 30
0.0
 11
6.138640363298151
 21
-0.2627376088907738
 31
0.0
210
0.0
220
0.0
230
0.9999999999999999
 40
0.0407870686
 41
4.751552534318769
 42
6.292190600120628
  0
LINE
  5
264
330
1F
100
AcDbEntity
  8
0
  6
Continuous
 62
     8
370
     0
100
AcDbLine
 10
228.7436680049
 20
202.2641053516
 30
0.0
 11
224.577288434
 21
225.892818449
 31
0.0
  0
LINE
  5
265
330
1F
100
AcDbEntity
  8
0
  6
Continuous
 62
     8
370
     0
100
AcDbLine
 10
224.577288434
 20
230.0245770346
 30
0.0
 11
224.577288434
 21
225.892818449
 31
0.0
  0
LINE
  5
266
330
1F
100
AcDbEntity
  8
0
  6
Continuous
 62
     8
370
     0
100
AcDbLine
 10
224.577288434
 20
225.892818449
 30
0.0
 11
202.6648701281
 21
225.892818449
 31
0.0
  0
LINE
  5
267
330
1F
100
AcDbEntity
  8
0
  6
Continuous
 62
     8
370
     0
100
AcDbLine
 10
198.4984905571
 20
202.2641053516
 30
0.0
 11
198.4984905571
 21
201.024577869
 31
0.0
  0
LINE
  5
268
330
1F
100
AcDbEntity
  8
0
  6
Continuous
 62
     8
370
     0
100
AcDbLine
 10
228.7436680049
 20
202.2641053516
 30
0.0
 11
228.7436680049
 21
201.024577869
 31
0.0
  0
LINE
  5
269
330
1F
100
AcDbEntity
  8
0
  6
Continuous
 62
     8
370
     0
100
AcDbLine
 10
198.4984905571
 20
202.2641053516
 30
0.0
 11
228.7436680049
 21
202.2641053516
 31
0.0
  0
LINE
  5
26A
330
1F
100
AcDbEntity
  8
0
  6
Continuous
 62
     8
370
     0
100
AcDbLine
 10
196.6210820825
 20
239.1245764772
 30
0.0
 11
191.42107974
 21
239.1245764772
 31
0.0
  0
LINE
  5
26B
330
1F
100
AcDbEntity
  8
0
  6
Continuous
 62
     8
370
     0
100
AcDbLine
 10
196.6210820825
 20
239.1245764772
 30
0.0
 11
196.6210820825
 21
239.524579523
 31
0.0
  0
LINE
  5
26C
330
1F
100
AcDbEntity
  8
0
  6
Continuous
 62
     8
370
     0
100
AcDbLine
 10
196.6210820825
 20
237.7245788555
 30
0.0
 11
196.6210820825
 21
239.1245764772
 31
0.0
  0
LINE
  5
26D
330
1F
100
AcDbEntity
  8
0
  6
Continuous
 62
     8
370
     0
100
AcDbLine
 10
192.4710788876
 20
237.7245788555
 30
0.0
 11
196.6210820825
 21
237.7245788555
 31
0.0
  0
LINE
  5
26E
330
1F
100
AcDbEntity
  8
0
  6
Continuous
 62
     8
370
     0
100
AcDbLine
 10
196.6210820825
 20
237.5245791952
 30
0.0
 11
196.6210820825
 21
237.7245788555
 31
0.0
  0
LINE
  5
26F
330
1F
100
AcDbEntity
  8
0
  6
Continuous
 62
     8
370
     0
100
AcDbLine
 10
235.8210788221
 20
239.1245764772
 30
0.0
 11
230.6210802049
 21
239.1245764772
 31
0.0
  0
LINE
  5
270
330
1F
100
AcDbEntity
  8
0
  6
Continuous
 62
     8
370
     0
100
AcDbLine
 10
230.6210802049
 20
239.1245764772
 30
0.0
 11
230.6210802049
 21
239.524579523
 31
0.0
  0
LINE
  5
271
330
1F
100
AcDbEntity
  8
0
  6
Continuous
 62
     8
370
     0
100
AcDbLine
 10
230.6210802049
 20
237.5245791952
 30
0.0
 11
230.6210802049
 21
237.7245788555
 31
0.0
  0
LINE
  5
272
330
1F
100
AcDbEntity
  8
0
  6
Continuous
 62
     8
370
     0
100
AcDbLine
 10
230.6210802049
 20
237.7245788555
 30
0.0
 11
234.7710833997
 21
237.7245788555
 31
0.0
  0
LINE
  5
273
330
1F
100
AcDbEntity
  8
0
  6
Continuous
 62
     8
370
     0
100
AcDbLine
 10
230.6210802049
 20
237.7245788555
 30
0.0
 11
230.6210802049
 21
239.1245764772
 31
0.0
  0
LINE
  5
274
330
1F
100
AcDbEntity
  8
0
  6
Continuous
 62
     8
370
     0
100
AcDbLine
 10
196.6210820825
 20
237.7245788555
 30
0.0
 11
230.6210802049
 21
237.7245788555
 31
0.0
  0
LINE
  5
275
330
1F
100
AcDbEntity
  8
0
  6
Continuous
 62
     8
370
     0
100
AcDbLine
 10
230.6210802049
 20
239.1245764772
 30
0.0
 11
196.6210820825
 21
239.1245764772
 31
0.0
  0
LINE
  5
276
330
1F
100
AcDbEntity
  8
0
  6
Continuous
 62
     8
370
     0
100
AcDbLine
 10
186.12107943
 20
247.0475760381
 30
0.0
 11
173.7823181898
 21
247.0475760381
 31
0.0
  0
LINE
  5
277
330
1F
100
AcDbEntity
  8
0
  6
Continuous
 62
     8
370
     0
100
AcDbLine
 10
186.12107943
 20
247.0475760381
 30
0.0
 11
186.12107943
 21
247.5245771091
 31
0.0
  0
LINE
  5
278
330
1F
100
AcDbEntity
  8
0
  6
Continuous
 62
     8
370
     0
100
AcDbLine
 10
186.12107943
 20
238.4785813372
 30
0.0
 11
181.7730323524
 21
238.4785813372
 31
0.0
  0
LINE
  5
279
330
1F
100
AcDbEntity
  8
0
  6
Continuous
 62
     8
370
     0
100
AcDbLine
 10
186.12107943
 20
238.4785813372
 30
0.0
 11
186.12107943
 21
247.0475760381
 31
0.0
  0
LINE
  5
27A
330
1F
100
AcDbEntity
  8
0
  6
Continuous
 62
     8
370
     0
100
AcDbLine
 10
241.121079132
 20
237.5245791952
 30
0.0
 11
241.121079132
 21
238.4785813372
 31
0.0
  0
LINE
  5
27B
330
1F
100
AcDbEntity
  8
0
  6
Continuous
 62
     8
370
     0
100
AcDbLine
 10
245.4691262097
 20
238.4785813372
 30
0.0
 11
241.121079132
 21
238.4785813372
 31
0.0
  0
LINE
  5
27C
330
1F
100
AcDbEntity
  8
0
  6
Continuous
 62
     8
370
     0
100
AcDbLine
 10
241.121079132
 20
238.4785813372
 30
0.0
 11
241.121079132
 21
247.0475760381
 31
0.0
  0
LINE
  5
27D
330
1F
100
AcDbEntity
  8
0
  6
Continuous
 62
     8
370
     0
100
AcDbLine
 10
253.4598440976
 20
247.0475760381
 30
0.0
 11
241.121079132
 21
247.0475760381
 31
0.0
  0
LINE
  5
27E
330
1F
100
AcDbEntity
  8
0
  6
Continuous
 62
     8
370
     0
100
AcDbLine
 10
241.121079132
 20
247.0475760381
 30
0.0
 11
241.121079132
 21
247.5245771091
 31
0.0
  0
LINE
  5
27F
330
1F
100
AcDbEntity
  8
0
  6
Continuous
 62
     8
370
     0
100
AcDbLine
 10
186.12107943
 20
237.5245791952
 30
0.0
 11
186.12107943
 21
238.4785813372
 31
0.0
  0
LINE
  5
280
330
1F
100
AcDbEntity
  8
0
  6
Continuous
 62
     8
370
     0
100
AcDbLine
 10
241.121079132
 20
238.4785813372
 30
0.0
 11
237.9055799097
 21
238.4785813372
 31
0.0
  0
LINE
  5
281
330
1F
100
AcDbEntity
  8
0
  6
Continuous
 62
     8
370
     0
100
AcDbLine
 10
189.3365823776
 20
238.4785813372
 30
0.0
 11
186.12107943
 21
238.4785813372
 31
0.0
  0
LINE
  5
282
330
1F
100
AcDbEntity
  8
0
  6
Continuous
 62
     8
370
     0
100
AcDbLine
 10
241.121079132
 20
247.0475760381
 30
0.0
 11
186.12107943
 21
247.0475760381
 31
0.0
  0
SPLINE
  5
283
330
1F
100
AcDbEntity
  8
0
  6
Continuous
 62
     8
370
     0
100
AcDbSpline
210
0.0
220
0.0
230
1.0
 70
     8
 71
     3
 72
    11
 73
     7
 74
     0
 42
0.00000001
 43
0.00000001
 40
0.0
 40
0.0
 40
0.0
 40
0.0
 40
0.206427388905655
 40
0.4125741416013942
 40
0.7380039428714136
 40
1.0
 40
1.0
 40
1.0
 40
1.0
 10
241.1210791320256
 20
209.8773656505246
 30
0.0
 10
241.1198082419473
 20
209.8799671474338
 30
0.0
 10
241.1172681895545
 20
209.8851666045402
 30
0.0
 10
241.0445131094524
 20
209.9086383385281
 30
0.0
 10
240.8631964608417
 20
209.9216204188795
 30
0.0
 10
240.6182736022508
 20
209.9291835486437
 30
0.0
 10
240.5090362877301
 20
209.9325567576189
 30
0.0
  0
LWPOLYLINE
  5
284
330
1F
100
AcDbEntity
  8
0
  6
Continuous
 62
     8
370
     0
100
AcDbPolyline
 90
        7
 70
   128
 43
0.0
 10
241.1715568156
 20
211.4876838493
 10
241.3199723811
 20
211.4920931961
 10
241.7698756904
 20
211.5225660707
 10
242.0406223387
 20
211.5652532409
 10
242.1210811586
 20
211.6142231132
 10
242.1210811586
 20
211.6142263728
 10
242.1210811586
 20
211.6142263728
  0
LINE
  5
285
330
1F
100
AcDbEntity
  8
0
  6
Continuous
 62
     8
370
     0
100
AcDbLine
 10
240.0068820567
 20
209.3906031548
 30
0.0
 11
240.2779863328
 21
209.3906031548
 31
0.0
  0
SPLINE
  5
286
330
1F
100
AcDbEntity
  8
0
  6
Continuous
 62
     8
370
     0
100
AcDbSpline
210
0.0
220
0.0
230
1.0
 70
     8
 71
     3
 72
    11
 73
     7
 74
     0
 42
0.00000001
 43
0.00000001
 40
0.0
 40
0.0
 40
0.0
 40
0.0
 40
0.133254814450495
 40
0.4664134434020133
 40
0.7329394044818475
 40
1.0
 40
1.0
 40
1.0
 40
1.0
 10
186.7083788961819
 20
209.9315225238998
 30
0.0
 10
186.6490962801354
 20
209.9300853705307
 30
0.0
 10
186.4415975177215
 20
209.9250551008605
 30
0.0
 10
186.2507642495723
 20
209.9143603953519
 30
0.0
 10
186.1307146636195
 20
209.8875376907255
 30
0.0
 10
186.124293319224
 20
209.8807585947279
 30
0.0
 10
186.1210794300488
 20
209.8773656505246
 30
0.0
  0
SPLINE
  5
287
330
1F
100
AcDbEntity
  8
0
  6
Continuous
 62
     8
370
     0
100
AcDbSpline
210
0.0
220
0.0
230
1.0
 70
     8
 71
     3
 72
    12
 73
     8
 74
     0
 42
0.00000001
 43
0.00000001
 40
0.0
 40
0.0
 40
0.0
 40
0.0
 40
0.0000166822669826
 40
0.1963129856509546
 40
0.3926196713782083
 40
0.7083858137133637
 40
0.9999999999999999
 40
0.9999999999999999
 40
0.9999999999999999
 40
0.9999999999999999
 10
185.1210811287812
 20
211.614226372828
 30
0.0
 10
185.1210811287508
 20
211.6142252862808
 30
0.0
 10
185.121080771333
 20
211.6014390551582
 30
0.0
 10
185.1463163188006
 20
211.5793385919025
 30
0.0
 10
185.2826631389467
 20
211.5429656946811
 30
0.0
 10
185.5563285279418
 20
211.5095987198391
 30
0.0
 10
185.9038142074006
 20
211.4942429293862
 30
0.0
 10
186.0706483126334
 20
211.4868703390558
 30
0.0
  0
LINE
  5
288
330
1F
100
AcDbEntity
  8
0
  6
Continuous
 62
     8
370
     0
100
AcDbLine
 10
186.9641778172
 20
209.3906031548
 30
0.0
 11
187.2352765054
 21
209.3906031548
 31
0.0
  0
LINE
  5
289
330
1F
100
AcDbEntity
  8
0
  6
Continuous
 62
     8
370
     0
100
AcDbLine
 10
187.121079594
 20
206.5245777228
 30
0.0
 11
187.121079594
 21
207.5245777703
 31
0.0
  0
LINE
  5
28A
330
1F
100
AcDbEntity
  8
0
  6
Continuous
 62
     8
370
     0
100
AcDbLine
 10
240.1210771055
 20
206.5245777228
 30
0.0
 11
240.1210771055
 21
207.5245777703
 31
0.0
  0
LINE
  5
28B
330
1F
100
AcDbEntity
  8
0
  6
Continuous
 62
     8
370
     0
100
AcDbLine
 10
172.1210799292
 20
222.4194732587
 30
0.0
 11
172.1210799292
 21
224.5245770644
 31
0.0
  0
LINE
  5
28C
330
1F
100
AcDbEntity
  8
0
  6
Continuous
 62
     8
370
     0
100
AcDbLine
 10
169.606867537
 20
217.5245777796
 30
0.0
 11
165.4320529774
 21
217.5245777796
 31
0.0
  0
LINE
  5
28D
330
1F
100
AcDbEntity
  8
0
  6
Continuous
 62
     8
370
     0
100
AcDbLine
 10
168.1210802049
 20
191.5245772432
 30
0.0
 11
172.1210799292
 21
191.5245772432
 31
0.0
  0
LINE
  5
28E
330
1F
100
AcDbEntity
  8
0
  6
Continuous
 62
     8
370
     0
100
AcDbLine
 10
172.1210799292
 20
189.0245777647
 30
0.0
 11
172.1210799292
 21
191.5245772432
 31
0.0
  0
LINE
  5
28F
330
1F
100
AcDbEntity
  8
0
  6
Continuous
 62
     8
370
     0
100
AcDbLine
 10
172.1210799292
 20
191.5245772432
 30
0.0
 11
173.1210810245
 21
191.5245772432
 31
0.0
  0
LINE
  5
290
330
1F
100
AcDbEntity
  8
0
  6
Continuous
 62
     8
370
     0
100
AcDbLine
 10
172.1210799292
 20
191.5245772432
 30
0.0
 11
172.1210799292
 21
212.6296818349
 31
0.0
  0
HATCH
  5
291
330
1F
100
AcDbEntity
  8
0
  6
Continuous
 62
     7
370
     0
100
AcDbHatch
 10
0.0
 20
0.0
 30
0.0
210
0.0
220
0.0
230
1.0
  2
ANSI31
 70
     0
 71
     0
 91
        1
 92
        0
 93
       24
 72
     1
 10
177.1210802645138
 20
206.5245776753027
 11
177.1210802645138
 21
226.2245776753028
 72
     2
 10
176.8210802645138
 20
226.2245776753028
 40
0.3
 50
0.0
 51
90.0
 73
     1
 72
     1
 10
176.8210802645138
 20
226.5245776753027
 11
157.4210802645138
 21
226.5245776753028
 72
     2
 10
157.4210802645138
 20
226.2245776753028
 40
0.3
 50
90.0
 51
180.0
 73
     1
 72
     1
 10
157.1210802645138
 20
226.2245776753028
 11
157.1210802645138
 21
224.5245776753028
 72
     1
 10
157.1210802645138
 20
224.5245776753028
 11
160.1210802645138
 21
224.5245776753028
 72
     1
 10
160.1210802645138
 20
224.5245776753028
 11
163.1210802645138
 21
221.5245776753027
 72
     1
 10
163.1210802645138
 20
221.5245776753027
 11
165.1210802645138
 21
221.5245776753027
 72
     1
 10
165.1210802645138
 20
221.5245776753027
 11
168.1210802645138
 21
224.5245776753028
 72
     1
 10
168.1210802645138
 20
224.5245776753028
 11
172.1210802645138
 21
224.5245776753028
 72
     2
 10
172.1210802645138
 20
223.5245776753028
 40
1.0
 50
270.0000000000008
 51
360.0000000000008
 73
     0
 72
     1
 10
173.1210802645138
 20
223.5245776753028
 11
173.1210802645138
 21
190.0245776753027
 72
     2
 10
172.1210802645138
 20
190.0245776753028
 40
1.0
 50
0.0000000000016284
 51
90.0
 73
     0
 72
     1
 10
172.1210802645138
 20
189.0245776753027
 11
166.6210802645138
 21
189.0245776753027
 72
     1
 10
166.6210802645138
 20
189.0245776753027
 11
166.6210802645138
 21
185.5245776753028
 72
     1
 10
166.6210802645138
 20
185.5245776753028
 11
167.6210802645138
 21
184.5245776753027
 72
     1
 10
167.6210802645138
 20
184.5245776753027
 11
176.8210802645138
 21
184.5245776753028
 72
     2
 10
176.8210802645138
 20
184.8245776753027
 40
0.3
 50
270.0000000000008
 51
360.0000000000008
 73
     1
 72
     1
 10
177.1210802645138
 20
184.8245776753027
 11
177.1210802645138
 21
200.0245776753027
 72
     2
 10
180.1210802645138
 20
200.0245776753027
 40
3.0
 50
180.0
 51
270.0000000000008
 73
     0
 72
     1
 10
180.1210802645138
 20
203.0245776753027
 11
181.1210802645138
 21
203.0245776753027
 72
     1
 10
181.1210802645138
 20
203.0245776753027
 11
181.1210802645138
 21
205.9472274061131
 72
     1
 10
181.1210802645138
 20
205.9472274061131
 11
180.1210802645138
 21
206.5245776753027
 72
     1
 10
180.1210802645138
 20
206.5245776753027
 11
177.1210802645138
 21
206.5245776753027
 97
        0
 75
     0
 76
     1
 52
0.0
 41
1.0
 77
     0
 78
     1
 53
45.0
 43
0.0
 44
0.0
 45
-2.245064030267288
 46
2.245064030267288
 79
     0
 98
        1
 10
0.0
 20
0.0
  0
HATCH
  5
292
330
1F
100
AcDbEntity
  8
0
  6
Continuous
 62
     7
370
     0
100
AcDbHatch
 10
0.0
 20
0.0
 30
0.0
210
0.0
220
0.0
230
1.0
  2
ANSI31
 70
     0
 71
     0
 91
        1
 92
        0
 93
        6
 72
     1
 10
157.1210802645138
 20
189.0245776753027
 11
157.1210802645138
 21
184.8245776753027
 72
     2
 10
157.4210802645138
 20
184.8245776753027
 40
0.3
 50
180.0
 51
270.0000000000008
 73
     1
 72
     1
 10
157.4210802645138
 20
184.5245776753028
 11
160.6210802645138
 21
184.5245776753027
 72
     1
 10
160.6210802645138
 20
184.5245776753027
 11
161.6210802645138
 21
185.5245776753028
 72
     1
 10
161.6210802645138
 20
185.5245776753028
 11
161.6210802645138
 21
189.0245776753027
 72
     1
 10
161.6210802645138
 20
189.0245776753027
 11
157.1210802645138
 21
189.0245776753027
 97
        0
 75
     0
 76
     1
 52
0.0
 41
1.0
 77
     0
 78
     1
 53
45.0
 43
0.0
 44
0.0
 45
-2.245064030267288
 46
2.245064030267288
 79
     0
 98
        1
 10
0.0
 20
0.0
  0
HATCH
  5
293
330
1F
100
AcDbEntity
  8
0
  6
Continuous
 62
     7
370
     0
100
AcDbHatch
 10
0.0
 20
0.0
 30
0.0
210
0.0
220
0.0
230
1.0
  2
NET
 70
     0
 71
     0
 91
        1
 92
        0
 93
        4
 72
     1
 10
177.1210802645138
 20
206.5245776753027
 11
178.6210802645138
 21
206.5245776753027
 72
     1
 10
178.6210802645138
 20
206.5245776753027
 11
178.6210802645138
 21
226.5245776753027
 72
     1
 10
178.6210802645138
 20
226.5245776753027
 11
177.1210802645138
 21
226.5245776753027
 72
     1
 10
177.1210802645138
 20
226.5245776753027
 11
177.1210802645138
 21
206.5245776753027
 97
        0
 75
     0
 76
     1
 52
134.999991007
 41
1.0
 77
     0
 78
     2
 53
134.9999910069555
 43
0.0
 44
0.0
 45
-2.24506438264855
 46
-2.245063677885971
 79
     0
 53
224.9999910069555
 43
0.0
 44
0.0
 45
2.245063677885971
 46
-2.24506438264855
 79
     0
 98
        1
 10
0.0
 20
0.0
  0
HATCH
  5
294
330
1F
100
AcDbEntity
  8
0
  6
Continuous
 62
     7
370
     0
100
AcDbHatch
 10
0.0
 20
0.0
 30
0.0
210
0.0
220
0.0
230
1.0
  2
ANSI31
 70
     0
 71
     0
 91
        1
 92
        0
 93
        6
 72
     1
 10
178.6210802645138
 20
206.5245776753027
 11
183.7170739825692
 21
206.5245776753027
 72
     1
 10
183.7170739825692
 20
206.5245776753027
 11
183.6341703169759
 21
225.5245776753027
 72
     1
 10
183.6341703169759
 20
225.5245776753027
 11
180.1210802645138
 21
225.5245776753027
 72
     1
 10
180.1210802645138
 20
225.5245776753027
 11
180.1210802645138
 21
228.5245776753027
 72
     1
 10
180.1210802645138
 20
228.5245776753027
 11
178.6210802645138
 21
228.5245776753027
 72
     1
 10
178.6210802645138
 20
228.5245776753027
 11
178.6210802645138
 21
206.5245776753027
 97
        0
 75
     0
 76
     1
 52
0.0
 41
1.0
 77
     0
 78
     1
 53
45.0
 43
0.0
 44
0.0
 45
-2.245064030267288
 46
2.245064030267288
 79
     0
 98
        1
 10
0.0
 20
0.0
  0
HATCH
  5
295
330
1F
100
AcDbEntity
  8
0
  6
Continuous
 62
     7
370
     0
100
AcDbHatch
 10
0.0
 20
0.0
 30
0.0
210
0.0
220
0.0
230
1.0
  2
ANSI31
 70
     0
 71
     0
 91
        1
 92
        0
 93
        6
 72
     1
 10
243.5250865464584
 20
206.5245776753027
 11
246.1210802645138
 21
206.5245776753027
 72
     1
 10
246.1210802645138
 20
206.5245776753027
 11
246.1210802645138
 21
228.5245776753027
 72
     1
 10
246.1210802645138
 20
228.5245776753027
 11
244.6210802645138
 21
228.5245776753027
 72
     1
 10
244.6210802645138
 20
228.5245776753027
 11
244.6210802645138
 21
225.5245776753027
 72
     1
 10
244.6210802645138
 20
225.5245776753027
 11
243.6079902120517
 21
225.5245776753027
 72
     1
 10
243.6079902120517
 20
225.5245776753027
 11
243.5250865464584
 21
206.5245776753027
 97
        0
 75
     0
 76
     1
 52
0.0
 41
1.0
 77
     0
 78
     1
 53
45.0
 43
0.0
 44
0.0
 45
-2.245064030267288
 46
2.245064030267288
 79
     0
 98
        1
 10
0.0
 20
0.0
  0
HATCH
  5
296
330
1F
100
AcDbEntity
  8
0
  6
Continuous
 62
     7
370
     0
100
AcDbHatch
 10
0.0
 20
0.0
 30
0.0
210
0.0
220
0.0
230
1.0
  2
NET
 70
     0
 71
     0
 91
        1
 92
        0
 93
       11
 72
     1
 10
186.9641775168373
 20
209.3906030790871
 11
186.1210802645138
 21
209.877365504669
 72
     2
 10
187.1210802645138
 20
211.6094163122379
 40
2.0
 50
119.9999999999997
 51
180.0
 73
     0
 72
     1
 10
185.1210802645138
 20
211.6094163122379
 11
185.1210802645138
 21
228.5245776753027
 72
     1
 10
185.1210802645138
 20
228.5245776753027
 11
180.1210802645138
 21
228.5245776753027
 72
     1
 10
180.1210802645138
 20
228.5245776753027
 11
180.1210802645138
 21
226.0245776753027
 72
     1
 10
180.1210802645138
 20
226.0245776753027
 11
180.4097553991086
 21
225.5245776753027
 72
     1
 10
180.4097553991086
 20
225.5245776753027
 11
183.6341703169759
 21
225.5245776753027
 72
     1
 10
183.6341703169759
 20
225.5245776753027
 11
183.7061656678214
 21
209.0245633963839
 72
     1
 10
183.7061656678214
 20
209.0245633963839
 11
184.1151087127195
 21
207.5245776753026
 72
     1
 10
184.1151087127195
 20
207.5245776753026
 11
186.4641775168373
 21
207.5245776753026
 72
     2
 10
186.4641775168373
 20
208.5245776753026
 40
1.000000000000002
 50
270.0000000000008
 51
420.0000000000011
 73
     1
 97
        0
 75
     0
 76
     1
 52
44.999991007
 41
1.0
 77
     0
 78
     2
 53
44.99999100695533
 43
0.0
 44
0.0
 45
-2.245063677885963
 46
2.245064382648558
 79
     0
 53
134.9999910069553
 43
0.0
 44
0.0
 45
-2.245064382648558
 46
-2.245063677885963
 79
     0
 98
        1
 10
0.0
 20
0.0
  0
HATCH
  5
297
330
1F
100
AcDbEntity
  8
0
  6
Continuous
 62
     7
370
     0
100
AcDbHatch
 10
0.0
 20
0.0
 30
0.0
210
0.0
220
0.0
230
1.0
  2
NET
 70
     0
 71
     0
 91
        1
 92
        0
 93
       11
 72
     1
 10
241.1210802645138
 20
209.877365504669
 11
240.2779830121904
 21
209.3906030790871
 72
     2
 10
240.7779830121904
 20
208.5245776753026
 40
1.000000000000002
 50
119.9999999999997
 51
270.0000000000008
 73
     1
 72
     1
 10
240.7779830121904
 20
207.5245776753026
 11
243.1270518163082
 21
207.5245776753026
 72
     1
 10
243.1270518163082
 20
207.5245776753026
 11
243.5359948612062
 21
209.0245633963839
 72
     1
 10
243.5359948612062
 20
209.0245633963839
 11
243.6079902120517
 21
225.5245776753027
 72
     1
 10
243.6079902120517
 20
225.5245776753027
 11
244.332405129919
 21
225.5245776753027
 72
     1
 10
244.332405129919
 20
225.5245776753027
 11
244.6210802645138
 21
226.0245776753027
 72
     1
 10
244.6210802645138
 20
226.0245776753027
 11
244.6210802645138
 21
228.5245776753027
 72
     1
 10
244.6210802645138
 20
228.5245776753027
 11
242.1210802645138
 21
228.5245776753027
 72
     1
 10
242.1210802645138
 20
228.5245776753027
 11
242.1210802645138
 21
211.6094163122379
 72
     2
 10
240.1210802645138
 20
211.6094163122379
 40
2.0
 50
0.0
 51
60.00000000000028
 73
     0
 97
        0
 75
     0
 76
     1
 52
44.999991007
 41
1.0
 77
     0
 78
     2
 53
44.99999100695533
 43
0.0
 44
0.0
 45
-2.245063677885963
 46
2.245064382648558
 79
     0
 53
134.9999910069553
 43
0.0
 44
0.0
 45
-2.245064382648558
 46
-2.245063677885963
 79
     0
 98
        1
 10
0.0
 20
0.0
  0
HATCH
  5
298
330
1F
100
AcDbEntity
  8
0
  6
Continuous
 62
     7
370
     0
100
AcDbHatch
 10
0.0
 20
0.0
 30
0.0
210
0.0
220
0.0
230
1.0
  2
ANSI35
 70
     0
 71
     0
 91
        1
 92
        0
 93
       62
 72
     1
 10
210.5889307159189
 20
230.1245776753027
 11
210.7179120083167
 21
230.1245776753027
 72
     1
 10
210.7179120083167
 20
230.1245776753027
 11
210.7179120083167
 21
230.0245776753027
 72
     1
 10
210.7179120083167
 20
230.0245776753027
 11
211.518748531645
 21
230.0245776753027
 72
     1
 10
211.518748531645
 20
230.0245776753027
 11
211.5187485333138
 21
230.1245776753032
 72
     1
 10
211.5187485333138
 20
230.1245776753032
 11
211.6511309141909
 21
230.1245776753028
 72
     1
 10
211.6511309141909
 20
230.1245776753028
 11
211.6511309141902
 21
230.0245776753027
 72
     1
 10
211.6511309141902
 20
230.0245776753027
 11
212.5241584669512
 21
230.0245776753027
 72
     1
 10
212.5241584669512
 20
230.0245776753027
 11
212.5241584669512
 21
230.1245776753038
 72
     1
 10
212.5241584669512
 20
230.1245776753038
 11
212.6533271704982
 21
230.1245776753028
 72
     1
 10
212.6533271704982
 20
230.1245776753028
 11
212.6533271704982
 21
230.0245776753027
 72
     1
 10
212.6533271704982
 20
230.0245776753027
 11
215.8129687769616
 21
230.0245776753027
 72
     1
 10
215.8129687769616
 20
230.0245776753027
 11
215.8129687769616
 21
230.1245776753007
 72
     1
 10
215.8129687769616
 20
230.1245776753007
 11
215.9436609096751
 21
230.1245776753028
 72
     1
 10
215.9436609096751
 20
230.1245776753028
 11
215.9436609096751
 21
230.0245776753027
 72
     1
 10
215.9436609096751
 20
230.0245776753027
 11
225.5620996680819
 21
230.0245776753027
 72
     2
 10
225.5620996680819
 20
225.0245776753028
 40
5.0
 50
270.0000000000008
 51
350.0000000000009
 73
     0
 72
     1
 10
230.486138433143
 20
225.8928185636374
 11
234.6525180817614
 21
202.2641054088024
 72
     2
 10
236.1297297112797
 20
202.5245776753027
 40
1.5
 50
190.0000000000005
 51
270.0000000000008
 73
     1
 72
     1
 10
236.1297297112797
 20
201.0245776753027
 11
236.8294066134623
 21
201.0245776753027
 72
     2
 10
236.8294066134623
 20
203.5245776753027
 40
2.5
 50
270.0000000000008
 51
357.000000000001
 73
     1
 72
     1
 10
239.3259804503487
 20
203.3937377846954
 11
239.5809004818321
 21
208.2579017498699
 72
     2
 10
241.5781595513413
 20
208.153229837384
 40
2.0
 50
183.0000000000007
 51
225.0000000000008
 73
     0
 72
     1
 10
240.1639459889682
 20
209.5674433997571
 11
240.5782145400595
 21
209.9817119508484
 72
     2
 10
239.1640009776864
 20
211.3959255132215
 40
2.0
 50
315.0000000000008
 51
357.0000000000001
 73
     1
 72
     1
 10
241.1612600471955
 20
211.2912536007356
 11
242.1645040557034
 21
230.4342896582199
 72
     2
 10
246.1590221947218
 20
230.2249458332481
 40
4.0
 50
183.0000000000007
 51
238.2451492051803
 73
     0
 72
     1
 10
244.0538785364181
 20
233.6261765190299
 11
247.1210802645138
 21
235.5245776753027
 72
     1
 10
247.1210802645138
 20
235.5245776753027
 11
255.6715908734477
 21
245.0208817657644
 72
     2
 10
254.5568736352316
 20
246.0245776753027
 40
1.500000000000001
 50
318.0000000000005
 51
497.0000000000009
 73
     1
 72
     1
 10
253.4598430828028
 20
247.0475752153965
 11
245.4691281913884
 21
238.4785825951153
 72
     2
 10
243.2750670865308
 20
240.5245776753027
 40
2.999999999999995
 50
42.99999999999925
 51
90.0
 73
     0
 72
     1
 10
243.2750670865308
 20
237.5245776753027
 11
238.8710802645138
 21
237.5245776753027
 72
     2
 10
238.8710802645138
 20
238.0245776753027
 40
0.5
 50
90.0
 51
143.1301023541579
 73
     0
 72
     1
 10
238.4710802645138
 20
237.7245776753028
 11
237.4210802645138
 21
239.1245776753027
 72
     2
 10
236.6210802645138
 20
238.5245776753027
 40
1.000000000000002
 50
36.86989764584337
 51
143.1301023541544
 73
     1
 72
     1
 10
235.8210802645138
 20
239.1245776753028
 11
234.7710802645138
 21
237.7245776753028
 72
     2
 10
234.3710802645138
 20
238.0245776753027
 40
0.5
 50
36.86989764584207
 51
90.0
 73
     0
 72
     1
 10
234.3710802645138
 20
237.5245776753027
 11
192.8710802645138
 21
237.5245776753027
 72
     2
 10
192.8710802645138
 20
238.0245776753027
 40
0.5
 50
90.0
 51
143.1301023541579
 73
     0
 72
     1
 10
192.4710802645138
 20
237.7245776753028
 11
191.4210802645138
 21
239.1245776753027
 72
     2
 10
190.6210802645138
 20
238.5245776753027
 40
1.000000000000002
 50
36.86989764584435
 51
143.1301023541567
 73
     1
 72
     1
 10
189.8210802645138
 20
239.1245776753027
 11
188.7710802645138
 21
237.7245776753028
 72
     2
 10
188.3710802645138
 20
238.0245776753027
 40
0.5
 50
36.86989764584207
 51
90.0
 73
     0
 72
     1
 10
188.3710802645138
 20
237.5245776753027
 11
183.9670934424967
 21
237.5245776753027
 72
     2
 10
183.9670934424967
 20
240.5245776753027
 40
2.999999999999995
 50
90.0
 51
137.0
 73
     0
 72
     1
 10
181.7730323376393
 20
238.4785825951153
 11
173.7823174462248
 21
247.0475752153965
 72
     2
 10
172.685286893796
 20
246.0245776753027
 40
1.500000000000001
 50
42.99999999999925
 51
222.0000000000011
 73
     1
 72
     1
 10
171.5705696555799
 20
245.0208817657644
 11
180.1210802645138
 21
235.5245776753027
 72
     1
 10
180.1210802645138
 20
235.5245776753027
 11
183.1882819926095
 21
233.62617651903
 72
     2
 10
181.0831383343059
 20
230.2249458332481
 40
4.0
 50
301.7548507948204
 51
357.0000000000005
 73
     0
 72
     1
 10
185.0776564733242
 20
230.4342896582199
 11
186.0809004818321
 21
211.2912536007356
 72
     2
 10
188.0781595513413
 20
211.3959255132215
 40
2.0
 50
183.0000000000006
 51
224.9999999999997
 73
     1
 72
     1
 10
186.6639459889682
 20
209.9817119508484
 11
187.0782145400595
 21
209.5674433997571
 72
     2
 10
185.6640009776864
 20
208.153229837384
 40
2.0
 50
315.0000000000008
 51
357.0000000000009
 73
     0
 72
     1
 10
187.6612600471955
 20
208.2579017498699
 11
187.9161800786789
 21
203.3937377846954
 72
     2
 10
190.4127539155653
 20
203.5245776753027
 40
2.5
 50
183.0000000000005
 51
270.0000000000008
 73
     1
 72
     1
 10
190.4127539155653
 20
201.0245776753027
 11
191.1124308177479
 21
201.0245776753027
 72
     2
 10
191.1124308177479
 20
202.5245776753027
 40
1.5
 50
270.0000000000008
 51
350.0000000000011
 73
     1
 72
     1
 10
192.5896424472662
 20
202.2641054088024
 11
196.7560220958847
 21
225.8928185636374
 72
     2
 10
201.6800608609457
 20
225.0245776753028
 40
5.0
 50
190.0000000000007
 51
270.0000000000008
 73
     0
 72
     1
 10
201.6800608609457
 20
230.0245776753027
 11
210.5889307159189
 21
230.0245776753027
 72
     1
 10
210.5889307159189
 20
230.0245776753027
 11
210.5889307159189
 21
230.1245776753027
 97
        0
 75
     0
 76
     1
 52
0.0
 41
1.0
 77
     0
 78
     2
 53
45.0
 43
0.0
 44
0.0
 45
-4.490128060534576
 46
4.490128060534577
 79
     0
 53
45.0
 43
4.49013
 44
0.0
 45
-4.490128060534576
 46
4.490128060534577
 79
     4
 49
7.9375
 49
-1.5875
 49
0.0
 49
-1.5875
 98
        1
 10
0.0
 20
0.0
  0
HATCH
  5
299
330
1F
100
AcDbEntity
  8
0
  6
Continuous
 62
     7
370
     0
100
AcDbHatch
 10
0.0
 20
0.0
 30
0.0
210
0.0
220
0.0
230
1.0
  2
ANSI33
 70
     0
 71
     0
 91
        1
 92
        0
 93
       30
 72
     1
 10
164.1210802645138
 20
220.5245776753027
 11
162.1210802645138
 21
222.5245776753027
 72
     1
 10
162.1210802645138
 20
222.5245776753027
 11
159.6210802645138
 21
222.5245776753027
 72
     1
 10
159.6210802645138
 20
222.5245776753027
 11
159.6210802645138
 21
192.5245776753027
 72
     1
 10
159.6210802645138
 20
192.5245776753027
 11
162.1210802645138
 21
192.5245776753027
 72
     1
 10
162.1210802645138
 20
192.5245776753027
 11
164.1210802645139
 21
194.5245776753028
 72
     1
 10
164.1210802645139
 20
194.5245776753028
 11
166.1210802645139
 21
192.5245776753027
 72
     1
 10
166.1210802645139
 20
192.5245776753027
 11
168.1210802645138
 21
192.5245776753027
 72
     1
 10
168.1210802645138
 20
192.5245776753027
 11
168.1210802645138
 21
193.7316844564893
 72
     2
 10
165.6210802645138
 20
193.7316844564893
 40
2.5
 50
0.0
 51
44.99999999999908
 73
     1
 72
     1
 10
167.3888472174802
 20
195.4994514094556
 11
165.7068667021407
 21
197.1814319247951
 72
     2
 10
167.1210802645138
 20
198.5956454871682
 40
2.0
 50
135.0000000000006
 51
180.0
 73
     0
 72
     1
 10
165.1210802645138
 20
198.5956454871682
 11
165.1210802645138
 21
200.615150310833
 72
     1
 10
165.1210802645138
 20
200.615150310833
 11
165.0210802645138
 21
200.6151503100039
 72
     1
 10
165.0210802645138
 20
200.6151503100039
 11
165.0210802645138
 21
200.7718986473727
 72
     1
 10
165.0210802645138
 20
200.7718986473727
 11
165.1210802645138
 21
200.7718986446369
 72
     1
 10
165.1210802645138
 20
200.7718986446369
 11
165.1210802645138
 21
201.3497471730807
 72
     1
 10
165.1210802645138
 20
201.3497471730807
 11
165.0210802645138
 21
201.3497471801753
 72
     1
 10
165.0210802645138
 20
201.3497471801753
 11
165.0210802645138
 21
201.507660591359
 72
     1
 10
165.0210802645138
 20
201.507660591359
 11
165.1210802645138
 21
201.5076605933613
 72
     1
 10
165.1210802645138
 20
201.5076605933613
 11
165.1210802645138
 21
202.2132924573868
 72
     1
 10
165.1210802645138
 20
202.2132924573868
 11
165.0210802645138
 21
202.2132924706824
 72
     1
 10
165.0210802645138
 20
202.2132924706824
 11
165.0210802645138
 21
202.4266371624805
 72
     1
 10
165.0210802645138
 20
202.4266371624805
 11
165.1210802645138
 21
202.4266371564404
 72
     1
 10
165.1210802645138
 20
202.4266371564404
 11
165.1210802645138
 21
216.4535098634372
 72
     2
 10
167.1210802645138
 20
216.4535098634372
 40
2.0
 50
180.0
 51
225.0000000000008
 73
     0
 72
     1
 10
165.7068667021407
 20
217.8677234258103
 11
167.3888472174802
 21
219.5497039411498
 72
     2
 10
165.6210802645138
 20
221.3174708941162
 40
2.5
 50
315.0000000000003
 51
360.0000000000008
 73
     1
 72
     1
 10
168.1210802645138
 20
221.3174708941162
 11
168.1210802645138
 21
222.5245776753027
 72
     1
 10
168.1210802645138
 20
222.5245776753027
 11
166.1210802645139
 21
222.5245776753027
 72
     1
 10
166.1210802645139
 20
222.5245776753027
 11
164.1210802645138
 21
220.5245776753027
 97
        0
 75
     0
 76
     1
 52
90.0
 41
1.0
 77
     0
 78
     2
 53
135.0000000000002
 43
0.0
 44
0.0
 45
-4.490128060534562
 46
-4.490128060534592
 79
     0
 53
135.0000000000002
 43
-0.0000000000000157
 44
4.49013
 45
-4.490128060534562
 46
-4.490128060534592
 79
     2
 49
3.175
 49
-1.5875
 98
        1
 10
0.0
 20
0.0
  0
HATCH
  5
29A
330
1F
100
AcDbEntity
  8
0
  6
Continuous
 62
     7
370
     0
100
AcDbHatch
 10
0.0
 20
0.0
 30
0.0
210
0.0
220
0.0
230
1.0
  2
ANSI37
 70
     0
 71
     0
 91
        1
 92
        0
 93
        4
 72
     1
 10
159.6210802645138
 20
191.5245776753027
 11
159.6210802645138
 21
223.5245776753028
 72
     1
 10
159.6210802645138
 20
223.5245776753028
 11
156.4210802645138
 21
223.5245776753028
 72
     1
 10
156.4210802645138
 20
223.5245776753028
 11
156.4210802645138
 21
191.5245776753027
 72
     1
 10
156.4210802645138
 20
191.5245776753027
 11
159.6210802645138
 21
191.5245776753027
 97
        0
 75
     0
 76
     1
 52
0.0
 41
1.0
 77
     0
 78
     2
 53
45.0
 43
0.0
 44
0.0
 45
-2.245064030267288
 46
2.245064030267288
 79
     0
 53
135.0
 43
0.0
 44
0.0
 45
-2.245064030267288
 46
-2.245064030267288
 79
     0
 98
        1
 10
0.0
 20
0.0
  0
MTEXT
  5
29B
330
1F
100
AcDbEntity
  8
0
  6
Continuous
 62
     7
370
     0
100
AcDbMText
 10
215.087590253
 20
260.4516332529
 30
0.0
 40
5.0
 41
0.0
 71
     2
 72
     1
  1
A-A
  7
SLDTEXTSTYLE0
 73
     1
 44
1.0
  0
LINE
  5
29C
330
1F
100
AcDbEntity
  8
0
  6
CENTERX2
 62
     7
370
     0
100
AcDbLine
 10
164.1210802645
 20
182.5245776753
 30
0.0
 11
164.1210802645
 21
196.5245776753
 31
0.0
  0
LINE
  5
29D
330
1F
100
AcDbEntity
  8
0
  6
CENTERX2
 62
     7
370
     0
100
AcDbLine
 10
158.1210802645
 20
217.5245776753
 30
0.0
 11
185.1210802645
 21
217.5245776753
 31
0.0
  0
LINE
  5
29E
330
1F
100
AcDbEntity
  8
0
  6
CENTERX2
 62
     7
370
     0
100
AcDbLine
 10
154.4210802645
 20
207.5245776753
 30
0.0
 11
161.6210802645
 21
207.5245776753
 31
0.0
  0
LINE
  5
29F
330
1F
100
AcDbEntity
  8
0
  6
CENTERX2
 62
     7
370
     0
100
AcDbLine
 10
167.1210802645
 20
207.5245776753
 30
0.0
 11
161.6210802645
 21
207.5245776753
 31
0.0
  0
LINE
  5
2A0
330
1F
100
AcDbEntity
  8
0
  6
CENTERX2
 62
     7
370
     0
100
AcDbLine
 10
213.6210802645
 20
249.7806450031
 30
0.0
 11
213.6210802645
 21
197.6429254112
 31
0.0
  0
ENDSEC
  0
SECTION
  2
OBJECTS
  0
DICTIONARY
  5
C
330
0
100
AcDbDictionary
281
     1
  3
ACAD_GROUP
350
D
  3
ACAD_LAYOUT
350
1A
  3
ACAD_MLINESTYLE
350
17
  3
ACAD_PLOTSETTINGS
350
19
  3
ACAD_PLOTSTYLENAME
350
E
  0
DICTIONARY
  5
D
102
{ACAD_REACTORS
330
C
102
}
330
C
100
AcDbDictionary
281
     1
  0
DICTIONARY
  5
1A
102
{ACAD_REACTORS
330
C
102
}
330
C
100
AcDbDictionary
281
     1
  3
Layout1
350
1E
  3
Layout2
350
26
  3
Model
350
22
  0
DICTIONARY
  5
17
102
{ACAD_REACTORS
330
C
102
}
330
C
100
AcDbDictionary
281
     1
  3
Standard
350
18
  0
DICTIONARY
  5
19
102
{ACAD_REACTORS
330
C
102
}
330
C
100
AcDbDictionary
281
     1
  0
ACDBDICTIONARYWDFLT
  5
E
102
{ACAD_REACTORS
330
C
102
}
330
C
100
AcDbDictionary
281
     1
  3
Normal
350
F
100
AcDbDictionaryWithDefault
340
F
  0
LAYOUT
  5
1E
102
{ACAD_REACTORS
330
1A
102
}
330
1A
100
AcDbPlotSettings
  1

  2
none_device
  4

  6

 40
0.0
 41
0.0
 42
0.0
 43
0.0
 44
0.0
 45
0.0
 46
0.0
 47
0.0
 48
0.0
 49
0.0
140
0.0
141
0.0
142
1.0
143
1.0
 70
   688
 72
     0
 73
     0
 74
     5
  7

 75
    16
147
1.0
148
0.0
149
0.0
100
AcDbLayout
  1
Layout1
 70
     1
 71
     1
 10
0.0
 20
0.0
 11
420.0
 21
297.0
 12
0.0
 22
0.0
 32
0.0
 14
1.0000000000E+20
 24
1.0000000000E+20
 34
1.0000000000E+20
 15
-1.0000000000E+20
 25
-1.0000000000E+20
 35
-1.0000000000E+20
146
0.0
 13
0.0
 23
0.0
 33
0.0
 16
1.0
 26
0.0
 36
0.0
 17
0.0
 27
1.0
 37
0.0
 76
     0
330
1B
  0
LAYOUT
  5
26
102
{ACAD_REACTORS
330
1A
102
}
330
1A
100
AcDbPlotSettings
  1

  2
none_device
  4

  6

 40
0.0
 41
0.0
 42
0.0
 43
0.0
 44
0.0
 45
0.0
 46
0.0
 47
0.0
 48
0.0
 49
0.0
140
0.0
141
0.0
142
1.0
143
1.0
 70
   688
 72
     0
 73
     0
 74
     5
  7

 75
    16
147
1.0
148
0.0
149
0.0
100
AcDbLayout
  1
Layout2
 70
     1
 71
     2
 10
0.0
 20
0.0
 11
0.0
 21
0.0
 12
0.0
 22
0.0
 32
0.0
 14
0.0
 24
0.0
 34
0.0
 15
0.0
 25
0.0
 35
0.0
146
0.0
 13
0.0
 23
0.0
 33
0.0
 16
1.0
 26
0.0
 36
0.0
 17
0.0
 27
1.0
 37
0.0
 76
     0
330
23
  0
LAYOUT
  5
22
102
{ACAD_REACTORS
330
1A
102
}
330
1A
100
AcDbPlotSettings
  1

  2
none_device
  4

  6

 40
0.0
 41
0.0
 42
0.0
 43
0.0
 44
0.0
 45
0.0
 46
0.0
 47
0.0
 48
0.0
 49
0.0
140
0.0
141
0.0
142
1.0
143
1.0
 70
  1712
 72
     0
 73
     0
 74
     0
  7

 75
     0
147
1.0
148
0.0
149
0.0
100
AcDbLayout
  1
Model
 70
     1
 71
     0
 10
0.0
 20
0.0
 11
420.0
 21
297.0
 12
0.0
 22
0.0
 32
0.0
 14
0.0
 24
0.0
 34
0.0
 15
420.0
 25
297.0
 35
0.0
146
0.0
 13
0.0
 23
0.0
 33
0.0
 16
1.0
 26
0.0
 36
0.0
 17
0.0
 27
1.0
 37
0.0
 76
     0
330
1F
331
29
  0
MLINESTYLE
  5
18
102
{ACAD_REACTORS
330
17
102
}
330
17
100
AcDbMlineStyle
  2
Standard
 70
     0
  3

 62
   256
 51
90.0
 52
90.0
 71
     2
 49
0.5
 62
   256
  6
BYLAYER
 49
-0.5
 62
   256
  6
BYLAYER
  0
ACDBPLACEHOLDER
  5
F
102
{ACAD_REACTORS
330
E
102
}
330
E
  0
ENDSEC
  0
EOF
