  0
SECTION
  2
HEADER
  9
$ACADVER
  1
AC1015
  9
$ACADMAINTVER
 70
     6
  9
$DWGCODEPAGE
  3
ANSI_1252
  9
$INSBASE
 10
0.0
 20
0.0
 30
0.0
  9
$EXTMIN
 10
0.0
 20
0.0
 30
0.0
  9
$EXTMAX
 10
420.0
 20
297.0
 30
0.0
  9
$LIMMIN
 10
0.0
 20
0.0
  9
$LIMMAX
 10
420.0
 20
297.0
  9
$ORTHOMODE
 70
     0
  9
$REGENMODE
 70
     1
  9
$FILLMODE
 70
     1
  9
$QTEXTMODE
 70
     0
  9
$MIRRTEXT
 70
     1
  9
$LTSCALE
 40
1.0
  9
$ATTMODE
 70
     1
  9
$TEXTSIZE
 40
3.5
  9
$TRACEWID
 40
1.0
  9
$TEXTSTYLE
  7
Standard
  9
$CLAYER
  8
0
  9
$CELTYPE
  6
ByLayer
  9
$CECOLOR
 62
   256
  9
$CELTSCALE
 40
1.0
  9
$DISPSILH
 70
     0
  9
$DIMSCALE
 40
1.0
  9
$DIMASZ
 40
3.5
  9
$DIMEXO
 40
1.0
  9
$DIMDLI
 40
3.75
  9
$DIMRND
 40
0.0
  9
$DIMDLE
 40
0.0
  9
$DIMEXE
 40
1.0
  9
$DIMTP
 40
0.0
  9
$DIMTM
 40
0.0
  9
$DIMTXT
 40
3.5
  9
$DIMCEN
 40
2.5
  9
$DIMTSZ
 40
0.0
  9
$DIMTOL
 70
     0
  9
$DIMLIM
 70
     0
  9
$DIMTIH
 70
     1
  9
$DIMTOH
 70
     1
  9
$DIMSE1
 70
     0
  9
$DIMSE2
 70
     0
  9
$DIMTAD
 70
     1
  9
$DIMZIN
 70
     0
  9
$DIMBLK
  1

  9
$DIMASO
 70
     1
  9
$DIMSHO
 70
     1
  9
$DIMPOST
  1

  9
$DIMAPOST
  1

  9
$DIMALT
 70
     0
  9
$DIMALTD
 70
     3
  9
$DIMALTF
 40
0.0393700787
  9
$DIMLFAC
 40
1.0
  9
$DIMTOFL
 70
     1
  9
$DIMTVP
 40
0.0
  9
$DIMTIX
 70
     0
  9
$DIMSOXD
 70
     0
  9
$DIMSAH
 70
     0
  9
$DIMBLK1
  1

  9
$DIMBLK2
  1

  9
$DIMSTYLE
  2
ISO-25
  9
$DIMCLRD
 70
     0
  9
$DIMCLRE
 70
     0
  9
$DIMCLRT
 70
     0
  9
$DIMTFAC
 40
1.0
  9
$DIMGAP
 40
4.0
  9
$DIMJUST
 70
     0
  9
$DIMSD1
 70
     0
  9
$DIMSD2
 70
     0
  9
$DIMTOLJ
 70
     0
  9
$DIMTZIN
 70
     0
  9
$DIMALTZ
 70
     0
  9
$DIMALTTZ
 70
     0
  9
$DIMUPT
 70
     0
  9
$DIMDEC
 70
     1
  9
$DIMTDEC
 70
     2
  9
$DIMALTU
 70
     2
  9
$DIMALTTD
 70
     3
  9
$DIMTXSTY
  7
Standard
  9
$DIMAUNIT
 70
     0
  9
$DIMADEC
 70
     1
  9
$DIMALTRND
 40
0.0
  9
$DIMAZIN
 70
     0
  9
$DIMDSEP
 70
    44
  9
$DIMATFIT
 70
     3
  9
$DIMFRAC
 70
     0
  9
$DIMLDRBLK
  1

  9
$DIMLUNIT
 70
     2
  9
$DIMLWD
 70
    -2
  9
$DIMLWE
 70
    -2
  9
$DIMTMOVE
 70
     0
  9
$LUNITS
 70
     2
  9
$LUPREC
 70
     1
  9
$SKETCHINC
 40
1.0
  9
$FILLETRAD
 40
10.0
  9
$AUNITS
 70
     0
  9
$AUPREC
 70
     1
  9
$MENU
  1
.
  9
$ELEVATION
 40
0.0
  9
$PELEVATION
 40
0.0
  9
$THICKNESS
 40
0.0
  9
$LIMCHECK
 70
     0
  9
$CHAMFERA
 40
10.0
  9
$CHAMFERB
 40
10.0
  9
$CHAMFERC
 40
20.0
  9
$CHAMFERD
 40
0.0
  9
$SKPOLY
 70
     0
  9
$TDCREATE
 40
2456156.45460022
  9
$TDUCREATE
 40
2456156.371266887
  9
$TDUPDATE
 40
2456156.454600231
  9
$TDUUPDATE
 40
2456156.371266898
  9
$TDINDWG
 40
0.0000000116
  9
$TDUSRTIMER
 40
0.0000000116
  9
$USRTIMER
 70
     1
  9
$ANGBASE
 50
0.0
  9
$ANGDIR
 70
     0
  9
$PDMODE
 70
     0
  9
$PDSIZE
 40
-1.0
  9
$PLINEWID
 40
0.0
  9
$SPLFRAME
 70
     0
  9
$SPLINETYPE
 70
     6
  9
$SPLINESEGS
 70
     8
  9
$HANDSEED
  5
2F7
  9
$SURFTAB1
 70
     6
  9
$SURFTAB2
 70
     6
  9
$SURFTYPE
 70
     6
  9
$SURFU
 70
     6
  9
$SURFV
 70
     6
  9
$UCSBASE
  2

  9
$UCSNAME
  2

  9
$UCSORG
 10
0.0
 20
0.0
 30
0.0
  9
$UCSXDIR
 10
1.0
 20
0.0
 30
0.0
  9
$UCSYDIR
 10
0.0
 20
1.0
 30
0.0
  9
$UCSORTHOREF
  2

  9
$UCSORTHOVIEW
 70
     0
  9
$UCSORGTOP
 10
0.0
 20
0.0
 30
0.0
  9
$UCSORGBOTTOM
 10
0.0
 20
0.0
 30
0.0
  9
$UCSORGLEFT
 10
0.0
 20
0.0
 30
0.0
  9
$UCSORGRIGHT
 10
0.0
 20
0.0
 30
0.0
  9
$UCSORGFRONT
 10
0.0
 20
0.0
 30
0.0
  9
$UCSORGBACK
 10
0.0
 20
0.0
 30
0.0
  9
$PUCSBASE
  2

  9
$PUCSNAME
  2

  9
$PUCSORG
 10
0.0
 20
0.0
 30
0.0
  9
$PUCSXDIR
 10
1.0
 20
0.0
 30
0.0
  9
$PUCSYDIR
 10
0.0
 20
1.0
 30
0.0
  9
$PUCSORTHOREF
  2

  9
$PUCSORTHOVIEW
 70
     0
  9
$PUCSORGTOP
 10
0.0
 20
0.0
 30
0.0
  9
$PUCSORGBOTTOM
 10
0.0
 20
0.0
 30
0.0
  9
$PUCSORGLEFT
 10
0.0
 20
0.0
 30
0.0
  9
$PUCSORGRIGHT
 10
0.0
 20
0.0
 30
0.0
  9
$PUCSORGFRONT
 10
0.0
 20
0.0
 30
0.0
  9
$PUCSORGBACK
 10
0.0
 20
0.0
 30
0.0
  9
$USERI1
 70
     0
  9
$USERI2
 70
     0
  9
$USERI3
 70
     0
  9
$USERI4
 70
     0
  9
$USERI5
 70
     0
  9
$USERR1
 40
0.0
  9
$USERR2
 40
0.0
  9
$USERR3
 40
0.0
  9
$USERR4
 40
0.0
  9
$USERR5
 40
0.0
  9
$WORLDVIEW
 70
     1
  9
$SHADEDGE
 70
     3
  9
$SHADEDIF
 70
    70
  9
$TILEMODE
 70
     1
  9
$MAXACTVP
 70
    64
  9
$PINSBASE
 10
0.0
 20
0.0
 30
0.0
  9
$PLIMCHECK
 70
     0
  9
$PEXTMIN
 10
1.0000000000E+20
 20
1.0000000000E+20
 30
1.0000000000E+20
  9
$PEXTMAX
 10
-1.0000000000E+20
 20
-1.0000000000E+20
 30
-1.0000000000E+20
  9
$PLIMMIN
 10
0.0
 20
0.0
  9
$PLIMMAX
 10
420.0
 20
297.0
  9
$UNITMODE
 70
     0
  9
$VISRETAIN
 70
     1
  9
$PLINEGEN
 70
     0
  9
$PSLTSCALE
 70
     1
  9
$TREEDEPTH
 70
  3020
  9
$CMLSTYLE
  2
Standard
  9
$CMLJUST
 70
     0
  9
$CMLSCALE
 40
20.0
  9
$PROXYGRAPHICS
 70
     1
  9
$MEASUREMENT
 70
     1
  9
$CELWEIGHT
370
    -1
  9
$ENDCAPS
280
     0
  9
$JOINSTYLE
280
     0
  9
$LWDISPLAY
290
     1
  9
$INSUNITS
 70
     4
  9
$HYPERLINKBASE
  1

  9
$STYLESHEET
  1

  9
$XEDIT
290
     1
  9
$CEPSNTYPE
380
     0
  9
$PSTYLEMODE
290
     1
  9
$FINGERPRINTGUID
  2
{A7E3B0E9-BE1A-4F9A-8991-59B17D3112C7}
  9
$VERSIONGUID
  2
{FAEB1C32-E019-11D5-929B-00C0DF256EC4}
  9
$EXTNAMES
290
     1
  9
$PSVPSCALE
 40
0.0
  9
$OLESTARTUP
290
     0
  0
ENDSEC
  0
SECTION
  2
CLASSES
  0
CLASS
  1
ACDBDICTIONARYWDFLT
  2
AcDbDictionaryWithDefault
  3
ObjectDBX Classes
 90
        0
280
     0
281
     0
  0
CLASS
  1
VISUALSTYLE
  2
AcDbVisualStyle
  3
ObjectDBX Classes
 90
     4095
280
     0
281
     0
  0
CLASS
  1
MATERIAL
  2
AcDbMaterial
  3
ObjectDBX Classes
 90
     1153
280
     0
281
     0
  0
CLASS
  1
ACDBPLACEHOLDER
  2
AcDbPlaceHolder
  3
ObjectDBX Classes
 90
        0
280
     0
281
     0
  0
CLASS
  1
LAYOUT
  2
AcDbLayout
  3
ObjectDBX Classes
 90
        0
280
     0
281
     0
  0
ENDSEC
  0
SECTION
  2
TABLES
  0
TABLE
  2
VPORT
  5
8
330
0
100
AcDbSymbolTable
 70
     1
  0
VPORT
  5
29
330
8
100
AcDbSymbolTableRecord
100
AcDbViewportTableRecord
  2
*Active
 70
     0
 10
0.0
 20
0.0
 11
1.0
 21
1.0
 12
210.0
 22
148.5
 13
0.0
 23
0.0
 14
10.0
 24
10.0
 15
10.0
 25
10.0
 16
0.0
 26
0.0
 36
1.0
 17
0.0
 27
0.0
 37
0.0
 40
297.0
 41
1.4141414141
 42
50.0
 43
0.0
 44
0.0
 50
0.0
 51
0.0
 71
     0
 72
  2000
 73
     1
 74
     3
 75
     0
 76
     0
 77
     0
 78
     0
281
     0
 65
     1
110
0.0
120
0.0
130
0.0
111
1.0
121
0.0
131
0.0
112
0.0
122
1.0
132
0.0
 79
     0
146
0.0
  0
ENDTAB
  0
TABLE
  2
LTYPE
  5
5
330
0
100
AcDbSymbolTable
 70
     6
  0
LTYPE
  5
14
330
5
100
AcDbSymbolTableRecord
100
AcDbLinetypeTableRecord
  2
ByBlock
 70
     0
  3

 72
    65
 73
     0
 40
0.0
  0
LTYPE
  5
15
330
5
100
AcDbSymbolTableRecord
100
AcDbLinetypeTableRecord
  2
ByLayer
 70
     0
  3

 72
    65
 73
     0
 40
0.0
  0
LTYPE
  5
16
330
5
100
AcDbSymbolTableRecord
100
AcDbLinetypeTableRecord
  2
Continuous
 70
     0
  3
Solid line
 72
    65
 73
     0
 40
0.0
  0
LTYPE
  5
3F
330
5
100
AcDbSymbolTableRecord
100
AcDbLinetypeTableRecord
  2
HIDDEN
 70
     0
  3
Hidden __ __ __ __ __ __ __ __ __ __ __ __ __ __
 72
    65
 73
     2
 40
1.905
 49
1.27
 74
     0
 49
-0.635
 74
     0
  0
LTYPE
  5
40
330
5
100
AcDbSymbolTableRecord
100
AcDbLinetypeTableRecord
  2
PHANTOM
 70
     0
  3
Phantom ______  __  __  ______  __  __  ______
 72
    65
 73
     6
 40
12.7
 49
6.35
 74
     0
 49
-1.27
 74
     0
 49
1.27
 74
     0
 49
-1.27
 74
     0
 49
1.27
 74
     0
 49
-1.27
 74
     0
  0
LTYPE
  5
41
330
5
100
AcDbSymbolTableRecord
100
AcDbLinetypeTableRecord
  2
CENTER
 70
     0
  3
Center ____ _ ____ _ ____ _ ____ _ ____ _ ____
 72
    65
 73
     4
 40
10.16
 49
6.35
 74
     0
 49
-1.27
 74
     0
 49
1.27
 74
     0
 49
-1.27
 74
     0
  0
LTYPE
  5
42
330
5
100
AcDbSymbolTableRecord
100
AcDbLinetypeTableRecord
  2
CENTERX2
 70
     0
  3
Center (2x) ________  __  ________  __  _____
 72
    65
 73
     4
 40
20.32
 49
12.7
 74
     0
 49
-2.54
 74
     0
 49
2.54
 74
     0
 49
-2.54
 74
     0
  0
LTYPE
  5
43
330
5
100
AcDbSymbolTableRecord
100
AcDbLinetypeTableRecord
  2
DOT2
 70
     0
  3
Dot (.5x) ........................................
 72
    65
 73
     2
 40
0.635
 49
0.0
 74
     0
 49
-0.635
 74
     0
  0
ENDTAB
  0
TABLE
  2
LAYER
  5
2
330
0
100
AcDbSymbolTable
 70
     5
  0
LAYER
  5
10
330
2
100
AcDbSymbolTableRecord
100
AcDbLayerTableRecord
  2
0
 70
     0
 62
     7
  6
Continuous
370
    -3
390
F
  0
LAYER
  5
44
330
2
100
AcDbSymbolTableRecord
100
AcDbLayerTableRecord
  2
VORLAGE
 70
     0
 62
    -1
  6
Continuous
370
    -3
390
F
  0
LAYER
  5
45
330
2
100
AcDbSymbolTableRecord
100
AcDbLayerTableRecord
  2
RAHMEN
 70
     0
 62
   179
  6
Continuous
370
    -3
390
F
  0
LAYER
  5
46
330
2
100
AcDbSymbolTableRecord
100
AcDbLayerTableRecord
  2
KOPF
 70
     0
 62
     7
  6
Continuous
370
    -3
390
F
  0
LAYER
  5
47
330
2
100
AcDbSymbolTableRecord
100
AcDbLayerTableRecord
  2
TEMP
 70
     0
 62
     7
  6
Continuous
370
    -3
390
F
  0
ENDTAB
  0
TABLE
  2
STYLE
  5
3
330
0
100
AcDbSymbolTable
 70
     2
  0
STYLE
  5
11
330
3
100
AcDbSymbolTableRecord
100
AcDbTextStyleTableRecord
  2
Standard
 70
     0
 40
0.0
 41
1.0
 50
0.0
 71
     0
 42
2.5
  3
txt
  4

  0
STYLE
  5
AC
330
3
100
AcDbSymbolTableRecord
100
AcDbTextStyleTableRecord
  2
SLDTEXTSTYLE0
 70
     0
 40
0.0
 41
0.605
 50
0.0
 71
     0
 42
0.2
  3
TXT
  4

  0
ENDTAB
  0
TABLE
  2
VIEW
  5
6
330
0
100
AcDbSymbolTable
 70
     0
  0
ENDTAB
  0
TABLE
  2
UCS
  5
7
330
0
100
AcDbSymbolTable
 70
     0
  0
ENDTAB
  0
TABLE
  2
APPID
  5
9
330
0
100
AcDbSymbolTable
 70
     1
  0
APPID
  5
12
330
9
100
AcDbSymbolTableRecord
100
AcDbRegAppTableRecord
  2
ACAD
 70
     0
  0
ENDTAB
  0
TABLE
  2
DIMSTYLE
  5
A
330
0
100
AcDbSymbolTable
 70
     2
100
AcDbDimStyleTable
  0
DIMSTYLE
105
27
330
A
100
AcDbSymbolTableRecord
100
AcDbDimStyleTableRecord
  2
ISO-25
 70
     0
 41
2.5
 42
0.625
 43
3.75
 44
1.25
 73
     0
 74
     0
 77
     1
 78
     8
140
2.5
141
2.5
143
0.0393700787
147
0.625
171
     3
172
     1
178
     0
271
     2
272
     2
274
     3
278
    44
283
     0
284
     8
340
11
  0
DIMSTYLE
105
AD
102
{ACAD_REACTORS
330
AB
330
23F
330
24B
102
}
330
A
100
AcDbSymbolTableRecord
100
AcDbDimStyleTableRecord
  2
SLDDIMSTYLE0
 70
     0
 41
3.5
 44
0.0
 45
0.000000001
 73
     0
 74
     0
 77
     1
 78
    12
 79
     3
140
3.5
147
0.875
173
     1
178
     0
271
     1
272
     2
276
     2
284
    12
340
AC
  0
ENDTAB
  0
TABLE
  2
BLOCK_RECORD
  5
1
330
0
100
AcDbSymbolTable
 70
     4
  0
BLOCK_RECORD
  5
1F
330
1
100
AcDbSymbolTableRecord
100
AcDbBlockTableRecord
  2
*Model_Space
340
22
  0
BLOCK_RECORD
  5
1B
330
1
100
AcDbSymbolTableRecord
100
AcDbBlockTableRecord
  2
*Paper_Space
340
1E
  0
BLOCK_RECORD
  5
23
330
1
100
AcDbSymbolTableRecord
100
AcDbBlockTableRecord
  2
*Paper_Space0
340
26
  0
BLOCK_RECORD
  5
AE
330
1
100
AcDbSymbolTableRecord
100
AcDbBlockTableRecord
  2
*D1
340
0
  0
BLOCK_RECORD
  5
240
330
1
100
AcDbSymbolTableRecord
100
AcDbBlockTableRecord
  2
*D2
340
0
  0
BLOCK_RECORD
  5
24C
330
1
100
AcDbSymbolTableRecord
100
AcDbBlockTableRecord
  2
*D3
340
0
  0
ENDTAB
  0
ENDSEC
  0
SECTION
  2
BLOCKS
  0
BLOCK
  5
20
330
1F
100
AcDbEntity
  8
0
100
AcDbBlockBegin
  2
*Model_Space
 70
     0
 10
0.0
 20
0.0
 30
0.0
  3
*Model_Space
  1

  0
ENDBLK
  5
21
330
1F
100
AcDbEntity
  8
0
100
AcDbBlockEnd
  0
BLOCK
  5
1C
330
1B
100
AcDbEntity
 67
     1
  8
0
100
AcDbBlockBegin
  2
*Paper_Space
 70
     0
 10
0.0
 20
0.0
 30
0.0
  3
*Paper_Space
  1

  0
ENDBLK
  5
1D
330
1B
100
AcDbEntity
 67
     1
  8
0
100
AcDbBlockEnd
  0
BLOCK
  5
24
330
23
100
AcDbEntity
  8
0
100
AcDbBlockBegin
  2
*Paper_Space0
 70
     0
 10
0.0
 20
0.0
 30
0.0
  3
*Paper_Space0
  1

  0
ENDBLK
  5
25
330
23
100
AcDbEntity
  8
0
100
AcDbBlockEnd
  0
BLOCK
  5
AF
330
AE
100
AcDbEntity
  8
0
100
AcDbBlockBegin
  2
*D1
 70
     1
 10
0.0
 20
0.0
 30
0.0
  3
*D1
  1

  0
ARC
  5
B1
330
AE
100
AcDbEntity
  8
0
  6
Continuous
 62
     7
370
     0
100
AcDbCircle
 10
21.5934334545
 20
221.6913125557
 30
0.0
 40
6.002259529426184
100
AcDbArc
 50
243.4349488229
 51
296.5650511771
  0
ARC
  5
B2
330
AE
100
AcDbEntity
  8
0
  6
Continuous
 62
     7
370
     0
100
AcDbCircle
 10
21.5934334545
 20
219.4756743824
 30
0.0
 40
6.00225952942614
100
AcDbArc
 50
63.4349488229
 51
116.5650511771
  0
SOLID
  5
B3
330
AE
100
AcDbEntity
  8
0
  6
Continuous
 62
     7
370
     0
100
AcDbTrace
 10
24.2777255198
 20
265.0745789972
 30
0.0
 11
23.3777255198
 21
261.5745789972
 31
0.0
 12
25.1777255198
 22
261.5745789972
 32
0.0
 13
25.1777255198
 23
261.5745789972
 33
0.0
  0
SOLID
  5
B4
330
AE
100
AcDbEntity
  8
0
  6
Continuous
 62
     7
370
     0
100
AcDbTrace
 10
24.2777255198
 20
172.0745789972
 30
0.0
 11
25.1777255198
 21
175.5745789972
 31
0.0
 12
23.3777255198
 22
175.5745789972
 32
0.0
 13
23.3777255198
 23
175.5745789972
 33
0.0
  0
LINE
  5
B5
330
AE
100
AcDbEntity
  8
0
  6
Continuous
 62
     7
370
     0
100
AcDbLine
 10
32.4735786381
 20
265.0745789972
 30
0.0
 11
23.2777255198
 21
265.0745789972
 31
0.0
  0
LINE
  5
B6
330
AE
100
AcDbEntity
  8
0
  6
Continuous
 62
     7
370
     0
100
AcDbLine
 10
70.4332546594
 20
172.0745789972
 30
0.0
 11
23.2777255198
 21
172.0745789972
 31
0.0
  0
LINE
  5
B7
330
AE
100
AcDbEntity
  8
0
  6
Continuous
 62
     7
370
     0
100
AcDbLine
 10
24.2777255198
 20
265.0745789972
 30
0.0
 11
24.2777255198
 21
172.0745789972
 31
0.0
  0
MTEXT
  5
B8
330
AE
100
AcDbEntity
  8
0
  6
Continuous
 62
     7
370
     0
100
AcDbMText
 10
19.7659881977
 20
217.9102284252
 30
0.0
 40
3.5
 41
0.0
 71
     1
 72
     1
  1
93
  7
SLDTEXTSTYLE0
 11
-7.044195017643634E-15
 21
1.0
 31
0.0
 73
     1
 44
1.0
  0
ENDBLK
  5
B0
330
AE
100
AcDbEntity
  8
0
100
AcDbBlockEnd
  0
BLOCK
  5
241
330
240
100
AcDbEntity
  8
0
100
AcDbBlockBegin
  2
*D2
 70
     1
 10
0.0
 20
0.0
 30
0.0
  3
*D2
  1

  0
ARC
  5
243
330
240
100
AcDbEntity
  8
0
  6
Continuous
 62
     7
370
     0
100
AcDbCircle
 10
21.428348129
 20
80.9411748131
 30
0.0
 40
6.002259529426182
100
AcDbArc
 50
243.4349488229
 51
296.5650511771
  0
ARC
  5
244
330
240
100
AcDbEntity
  8
0
  6
Continuous
 62
     7
370
     0
100
AcDbCircle
 10
21.428348129
 20
78.7255366398
 30
0.0
 40
6.002259529426176
100
AcDbArc
 50
63.4349488229
 51
116.5650511771
  0
SOLID
  5
245
330
240
100
AcDbEntity
  8
0
  6
Continuous
 62
     7
370
     0
100
AcDbTrace
 10
24.1126401943
 20
124.1641358874
 30
0.0
 11
23.2126401943
 21
120.6641358874
 31
0.0
 12
25.0126401943
 22
120.6641358874
 32
0.0
 13
25.0126401943
 23
120.6641358874
 33
0.0
  0
SOLID
  5
246
330
240
100
AcDbEntity
  8
0
  6
Continuous
 62
     7
370
     0
100
AcDbTrace
 10
24.1126401943
 20
35.1641358874
 30
0.0
 11
25.0126401943
 21
38.6641358874
 31
0.0
 12
23.2126401943
 22
38.6641358874
 32
0.0
 13
23.2126401943
 23
38.6641358874
 33
0.0
  0
LINE
  5
247
330
240
100
AcDbEntity
  8
0
  6
Continuous
 62
     7
370
     0
100
AcDbLine
 10
70.4332546594
 20
124.1641358874
 30
0.0
 11
23.1126401943
 21
124.1641358874
 31
0.0
  0
LINE
  5
248
330
240
100
AcDbEntity
  8
0
  6
Continuous
 62
     7
370
     0
100
AcDbLine
 10
35.6332546594
 20
35.1641358874
 30
0.0
 11
23.1126401943
 21
35.1641358874
 31
0.0
  0
LINE
  5
249
330
240
100
AcDbEntity
  8
0
  6
Continuous
 62
     7
370
     0
100
AcDbLine
 10
24.1126401943
 20
124.1641358874
 30
0.0
 11
24.1126401943
 21
35.1641358874
 31
0.0
  0
MTEXT
  5
24A
330
240
100
AcDbEntity
  8
0
  6
Continuous
 62
     7
370
     0
100
AcDbMText
 10
19.6009028723
 20
77.1600906825
 30
0.0
 40
3.5
 41
0.0
 71
     1
 72
     1
  1
89
  7
SLDTEXTSTYLE0
 11
-7.044195017643634E-15
 21
1.0
 31
0.0
 73
     1
 44
1.0
  0
ENDBLK
  5
242
330
240
100
AcDbEntity
  8
0
100
AcDbBlockEnd
  0
BLOCK
  5
24D
330
24C
100
AcDbEntity
  8
0
100
AcDbBlockBegin
  2
*D3
 70
     1
 10
0.0
 20
0.0
 30
0.0
  3
*D3
  1

  0
ARC
  5
24F
330
24C
100
AcDbEntity
  8
0
  6
Continuous
 62
     7
370
     0
100
AcDbCircle
 10
96.4318970316
 20
28.4505643756
 30
0.0
 40
6.00225952942617
100
AcDbArc
 50
153.4349488229
 51
206.5650511771
  0
ARC
  5
250
330
24C
100
AcDbEntity
  8
0
  6
Continuous
 62
     7
370
     0
100
AcDbCircle
 10
96.8879486134
 20
28.4505643756
 30
0.0
 40
6.00225952942617
100
AcDbArc
 50
333.4349488229
 51
26.5650511771
  0
SOLID
  5
251
330
24C
100
AcDbEntity
  8
0
  6
Continuous
 62
     7
370
     0
100
AcDbTrace
 10
30.6332546594
 20
25.7662723103
 30
0.0
 11
34.1332546594
 21
24.8662723103
 31
0.0
 12
34.1332546594
 22
26.6662723103
 32
0.0
 13
34.1332546594
 23
26.6662723103
 33
0.0
  0
SOLID
  5
252
330
24C
100
AcDbEntity
  8
0
  6
Continuous
 62
     7
370
     0
100
AcDbTrace
 10
163.6332546594
 20
25.7662723103
 30
0.0
 11
160.1332546594
 21
26.6662723103
 31
0.0
 12
160.1332546594
 22
24.8662723103
 32
0.0
 13
160.1332546594
 23
24.8662723103
 33
0.0
  0
LINE
  5
253
330
24C
100
AcDbEntity
  8
0
  6
Continuous
 62
     7
370
     0
100
AcDbLine
 10
30.6332546594
 20
40.1641358874
 30
0.0
 11
30.6332546594
 21
24.7662723103
 31
0.0
  0
LINE
  5
254
330
24C
100
AcDbEntity
  8
0
  6
Continuous
 62
     7
370
     0
100
AcDbLine
 10
163.6332546594
 20
40.1641358874
 30
0.0
 11
163.6332546594
 21
24.7662723103
 31
0.0
  0
LINE
  5
255
330
24C
100
AcDbEntity
  8
0
  6
Continuous
 62
     7
370
     0
100
AcDbLine
 10
30.6332546594
 20
25.7662723103
 30
0.0
 11
163.6332546594
 21
25.7662723103
 31
0.0
  0
MTEXT
  5
256
330
24C
100
AcDbEntity
  8
0
  6
Continuous
 62
     7
370
     0
100
AcDbMText
 10
92.650812901
 20
30.2780096323
 30
0.0
 40
3.5
 41
0.0
 71
     1
 72
     1
  1
133
  7
SLDTEXTSTYLE0
 73
     1
 44
1.0
  0
ENDBLK
  5
24E
330
24C
100
AcDbEntity
  8
0
100
AcDbBlockEnd
  0
ENDSEC
  0
SECTION
  2
ENTITIES
  0
SPLINE
  5
48
330
1F
100
AcDbEntity
  8
0
  6
Continuous
 62
     7
370
    30
100
AcDbSpline
210
0.0
220
0.0
230
1.0
 70
     8
 71
     3
 72
    14
 73
    10
 74
     0
 42
0.00000001
 43
0.00000001
 40
0.0
 40
0.0
 40
0.0
 40
0.0
 40
0.1170911134756551
 40
0.2863208700170196
 40
0.4177570753428909
 40
0.5082110582057928
 40
0.6729559228733702
 40
0.8809731880371108
 40
1.0
 40
1.0
 40
1.0
 40
1.0
 10
40.44900651000308
 20
178.5745784830717
 30
0.0
 10
40.47719122809156
 20
178.5745738983687
 30
0.0
 10
40.54611083065349
 20
178.5745626874741
 30
0.0
 10
40.65348239204436
 20
178.5745606983233
 30
0.0
 10
40.74167741732725
 20
178.5745599429294
 30
0.0
 10
40.8929832414901
 20
178.5745591606517
 30
0.0
 10
41.20214847442949
 20
178.5745795627761
 30
0.0
 10
41.58269060919879
 20
178.574638256535
 30
0.0
 10
41.86425857681913
 20
178.5746736391007
 30
0.0
 10
41.96673448108005
 20
178.5746865164903
 30
0.0
  0
SPLINE
  5
49
330
1F
100
AcDbEntity
  8
0
  6
Continuous
 62
     7
370
    30
100
AcDbSpline
210
0.0
220
0.0
230
1.0
 70
     8
 71
     3
 72
    13
 73
     9
 74
     0
 42
0.00000001
 43
0.00000001
 40
0.0
 40
0.0
 40
0.0
 40
0.0
 40
0.0537012637102702
 40
0.2169831204347474
 40
0.3903287960671948
 40
0.5893130857869311
 40
0.8382794913207818
 40
1.0
 40
1.0
 40
1.0
 40
1.0
 10
85.13524758539961
 20
178.5745794143942
 30
0.0
 10
85.16023628282645
 20
178.5745764265494
 30
0.0
 10
85.26120458726949
 20
178.5745643539864
 30
0.0
 10
85.41170274653143
 20
178.5745597186357
 30
0.0
 10
85.53378819693505
 20
178.5745597812048
 30
0.0
 10
85.62903924470584
 20
178.5745604574186
 30
0.0
 10
85.72878452389338
 20
178.574563775974
 30
0.0
 10
85.79243752600688
 20
178.5745743279206
 30
0.0
 10
85.81750283859537
 20
178.5745784830717
 30
0.0
  0
SPLINE
  5
4A
330
1F
100
AcDbEntity
  8
0
  6
Continuous
 62
     7
370
    30
100
AcDbSpline
210
0.0
220
0.0
230
1.0
 70
     8
 71
     3
 72
    12
 73
     8
 74
     0
 42
0.00000001
 43
0.00000001
 40
0.0
 40
0.0
 40
0.0
 40
0.0
 40
0.0016958904158896
 40
0.183656709787329
 40
0.3634225221640096
 40
0.539177536151743
 40
1.0
 40
1.0
 40
1.0
 40
1.0
 10
43.4333738210039
 20
178.5745794143942
 30
0.0
 10
43.43477619902023
 20
178.5745791025529
 30
0.0
 10
43.58664693898379
 20
178.5745453316558
 30
0.0
 10
43.94388909599574
 20
178.5745760040136
 30
0.0
 10
44.46895786468647
 20
178.5745637421823
 30
0.0
 10
45.27567377016186
 20
178.5745695934733
 30
0.0
 10
45.90978412320452
 20
178.5745709684554
 30
0.0
 10
46.36882061980532
 20
178.5745719638136
 30
0.0
  0
SPLINE
  5
4B
330
1F
100
AcDbEntity
  8
0
  6
Continuous
 62
     7
370
    30
100
AcDbSpline
210
0.0
220
0.0
230
1.0
 70
     8
 71
     3
 72
    14
 73
    10
 74
     0
 42
0.00000001
 43
0.00000001
 40
0.0
 40
0.0
 40
0.0
 40
0.0
 40
0.1170910747997242
 40
0.2863207066410463
 40
0.4177568685527129
 40
0.5082111557901677
 40
0.6729559660414807
 40
0.8809725192811982
 40
1.0
 40
1.0
 40
1.0
 40
1.0
 10
108.4490064802008
 20
178.5745784830717
 30
0.0
 10
108.4771912328328
 20
178.5745738983687
 30
0.0
 10
108.5461109033024
 20
178.5745626874769
 30
0.0
 10
108.6534816645141
 20
178.5745606983226
 30
0.0
 10
108.7416754139514
 20
178.5745599429283
 30
0.0
 10
108.8929863903141
 20
178.574559160652
 30
0.0
 10
109.2021496922614
 20
178.5745795626456
 30
0.0
 10
109.5826901218553
 20
178.5746382568397
 30
0.0
 10
109.864259358508
 20
178.5746736391277
 30
0.0
 10
109.9667363139229
 20
178.5746865164903
 30
0.0
  0
SPLINE
  5
4C
330
1F
100
AcDbEntity
  8
0
  6
Continuous
 62
     7
370
    30
100
AcDbSpline
210
0.0
220
0.0
230
1.0
 70
     8
 71
     3
 72
    13
 73
     9
 74
     0
 42
0.00000001
 43
0.00000001
 40
0.0
 40
0.0
 40
0.0
 40
0.0
 40
0.0537012422276366
 40
0.2169835388244641
 40
0.3903288215848068
 40
0.5893132551713165
 40
0.838279348504909
 40
1.0
 40
1.0
 40
1.0
 40
1.0
 10
153.1352456929521
 20
178.5745794143942
 30
0.0
 10
153.1602343550898
 20
178.5745764265493
 30
0.0
 10
153.2612027520246
 20
178.5745643539576
 30
0.0
 10
153.4117037615625
 20
178.5745597186554
 30
0.0
 10
153.5337848541775
 20
178.5745597812
 30
0.0
 10
153.629041016376
 20
178.5745604574153
 30
0.0
 10
153.7287813609545
 20
178.5745637759883
 30
0.0
 10
153.7924365877096
 20
178.5745743279208
 30
0.0
 10
153.8175028087931
 20
178.5745784830717
 30
0.0
  0
SPLINE
  5
4D
330
1F
100
AcDbEntity
  8
0
  6
Continuous
 62
     7
370
    30
100
AcDbSpline
210
0.0
220
0.0
230
1.0
 70
     8
 71
     3
 72
    12
 73
     8
 74
     0
 42
0.00000001
 43
0.00000001
 40
0.0
 40
0.0
 40
0.0
 40
0.0
 40
0.0016953736988958
 40
0.1836570565040834
 40
0.3634231668211745
 40
0.5391775566211517
 40
1.0
 40
1.0
 40
1.0
 40
1.0
 10
111.4333737912016
 20
178.5745794143942
 30
0.0
 10
111.4347755477964
 20
178.5745791025533
 30
0.0
 10
111.5866255442324
 20
178.5745453213376
 30
0.0
 10
111.9438990122229
 20
178.5745760086931
 30
0.0
 10
112.4689564094602
 20
178.5745637410236
 30
0.0
 10
113.275676101994
 20
178.5745695943456
 30
0.0
 10
113.9097848272762
 20
178.5745709688211
 30
0.0
 10
114.368820590003
 20
178.5745719638136
 30
0.0
  0
SPLINE
  5
4E
330
1F
100
AcDbEntity
  8
0
  6
Continuous
 62
     7
370
    30
100
AcDbSpline
210
0.0
220
0.0
230
1.0
 70
    24
 71
     3
 72
    15
 73
    11
 74
     0
 42
0.00000001
 43
0.00000001
 40
0.0
 40
0.0
 40
0.0
 40
0.0
 40
0.1250762832006723
 40
0.2500908431840492
 40
0.375058356238079
 40
0.4999995330875171
 40
0.6249419239233857
 40
0.7499091568159509
 40
0.8749237167993278
 40
1.0
 40
1.0
 40
1.0
 40
1.0
 10
44.44352353833484
 20
178.5745794143942
 30
0.0
 10
44.18189260199508
 20
178.5745794143942
 30
0.0
 10
43.65875984014878
 20
178.5745794143942
 30
0.0
 10
42.90431167483354
 20
178.5745794143942
 30
0.0
 10
42.20916839773254
 20
178.5745794143942
 30
0.0
 10
41.60022016046034
 20
178.5745794143942
 30
0.0
 10
41.09981883525585
 20
178.5745794143942
 30
0.0
 10
40.73086183581597
 20
178.5745794143942
 30
0.0
 10
40.49353901901286
 20
178.5745794143942
 30
0.0
 10
40.46385312186435
 20
178.5745794143942
 30
0.0
 10
40.44900651000308
 20
178.5745794143942
 30
0.0
  0
LINE
  5
4F
330
1F
100
AcDbEntity
  8
0
  6
Continuous
 62
     7
370
    30
100
AcDbLine
 10
81.8229848789
 20
178.5745794144
 30
0.0
 11
44.4435235383
 21
178.5745794144
 31
0.0
  0
SPLINE
  5
50
330
1F
100
AcDbEntity
  8
0
  6
Continuous
 62
     7
370
    30
100
AcDbSpline
210
0.0
220
0.0
230
1.0
 70
    24
 71
     3
 72
    15
 73
    11
 74
     0
 42
0.00000001
 43
0.00000001
 40
0.0
 40
0.0
 40
0.0
 40
0.0
 40
0.1250762706231737
 40
0.2500908611454122
 40
0.3750580814714448
 40
0.5000002711623881
 40
0.6249415503641275
 40
0.7499091819647411
 40
0.8749237293768263
 40
1.0
 40
1.0
 40
1.0
 40
1.0
 10
85.81750283859537
 20
178.5745794143942
 30
0.0
 10
85.80265631211265
 20
178.5745794143942
 30
0.0
 10
85.77297058056192
 20
178.5745794143942
 30
0.0
 10
85.53564642352856
 20
178.5745794143942
 30
0.0
 10
85.16668943457877
 20
178.5745794143942
 30
0.0
 10
84.6662901720202
 20
178.5745794143942
 30
0.0
 10
84.05734076361512
 20
178.5745794143942
 30
0.0
 10
83.36219699147382
 20
178.5745794143942
 30
0.0
 10
82.60774858080704
 20
178.5745794143942
 30
0.0
 10
82.08461581650764
 20
178.5745794143942
 30
0.0
 10
81.82298487894104
 20
178.5745794143942
 30
0.0
  0
LINE
  5
51
330
1F
100
AcDbEntity
  8
0
  6
Continuous
 62
     7
370
    30
100
AcDbLine
 10
87.8007272529
 20
265.0745758977
 30
0.0
 11
92.7929305742
 21
265.0745758977
 31
0.0
  0
ARC
  5
52
330
1F
100
AcDbEntity
  8
0
  6
Continuous
 62
     7
370
    30
100
AcDbCircle
 10
92.7929306807
 20
263.5745789972
 30
0.0
 40
1.500000000000002
100
AcDbArc
 50
356.8
 51
90.0
  0
LINE
  5
53
330
1F
100
AcDbEntity
  8
0
  6
Continuous
 62
     7
370
    30
100
AcDbLine
 10
38.4657811644
 20
265.0745758977
 30
0.0
 11
87.8007272529
 21
265.0745758977
 31
0.0
  0
LINE
  5
54
330
1F
100
AcDbEntity
  8
0
  6
Continuous
 62
     7
370
    30
100
AcDbLine
 10
33.4735792401
 20
265.0745758977
 30
0.0
 11
38.4657811644
 21
265.0745758977
 31
0.0
  0
ARC
  5
55
330
1F
100
AcDbEntity
  8
0
  6
Continuous
 62
     7
370
    30
100
AcDbCircle
 10
33.4735786381
 20
263.5745789972
 30
0.0
 40
1.50000000000002
100
AcDbArc
 50
90.0
 51
183.2
  0
LINE
  5
56
330
1F
100
AcDbEntity
  8
0
  6
Continuous
 62
     7
370
    30
100
AcDbLine
 10
34.6268993141
 20
216.0745790419
 30
0.0
 11
31.9759156825
 21
263.4908432331
 31
0.0
  0
LINE
  5
57
330
1F
100
AcDbEntity
  8
0
  6
Continuous
 62
     7
370
    30
100
AcDbLine
 10
94.2905918034
 20
263.4908432331
 30
0.0
 11
91.6396109658
 21
216.0745790419
 31
0.0
  0
LINE
  5
58
330
1F
100
AcDbEntity
  8
0
  6
Continuous
 62
     7
370
    30
100
AcDbLine
 10
37.952432436
 20
180.943739247
 30
0.0
 11
37.2642744603
 21
194.0745790447
 31
0.0
  0
LINE
  5
59
330
1F
100
AcDbEntity
  8
0
  6
Continuous
 62
     7
370
    30
100
AcDbLine
 10
89.0022348883
 20
194.0745790447
 30
0.0
 11
88.3140769126
 21
180.943739247
 31
0.0
  0
ARC
  5
5A
330
1F
100
AcDbEntity
  8
0
  6
Continuous
 62
     7
370
    30
100
AcDbCircle
 10
40.4490061033
 20
181.0745789972
 30
0.0
 40
2.5
100
AcDbArc
 50
183.0
 51
270.0
  0
ARC
  5
5B
330
1F
100
AcDbEntity
  8
0
  6
Continuous
 62
     7
370
    30
100
AcDbCircle
 10
85.8175032155
 20
181.0745789972
 30
0.0
 40
2.5
100
AcDbArc
 50
270.0
 51
357.0
  0
SPLINE
  5
5C
330
1F
100
AcDbEntity
  8
0
  6
Continuous
 62
     7
370
    30
100
AcDbSpline
210
0.0
220
0.0
230
1.0
 70
    24
 71
     3
 72
    15
 73
    11
 74
     0
 42
0.00000001
 43
0.00000001
 40
0.0
 40
0.0
 40
0.0
 40
0.0
 40
0.1250762706231737
 40
0.2500908180352588
 40
0.3750584496358724
 40
0.4999997288376119
 40
0.6249419185285552
 40
0.7499091388545879
 40
0.8749237293768263
 40
1.0
 40
1.0
 40
1.0
 40
1.0
 10
112.4435244398551
 20
178.5745794143942
 30
0.0
 10
112.1818935022885
 20
178.5745794143942
 30
0.0
 10
111.6587607379891
 20
178.5745794143942
 30
0.0
 10
110.9043123273223
 20
178.5745794143942
 30
0.0
 10
110.209168555181
 20
178.5745794143942
 30
0.0
 10
109.6002191467759
 20
178.5745794143942
 30
0.0
 10
109.0998198842174
 20
178.5745794143942
 30
0.0
 10
108.7308628952676
 20
178.5745794143942
 30
0.0
 10
108.4935387382342
 20
178.5745794143942
 30
0.0
 10
108.4638530066835
 20
178.5745794143942
 30
0.0
 10
108.4490064802008
 20
178.5745794143942
 30
0.0
  0
LINE
  5
5D
330
1F
100
AcDbEntity
  8
0
  6
Continuous
 62
     7
370
    30
100
AcDbLine
 10
149.8229857805
 20
178.5745794144
 30
0.0
 11
112.4435244399
 21
178.5745794144
 31
0.0
  0
SPLINE
  5
5E
330
1F
100
AcDbEntity
  8
0
  6
Continuous
 62
     7
370
    30
100
AcDbSpline
210
0.0
220
0.0
230
1.0
 70
    24
 71
     3
 72
    15
 73
    11
 74
     0
 42
0.00000001
 43
0.00000001
 40
0.0
 40
0.0
 40
0.0
 40
0.0
 40
0.1250762832006723
 40
0.2500908431840492
 40
0.3750580760766144
 40
0.5000004669124829
 40
0.6249416437619211
 40
0.7499091568159509
 40
0.8749237167993278
 40
1.0
 40
1.0
 40
1.0
 40
1.0
 10
153.8175028087931
 20
178.5745794143942
 30
0.0
 10
153.8026561969318
 20
178.5745794143942
 30
0.0
 10
153.7729702997833
 20
178.5745794143942
 30
0.0
 10
153.5356474829802
 20
178.5745794143942
 30
0.0
 10
153.1666904835403
 20
178.5745794143942
 30
0.0
 10
152.6662891583358
 20
178.5745794143942
 30
0.0
 10
152.0573409210636
 20
178.5745794143942
 30
0.0
 10
151.3621976439626
 20
178.5745794143942
 30
0.0
 10
150.6077494786473
 20
178.5745794143942
 30
0.0
 10
150.084616716801
 20
178.5745794143942
 30
0.0
 10
149.8229857804613
 20
178.5745794143942
 30
0.0
  0
LINE
  5
5F
330
1F
100
AcDbEntity
  8
0
  6
Continuous
 62
     7
370
    30
100
AcDbLine
 10
155.8007281544
 20
265.0745758977
 30
0.0
 11
160.7929300787
 21
265.0745758977
 31
0.0
  0
ARC
  5
60
330
1F
100
AcDbEntity
  8
0
  6
Continuous
 62
     7
370
    30
100
AcDbCircle
 10
160.7929306807
 20
263.5745789972
 30
0.0
 40
1.500000000000002
100
AcDbArc
 50
356.8
 51
90.0
  0
LINE
  5
61
330
1F
100
AcDbEntity
  8
0
  6
Continuous
 62
     7
370
    30
100
AcDbLine
 10
101.4735787446
 20
265.0745758977
 30
0.0
 11
106.4657820659
 21
265.0745758977
 31
0.0
  0
ARC
  5
62
330
1F
100
AcDbEntity
  8
0
  6
Continuous
 62
     7
370
    30
100
AcDbCircle
 10
101.4735786381
 20
263.5745789972
 30
0.0
 40
1.500000000000013
100
AcDbArc
 50
90.0
 51
183.2
  0
LINE
  5
63
330
1F
100
AcDbEntity
  8
0
  6
Continuous
 62
     7
370
    30
100
AcDbLine
 10
106.4657820659
 20
265.0745758977
 30
0.0
 11
155.8007281544
 21
265.0745758977
 31
0.0
  0
LINE
  5
64
330
1F
100
AcDbEntity
  8
0
  6
Continuous
 62
     7
370
    30
100
AcDbLine
 10
102.626898353
 20
216.0745790419
 30
0.0
 11
99.9759175154
 21
263.4908432331
 31
0.0
  0
LINE
  5
65
330
1F
100
AcDbEntity
  8
0
  6
Continuous
 62
     7
370
    30
100
AcDbLine
 10
162.2905936363
 20
263.4908432331
 30
0.0
 11
159.6396100046
 21
216.0745790419
 31
0.0
  0
LINE
  5
66
330
1F
100
AcDbEntity
  8
0
  6
Continuous
 62
     7
370
    30
100
AcDbLine
 10
105.9524324062
 20
180.943739247
 30
0.0
 11
105.2642744305
 21
194.0745790447
 31
0.0
  0
LINE
  5
67
330
1F
100
AcDbEntity
  8
0
  6
Continuous
 62
     7
370
    30
100
AcDbLine
 10
157.0022348585
 20
194.0745790447
 30
0.0
 11
156.3140768828
 21
180.943739247
 31
0.0
  0
ARC
  5
68
330
1F
100
AcDbEntity
  8
0
  6
Continuous
 62
     7
370
    30
100
AcDbCircle
 10
153.8175032155
 20
181.0745789972
 30
0.0
 40
2.5
100
AcDbArc
 50
270.0
 51
357.0
  0
ARC
  5
69
330
1F
100
AcDbEntity
  8
0
  6
Continuous
 62
     7
370
    30
100
AcDbCircle
 10
108.4490061033
 20
181.0745789972
 30
0.0
 40
2.5
100
AcDbArc
 50
183.0
 51
270.0
  0
LINE
  5
6A
330
1F
100
AcDbEntity
  8
0
  6
Continuous
 62
     7
370
    30
100
AcDbLine
 10
98.6332546724
 20
216.0745790419
 30
0.0
 11
98.6332546724
 21
194.0745790447
 31
0.0
  0
LINE
  5
6B
330
1F
100
AcDbEntity
  8
0
  6
Continuous
 62
     7
370
    30
100
AcDbLine
 10
98.6332546724
 20
216.0745790419
 30
0.0
 11
104.6332544918
 21
216.0745790419
 31
0.0
  0
LINE
  5
6C
330
1F
100
AcDbEntity
  8
0
  6
Continuous
 62
     7
370
    30
100
AcDbLine
 10
98.6332546724
 20
194.0745790447
 30
0.0
 11
104.6332544918
 21
194.0745790447
 31
0.0
  0
LINE
  5
6D
330
1F
100
AcDbEntity
  8
0
  6
Continuous
 62
     7
370
    30
100
AcDbLine
 10
104.6332544918
 20
216.0745790419
 30
0.0
 11
157.6332543316
 21
216.0745790419
 31
0.0
  0
LINE
  5
6E
330
1F
100
AcDbEntity
  8
0
  6
Continuous
 62
     7
370
    30
100
AcDbLine
 10
104.6332544918
 20
194.0745790447
 30
0.0
 11
157.6332543316
 21
194.0745790447
 31
0.0
  0
LINE
  5
6F
330
1F
100
AcDbEntity
  8
0
  6
Continuous
 62
     7
370
    30
100
AcDbLine
 10
163.633255315
 20
216.0745790419
 30
0.0
 11
163.633255315
 21
194.0745790447
 31
0.0
  0
LINE
  5
70
330
1F
100
AcDbEntity
  8
0
  6
Continuous
 62
     7
370
    30
100
AcDbLine
 10
157.6332543316
 20
216.0745790419
 30
0.0
 11
163.633255315
 21
216.0745790419
 31
0.0
  0
LINE
  5
71
330
1F
100
AcDbEntity
  8
0
  6
Continuous
 62
     7
370
    30
100
AcDbLine
 10
157.6332543316
 20
194.0745790447
 30
0.0
 11
163.633255315
 21
194.0745790447
 31
0.0
  0
LINE
  5
72
330
1F
100
AcDbEntity
  8
0
  6
Continuous
 62
     7
370
    30
100
AcDbLine
 10
36.6332549872
 20
216.0745790419
 30
0.0
 11
89.633254827
 21
216.0745790419
 31
0.0
  0
LINE
  5
73
330
1F
100
AcDbEntity
  8
0
  6
Continuous
 62
     7
370
    30
100
AcDbLine
 10
36.6332549872
 20
194.0745790447
 30
0.0
 11
89.633254827
 21
194.0745790447
 31
0.0
  0
LINE
  5
74
330
1F
100
AcDbEntity
  8
0
  6
Continuous
 62
     7
370
    30
100
AcDbLine
 10
89.633254827
 20
216.0745790419
 30
0.0
 11
95.6332546464
 21
216.0745790419
 31
0.0
  0
LINE
  5
75
330
1F
100
AcDbEntity
  8
0
  6
Continuous
 62
     7
370
    30
100
AcDbLine
 10
95.6332546464
 20
216.0745790419
 30
0.0
 11
95.6332546464
 21
194.0745790447
 31
0.0
  0
LINE
  5
76
330
1F
100
AcDbEntity
  8
0
  6
Continuous
 62
     7
370
    30
100
AcDbLine
 10
89.633254827
 20
194.0745790447
 30
0.0
 11
95.6332546464
 21
194.0745790447
 31
0.0
  0
LINE
  5
77
330
1F
100
AcDbEntity
  8
0
  6
Continuous
 62
     7
370
    30
100
AcDbLine
 10
30.6332540037
 20
216.0745790419
 30
0.0
 11
30.6332540037
 21
194.0745790447
 31
0.0
  0
LINE
  5
78
330
1F
100
AcDbEntity
  8
0
  6
Continuous
 62
     7
370
    30
100
AcDbLine
 10
30.6332540037
 20
216.0745790419
 30
0.0
 11
36.6332549872
 21
216.0745790419
 31
0.0
  0
LINE
  5
79
330
1F
100
AcDbEntity
  8
0
  6
Continuous
 62
     7
370
    30
100
AcDbLine
 10
30.6332540037
 20
194.0745790447
 30
0.0
 11
36.6332549872
 21
194.0745790447
 31
0.0
  0
LINE
  5
7A
330
1F
100
AcDbEntity
  8
0
  6
Continuous
 62
     7
370
    30
100
AcDbLine
 10
98.6332546724
 20
214.074578714
 30
0.0
 11
95.6332546464
 21
214.074578714
 31
0.0
  0
LINE
  5
7B
330
1F
100
AcDbEntity
  8
0
  6
Continuous
 62
     7
370
    30
100
AcDbLine
 10
105.2945321696
 20
193.497228723
 30
0.0
 11
88.9719771492
 21
193.497228723
 31
0.0
  0
LINE
  5
7C
330
1F
100
AcDbEntity
  8
0
  6
Continuous
 62
     7
370
    30
100
AcDbLine
 10
95.6332546464
 20
194.0745790447
 30
0.0
 11
98.6332546724
 21
194.0745790447
 31
0.0
  0
LINE
  5
7D
330
1F
100
AcDbEntity
  8
0
  6
Continuous
 62
     7
370
    30
100
AcDbLine
 10
88.8188081133
 20
190.574579053
 30
0.0
 11
105.4477012055
 21
190.574579053
 31
0.0
  0
ARC
  5
7E
330
1F
100
AcDbEntity
  8
0
  6
Continuous
 62
     7
370
    30
100
AcDbCircle
 10
122.8332546594
 20
172.3745789972
 30
0.0
 40
0.2999999999999972
100
AcDbArc
 50
270.0
 51
0.0
  0
LINE
  5
7F
330
1F
100
AcDbEntity
  8
0
  6
Continuous
 62
     7
370
    30
100
AcDbLine
 10
71.133254123
 20
172.3745787707
 30
0.0
 11
71.133254123
 21
178.5745794144
 31
0.0
  0
LINE
  5
80
330
1F
100
AcDbEntity
  8
0
  6
Continuous
 62
     7
370
    30
100
AcDbLine
 10
123.1332551958
 20
178.5745794144
 30
0.0
 11
123.1332551958
 21
172.3745787707
 31
0.0
  0
LINE
  5
81
330
1F
100
AcDbEntity
  8
0
  6
Continuous
 62
     7
370
    30
100
AcDbLine
 10
122.8332538428
 20
172.0745792803
 30
0.0
 11
71.433255476
 21
172.0745792803
 31
0.0
  0
ARC
  5
82
330
1F
100
AcDbEntity
  8
0
  6
Continuous
 62
     7
370
    30
100
AcDbCircle
 10
71.4332546594
 20
172.3745789972
 30
0.0
 40
0.2999999999999829
100
AcDbArc
 50
180.0
 51
270.0
  0
ELLIPSE
  5
83
330
1F
100
AcDbEntity
  8
0
  6
Continuous
 62
     8
370
     0
100
AcDbEllipse
 10
87.7851223265
 20
263.5745789972
 30
0.0
 11
6.505471085610097
 21
-0.08368615031315585
 31
0.0
210
0.0
220
0.0
230
1.0
 40
0.0128381133
 41
4.714952810129046
 42
6.282633091462762
  0
LINE
  5
84
330
1F
100
AcDbEntity
  8
0
  6
Continuous
 62
     8
370
     0
100
AcDbLine
 10
87.8007272529
 20
263.4908432331
 30
0.0
 11
87.8007272529
 21
265.0745758977
 31
0.0
  0
LINE
  5
85
330
1F
100
AcDbEntity
  8
0
  6
Continuous
 62
     8
370
     0
100
AcDbLine
 10
87.8007272529
 20
263.4908432331
 30
0.0
 11
38.4657811644
 21
263.4908432331
 31
0.0
  0
LINE
  5
86
330
1F
100
AcDbEntity
  8
0
  6
Continuous
 62
     8
370
     0
100
AcDbLine
 10
38.4657811644
 20
263.4908432331
 30
0.0
 11
38.4657811644
 21
265.0745758977
 31
0.0
  0
ELLIPSE
  5
87
330
1F
100
AcDbEntity
  8
0
  6
Continuous
 62
     8
370
     0
100
AcDbEllipse
 10
38.4813869923
 20
263.5745789972
 30
0.0
 11
6.505471085610076
 21
0.08368615031321269
 31
0.0
210
0.0
220
0.0
230
0.9999999999999999
 40
0.0128381133
 41
3.142144869308146
 42
4.709825150640335
  0
LINE
  5
88
330
1F
100
AcDbEntity
  8
0
  6
Continuous
 62
     8
370
     0
100
AcDbLine
 10
38.4657811644
 20
263.4908432331
 30
0.0
 11
41.116764796
 21
216.0745790419
 31
0.0
  0
LINE
  5
89
330
1F
100
AcDbEntity
  8
0
  6
Continuous
 62
     8
370
     0
100
AcDbLine
 10
85.1497454839
 20
216.0745790419
 30
0.0
 11
87.8007272529
 21
263.4908432331
 31
0.0
  0
ELLIPSE
  5
8A
330
1F
100
AcDbEntity
  8
0
  6
Continuous
 62
     8
370
     0
100
AcDbEllipse
 10
44.4544954873
 20
181.0745789972
 30
0.0
 11
6.502066286658675
 21
0.1307553256390008
 31
0.0
210
0.0
220
0.0
230
1.0
 40
0.020080808
 41
3.142240539980972
 42
4.710297811034359
  0
LINE
  5
8B
330
1F
100
AcDbEntity
  8
0
  6
Continuous
 62
     8
370
     0
100
AcDbLine
 10
43.7553655627
 20
194.0745790447
 30
0.0
 11
44.4435235383
 21
180.943739247
 31
0.0
  0
ELLIPSE
  5
8C
330
1F
100
AcDbEntity
  8
0
  6
Continuous
 62
     8
370
     0
100
AcDbEllipse
 10
81.8120138315
 20
181.0745789972
 30
0.0
 11
6.502066286658689
 21
-0.1307553256390293
 31
0.0
210
0.0
220
0.0
230
0.9999999999999999
 40
0.020080808
 41
4.714480149735023
 42
6.282537420790003
  0
LINE
  5
8D
330
1F
100
AcDbEntity
  8
0
  6
Continuous
 62
     8
370
     0
100
AcDbLine
 10
81.8229848789
 20
180.943739247
 30
0.0
 11
82.5111428546
 21
194.0745790447
 31
0.0
  0
LINE
  5
8E
330
1F
100
AcDbEntity
  8
0
  6
Continuous
 62
     8
370
     0
100
AcDbLine
 10
44.4435235383
 20
180.943739247
 30
0.0
 11
81.8229848789
 21
180.943739247
 31
0.0
  0
LINE
  5
8F
330
1F
100
AcDbEntity
  8
0
  6
Continuous
 62
     8
370
     0
100
AcDbLine
 10
44.4435235383
 20
180.943739247
 30
0.0
 11
44.4435235383
 21
178.5745794144
 31
0.0
  0
LINE
  5
90
330
1F
100
AcDbEntity
  8
0
  6
Continuous
 62
     8
370
     0
100
AcDbLine
 10
81.8229848789
 20
180.943739247
 30
0.0
 11
81.8229848789
 21
178.5745794144
 31
0.0
  0
ELLIPSE
  5
91
330
1F
100
AcDbEntity
  8
0
  6
Continuous
 62
     8
370
     0
100
AcDbEllipse
 10
155.7851223265
 20
263.5745789972
 30
0.0
 11
6.505471085610055
 21
-0.08368615031315585
 31
0.0
210
0.0
220
0.0
230
1.0
 40
0.0128381133
 41
4.714952810129042
 42
6.282633091462761
  0
LINE
  5
92
330
1F
100
AcDbEntity
  8
0
  6
Continuous
 62
     8
370
     0
100
AcDbLine
 10
155.8007281544
 20
263.4908432331
 30
0.0
 11
155.8007281544
 21
265.0745758977
 31
0.0
  0
LINE
  5
93
330
1F
100
AcDbEntity
  8
0
  6
Continuous
 62
     8
370
     0
100
AcDbLine
 10
106.4657820659
 20
263.4908432331
 30
0.0
 11
106.4657820659
 21
265.0745758977
 31
0.0
  0
ELLIPSE
  5
94
330
1F
100
AcDbEntity
  8
0
  6
Continuous
 62
     8
370
     0
100
AcDbEllipse
 10
106.4813869923
 20
263.5745789972
 30
0.0
 11
6.505471085610083
 21
0.08368615031321269
 31
0.0
210
0.0
220
0.0
230
0.9999999999999999
 40
0.0128381133
 41
3.142144869307454
 42
4.709825150640336
  0
LINE
  5
95
330
1F
100
AcDbEntity
  8
0
  6
Continuous
 62
     8
370
     0
100
AcDbLine
 10
155.8007281544
 20
263.4908432331
 30
0.0
 11
106.4657820659
 21
263.4908432331
 31
0.0
  0
LINE
  5
96
330
1F
100
AcDbEntity
  8
0
  6
Continuous
 62
     8
370
     0
100
AcDbLine
 10
106.4657820659
 20
263.4908432331
 30
0.0
 11
109.1167638349
 21
216.0745790419
 31
0.0
  0
LINE
  5
97
330
1F
100
AcDbEntity
  8
0
  6
Continuous
 62
     8
370
     0
100
AcDbLine
 10
153.1497445228
 20
216.0745790419
 30
0.0
 11
155.8007281544
 21
263.4908432331
 31
0.0
  0
ELLIPSE
  5
98
330
1F
100
AcDbEntity
  8
0
  6
Continuous
 62
     8
370
     0
100
AcDbEllipse
 10
112.4544954873
 20
181.0745789972
 30
0.0
 11
6.502066286658675
 21
0.1307553256390293
 31
0.0
210
0.0
220
0.0
230
1.0
 40
0.020080808
 41
3.14224053998075
 42
4.710297811034361
  0
LINE
  5
99
330
1F
100
AcDbEntity
  8
0
  6
Continuous
 62
     8
370
     0
100
AcDbLine
 10
111.7553664642
 20
194.0745790447
 30
0.0
 11
112.4435244399
 21
180.943739247
 31
0.0
  0
ELLIPSE
  5
9A
330
1F
100
AcDbEntity
  8
0
  6
Continuous
 62
     8
370
     0
100
AcDbEllipse
 10
149.8120138315
 20
181.0745789972
 30
0.0
 11
6.502066286658703
 21
-0.1307553256390293
 31
0.0
210
0.0
220
0.0
230
1.0
 40
0.020080808
 41
4.714480149735023
 42
6.282537420790003
  0
LINE
  5
9B
330
1F
100
AcDbEntity
  8
0
  6
Continuous
 62
     8
370
     0
100
AcDbLine
 10
149.8229857805
 20
180.943739247
 30
0.0
 11
150.5111437561
 21
194.0745790447
 31
0.0
  0
LINE
  5
9C
330
1F
100
AcDbEntity
  8
0
  6
Continuous
 62
     8
370
     0
100
AcDbLine
 10
112.4435244399
 20
180.943739247
 30
0.0
 11
149.8229857805
 21
180.943739247
 31
0.0
  0
LINE
  5
9D
330
1F
100
AcDbEntity
  8
0
  6
Continuous
 62
     8
370
     0
100
AcDbLine
 10
149.8229857805
 20
180.943739247
 30
0.0
 11
149.8229857805
 21
178.5745794144
 31
0.0
  0
LINE
  5
9E
330
1F
100
AcDbEntity
  8
0
  6
Continuous
 62
     8
370
     0
100
AcDbLine
 10
112.4435244399
 20
180.943739247
 30
0.0
 11
112.4435244399
 21
178.5745794144
 31
0.0
  0
LINE
  5
9F
330
1F
100
AcDbEntity
  8
0
  6
Continuous
 62
     8
370
     0
100
AcDbLine
 10
104.6332544918
 20
216.0745790419
 30
0.0
 11
104.6332544918
 21
194.0745790447
 31
0.0
  0
LINE
  5
A0
330
1F
100
AcDbEntity
  8
0
  6
Continuous
 62
     8
370
     0
100
AcDbLine
 10
157.6332543316
 20
216.0745790419
 30
0.0
 11
157.6332543316
 21
194.0745790447
 31
0.0
  0
LINE
  5
A1
330
1F
100
AcDbEntity
  8
0
  6
Continuous
 62
     8
370
     0
100
AcDbLine
 10
36.6332549872
 20
216.0745790419
 30
0.0
 11
36.6332549872
 21
194.0745790447
 31
0.0
  0
LINE
  5
A2
330
1F
100
AcDbEntity
  8
0
  6
Continuous
 62
     8
370
     0
100
AcDbLine
 10
89.633254827
 20
216.0745790419
 30
0.0
 11
89.633254827
 21
194.0745790447
 31
0.0
  0
LINE
  5
A3
330
1F
100
AcDbEntity
  8
0
  6
Continuous
 62
     8
370
     0
100
AcDbLine
 10
105.6049242886
 20
187.574579027
 30
0.0
 11
88.6615850302
 21
187.574579027
 31
0.0
  0
LINE
  5
A4
330
1F
100
AcDbEntity
  8
0
  6
Continuous
 62
     8
370
     0
100
AcDbLine
 10
122.8332538428
 20
172.0745792803
 30
0.0
 11
122.8332538428
 21
172.3745787707
 31
0.0
  0
LINE
  5
A5
330
1F
100
AcDbEntity
  8
0
  6
Continuous
 62
     8
370
     0
100
AcDbLine
 10
123.1332551958
 20
172.3745787707
 30
0.0
 11
122.8332538428
 21
172.3745787707
 31
0.0
  0
LINE
  5
A6
330
1F
100
AcDbEntity
  8
0
  6
Continuous
 62
     8
370
     0
100
AcDbLine
 10
71.433255476
 20
178.5745794144
 30
0.0
 11
71.433255476
 21
172.3745787707
 31
0.0
  0
LINE
  5
A7
330
1F
100
AcDbEntity
  8
0
  6
Continuous
 62
     8
370
     0
100
AcDbLine
 10
71.133254123
 20
172.3745787707
 30
0.0
 11
71.433255476
 21
172.3745787707
 31
0.0
  0
LINE
  5
A8
330
1F
100
AcDbEntity
  8
0
  6
Continuous
 62
     8
370
     0
100
AcDbLine
 10
122.8332538428
 20
172.3745787707
 30
0.0
 11
122.8332538428
 21
178.5745794144
 31
0.0
  0
LINE
  5
A9
330
1F
100
AcDbEntity
  8
0
  6
Continuous
 62
     8
370
     0
100
AcDbLine
 10
71.433255476
 20
172.0745792803
 30
0.0
 11
71.433255476
 21
172.3745787707
 31
0.0
  0
LINE
  5
AA
330
1F
100
AcDbEntity
  8
0
  6
Continuous
 62
     8
370
     0
100
AcDbLine
 10
71.433255476
 20
172.3745787707
 30
0.0
 11
122.8332538428
 21
172.3745787707
 31
0.0
  0
DIMENSION
  5
AB
330
1F
100
AcDbEntity
  8
0
  6
Continuous
 62
     7
370
     0
100
AcDbDimension
  2
*D1
 10
24.2777255198
 20
172.0745789972
 30
0.0
 11
24.2777255198
 21
220.5834934691
 31
0.0
 70
   160
  1
(<>)
 71
     2
 42
-1.0
  3
SLDDIMSTYLE0
100
AcDbAlignedDimension
 13
33.4735786381
 23
265.0745789972
 33
0.0
 14
71.4332546594
 24
172.0745789972
 34
0.0
 50
90.0
100
AcDbRotatedDimension
  0
LINE
  5
B9
330
1F
100
AcDbEntity
  8
0
  6
CENTER
 62
     7
370
     0
100
AcDbLine
 10
97.1332546594
 20
282.7737842952
 30
0.0
 11
97.1332546594
 21
155.2351844844
 31
0.0
  0
LINE
  5
BA
330
1F
100
AcDbEntity
  8
0
  6
Continuous
 62
     7
370
     0
100
AcDbLine
 10
85.1332546594
 20
280.7737842952
 30
0.0
 11
97.1332546594
 21
280.7737842952
 31
0.0
  0
SOLID
  5
BB
330
1F
100
AcDbEntity
  8
0
  6
Continuous
 62
     7
370
     0
100
AcDbTrace
 10
97.1332546594
 20
280.7737842952
 30
0.0
 11
91.1332546594
 21
282.2737842952
 31
0.0
 12
91.1332546594
 22
279.2737842952
 32
0.0
 13
91.1332546594
 23
279.2737842952
 33
0.0
  0
LINE
  5
BC
330
1F
100
AcDbEntity
  8
0
  6
Continuous
 62
     7
370
     0
100
AcDbLine
 10
85.1332546594
 20
157.2351844844
 30
0.0
 11
97.1332546594
 21
157.2351844844
 31
0.0
  0
SOLID
  5
BD
330
1F
100
AcDbEntity
  8
0
  6
Continuous
 62
     7
370
     0
100
AcDbTrace
 10
97.1332546594
 20
157.2351844844
 30
0.0
 11
91.1332546594
 21
158.7351844844
 31
0.0
 12
91.1332546594
 22
155.7351844844
 32
0.0
 13
91.1332546594
 23
155.7351844844
 33
0.0
  0
MTEXT
  5
BE
330
1F
100
AcDbEntity
  8
0
  6
Continuous
 62
     7
100
AcDbMText
 10
79.8628435358
 20
283.4628948043
 30
0.0
 40
5.0
 41
0.0
 71
     1
 72
     1
  1
A
  7
SLDTEXTSTYLE0
 73
     1
 44
1.0
  0
MTEXT
  5
BF
330
1F
100
AcDbEntity
  8
0
  6
Continuous
 62
     7
100
AcDbMText
 10
79.5626569012
 20
159.9105089811
 30
0.0
 40
5.0
 41
0.0
 71
     1
 72
     1
  1
A
  7
SLDTEXTSTYLE0
 73
     1
 44
1.0
  0
LINE
  5
C0
330
1F
100
AcDbEntity
  8
0
  6
CENTERX2
 62
     7
370
     0
100
AcDbLine
 10
97.1332546594
 20
170.0745789972
 30
0.0
 11
97.1332546594
 21
184.0745789972
 31
0.0
  0
LINE
  5
C1
330
1F
100
AcDbEntity
  8
0
  6
CENTERX2
 62
     7
370
     0
100
AcDbLine
 10
63.1332546594
 20
267.396426403
 30
0.0
 11
63.1332546594
 21
175.7806171128
 31
0.0
  0
LINE
  5
C2
330
1F
100
AcDbEntity
  8
0
  6
CENTERX2
 62
     7
370
     0
100
AcDbLine
 10
131.1332546594
 20
267.396426403
 30
0.0
 11
131.1332546594
 21
176.1818542337
 31
0.0
  0
SPLINE
  5
C3
330
1F
100
AcDbEntity
  8
0
  6
Continuous
 62
     7
370
    30
100
AcDbSpline
210
0.0
220
0.0
230
1.0
 70
     8
 71
     3
 72
    25
 73
    21
 74
     0
 42
0.00000001
 43
0.00000001
 40
0.0
 40
0.0
 40
0.0
 40
0.0
 40
0.0340723069286255
 40
0.0909274026175853
 40
0.1477779874797763
 40
0.2046118769488221
 40
0.2614301285704143
 40
0.3182346520362691
 40
0.3750279641509939
 40
0.4318127940165881
 40
0.4885918278356173
 40
0.5453685325572042
 40
0.6021456352016983
 40
0.6589255212431616
 40
0.7157114641569258
 40
0.7725063349586896
 40
0.8293127833594519
 40
0.8861331455960986
 40
0.942969108487455
 40
1.0
 40
1.0
 40
1.0
 40
1.0
 10
94.29293058723079
 20
92.33160851817604
 30
0.0
 10
94.29108073665392
 20
92.44741449538893
 30
0.0
 10
94.28614411441292
 20
92.75646127457001
 30
0.0
 10
94.23502192088074
 20
93.25699624920077
 30
0.0
 10
94.12763286609251
 20
93.82720749521036
 30
0.0
 10
93.96913790662936
 20
94.38542571726914
 30
0.0
 10
93.76177661897712
 20
94.92715834706219
 30
0.0
 10
93.50694974978751
 20
95.44812035043054
 30
0.0
 10
93.20675844966793
 20
95.94418843027454
 30
0.0
 10
92.86357295928997
 20
96.41144024876031
 30
0.0
 10
92.48011967975553
 20
96.8461791470045
 30
0.0
 10
92.05944340930314
 20
97.24497129937589
 30
0.0
 10
91.6048750012188
 20
97.60465947716222
 30
0.0
 10
91.12001756815346
 20
97.92239204250522
 30
0.0
 10
90.608711123706
 20
98.19568127159735
 30
0.0
 10
90.07499836788976
 20
98.42227059782707
 30
0.0
 10
89.52310089492545
 20
98.60069950274907
 30
0.0
 10
88.95738593410351
 20
98.72829338396973
 30
0.0
 10
88.38172948999721
 20
98.80881544081288
 30
0.0
 10
87.99461556531143
 20
98.81880719177406
 30
0.0
 10
87.80072725288437
 20
98.82381161969181
 30
0.0
  0
LINE
  5
C4
330
1F
100
AcDbEntity
  8
0
  6
Continuous
 62
     7
370
    30
100
AcDbLine
 10
87.8007272529
 20
98.8238116197
 30
0.0
 11
38.4657811644
 21
98.8238116197
 31
0.0
  0
SPLINE
  5
C5
330
1F
100
AcDbEntity
  8
0
  6
Continuous
 62
     7
370
    30
100
AcDbSpline
210
0.0
220
0.0
230
1.0
 70
     8
 71
     3
 72
    25
 73
    21
 74
     0
 42
0.00000001
 43
0.00000001
 40
0.0
 40
0.0
 40
0.0
 40
0.0
 40
0.0340723082751426
 40
0.0909274147471821
 40
0.1477781896719164
 40
0.2046119283941261
 40
0.261429991219723
 40
0.3182346951384763
 40
0.375028001738722
 40
0.4318125163944653
 40
0.4885915263089262
 40
0.5453683036288779
 40
0.6021454543097611
 40
0.6589255231939101
 40
0.7157113863020091
 40
0.7725064903096159
 40
0.8293126027502404
 40
0.8861330925947648
 40
0.9429692601668871
 40
1.0
 40
1.0
 40
1.0
 40
1.0
 10
38.46578116439151
 20
98.82381161969181
 30
0.0
 10
38.34997518156481
 20
98.82196217311275
 30
0.0
 10
38.04092835838932
 20
98.8170266285412
 30
0.0
 10
37.5403928894453
 20
98.76590286663021
 30
0.0
 10
36.97018132625966
 20
98.65851492577053
 30
0.0
 10
36.41196419625869
 20
98.50001809685331
 30
0.0
 10
35.87023207401727
 20
98.29265735332524
 30
0.0
 10
35.34926995440053
 20
98.03783103325779
 30
0.0
 10
34.85320168263025
 20
97.73764088934722
 30
0.0
 10
34.38595296118627
 20
97.39445334338036
 30
0.0
 10
33.95121355182229
 20
97.01100214725841
 30
0.0
 10
33.55242280377905
 20
96.59032414523097
 30
0.0
 10
33.19273173067347
 20
96.13575702545614
 30
0.0
 10
32.87499695932342
 20
95.65090012620071
 30
0.0
 10
32.60171204501545
 20
95.13959051121597
 30
0.0
 10
32.37511436794194
 20
94.60588170337576
 30
0.0
 10
32.19669807189589
 20
94.05398037845029
 30
0.0
 10
32.06908942264687
 20
93.4882687927254
 30
0.0
 10
31.98858218533511
 20
92.91260960832624
 30
0.0
 10
31.97858389019159
 20
92.52549604413419
 30
0.0
 10
31.97357620023059
 20
92.33160851817604
 30
0.0
  0
LINE
  5
C6
330
1F
100
AcDbEntity
  8
0
  6
Continuous
 62
     7
370
    30
100
AcDbLine
 10
94.2929305872
 20
42.9966614984
 30
0.0
 11
94.2929305872
 21
92.3316085182
 31
0.0
  0
LINE
  5
C7
330
1F
100
AcDbEntity
  8
0
  6
Continuous
 62
     7
370
    30
100
AcDbLine
 10
31.9735762002
 20
92.3316085182
 30
0.0
 11
31.9735762002
 21
42.9966614984
 31
0.0
  0
SPLINE
  5
C8
330
1F
100
AcDbEntity
  8
0
  6
Continuous
 62
     7
370
    30
100
AcDbSpline
210
0.0
220
0.0
230
1.0
 70
     8
 71
     3
 72
    25
 73
    21
 74
     0
 42
0.00000001
 43
0.00000001
 40
0.0
 40
0.0
 40
0.0
 40
0.0
 40
0.0340723213749572
 40
0.0909274513005943
 40
0.1477781080643321
 40
0.2046119461600785
 40
0.2614300545366773
 40
0.3182346017076634
 40
0.3750281030536634
 40
0.4318129522915362
 40
0.4885921571317792
 40
0.5453686120172034
 40
0.6021456265711567
 40
0.6589258037645208
 40
0.7157117477975821
 40
0.7725063871792339
 40
0.8293128685207148
 40
0.8861335787504278
 40
0.9429696410110483
 40
1.0
 40
1.0
 40
1.0
 40
1.0
 10
87.80072725288437
 20
36.50445653419966
 30
0.0
 10
87.91653324542129
 20
36.50630734903525
 30
0.0
 10
88.2255800999293
 20
36.51124654510518
 30
0.0
 10
88.72611480493387
 20
36.56237180199499
 30
0.0
 10
89.29632729263777
 20
36.66975556948814
 30
0.0
 10
89.85454293851436
 20
36.82825757588785
 30
0.0
 10
90.39627733124783
 20
37.03561146383108
 30
0.0
 10
90.917240662856
 20
37.29043666756422
 30
0.0
 10
91.4133068725826
 20
37.59063236354697
 30
0.0
 10
91.8805589064854
 20
37.93381940475231
 30
0.0
 10
92.31529695872504
 20
38.31727309039411
 30
0.0
 10
92.71409015467815
 20
38.73794738029232
 30
0.0
 10
93.07377819484951
 20
39.19251563518561
 30
0.0
 10
93.39151021600986
 20
39.67737411858889
 30
0.0
 10
93.6647990804025
 20
40.18868079768833
 30
0.0
 10
93.89138969896537
 20
40.72239208428195
 30
0.0
 10
94.06981991830861
 20
41.27428965653229
 30
0.0
 10
94.19741128970222
 20
41.84000676479639
 30
0.0
 10
94.27793328825987
 20
42.41566270181225
 30
0.0
 10
94.28792580397517
 20
42.80277504893156
 30
0.0
 10
94.29293058723079
 20
42.99666149836058
 30
0.0
  0
SPLINE
  5
C9
330
1F
100
AcDbEntity
  8
0
  6
Continuous
 62
     7
370
    30
100
AcDbSpline
210
0.0
220
0.0
230
1.0
 70
     8
 71
     3
 72
    25
 73
    21
 74
     0
 42
0.00000001
 43
0.00000001
 40
0.0
 40
0.0
 40
0.0
 40
0.0
 40
0.0340719605830473
 40
0.0909270979440155
 40
0.1477782108888175
 40
0.204612012478375
 40
0.2614296164481414
 40
0.3182345813219287
 40
0.3750277775002824
 40
0.4318127077845231
 40
0.4885913681626108
 40
0.5453684236499162
 40
0.6021455873308371
 40
0.6589255164144643
 40
0.7157113925245959
 40
0.7725065095363512
 40
0.8293128088330991
 40
0.8861331499602316
 40
0.9429692471087862
 40
1.0
 40
1.0
 40
1.0
 40
1.0
 10
31.97357620023059
 20
42.9966614983606
 30
0.0
 10
31.97542703176418
 20
42.88085674704934
 30
0.0
 10
31.98036630550281
 20
42.57181113345168
 30
0.0
 10
32.03149192082378
 20
42.07127619376448
 30
0.0
 10
32.13887472944153
 20
41.50106218482522
 30
0.0
 10
32.29737597288891
 20
40.94284651537524
 30
0.0
 10
32.5047338597827
 20
40.40111433730488
 30
0.0
 10
32.75955378493637
 20
39.88015002393284
 30
0.0
 10
33.05975331314247
 20
39.38408517044351
 30
0.0
 10
33.40293905535314
 20
38.91683606430799
 30
0.0
 10
33.78638555261993
 20
38.48209079152124
 30
0.0
 10
34.2070675704485
 20
38.08330456887682
 30
0.0
 10
34.66163405676945
 20
37.72361242010665
 30
0.0
 10
35.14648987819803
 20
37.40587684198307
 30
0.0
 10
35.65779917674079
 20
37.13259225817256
 30
0.0
 10
36.19150863902446
 20
36.90599516037616
 30
0.0
 10
36.74340944894858
 20
36.72757559711081
 30
0.0
 10
37.30912394892422
 20
36.59998240616711
 30
0.0
 10
37.88477986790279
 20
36.51945929366568
 30
0.0
 10
38.27189347491406
 20
36.50946315016807
 30
0.0
 10
38.46578116439151
 20
36.50445653419968
 30
0.0
  0
LINE
  5
CA
330
1F
100
AcDbEntity
  8
0
  6
Continuous
 62
     7
370
    30
100
AcDbLine
 10
38.4657811644
 20
36.5044565342
 30
0.0
 11
87.8007272529
 21
36.5044565342
 31
0.0
  0
LINE
  5
CB
330
1F
100
AcDbEntity
  8
0
  6
Continuous
 62
     7
370
    30
100
AcDbLine
 10
155.8007281544
 20
98.8238116197
 30
0.0
 11
106.4657820659
 21
98.8238116197
 31
0.0
  0
SPLINE
  5
CC
330
1F
100
AcDbEntity
  8
0
  6
Continuous
 62
     7
370
    30
100
AcDbSpline
210
0.0
220
0.0
230
1.0
 70
     8
 71
     3
 72
    25
 73
    21
 74
     0
 42
0.00000001
 43
0.00000001
 40
0.0
 40
0.0
 40
0.0
 40
0.0
 40
0.0340723181862759
 40
0.0909274427910871
 40
0.1477780044851895
 40
0.2046119690782956
 40
0.2614300721375332
 40
0.3182345319377137
 40
0.3750280279686554
 40
0.4318129455124911
 40
0.4885915931515804
 40
0.5453686359002475
 40
0.6021456734810042
 40
0.6589254896902029
 40
0.7157114391731124
 40
0.772506400622329
 40
0.8293128555946088
 40
0.8861332244043826
 40
0.9429692843964913
 40
1.0
 40
1.0
 40
1.0
 40
1.0
 10
162.2929331185655
 20
92.33160851817604
 30
0.0
 10
162.2910822996833
 20
92.44741450985822
 30
0.0
 10
162.2861430928141
 20
92.75646136208523
 30
0.0
 10
162.2350179899373
 20
93.25699578907505
 30
0.0
 10
162.127633727445
 20
93.82720831626293
 30
0.0
 10
161.9691323307569
 20
94.38542426375214
 30
0.0
 10
161.7617784129304
 20
94.92715888019889
 30
0.0
 10
161.506952652018
 20
95.44812156887662
 30
0.0
 10
161.206757455568
 20
95.94418817493188
 30
0.0
 10
160.8635700584098
 20
96.41143756923923
 30
0.0
 10
160.480123766276
 20
96.84618292259154
 30
0.0
 10
160.0594422329366
 20
97.2449691266687
 30
0.0
 10
159.6048753270107
 20
97.60465979571356
 30
0.0
 10
159.1200182129561
 20
97.92239216606852
 30
0.0
 10
158.6087118253745
 20
98.19568151254107
 30
0.0
 10
158.0749985545909
 20
98.42227038452303
 30
0.0
 10
157.5231008789561
 20
98.60069952727648
 30
0.0
 10
156.9573856043349
 20
98.72829347895032
 30
0.0
 10
156.3817294469451
 20
98.80881529391044
 30
0.0
 10
155.99461584256
 20
98.8188071507278
 30
0.0
 10
155.8007281544046
 20
98.82381161969181
 30
0.0
  0
SPLINE
  5
CD
330
1F
100
AcDbEntity
  8
0
  6
Continuous
 62
     7
370
    30
100
AcDbSpline
210
0.0
220
0.0
230
1.0
 70
     8
 71
     3
 72
    25
 73
    21
 74
     0
 42
0.00000001
 43
0.00000001
 40
0.0
 40
0.0
 40
0.0
 40
0.0
 40
0.0340723043347948
 40
0.0909274042317326
 40
0.1477780828326974
 40
0.2046118589210352
 40
0.261430085787879
 40
0.3182347010827435
 40
0.3750280011150344
 40
0.4318127300645593
 40
0.4885918019172881
 40
0.5453685098283629
 40
0.6021455122413564
 40
0.6589255244915981
 40
0.71571145638179
 40
0.7725064199275845
 40
0.82931271527299
 40
0.8861330570345421
 40
0.9429692881932135
 40
1.0
 40
1.0
 40
1.0
 40
1.0
 10
106.4657820659118
 20
98.82381161969181
 30
0.0
 10
106.3499760834393
 20
98.8219621706847
 30
0.0
 10
106.0409292612092
 20
98.81702661963354
 30
0.0
 10
105.5403940854875
 20
98.76590296255036
 30
0.0
 10
104.9701827139753
 20
98.65851478470661
 30
0.0
 10
104.4119652353441
 20
98.50001777445968
 30
0.0
 10
103.8702322379584
 20
98.29265801513156
 30
0.0
 10
103.3492701473289
 20
98.0378308296381
 30
0.0
 10
102.8532017772198
 20
97.73764009559824
 30
0.0
 10
102.3859508134504
 20
97.39445396481413
 30
0.0
 10
101.9512104527746
 20
97.01100258027145
 30
0.0
 10
101.5524204341812
 20
96.59032449970873
 30
0.0
 10
101.1927315025443
 20
96.13575667259059
 30
0.0
 10
100.8749987199988
 20
95.65089926770321
 30
0.0
 10
100.6017092807918
 20
95.1395920986208
 30
0.0
 10
100.3751208132573
 20
94.60587931449004
 30
0.0
 10
100.1966895725078
 20
94.05398286395986
 30
0.0
 10
100.0690974253617
 20
93.48826708617767
 30
0.0
 10
99.98857602872813
 20
92.9126104007679
 30
0.0
 10
99.97858351956849
 20
92.52549620475345
 30
0.0
 10
99.97357873156534
 20
92.33160851817604
 30
0.0
  0
LINE
  5
CE
330
1F
100
AcDbEntity
  8
0
  6
Continuous
 62
     7
370
    30
100
AcDbLine
 10
162.2929331186
 20
42.9966614984
 30
0.0
 11
162.2929331186
 21
92.3316085182
 31
0.0
  0
LINE
  5
CF
330
1F
100
AcDbEntity
  8
0
  6
Continuous
 62
     7
370
    30
100
AcDbLine
 10
99.9735787316
 20
92.3316085182
 30
0.0
 11
99.9735787316
 21
42.9966614984
 31
0.0
  0
SPLINE
  5
D0
330
1F
100
AcDbEntity
  8
0
  6
Continuous
 62
     7
370
    30
100
AcDbSpline
210
0.0
220
0.0
230
1.0
 70
     8
 71
     3
 72
    25
 73
    21
 74
     0
 42
0.00000001
 43
0.00000001
 40
0.0
 40
0.0
 40
0.0
 40
0.0
 40
0.0340719493253869
 40
0.0909270577705448
 40
0.1477781938831443
 40
0.2046119203484806
 40
0.2614296728821395
 40
0.3182347014209972
 40
0.3750277136822006
 40
0.4318125562882279
 40
0.4885916028463897
 40
0.5453683203065867
 40
0.602145549051151
 40
0.6589255479669599
 40
0.7157114175080024
 40
0.772506443872527
 40
0.8293127365978231
 40
0.8861330711518794
 40
0.9429690711997437
 40
1.0
 40
1.0
 40
1.0
 40
1.0
 10
99.97357873156534
 20
42.9966614983606
 30
0.0
 10
99.9754285947919
 20
42.88085676151817
 30
0.0
 10
99.98036528388064
 20
42.57181122096475
 30
0.0
 10
100.0314879898814
 20
42.07127573363927
 30
0.0
 10
100.138875590805
 20
41.50106300588349
 30
0.0
 10
100.2973703970286
 20
40.94284506184854
 30
0.0
 10
100.504735653769
 20
40.40111487046975
 30
0.0
 10
100.7595566871709
 20
39.88015124238334
 30
0.0
 10
101.0597523190393
 20
39.38408491509063
 30
0.0
 10
101.4029361544711
 20
38.91683338478671
 30
0.0
 10
101.7863896391399
 20
38.48209456710732
 30
0.0
 10
102.2070663940772
 20
38.08330239616608
 30
0.0
 10
102.6616343825624
 20
37.72361273865919
 30
0.0
 10
103.1464905230005
 20
37.40587696554426
 30
0.0
 10
103.6577998784103
 20
37.13259249911516
 30
0.0
 10
104.1915088257248
 20
36.90599494707486
 30
0.0
 10
104.7434094329796
 20
36.72757562163807
 30
0.0
 10
105.309123619156
 20
36.59998250115024
 30
0.0
 10
105.8847798248492
 20
36.51945914675206
 30
0.0
 10
106.2718937521624
 20
36.5094631091215
 30
0.0
 10
106.4657820659118
 20
36.50445653419966
 30
0.0
  0
SPLINE
  5
D1
330
1F
100
AcDbEntity
  8
0
  6
Continuous
 62
     7
370
    30
100
AcDbSpline
210
0.0
220
0.0
230
1.0
 70
     8
 71
     3
 72
    25
 73
    21
 74
     0
 42
0.00000001
 43
0.00000001
 40
0.0
 40
0.0
 40
0.0
 40
0.0
 40
0.0340723253152757
 40
0.0909274618159659
 40
0.1477782149034917
 40
0.2046120156330941
 40
0.2614299599679515
 40
0.3182345957629002
 40
0.3750281036768262
 40
0.4318127386212526
 40
0.4885918815233222
 40
0.5453684058178491
 40
0.6021455686396718
 40
0.6589258024667863
 40
0.7157116777176881
 40
0.7725064575618842
 40
0.8293127559990932
 40
0.8861336143109115
 40
0.9429696129846732
 40
1.0
 40
1.0
 40
1.0
 40
1.0
 10
155.8007281544046
 20
36.50445653419968
 30
0.0
 10
155.9165341472958
 20
36.50630734660726
 30
0.0
 10
156.2255810027492
 20
36.51124653619768
 30
0.0
 10
156.7261160009762
 20
36.56237189791521
 30
0.0
 10
157.2963286803545
 20
36.66975542842255
 30
0.0
 10
157.8545439775967
 20
36.82825725349205
 30
0.0
 10
158.3962774951961
 20
37.03561212563027
 30
0.0
 10
158.9172408557836
 20
37.29043646394299
 30
0.0
 10
159.4133069671796
 20
37.59063156979231
 30
0.0
 10
159.8805567587445
 20
37.93382002618873
 30
0.0
 10
160.315293859679
 20
38.31727352340764
 30
0.0
 10
160.7140877850833
 20
38.73794773476457
 30
0.0
 10
161.0737779667217
 20
39.19251528231839
 30
0.0
 10
161.3915119766897
 20
39.67737326008962
 30
0.0
 10
161.6647963161863
 20
40.18868238509542
 30
0.0
 10
161.8913961442587
 20
40.72238969540123
 30
0.0
 10
162.069811418897
 20
41.27429214203882
 30
0.0
 10
162.1974192924213
 20
41.84000505825573
 30
0.0
 10
162.2779271316686
 20
42.4156634942517
 30
0.0
 10
162.2879254333604
 20
42.80277520954944
 30
0.0
 10
162.2929331185655
 20
42.9966614983606
 30
0.0
  0
LINE
  5
D2
330
1F
100
AcDbEntity
  8
0
  6
Continuous
 62
     7
370
    30
100
AcDbLine
 10
106.4657820659
 20
36.5044565342
 30
0.0
 11
155.8007281544
 21
36.5044565342
 31
0.0
  0
LINE
  5
D3
330
1F
100
AcDbEntity
  8
0
  6
Continuous
 62
     7
370
    30
100
AcDbLine
 10
119.6332555535
 20
124.8641358625
 30
0.0
 11
119.6332555535
 21
124.1641358874
 31
0.0
  0
LINE
  5
D4
330
1F
100
AcDbEntity
  8
0
  6
Continuous
 62
     7
370
    30
100
AcDbLine
 10
112.6332544061
 20
124.8641358625
 30
0.0
 11
119.6332555535
 21
124.8641358625
 31
0.0
  0
LINE
  5
D5
330
1F
100
AcDbEntity
  8
0
  6
Continuous
 62
     7
370
    30
100
AcDbLine
 10
74.6332537653
 20
124.1641358874
 30
0.0
 11
74.6332537653
 21
124.8641358625
 31
0.0
  0
LINE
  5
D6
330
1F
100
AcDbEntity
  8
0
  6
Continuous
 62
     7
370
    30
100
AcDbLine
 10
74.6332537653
 20
124.8641358625
 30
0.0
 11
81.6332549127
 21
124.8641358625
 31
0.0
  0
LINE
  5
D7
330
1F
100
AcDbEntity
  8
0
  6
Continuous
 62
     7
370
    30
100
AcDbLine
 10
112.6332544061
 20
124.8641358625
 30
0.0
 11
81.6332549127
 21
124.8641358625
 31
0.0
  0
LINE
  5
D8
330
1F
100
AcDbEntity
  8
0
  6
Continuous
 62
     7
370
    30
100
AcDbLine
 10
128.2281261208
 20
99.4333659701
 30
0.0
 11
127.7661528709
 21
98.8238116197
 31
0.0
  0
LINE
  5
D9
330
1F
100
AcDbEntity
  8
0
  6
Continuous
 62
     7
370
    30
100
AcDbLine
 10
128.2281261208
 20
99.6641365282
 30
0.0
 11
128.2281261208
 21
99.4333659701
 31
0.0
  0
LINE
  5
DA
330
1F
100
AcDbEntity
  8
0
  6
Continuous
 62
     7
370
    30
100
AcDbLine
 10
126.8435102227
 20
99.6641365282
 30
0.0
 11
128.2281261208
 21
99.6641365282
 31
0.0
  0
LINE
  5
DB
330
1F
100
AcDbEntity
  8
0
  6
Continuous
 62
     7
370
    30
100
AcDbLine
 10
126.8435102227
 20
99.4333659701
 30
0.0
 11
126.8435102227
 21
99.6641365282
 31
0.0
  0
LINE
  5
DC
330
1F
100
AcDbEntity
  8
0
  6
Continuous
 62
     7
370
    30
100
AcDbLine
 10
127.8743595155
 20
99.4333659701
 30
0.0
 11
126.8435102227
 21
99.4333659701
 31
0.0
  0
SPLINE
  5
DD
330
1F
100
AcDbEntity
  8
0
  6
Continuous
 62
     7
370
    30
100
AcDbSpline
210
0.0
220
0.0
230
1.0
 70
     8
 71
     3
 72
     9
 73
     5
 74
     0
 42
0.00000001
 43
0.00000001
 40
0.0
 40
0.0
 40
0.0
 40
0.0
 40
0.5600034429821815
 40
1.0
 40
1.0
 40
1.0
 40
1.0
 10
127.7000811221437
 20
99.20379868071552
 30
0.0
 10
127.732596299329
 20
99.24666440357096
 30
0.0
 10
127.7906587587525
 20
99.32320986662593
 30
0.0
 10
127.8487844232696
 20
99.39970734358528
 30
0.0
 10
127.8743595155315
 20
99.43336597006794
 30
0.0
  0
LINE
  5
DE
330
1F
100
AcDbEntity
  8
0
  6
Continuous
 62
     7
370
    30
100
AcDbLine
 10
127.4120733412
 20
98.8238116197
 30
0.0
 11
127.7000811221
 21
99.2037986807
 31
0.0
  0
LINE
  5
DF
330
1F
100
AcDbEntity
  8
0
  6
Continuous
 62
     7
370
    30
100
AcDbLine
 10
124.1948735239
 20
99.6641365282
 30
0.0
 11
124.5285123857
 21
98.8238116197
 31
0.0
  0
LINE
  5
E0
330
1F
100
AcDbEntity
  8
0
  6
Continuous
 62
     7
370
    30
100
AcDbLine
 10
123.8767635348
 20
99.6641365282
 30
0.0
 11
124.1948735239
 21
99.6641365282
 31
0.0
  0
LINE
  5
E1
330
1F
100
AcDbEntity
  8
0
  6
Continuous
 62
     7
370
    30
100
AcDbLine
 10
123.5431265356
 20
98.8238116197
 30
0.0
 11
123.8767635348
 21
99.6641365282
 31
0.0
  0
SPLINE
  5
E2
330
1F
100
AcDbEntity
  8
0
  6
Continuous
 62
     7
370
    30
100
AcDbSpline
210
0.0
220
0.0
230
1.0
 70
     8
 71
     3
 72
    12
 73
     8
 74
     0
 42
0.00000001
 43
0.00000001
 40
0.0
 40
0.0
 40
0.0
 40
0.0
 40
0.2141382033874122
 40
0.4276826412128062
 40
0.6414447479305381
 40
0.8939713252099075
 40
1.0
 40
1.0
 40
1.0
 40
1.0
 10
120.1616209270792
 20
99.45900714319225
 30
0.0
 10
120.0909791799601
 20
99.4541421536051
 30
0.0
 10
119.9498915621979
 20
99.44442566414557
 30
0.0
 10
119.7602557052891
 20
99.33720114176603
 30
0.0
 10
119.6206376617281
 20
99.15836394498879
 30
0.0
 10
119.5619528155842
 20
98.97554382207582
 30
0.0
 10
119.5529341721229
 20
98.8584403776226
 30
0.0
 10
119.5502672614889
 20
98.82381161969181
 30
0.0
  0
SPLINE
  5
E3
330
1F
100
AcDbEntity
  8
0
  6
Continuous
 62
     7
370
    30
100
AcDbSpline
210
0.0
220
0.0
230
1.0
 70
     8
 71
     3
 72
    11
 73
     7
 74
     0
 42
0.00000001
 43
0.00000001
 40
0.0
 40
0.0
 40
0.0
 40
0.0
 40
0.2805731863518386
 40
0.5596975308318638
 40
0.779634242222184
 40
1.0
 40
1.0
 40
1.0
 40
1.0
 10
120.6640247526007
 20
99.04794929843422
 30
0.0
 10
120.6419193903904
 20
99.1101682367537
 30
0.0
 10
120.5978228150615
 20
99.23428482323577
 30
0.0
 10
120.4741104639914
 20
99.37696739793424
 30
0.0
 10
120.3170306320054
 20
99.44967266147114
 30
0.0
 10
120.2134578037372
 20
99.45589362864132
 30
0.0
 10
120.1616209270792
 20
99.45900714319225
 30
0.0
  0
LINE
  5
E4
330
1F
100
AcDbEntity
  8
0
  6
Continuous
 62
     7
370
    30
100
AcDbLine
 10
120.9460757943
 20
99.1084461502
 30
0.0
 11
120.6640247526
 21
99.0479492984
 31
0.0
  0
SPLINE
  5
E5
330
1F
100
AcDbEntity
  8
0
  6
Continuous
 62
     7
370
    30
100
AcDbSpline
210
0.0
220
0.0
230
1.0
 70
     8
 71
     3
 72
    11
 73
     7
 74
     0
 42
0.00000001
 43
0.00000001
 40
0.0
 40
0.0
 40
0.0
 40
0.0
 40
0.2800579670591324
 40
0.5593782314808313
 40
0.7795537504148483
 40
1.0
 40
1.0
 40
1.0
 40
1.0
 10
120.1752424510555
 20
99.68977770131107
 30
0.0
 10
120.2732214812351
 20
99.68253776787614
 30
0.0
 10
120.4689214543499
 20
99.66807697176527
 30
0.0
 10
120.7096479999506
 20
99.52393085877068
 30
0.0
 10
120.869807568435
 20
99.32631277664217
 30
0.0
 10
120.9206426408515
 20
99.18109810039202
 30
0.0
 10
120.946075794323
 20
99.10844615023609
 30
0.0
  0
SPLINE
  5
E6
330
1F
100
AcDbEntity
  8
0
  6
Continuous
 62
     7
370
    30
100
AcDbSpline
210
0.0
220
0.0
230
1.0
 70
     8
 71
     3
 72
    12
 73
     8
 74
     0
 42
0.00000001
 43
0.00000001
 40
0.0
 40
0.0
 40
0.0
 40
0.0
 40
0.1019643579815739
 40
0.3084163717419882
 40
0.514528958077419
 40
0.757085093902517
 40
0.9999999999999999
 40
0.9999999999999999
 40
0.9999999999999999
 40
0.9999999999999999
 10
119.2681286754446
 20
98.82381161969181
 30
0.0
 10
119.2712562854336
 20
98.87103143664699
 30
0.0
 10
119.2807165139304
 20
99.01385942976069
 30
0.0
 10
119.3665974562381
 20
99.24165223880973
 30
0.0
 10
119.5496197810021
 20
99.48864509012148
 30
0.0
 10
119.8364658940405
 20
99.65848891192007
 30
0.0
 10
120.0622613100011
 20
99.67934296769563
 30
0.0
 10
120.1752424510555
 20
99.68977770131107
 30
0.0
  0
LINE
  5
E7
330
1F
100
AcDbEntity
  8
0
  6
Continuous
 62
     7
370
    30
100
AcDbLine
 10
115.7922297987
 20
99.1565228842
 30
0.0
 11
115.7922297987
 21
98.8238116197
 31
0.0
  0
LINE
  5
E8
330
1F
100
AcDbEntity
  8
0
  6
Continuous
 62
     7
370
    30
100
AcDbLine
 10
116.0058789226
 20
98.8238116197
 30
0.0
 11
115.7922297987
 21
99.1565228842
 31
0.0
  0
LINE
  5
E9
330
1F
100
AcDbEntity
  8
0
  6
Continuous
 62
     7
370
    30
100
AcDbLine
 10
117.0486398312
 20
99.6641365282
 30
0.0
 11
117.0486398312
 21
98.8238116197
 31
0.0
  0
LINE
  5
EA
330
1F
100
AcDbEntity
  8
0
  6
Continuous
 62
     7
370
    30
100
AcDbLine
 10
116.7665887894
 20
99.6641365282
 30
0.0
 11
117.0486398312
 21
99.6641365282
 31
0.0
  0
LINE
  5
EB
330
1F
100
AcDbEntity
  8
0
  6
Continuous
 62
     7
370
    30
100
AcDbLine
 10
116.7665887894
 20
98.8238116197
 30
0.0
 11
116.7665887894
 21
99.6641365282
 31
0.0
  0
LINE
  5
EC
330
1F
100
AcDbEntity
  8
0
  6
Continuous
 62
     7
370
    30
100
AcDbLine
 10
115.8082541349
 20
99.6641365282
 30
0.0
 11
116.3478661599
 21
98.8238116197
 31
0.0
  0
LINE
  5
ED
330
1F
100
AcDbEntity
  8
0
  6
Continuous
 62
     7
370
    30
100
AcDbLine
 10
115.5101768943
 20
99.6641365282
 30
0.0
 11
115.8082541349
 21
99.6641365282
 31
0.0
  0
LINE
  5
EE
330
1F
100
AcDbEntity
  8
0
  6
Continuous
 62
     7
370
    30
100
AcDbLine
 10
115.5101768943
 20
98.8238116197
 30
0.0
 11
115.5101768943
 21
99.6641365282
 31
0.0
  0
SPLINE
  5
EF
330
1F
100
AcDbEntity
  8
0
  6
Continuous
 62
     7
370
    30
100
AcDbSpline
210
0.0
220
0.0
230
1.0
 70
     8
 71
     3
 72
    10
 73
     6
 74
     0
 42
0.00000001
 43
0.00000001
 40
0.0
 40
0.0
 40
0.0
 40
0.0
 40
0.3357143923082337
 40
0.6718785314927602
 40
1.0
 40
1.0
 40
1.0
 40
1.0
 10
112.9921488734321
 20
99.49226094704147
 30
0.0
 10
113.0506620007793
 20
99.43130776589292
 30
0.0
 10
113.1677666438203
 20
99.3093197463793
 30
0.0
 10
113.2672865450588
 20
99.0722366081864
 30
0.0
 10
113.2797103445423
 20
98.905948853488
 30
0.0
 10
113.2858470352726
 20
98.82381161969181
 30
0.0
  0
SPLINE
  5
F0
330
1F
100
AcDbEntity
  8
0
  6
Continuous
 62
     7
370
    30
100
AcDbSpline
210
0.0
220
0.0
230
1.0
 70
     8
 71
     3
 72
     9
 73
     5
 74
     0
 42
0.00000001
 43
0.00000001
 40
0.0
 40
0.0
 40
0.0
 40
0.0
 40
0.559864560460447
 40
1.0
 40
1.0
 40
1.0
 40
1.0
 10
112.7012837948637
 20
99.63528974276062
 30
0.0
 10
112.7604871226666
 20
99.61824110075435
 30
0.0
 10
112.8662329261771
 20
99.5877897323158
 30
0.0
 10
112.9536663326456
 20
99.52145653708183
 30
0.0
 10
112.9921488734321
 20
99.49226094704147
 30
0.0
  0
SPLINE
  5
F1
330
1F
100
AcDbEntity
  8
0
  6
Continuous
 62
     7
370
    30
100
AcDbSpline
210
0.0
220
0.0
230
1.0
 70
     8
 71
     3
 72
     9
 73
     5
 74
     0
 42
0.00000001
 43
0.00000001
 40
0.0
 40
0.0
 40
0.0
 40
0.0
 40
0.5601592088221826
 40
1.0
 40
1.0
 40
1.0
 40
1.0
 10
112.3479176583128
 20
99.66413652818676
 30
0.0
 10
112.4143483634878
 20
99.66385809328573
 30
0.0
 10
112.5329409066949
 20
99.66336102942128
 30
0.0
 10
112.6498586167641
 20
99.64386492482926
 30
0.0
 10
112.7012837948637
 20
99.63528974276062
 30
0.0
  0
LINE
  5
F2
330
1F
100
AcDbEntity
  8
0
  6
Continuous
 62
     7
370
    30
100
AcDbLine
 10
111.6640242087
 20
99.6641365282
 30
0.0
 11
112.3479176583
 21
99.6641365282
 31
0.0
  0
LINE
  5
F3
330
1F
100
AcDbEntity
  8
0
  6
Continuous
 62
     7
370
    30
100
AcDbLine
 10
111.6640242087
 20
98.8238116197
 30
0.0
 11
111.6640242087
 21
99.6641365282
 31
0.0
  0
SPLINE
  5
F4
330
1F
100
AcDbEntity
  8
0
  6
Continuous
 62
     7
370
    30
100
AcDbSpline
210
0.0
220
0.0
230
1.0
 70
     8
 71
     3
 72
    10
 73
     6
 74
     0
 42
0.00000001
 43
0.00000001
 40
0.0
 40
0.0
 40
0.0
 40
0.0
 40
0.4187838148978627
 40
0.8378226930594858
 40
1.0
 40
1.0
 40
1.0
 40
1.0
 10
109.0742806243138
 20
99.1457065038013
 30
0.0
 10
109.0680620629124
 20
99.09468377221907
 30
0.0
 10
109.0556211526504
 20
98.99260723329667
 30
0.0
 10
108.9978443878137
 20
98.87477470133726
 30
0.0
 10
108.937796130457
 20
98.8349296284222
 30
0.0
 10
108.9210408078866
 20
98.82381161969181
 30
0.0
  0
SPLINE
  5
F5
330
1F
100
AcDbEntity
  8
0
  6
Continuous
 62
     7
370
    30
100
AcDbSpline
210
0.0
220
0.0
230
1.0
 70
     8
 71
     3
 72
    11
 73
     7
 74
     0
 42
0.00000001
 43
0.00000001
 40
0.0
 40
0.0
 40
0.0
 40
0.0
 40
0.2811894728746849
 40
0.5600170152405123
 40
0.7800677937704972
 40
0.9999999999999999
 40
0.9999999999999999
 40
0.9999999999999999
 40
0.9999999999999999
 10
108.4128218042092
 20
99.66413652818676
 30
0.0
 10
108.5016112549494
 20
99.66124194386413
 30
0.0
 10
108.678444344325
 20
99.65547708909858
 30
0.0
 10
108.9097268925772
 20
99.54568829255435
 30
0.0
 10
109.0465910332584
 20
99.3535597826469
 30
0.0
 10
109.0650524190329
 20
99.21497848118985
 30
0.0
 10
109.0742806243138
 20
99.1457065038013
 30
0.0
  0
LINE
  5
F6
330
1F
100
AcDbEntity
  8
0
  6
Continuous
 62
     7
370
    30
100
AcDbLine
 10
107.6640235531
 20
99.6641365282
 30
0.0
 11
108.4128218042
 21
99.6641365282
 31
0.0
  0
LINE
  5
F7
330
1F
100
AcDbEntity
  8
0
  6
Continuous
 62
     7
370
    30
100
AcDbLine
 10
107.6640235531
 20
98.8238116197
 30
0.0
 11
107.6640235531
 21
99.6641365282
 31
0.0
  0
LINE
  5
F8
330
1F
100
AcDbEntity
  8
0
  6
Continuous
 62
     7
370
    30
100
AcDbLine
 10
104.6332544918
 20
101.1641358427
 30
0.0
 11
157.6332543316
 21
101.1641358427
 31
0.0
  0
ARC
  5
F9
330
1F
100
AcDbEntity
  8
0
  6
Continuous
 62
     7
370
    30
100
AcDbCircle
 10
157.6332546594
 20
96.6641358874
 30
0.0
 40
4.5
100
AcDbArc
 50
0.0
 51
90.0
  0
LINE
  5
FA
330
1F
100
AcDbEntity
  8
0
  6
Continuous
 62
     7
370
    30
100
AcDbLine
 10
162.1332522752
 20
96.6641360364
 30
0.0
 11
162.1332522752
 21
93.750528752
 31
0.0
  0
LINE
  5
FB
330
1F
100
AcDbEntity
  8
0
  6
Continuous
 62
     7
370
    30
100
AcDbLine
 10
162.1332522752
 20
41.5934713028
 30
0.0
 11
162.1332522752
 21
41.1641390465
 31
0.0
  0
ARC
  5
FC
330
1F
100
AcDbEntity
  8
0
  6
Continuous
 62
     7
370
    30
100
AcDbCircle
 10
157.6332546594
 20
41.1641358874
 30
0.0
 40
4.5
100
AcDbArc
 50
270.0
 51
0.0
  0
LINE
  5
FD
330
1F
100
AcDbEntity
  8
0
  6
Continuous
 62
     7
370
    30
100
AcDbLine
 10
157.6332543316
 20
36.6641373776
 30
0.0
 11
157.2196465256
 21
36.6641373776
 31
0.0
  0
LINE
  5
FE
330
1F
100
AcDbEntity
  8
0
  6
Continuous
 62
     7
370
    30
100
AcDbLine
 10
105.0625881451
 20
36.6641373776
 30
0.0
 11
104.6332544918
 21
36.6641373776
 31
0.0
  0
ARC
  5
FF
330
1F
100
AcDbEntity
  8
0
  6
Continuous
 62
     7
370
    30
100
AcDbCircle
 10
104.6332546594
 20
41.1641358874
 30
0.0
 40
4.5
100
AcDbArc
 50
180.0
 51
270.0
  0
LINE
  5
100
330
1F
100
AcDbEntity
  8
0
  6
Continuous
 62
     7
370
    30
100
AcDbLine
 10
100.1332546855
 20
41.1641390465
 30
0.0
 11
100.1332546855
 21
41.5777431272
 31
0.0
  0
LINE
  5
101
330
1F
100
AcDbEntity
  8
0
  6
Continuous
 62
     7
370
    30
100
AcDbLine
 10
100.1332546855
 20
93.734802439
 30
0.0
 11
100.1332546855
 21
96.6641360364
 31
0.0
  0
ARC
  5
102
330
1F
100
AcDbEntity
  8
0
  6
Continuous
 62
     7
370
    30
100
AcDbCircle
 10
104.6332546594
 20
96.6641358874
 30
0.0
 40
4.5
100
AcDbArc
 50
90.0
 51
180.0
  0
SPLINE
  5
103
330
1F
100
AcDbEntity
  8
0
  6
Continuous
 62
     7
370
    30
100
AcDbSpline
210
0.0
220
0.0
230
1.0
 70
     8
 71
     3
 72
    12
 73
     8
 74
     0
 42
0.00000001
 43
0.00000001
 40
0.0
 40
0.0
 40
0.0
 40
0.0
 40
0.2086641375363061
 40
0.4171640157481123
 40
0.6254959585162758
 40
0.8711021928991182
 40
1.0
 40
1.0
 40
1.0
 40
1.0
 10
110.3575332360701
 20
99.68977770131107
 30
0.0
 10
110.4553987480882
 20
99.6823148205269
 30
0.0
 10
110.6510527329018
 20
99.66739493369955
 30
0.0
 10
110.9202723655508
 20
99.53460137391532
 30
0.0
 10
111.1405569930953
 20
99.31232806344369
 30
0.0
 10
111.2643360043994
 20
99.05893798226985
 30
0.0
 10
111.279115928961
 20
98.88401654864296
 30
0.0
 10
111.2842029231028
 20
98.82381161969181
 30
0.0
  0
SPLINE
  5
104
330
1F
100
AcDbEntity
  8
0
  6
Continuous
 62
     7
370
    30
100
AcDbSpline
210
0.0
220
0.0
230
1.0
 70
     8
 71
     3
 72
    12
 73
     8
 74
     0
 42
0.00000001
 43
0.00000001
 40
0.0
 40
0.0
 40
0.0
 40
0.0
 40
0.0790291003553662
 40
0.2907549628514424
 40
0.5021756108180059
 40
0.75083235167634
 40
1.0
 40
1.0
 40
1.0
 40
1.0
 10
109.4249580325918
 20
98.82381161969181
 30
0.0
 10
109.427415020804
 20
98.86079843598615
 30
0.0
 10
109.4364544950375
 20
98.99687616367504
 30
0.0
 10
109.5206392518283
 20
99.22291263117872
 30
0.0
 10
109.712217000157
 20
99.4764890143707
 30
0.0
 10
110.0046898337116
 20
99.66139148249297
 30
0.0
 10
110.2398383258463
 20
99.68030915675827
 30
0.0
 10
110.3575332360701
 20
99.68977770131107
 30
0.0
  0
LINE
  5
105
330
1F
100
AcDbEntity
  8
0
  6
Continuous
 62
     7
370
    30
100
AcDbLine
 10
113.9460746469
 20
99.4333659701
 30
0.0
 11
113.9460746469
 21
98.8238116197
 31
0.0
  0
LINE
  5
106
330
1F
100
AcDbEntity
  8
0
  6
Continuous
 62
     7
370
    30
100
AcDbLine
 10
115.0742806765
 20
99.4333659701
 30
0.0
 11
113.9460746469
 21
99.4333659701
 31
0.0
  0
LINE
  5
107
330
1F
100
AcDbEntity
  8
0
  6
Continuous
 62
     7
370
    30
100
AcDbLine
 10
115.0742806765
 20
99.6641365282
 30
0.0
 11
115.0742806765
 21
99.4333659701
 31
0.0
  0
LINE
  5
108
330
1F
100
AcDbEntity
  8
0
  6
Continuous
 62
     7
370
    30
100
AcDbLine
 10
113.6640236052
 20
99.6641365282
 30
0.0
 11
115.0742806765
 21
99.6641365282
 31
0.0
  0
LINE
  5
109
330
1F
100
AcDbEntity
  8
0
  6
Continuous
 62
     7
370
    30
100
AcDbLine
 10
113.6640236052
 20
98.8238116197
 30
0.0
 11
113.6640236052
 21
99.6641365282
 31
0.0
  0
SPLINE
  5
10A
330
1F
100
AcDbEntity
  8
0
  6
Continuous
 62
     7
370
    30
100
AcDbSpline
210
0.0
220
0.0
230
1.0
 70
     8
 71
     3
 72
    10
 73
     6
 74
     0
 42
0.00000001
 43
0.00000001
 40
0.0
 40
0.0
 40
0.0
 40
0.0
 40
0.495190396990388
 40
0.9937497628417997
 40
1.0
 40
1.0
 40
1.0
 40
1.0
 10
117.8383026542501
 20
98.98384822826858
 30
0.0
 10
117.9068809416318
 20
98.94680452101262
 30
0.0
 10
118.0445040806018
 20
98.87246508405235
 30
0.0
 10
118.200867264329
 20
98.84766764065324
 30
0.0
 10
118.2761722195917
 20
98.82410337767578
 30
0.0
 10
118.277104598506
 20
98.82381161969181
 30
0.0
  0
SPLINE
  5
10B
330
1F
100
AcDbEntity
  8
0
  6
Continuous
 62
     7
370
    30
100
AcDbSpline
210
0.0
220
0.0
230
1.0
 70
     8
 71
     3
 72
     9
 73
     5
 74
     0
 42
0.00000001
 43
0.00000001
 40
0.0
 40
0.0
 40
0.0
 40
0.0
 40
0.5596170675129262
 40
1.0
 40
1.0
 40
1.0
 40
1.0
 10
117.7665870907144
 20
99.16052943389889
 30
0.0
 10
117.7700310484533
 20
99.12324445155691
 30
0.0
 10
117.7761851812322
 20
99.0566185666323
 30
0.0
 10
117.8193108470652
 20
99.00609704438816
 30
0.0
 10
117.8383026542501
 20
98.98384822826858
 30
0.0
  0
SPLINE
  5
10C
330
1F
100
AcDbEntity
  8
0
  6
Continuous
 62
     7
370
    30
100
AcDbSpline
210
0.0
220
0.0
230
1.0
 70
     8
 71
     3
 72
    12
 73
     8
 74
     0
 42
0.00000001
 43
0.00000001
 40
0.0
 40
0.0
 40
0.0
 40
0.0
 40
0.2508567001448611
 40
0.500791650748052
 40
0.7496106592792993
 40
0.8747753492993181
 40
1.0
 40
1.0
 40
1.0
 40
1.0
 10
118.1900650533275
 20
99.45900714319225
 30
0.0
 10
118.1415919584738
 20
99.45723102901296
 30
0.0
 10
118.0448238786312
 20
99.45368532682026
 30
0.0
 10
117.9027030238402
 20
99.4105281804999
 30
0.0
 10
117.8125262590849
 20
99.32277103551476
 30
0.0
 10
117.7720907722869
 20
99.23341126343371
 30
0.0
 10
117.7684219440964
 20
99.1848272552111
 30
0.0
 10
117.7665870907144
 20
99.16052943389889
 30
0.0
  0
SPLINE
  5
10D
330
1F
100
AcDbEntity
  8
0
  6
Continuous
 62
     7
370
    30
100
AcDbSpline
210
0.0
220
0.0
230
1.0
 70
     8
 71
     3
 72
    11
 73
     7
 74
     0
 42
0.00000001
 43
0.00000001
 40
0.0
 40
0.0
 40
0.0
 40
0.0
 40
0.2801593758815169
 40
0.5583508147153384
 40
0.7788623178737539
 40
1.0
 40
1.0
 40
1.0
 40
1.0
 10
118.6383832516508
 20
99.10003258209701
 30
0.0
 10
118.6275173318433
 20
99.15990342550063
 30
0.0
 10
118.6058618182341
 20
99.27922455864824
 30
0.0
 10
118.4811909453726
 20
99.40608402608453
 30
0.0
 10
118.3317590601537
 20
99.4531471013394
 30
0.0
 10
118.2373410115298
 20
99.45705195045048
 30
0.0
 10
118.1900650533275
 20
99.45900714319225
 30
0.0
  0
LINE
  5
10E
330
1F
100
AcDbEntity
  8
0
  6
Continuous
 62
     7
370
    30
100
AcDbLine
 10
118.9204342934
 20
99.1000325821
 30
0.0
 11
118.6383832517
 21
99.1000325821
 31
0.0
  0
SPLINE
  5
10F
330
1F
100
AcDbEntity
  8
0
  6
Continuous
 62
     7
370
    30
100
AcDbSpline
210
0.0
220
0.0
230
1.0
 70
     8
 71
     3
 72
    11
 73
     7
 74
     0
 42
0.00000001
 43
0.00000001
 40
0.0
 40
0.0
 40
0.0
 40
0.0
 40
0.2808392523762309
 40
0.5601818750155039
 40
0.7798622871911896
 40
1.0
 40
1.0
 40
1.0
 40
1.0
 10
118.1788482042389
 20
99.68977770131107
 30
0.0
 10
118.2780199189762
 20
99.68371494685684
 30
0.0
 10
118.4758348491899
 20
99.6716217471734
 30
0.0
 10
118.7317022357983
 20
99.54550381554603
 30
0.0
 10
118.8879482346304
 20
99.33284183343896
 30
0.0
 10
118.9095981036461
 20
99.17768943908082
 30
0.0
 10
118.9204342933731
 20
99.10003258209701
 30
0.0
  0
SPLINE
  5
110
330
1F
100
AcDbEntity
  8
0
  6
Continuous
 62
     7
370
    30
100
AcDbSpline
210
0.0
220
0.0
230
1.0
 70
     8
 71
     3
 72
    11
 73
     7
 74
     0
 42
0.00000001
 43
0.00000001
 40
0.0
 40
0.0
 40
0.0
 40
0.0
 40
0.2788670989248809
 40
0.5575609373074613
 40
0.7786472460808621
 40
1.0
 40
1.0
 40
1.0
 40
1.0
 10
117.4845360489921
 20
99.1421004227924
 30
0.0
 10
117.4993105115206
 20
99.23484491116474
 30
0.0
 10
117.5288502571819
 20
99.42027626562121
 30
0.0
 10
117.7351168942801
 20
99.59988030362915
 30
0.0
 10
117.9607075429589
 20
99.67737933129848
 30
0.0
 10
118.1061054633559
 20
99.6856432524105
 30
0.0
 10
118.1788482042389
 20
99.68977770131107
 30
0.0
  0
SPLINE
  5
111
330
1F
100
AcDbEntity
  8
0
  6
Continuous
 62
     7
370
    30
100
AcDbSpline
210
0.0
220
0.0
230
1.0
 70
     8
 71
     3
 72
     9
 73
     5
 74
     0
 42
0.00000001
 43
0.00000001
 40
0.0
 40
0.0
 40
0.0
 40
0.0
 40
0.3215250226910736
 40
1.0
 40
1.0
 40
1.0
 40
1.0
 10
117.6229585232572
 20
98.82381161969181
 30
0.0
 10
117.5956585925135
 20
98.85125785422558
 30
0.0
 10
117.5107509529299
 20
98.93662052461445
 30
0.0
 10
117.4951326659181
 20
99.0590411153029
 30
0.0
 10
117.4845360489921
 20
99.1421004227924
 30
0.0
  0
LINE
  5
112
330
1F
100
AcDbEntity
  8
0
  6
Continuous
 62
     7
370
    30
100
AcDbLine
 10
122.8947937759
 20
99.6641365282
 30
0.0
 11
122.8947937759
 21
98.8238116197
 31
0.0
  0
LINE
  5
113
330
1F
100
AcDbEntity
  8
0
  6
Continuous
 62
     7
370
    30
100
AcDbLine
 10
122.6127427342
 20
99.6641365282
 30
0.0
 11
122.8947937759
 21
99.6641365282
 31
0.0
  0
LINE
  5
114
330
1F
100
AcDbEntity
  8
0
  6
Continuous
 62
     7
370
    30
100
AcDbLine
 10
122.6127427342
 20
98.8436227135
 30
0.0
 11
122.6127427342
 21
99.6641365282
 31
0.0
  0
LINE
  5
115
330
1F
100
AcDbEntity
  8
0
  6
Continuous
 62
     7
370
    30
100
AcDbLine
 10
121.6383837434
 20
98.8436227135
 30
0.0
 11
122.6127427342
 21
98.8436227135
 31
0.0
  0
LINE
  5
116
330
1F
100
AcDbEntity
  8
0
  6
Continuous
 62
     7
370
    30
100
AcDbLine
 10
121.6383837434
 20
99.6641365282
 30
0.0
 11
121.6383837434
 21
98.8436227135
 31
0.0
  0
LINE
  5
117
330
1F
100
AcDbEntity
  8
0
  6
Continuous
 62
     7
370
    30
100
AcDbLine
 10
121.356330839
 20
99.6641365282
 30
0.0
 11
121.6383837434
 21
99.6641365282
 31
0.0
  0
LINE
  5
118
330
1F
100
AcDbEntity
  8
0
  6
Continuous
 62
     7
370
    30
100
AcDbLine
 10
121.356330839
 20
98.8238116197
 30
0.0
 11
121.356330839
 21
99.6641365282
 31
0.0
  0
LINE
  5
119
330
1F
100
AcDbEntity
  8
0
  6
Continuous
 62
     7
370
    30
100
AcDbLine
 10
125.9717159244
 20
99.4333659701
 30
0.0
 11
125.9717159244
 21
98.8238116197
 31
0.0
  0
LINE
  5
11A
330
1F
100
AcDbEntity
  8
0
  6
Continuous
 62
     7
370
    30
100
AcDbLine
 10
126.6127415272
 20
99.4333659701
 30
0.0
 11
125.9717159244
 21
99.4333659701
 31
0.0
  0
LINE
  5
11B
330
1F
100
AcDbEntity
  8
0
  6
Continuous
 62
     7
370
    30
100
AcDbLine
 10
126.6127415272
 20
99.6641365282
 30
0.0
 11
126.6127415272
 21
99.4333659701
 31
0.0
  0
LINE
  5
11C
330
1F
100
AcDbEntity
  8
0
  6
Continuous
 62
     7
370
    30
100
AcDbLine
 10
125.0486392798
 20
99.6641365282
 30
0.0
 11
126.6127415272
 21
99.6641365282
 31
0.0
  0
LINE
  5
11D
330
1F
100
AcDbEntity
  8
0
  6
Continuous
 62
     7
370
    30
100
AcDbLine
 10
125.0486392798
 20
99.4333659701
 30
0.0
 11
125.0486392798
 21
99.6641365282
 31
0.0
  0
LINE
  5
11E
330
1F
100
AcDbEntity
  8
0
  6
Continuous
 62
     7
370
    30
100
AcDbLine
 10
125.6896648826
 20
99.4333659701
 30
0.0
 11
125.0486392798
 21
99.4333659701
 31
0.0
  0
LINE
  5
11F
330
1F
100
AcDbEntity
  8
0
  6
Continuous
 62
     7
370
    30
100
AcDbLine
 10
125.6896648826
 20
98.8238116197
 30
0.0
 11
125.6896648826
 21
99.4333659701
 31
0.0
  0
LINE
  5
120
330
1F
100
AcDbEntity
  8
0
  6
Continuous
 62
     7
370
    30
100
AcDbLine
 10
108.3270851793
 20
99.4333659701
 30
0.0
 11
107.9460755261
 21
99.4333659701
 31
0.0
  0
SPLINE
  5
121
330
1F
100
AcDbEntity
  8
0
  6
Continuous
 62
     7
370
    30
100
AcDbSpline
210
0.0
220
0.0
230
1.0
 70
     8
 71
     3
 72
    12
 73
     8
 74
     0
 42
0.00000001
 43
0.00000001
 40
0.0
 40
0.0
 40
0.0
 40
0.0
 40
0.2490925216291471
 40
0.3742624645917933
 40
0.4992553363330868
 40
0.7489959834329589
 40
1.0
 40
1.0
 40
1.0
 40
1.0
 10
108.7922286512689
 20
99.12086626809116
 30
0.0
 10
108.7864843990167
 20
99.17533494423782
 30
0.0
 10
108.7778536380804
 20
99.25717433806774
 30
0.0
 10
108.7159733417013
 20
99.34847485506917
 30
0.0
 10
108.6263745692709
 20
99.41267420290474
 30
0.0
 10
108.488221467701
 20
99.43046180528276
 30
0.0
 10
108.3808875426073
 20
99.43239628825137
 30
0.0
 10
108.3270851793127
 20
99.43336597006794
 30
0.0
  0
SPLINE
  5
122
330
1F
100
AcDbEntity
  8
0
  6
Continuous
 62
     7
370
    30
100
AcDbSpline
210
0.0
220
0.0
230
1.0
 70
     8
 71
     3
 72
    10
 73
     6
 74
     0
 42
0.00000001
 43
0.00000001
 40
0.0
 40
0.0
 40
0.0
 40
0.0
 40
0.2808892554491788
 40
0.561012011128633
 40
1.0
 40
1.0
 40
1.0
 40
1.0
 10
108.5987193780379
 20
98.84162036996361
 30
0.0
 10
108.6306359193324
 20
98.85451779220891
 30
0.0
 10
108.6943819070217
 20
98.8802774417927
 30
0.0
 10
108.7781798260853
 20
98.97717478064995
 30
0.0
 10
108.7869033147192
 20
99.06639868664122
 30
0.0
 10
108.7922286512689
 20
99.12086626809116
 30
0.0
  0
LINE
  5
123
330
1F
100
AcDbEntity
  8
0
  6
Continuous
 62
     7
370
    30
100
AcDbLine
 10
108.4975544634
 20
98.8238116197
 30
0.0
 11
108.598719378
 21
98.84162037
 31
0.0
  0
LINE
  5
124
330
1F
100
AcDbEntity
  8
0
  6
Continuous
 62
     7
370
    30
100
AcDbLine
 10
107.9460755261
 20
99.4333659701
 30
0.0
 11
107.9460755261
 21
98.8238116197
 31
0.0
  0
SPLINE
  5
125
330
1F
100
AcDbEntity
  8
0
  6
Continuous
 62
     7
370
    30
100
AcDbSpline
210
0.0
220
0.0
230
1.0
 70
     8
 71
     3
 72
     9
 73
     5
 74
     0
 42
0.00000001
 43
0.00000001
 40
0.0
 40
0.0
 40
0.0
 40
0.0
 40
0.5599092471642803
 40
1.0
 40
1.0
 40
1.0
 40
1.0
 10
124.0358185293512
 20
99.43336597006794
 30
0.0
 10
124.0168120561354
 20
99.36196530960927
 30
0.0
 10
123.9828664242102
 20
99.23444346420257
 30
0.0
 10
123.9247690676306
 20
99.11607039183286
 30
0.0
 10
123.8992009582357
 20
99.0639754972982
 30
0.0
  0
SPLINE
  5
126
330
1F
100
AcDbEntity
  8
0
  6
Continuous
 62
     7
370
    30
100
AcDbSpline
210
0.0
220
0.0
230
1.0
 70
     8
 71
     3
 72
     9
 73
     5
 74
     0
 42
0.00000001
 43
0.00000001
 40
0.0
 40
0.0
 40
0.0
 40
0.0
 40
0.5600025860053829
 40
1.0
 40
1.0
 40
1.0
 40
1.0
 10
124.1828538747864
 20
99.03593151193138
 30
0.0
 10
124.155323883692
 20
99.11008882350248
 30
0.0
 10
124.1061634123257
 20
99.24251198265264
 30
0.0
 10
124.0573127114211
 20
99.37504971192944
 30
0.0
 10
124.0358185293512
 20
99.43336597006794
 30
0.0
  0
LINE
  5
127
330
1F
100
AcDbEntity
  8
0
  6
Continuous
 62
     7
370
    30
100
AcDbLine
 10
123.8992009582
 20
99.0639754973
 30
0.0
 11
123.8103993507
 21
98.8238116197
 31
0.0
  0
LINE
  5
128
330
1F
100
AcDbEntity
  8
0
  6
Continuous
 62
     7
370
    30
100
AcDbLine
 10
124.2612675103
 20
98.8238116197
 30
0.0
 11
124.1828538748
 21
99.0359315119
 31
0.0
  0
LINE
  5
129
330
1F
100
AcDbEntity
  8
0
  6
Continuous
 62
     7
370
    30
100
AcDbLine
 10
112.3515237393
 20
99.4333659701
 30
0.0
 11
111.9460752504
 21
99.4333659701
 31
0.0
  0
SPLINE
  5
12A
330
1F
100
AcDbEntity
  8
0
  6
Continuous
 62
     7
370
    30
100
AcDbSpline
210
0.0
220
0.0
230
1.0
 70
     8
 71
     3
 72
     9
 73
     5
 74
     0
 42
0.00000001
 43
0.00000001
 40
0.0
 40
0.0
 40
0.0
 40
0.0
 40
0.5592540242144484
 40
1.0
 40
1.0
 40
1.0
 40
1.0
 10
112.6820529150204
 20
99.39210092943188
 30
0.0
 10
112.621260302256
 20
99.40694806512069
 30
0.0
 10
112.5125572618983
 20
99.43349617214533
 30
0.0
 10
112.4007863284492
 20
99.43340580085186
 30
0.0
 10
112.3515237393217
 20
99.43336597006794
 30
0.0
  0
SPLINE
  5
12B
330
1F
100
AcDbEntity
  8
0
  6
Continuous
 62
     7
370
    30
100
AcDbSpline
210
0.0
220
0.0
230
1.0
 70
     8
 71
     3
 72
    11
 73
     7
 74
     0
 42
0.00000001
 43
0.00000001
 40
0.0
 40
0.0
 40
0.0
 40
0.0
 40
0.1299886161142521
 40
0.4686442339275692
 40
0.7348891254264123
 40
1.0
 40
1.0
 40
1.0
 40
1.0
 10
113.0127143385248
 20
98.82381161969181
 30
0.0
 10
113.0112940349932
 20
98.85375194495246
 30
0.0
 10
113.0061734553578
 20
98.96169494192227
 30
0.0
 10
112.9549986844757
 20
99.12609246882124
 30
0.0
 10
112.842165430958
 20
99.29800470946323
 30
0.0
 10
112.7353477637488
 20
99.36078018114576
 30
0.0
 10
112.6820529150204
 20
99.39210092943188
 30
0.0
  0
LINE
  5
12C
330
1F
100
AcDbEntity
  8
0
  6
Continuous
 62
     7
370
    30
100
AcDbLine
 10
111.9460752504
 20
99.4333659701
 30
0.0
 11
111.9460752504
 21
98.8238116197
 31
0.0
  0
SPLINE
  5
12D
330
1F
100
AcDbEntity
  8
0
  6
Continuous
 62
     7
370
    30
100
AcDbSpline
210
0.0
220
0.0
230
1.0
 70
     8
 71
     3
 72
    11
 73
     7
 74
     0
 42
0.00000001
 43
0.00000001
 40
0.0
 40
0.0
 40
0.0
 40
0.0
 40
0.1636049933916101
 40
0.4884213130099349
 40
0.7440971736202641
 40
1.0
 40
1.0
 40
1.0
 40
1.0
 10
111.0009700330334
 20
98.82381161969181
 30
0.0
 10
110.9962963683474
 20
98.87823001905358
 30
0.0
 10
110.9823437536065
 20
99.04068903400889
 30
0.0
 10
110.8511096765482
 20
99.26500035777686
 30
0.0
 10
110.6166625053372
 20
99.43246291614855
 30
0.0
 10
110.4450035825213
 20
99.45015645088732
 30
0.0
 10
110.3591360422211
 20
99.45900714319225
 30
0.0
  0
SPLINE
  5
12E
330
1F
100
AcDbEntity
  8
0
  6
Continuous
 62
     7
370
    30
100
AcDbSpline
210
0.0
220
0.0
230
1.0
 70
     8
 71
     3
 72
    12
 73
     8
 74
     0
 42
0.00000001
 43
0.00000001
 40
0.0
 40
0.0
 40
0.0
 40
0.0
 40
0.221747775929283
 40
0.4434084904896601
 40
0.6646277067661363
 40
0.9259828236682613
 40
1.0
 40
1.0
 40
1.0
 40
1.0
 10
110.3591360422211
 20
99.45900714319225
 30
0.0
 10
110.2840914994656
 20
99.45255237114452
 30
0.0
 10
110.1340318775224
 20
99.43964536128547
 30
0.0
 10
109.9333722937571
 20
99.32643917059644
 30
0.0
 10
109.7742423746018
 20
99.14546721870755
 30
0.0
 10
109.7131196059757
 20
98.96126942318674
 30
0.0
 10
109.7063224676896
 20
98.84866384290667
 30
0.0
 10
109.7048223289089
 20
98.82381161969181
 30
0.0
  0
LINE
  5
12F
330
1F
100
AcDbEntity
  8
0
  6
Continuous
 62
     7
370
    30
100
AcDbLine
 10
60.2281261506
 20
99.4333659701
 30
0.0
 11
59.7661529007
 21
98.8238116197
 31
0.0
  0
LINE
  5
130
330
1F
100
AcDbEntity
  8
0
  6
Continuous
 62
     7
370
    30
100
AcDbLine
 10
60.2281261506
 20
99.6641365282
 30
0.0
 11
60.2281261506
 21
99.4333659701
 31
0.0
  0
LINE
  5
131
330
1F
100
AcDbEntity
  8
0
  6
Continuous
 62
     7
370
    30
100
AcDbLine
 10
58.8435102525
 20
99.6641365282
 30
0.0
 11
60.2281261506
 21
99.6641365282
 31
0.0
  0
LINE
  5
132
330
1F
100
AcDbEntity
  8
0
  6
Continuous
 62
     7
370
    30
100
AcDbLine
 10
58.8435102525
 20
99.4333659701
 30
0.0
 11
58.8435102525
 21
99.6641365282
 31
0.0
  0
LINE
  5
133
330
1F
100
AcDbEntity
  8
0
  6
Continuous
 62
     7
370
    30
100
AcDbLine
 10
59.874361408
 20
99.4333659701
 30
0.0
 11
58.8435102525
 21
99.4333659701
 31
0.0
  0
SPLINE
  5
134
330
1F
100
AcDbEntity
  8
0
  6
Continuous
 62
     7
370
    30
100
AcDbSpline
210
0.0
220
0.0
230
1.0
 70
     8
 71
     3
 72
     9
 73
     5
 74
     0
 42
0.00000001
 43
0.00000001
 40
0.0
 40
0.0
 40
0.0
 40
0.0
 40
0.5600012538261574
 40
1.0
 40
1.0
 40
1.0
 40
1.0
 10
59.70008115194606
 20
99.20379868071552
 30
0.0
 10
59.73259618885813
 20
99.24666451013029
 30
0.0
 10
59.79065862477221
 20
99.32321046270073
 30
0.0
 10
59.8487856081666
 20
99.39970740942371
 30
0.0
 10
59.874361407979
 20
99.43336597006794
 30
0.0
  0
LINE
  5
135
330
1F
100
AcDbEntity
  8
0
  6
Continuous
 62
     7
370
    30
100
AcDbLine
 10
59.4120752337
 20
98.8238116197
 30
0.0
 11
59.7000811519
 21
99.2037986807
 31
0.0
  0
LINE
  5
136
330
1F
100
AcDbEntity
  8
0
  6
Continuous
 62
     7
370
    30
100
AcDbLine
 10
56.1948735537
 20
99.6641365282
 30
0.0
 11
56.5285105529
 21
98.8238116197
 31
0.0
  0
LINE
  5
137
330
1F
100
AcDbEntity
  8
0
  6
Continuous
 62
     7
370
    30
100
AcDbLine
 10
55.8767635646
 20
99.6641365282
 30
0.0
 11
56.1948735537
 21
99.6641365282
 31
0.0
  0
LINE
  5
138
330
1F
100
AcDbEntity
  8
0
  6
Continuous
 62
     7
370
    30
100
AcDbLine
 10
55.5431265654
 20
98.8238116197
 30
0.0
 11
55.8767635646
 21
99.6641365282
 31
0.0
  0
SPLINE
  5
139
330
1F
100
AcDbEntity
  8
0
  6
Continuous
 62
     7
370
    30
100
AcDbSpline
210
0.0
220
0.0
230
1.0
 70
     8
 71
     3
 72
    12
 73
     8
 74
     0
 42
0.00000001
 43
0.00000001
 40
0.0
 40
0.0
 40
0.0
 40
0.0
 40
0.2141364753008392
 40
0.427681060767179
 40
0.6414445000316132
 40
0.8939712519035082
 40
1.0
 40
1.0
 40
1.0
 40
1.0
 10
52.16162095688151
 20
99.45900714319225
 30
0.0
 10
52.09097981286217
 20
99.45414209379454
 30
0.0
 10
51.94989278242723
 20
99.44442544237322
 30
0.0
 10
51.7602576902843
 20
99.33720058513468
 30
0.0
 10
51.62063734781676
 20
99.15836470190828
 30
0.0
 10
51.56195289070207
 20
98.97554378520915
 30
0.0
 10
51.55293421226724
 20
98.8584403692088
 30
0.0
 10
51.55026729129123
 20
98.82381161969181
 30
0.0
  0
SPLINE
  5
13A
330
1F
100
AcDbEntity
  8
0
  6
Continuous
 62
     7
370
    30
100
AcDbSpline
210
0.0
220
0.0
230
1.0
 70
     8
 71
     3
 72
    11
 73
     7
 74
     0
 42
0.00000001
 43
0.00000001
 40
0.0
 40
0.0
 40
0.0
 40
0.0
 40
0.2805732499656662
 40
0.5596976577310259
 40
0.7796368237789528
 40
1.0
 40
1.0
 40
1.0
 40
1.0
 10
52.66402478240298
 20
99.04794929843422
 30
0.0
 10
52.64191941038693
 20
99.1101682134534
 30
0.0
 10
52.5978228154971
 20
99.23428475345523
 30
0.0
 10
52.47411021865084
 20
99.37696809098261
 30
0.0
 10
52.31702981660341
 20
99.44967206675503
 30
0.0
 10
52.21345715686888
 20
99.45589345398584
 30
0.0
 10
52.16162095688151
 20
99.45900714319225
 30
0.0
  0
LINE
  5
13B
330
1F
100
AcDbEntity
  8
0
  6
Continuous
 62
     7
370
    30
100
AcDbLine
 10
52.9460739615
 20
99.1084461502
 30
0.0
 11
52.6640247824
 21
99.0479492984
 31
0.0
  0
SPLINE
  5
13C
330
1F
100
AcDbEntity
  8
0
  6
Continuous
 62
     7
370
    30
100
AcDbSpline
210
0.0
220
0.0
230
1.0
 70
     8
 71
     3
 72
    11
 73
     7
 74
     0
 42
0.00000001
 43
0.00000001
 40
0.0
 40
0.0
 40
0.0
 40
0.0
 40
0.2800579670591324
 40
0.5593782314808313
 40
0.7795537504148483
 40
1.0
 40
1.0
 40
1.0
 40
1.0
 10
52.17524061821269
 20
99.68977770131107
 30
0.0
 10
52.27321964839226
 20
99.68253776787614
 30
0.0
 10
52.46891962150707
 20
99.66807697176527
 30
0.0
 10
52.70964616710776
 20
99.52393085877068
 30
0.0
 10
52.86980573559214
 20
99.32631277664217
 30
0.0
 10
52.92064080800867
 20
99.18109810039202
 30
0.0
 10
52.94607396148013
 20
99.10844615023609
 30
0.0
  0
SPLINE
  5
13D
330
1F
100
AcDbEntity
  8
0
  6
Continuous
 62
     7
370
    30
100
AcDbSpline
210
0.0
220
0.0
230
1.0
 70
     8
 71
     3
 72
    12
 73
     8
 74
     0
 42
0.00000001
 43
0.00000001
 40
0.0
 40
0.0
 40
0.0
 40
0.0
 40
0.1019643136591748
 40
0.3084174044580477
 40
0.5145285394323901
 40
0.7570848844253101
 40
0.9999999999999999
 40
0.9999999999999999
 40
0.9999999999999999
 40
0.9999999999999999
 10
51.26812870524692
 20
98.82381161969181
 30
0.0
 10
51.27125544414397
 20
98.87103150744211
 30
0.0
 10
51.28071307358744
 20
99.01386025503145
 30
0.0
 10
51.36660131006381
 20
99.24165005360095
 30
0.0
 10
51.54961698478182
 20
99.488646504251
 30
0.0
 10
51.8364644990838
 20
99.6584886410137
 30
0.0
 10
52.06225962319217
 20
99.67934287734903
 30
0.0
 10
52.17524061821268
 20
99.68977770131107
 30
0.0
  0
LINE
  5
13E
330
1F
100
AcDbEntity
  8
0
  6
Continuous
 62
     7
370
    30
100
AcDbLine
 10
47.7922279658
 20
99.1565228842
 30
0.0
 11
47.7922279658
 21
98.8238116197
 31
0.0
  0
LINE
  5
13F
330
1F
100
AcDbEntity
  8
0
  6
Continuous
 62
     7
370
    30
100
AcDbLine
 10
48.005880815
 20
98.8238116197
 30
0.0
 11
47.7922279658
 21
99.1565228842
 31
0.0
  0
LINE
  5
140
330
1F
100
AcDbEntity
  8
0
  6
Continuous
 62
     7
370
    30
100
AcDbLine
 10
49.0486379983
 20
99.6641365282
 30
0.0
 11
49.0486379983
 21
98.8238116197
 31
0.0
  0
LINE
  5
141
330
1F
100
AcDbEntity
  8
0
  6
Continuous
 62
     7
370
    30
100
AcDbLine
 10
48.7665888192
 20
99.6641365282
 30
0.0
 11
49.0486379983
 21
99.6641365282
 31
0.0
  0
LINE
  5
142
330
1F
100
AcDbEntity
  8
0
  6
Continuous
 62
     7
370
    30
100
AcDbLine
 10
48.7665888192
 20
98.8238116197
 30
0.0
 11
48.7665888192
 21
99.6641365282
 31
0.0
  0
LINE
  5
143
330
1F
100
AcDbEntity
  8
0
  6
Continuous
 62
     7
370
    30
100
AcDbLine
 10
47.8082541647
 20
99.6641365282
 30
0.0
 11
48.3478661897
 21
98.8238116197
 31
0.0
  0
LINE
  5
144
330
1F
100
AcDbEntity
  8
0
  6
Continuous
 62
     7
370
    30
100
AcDbLine
 10
47.5101787867
 20
99.6641365282
 30
0.0
 11
47.8082541647
 21
99.6641365282
 31
0.0
  0
LINE
  5
145
330
1F
100
AcDbEntity
  8
0
  6
Continuous
 62
     7
370
    30
100
AcDbLine
 10
47.5101787867
 20
98.8238116197
 30
0.0
 11
47.5101787867
 21
99.6641365282
 31
0.0
  0
SPLINE
  5
146
330
1F
100
AcDbEntity
  8
0
  6
Continuous
 62
     7
370
    30
100
AcDbSpline
210
0.0
220
0.0
230
1.0
 70
     8
 71
     3
 72
    10
 73
     6
 74
     0
 42
0.00000001
 43
0.00000001
 40
0.0
 40
0.0
 40
0.0
 40
0.0
 40
0.3357141791379405
 40
0.6718781048665957
 40
1.0
 40
1.0
 40
1.0
 40
1.0
 10
44.99214704058932
 20
99.49226094704147
 30
0.0
 10
45.05066025344067
 20
99.43130777696368
 30
0.0
 10
45.16776506760483
 20
99.30931977960643
 30
0.0
 10
45.26728375754436
 20
99.07223632585522
 30
0.0
 10
45.27971068562123
 20
98.9059488139825
 30
0.0
 10
45.28584892772006
 20
98.82381161969181
 30
0.0
  0
SPLINE
  5
147
330
1F
100
AcDbEntity
  8
0
  6
Continuous
 62
     7
370
    30
100
AcDbSpline
210
0.0
220
0.0
230
1.0
 70
     8
 71
     3
 72
     9
 73
     5
 74
     0
 42
0.00000001
 43
0.00000001
 40
0.0
 40
0.0
 40
0.0
 40
0.0
 40
0.5598672038305587
 40
1.0
 40
1.0
 40
1.0
 40
1.0
 10
44.70128382466601
 20
99.63528974276062
 30
0.0
 10
44.76048723107734
 20
99.61824122112658
 30
0.0
 10
44.86623267572256
 20
99.58779021146326
 30
0.0
 10
44.95366514389611
 20
99.52145656176381
 30
0.0
 10
44.99214704058932
 20
99.49226094704147
 30
0.0
  0
SPLINE
  5
148
330
1F
100
AcDbEntity
  8
0
  6
Continuous
 62
     7
370
    30
100
AcDbSpline
210
0.0
220
0.0
230
1.0
 70
     8
 71
     3
 72
     9
 73
     5
 74
     0
 42
0.00000001
 43
0.00000001
 40
0.0
 40
0.0
 40
0.0
 40
0.0
 40
0.5601592088221826
 40
1.0
 40
1.0
 40
1.0
 40
1.0
 10
44.34791768811511
 20
99.66413652818676
 30
0.0
 10
44.41434839329017
 20
99.66385809328573
 30
0.0
 10
44.53294093649721
 20
99.66336102942128
 30
0.0
 10
44.64985864656645
 20
99.64386492482926
 30
0.0
 10
44.70128382466601
 20
99.63528974276062
 30
0.0
  0
LINE
  5
149
330
1F
100
AcDbEntity
  8
0
  6
Continuous
 62
     7
370
    30
100
AcDbLine
 10
43.6640251698
 20
99.6641365282
 30
0.0
 11
44.3479176881
 21
99.6641365282
 31
0.0
  0
LINE
  5
14A
330
1F
100
AcDbEntity
  8
0
  6
Continuous
 62
     7
370
    30
100
AcDbLine
 10
43.6640251698
 20
98.8238116197
 30
0.0
 11
43.6640251698
 21
99.6641365282
 31
0.0
  0
SPLINE
  5
14B
330
1F
100
AcDbEntity
  8
0
  6
Continuous
 62
     7
370
    30
100
AcDbSpline
210
0.0
220
0.0
230
1.0
 70
     8
 71
     3
 72
    10
 73
     6
 74
     0
 42
0.00000001
 43
0.00000001
 40
0.0
 40
0.0
 40
0.0
 40
0.0
 40
0.4187838148978627
 40
0.8378226930594858
 40
1.0
 40
1.0
 40
1.0
 40
1.0
 10
41.07428158543872
 20
99.1457065038013
 30
0.0
 10
41.06806302403727
 20
99.09468377221907
 30
0.0
 10
41.05562211377527
 20
98.99260723329667
 30
0.0
 10
40.9978453489385
 20
98.87477470133726
 30
0.0
 10
40.93779709158194
 20
98.8349296284222
 30
0.0
 10
40.92104176901149
 20
98.82381161969181
 30
0.0
  0
SPLINE
  5
14C
330
1F
100
AcDbEntity
  8
0
  6
Continuous
 62
     7
370
    30
100
AcDbSpline
210
0.0
220
0.0
230
1.0
 70
     8
 71
     3
 72
    11
 73
     7
 74
     0
 42
0.00000001
 43
0.00000001
 40
0.0
 40
0.0
 40
0.0
 40
0.0
 40
0.2811888227250277
 40
0.5600175753908341
 40
0.7800669042521875
 40
1.0
 40
1.0
 40
1.0
 40
1.0
 10
40.41282276533412
 20
99.66413652818676
 30
0.0
 10
40.50161176411208
 20
99.6612417805489
 30
0.0
 10
40.67844453909631
 20
99.65547658142823
 30
0.0
 10
40.90972840049449
 20
99.54568957308184
 30
0.0
 10
41.04658810883507
 20
99.353558497503
 30
0.0
 10
41.06505205248551
 20
99.21497829848109
 30
0.0
 10
41.07428158543872
 20
99.1457065038013
 30
0.0
  0
LINE
  5
14D
330
1F
100
AcDbEntity
  8
0
  6
Continuous
 62
     7
370
    30
100
AcDbLine
 10
39.6640245142
 20
99.6641365282
 30
0.0
 11
40.4128227653
 21
99.6641365282
 31
0.0
  0
LINE
  5
14E
330
1F
100
AcDbEntity
  8
0
  6
Continuous
 62
     7
370
    30
100
AcDbLine
 10
39.6640245142
 20
98.8238116197
 30
0.0
 11
39.6640245142
 21
99.6641365282
 31
0.0
  0
LINE
  5
14F
330
1F
100
AcDbEntity
  8
0
  6
Continuous
 62
     7
370
    30
100
AcDbLine
 10
36.6332549872
 20
101.1641358427
 30
0.0
 11
89.633254827
 21
101.1641358427
 31
0.0
  0
ARC
  5
150
330
1F
100
AcDbEntity
  8
0
  6
Continuous
 62
     7
370
    30
100
AcDbCircle
 10
89.6332546594
 20
96.6641358874
 30
0.0
 40
4.500000000000014
100
AcDbArc
 50
0.0
 51
90.0
  0
LINE
  5
151
330
1F
100
AcDbEntity
  8
0
  6
Continuous
 62
     7
370
    30
100
AcDbLine
 10
94.1332546333
 20
96.6641360364
 30
0.0
 11
94.1332546333
 21
93.750528752
 31
0.0
  0
LINE
  5
152
330
1F
100
AcDbEntity
  8
0
  6
Continuous
 62
     7
370
    30
100
AcDbLine
 10
94.1332546333
 20
41.5934713028
 30
0.0
 11
94.1332546333
 21
41.1641390465
 31
0.0
  0
ARC
  5
153
330
1F
100
AcDbEntity
  8
0
  6
Continuous
 62
     7
370
    30
100
AcDbCircle
 10
89.6332546594
 20
41.1641358874
 30
0.0
 40
4.5
100
AcDbArc
 50
270.0
 51
0.0
  0
LINE
  5
154
330
1F
100
AcDbEntity
  8
0
  6
Continuous
 62
     7
370
    30
100
AcDbLine
 10
89.633254827
 20
36.6641373776
 30
0.0
 11
89.2196484181
 21
36.6641373776
 31
0.0
  0
LINE
  5
155
330
1F
100
AcDbEntity
  8
0
  6
Continuous
 62
     7
370
    30
100
AcDbLine
 10
37.0625872435
 20
36.6641373776
 30
0.0
 11
36.6332549872
 21
36.6641373776
 31
0.0
  0
ARC
  5
156
330
1F
100
AcDbEntity
  8
0
  6
Continuous
 62
     7
370
    30
100
AcDbCircle
 10
36.6332546594
 20
41.1641358874
 30
0.0
 40
4.500000000000007
100
AcDbArc
 50
180.0
 51
270.0
  0
LINE
  5
157
330
1F
100
AcDbEntity
  8
0
  6
Continuous
 62
     7
370
    30
100
AcDbLine
 10
32.1332570436
 20
41.1641390465
 30
0.0
 11
32.1332570436
 21
41.5777431272
 31
0.0
  0
LINE
  5
158
330
1F
100
AcDbEntity
  8
0
  6
Continuous
 62
     7
370
    30
100
AcDbLine
 10
32.1332570436
 20
93.734802439
 30
0.0
 11
32.1332570436
 21
96.6641360364
 31
0.0
  0
ARC
  5
159
330
1F
100
AcDbEntity
  8
0
  6
Continuous
 62
     7
370
    30
100
AcDbCircle
 10
36.6332546594
 20
96.6641358874
 30
0.0
 40
4.500000000000014
100
AcDbArc
 50
90.0
 51
180.0
  0
SPLINE
  5
15A
330
1F
100
AcDbEntity
  8
0
  6
Continuous
 62
     7
370
    30
100
AcDbSpline
210
0.0
220
0.0
230
1.0
 70
     8
 71
     3
 72
    12
 73
     8
 74
     0
 42
0.00000001
 43
0.00000001
 40
0.0
 40
0.0
 40
0.0
 40
0.0
 40
0.2086658987920417
 40
0.4171649660791346
 40
0.6254957561151964
 40
0.8711025774671859
 40
1.0
 40
1.0
 40
1.0
 40
1.0
 10
42.35753233454989
 20
99.68977770131107
 30
0.0
 10
42.45539876894542
 20
99.68231495162388
 30
0.0
 10
42.65105339205939
 20
99.66739541882943
 30
0.0
 10
42.92027373974879
 20
99.5346017394042
 30
0.0
 10
43.14055500055358
 20
99.31232660790666
 30
0.0
 10
43.26433974232165
 20
99.05893889468379
 30
0.0
 10
43.27911622871944
 20
98.88401662443347
 30
0.0
 10
43.28420202158259
 20
98.82381161969181
 30
0.0
  0
SPLINE
  5
15B
330
1F
100
AcDbEntity
  8
0
  6
Continuous
 62
     7
370
    30
100
AcDbSpline
210
0.0
220
0.0
230
1.0
 70
     8
 71
     3
 72
    12
 73
     8
 74
     0
 42
0.00000001
 43
0.00000001
 40
0.0
 40
0.0
 40
0.0
 40
0.0
 40
0.0790291700155468
 40
0.2907550011089158
 40
0.5021770454998279
 40
0.750833440373953
 40
1.0
 40
1.0
 40
1.0
 40
1.0
 10
41.42495806239413
 20
98.82381161969181
 30
0.0
 10
41.42741507990969
 20
98.86079842098326
 30
0.0
 10
41.43645465517442
 20
98.99687599143475
 30
0.0
 10
41.52063765788105
 20
99.22291386909394
 30
0.0
 10
41.71221922311943
 20
99.47648771002774
 30
0.0
 10
42.00469016465225
 20
99.661391519389
 30
0.0
 10
42.23983795209632
 20
99.6803091784514
 30
0.0
 10
42.35753233454989
 20
99.68977770131107
 30
0.0
  0
LINE
  5
15C
330
1F
100
AcDbEntity
  8
0
  6
Continuous
 62
     7
370
    30
100
AcDbLine
 10
45.9460746767
 20
99.4333659701
 30
0.0
 11
45.9460746767
 21
98.8238116197
 31
0.0
  0
LINE
  5
15D
330
1F
100
AcDbEntity
  8
0
  6
Continuous
 62
     7
370
    30
100
AcDbLine
 10
47.0742788436
 20
99.4333659701
 30
0.0
 11
45.9460746767
 21
99.4333659701
 31
0.0
  0
LINE
  5
15E
330
1F
100
AcDbEntity
  8
0
  6
Continuous
 62
     7
370
    30
100
AcDbLine
 10
47.0742788436
 20
99.6641365282
 30
0.0
 11
47.0742788436
 21
99.4333659701
 31
0.0
  0
LINE
  5
15F
330
1F
100
AcDbEntity
  8
0
  6
Continuous
 62
     7
370
    30
100
AcDbLine
 10
45.6640254977
 20
99.6641365282
 30
0.0
 11
47.0742788436
 21
99.6641365282
 31
0.0
  0
LINE
  5
160
330
1F
100
AcDbEntity
  8
0
  6
Continuous
 62
     7
370
    30
100
AcDbLine
 10
45.6640254977
 20
98.8238116197
 30
0.0
 11
45.6640254977
 21
99.6641365282
 31
0.0
  0
SPLINE
  5
161
330
1F
100
AcDbEntity
  8
0
  6
Continuous
 62
     7
370
    30
100
AcDbSpline
210
0.0
220
0.0
230
1.0
 70
     8
 71
     3
 72
    10
 73
     6
 74
     0
 42
0.00000001
 43
0.00000001
 40
0.0
 40
0.0
 40
0.0
 40
0.0
 40
0.4951866820886404
 40
0.9937497643586469
 40
1.0
 40
1.0
 40
1.0
 40
1.0
 10
49.83830268405246
 20
98.98384822826858
 30
0.0
 10
49.9068803212484
 20
98.94680444397162
 30
0.0
 10
50.04450318807573
 20
98.87246429459441
 30
0.0
 10
50.20086672223113
 20
98.84766782149737
 30
0.0
 10
50.27617224940066
 20
98.82410337769676
 30
0.0
 10
50.27710462830828
 20
98.82381161969181
 30
0.0
  0
SPLINE
  5
162
330
1F
100
AcDbEntity
  8
0
  6
Continuous
 62
     7
370
    30
100
AcDbSpline
210
0.0
220
0.0
230
1.0
 70
     8
 71
     3
 72
     9
 73
     5
 74
     0
 42
0.00000001
 43
0.00000001
 40
0.0
 40
0.0
 40
0.0
 40
0.0
 40
0.5596131161832316
 40
1.0
 40
1.0
 40
1.0
 40
1.0
 10
49.76658712051677
 20
99.16052943389889
 30
0.0
 10
49.77003018478143
 20
99.1232443306559
 30
0.0
 10
49.77618276442102
 20
99.05661775925368
 30
0.0
 10
49.81931001053064
 20
99.0060969361313
 30
0.0
 10
49.83830268405246
 20
98.98384822826858
 30
0.0
  0
SPLINE
  5
163
330
1F
100
AcDbEntity
  8
0
  6
Continuous
 62
     7
370
    30
100
AcDbSpline
210
0.0
220
0.0
230
1.0
 70
     8
 71
     3
 72
    12
 73
     8
 74
     0
 42
0.00000001
 43
0.00000001
 40
0.0
 40
0.0
 40
0.0
 40
0.0
 40
0.2508560056901321
 40
0.500796338541009
 40
0.7496100716819708
 40
0.874775695962775
 40
1.0
 40
1.0
 40
1.0
 40
1.0
 10
50.19006694577502
 20
99.45900714319225
 30
0.0
 10
50.14159400504481
 20
99.45723077729399
 30
0.0
 10
50.04482505917396
 20
99.45368452957585
 30
0.0
 10
49.90270165769699
 20
99.41053059123317
 30
0.0
 10
49.81252908569312
 20
99.32276918724361
 30
0.0
 10
49.77209031115441
 20
99.23341177183701
 30
0.0
 10
49.76842180397182
 20
99.18482734185535
 30
0.0
 10
49.76658712051677
 20
99.16052943389889
 30
0.0
  0
SPLINE
  5
164
330
1F
100
AcDbEntity
  8
0
  6
Continuous
 62
     7
370
    30
100
AcDbSpline
210
0.0
220
0.0
230
1.0
 70
     8
 71
     3
 72
    11
 73
     7
 74
     0
 42
0.00000001
 43
0.00000001
 40
0.0
 40
0.0
 40
0.0
 40
0.0
 40
0.2801601874954399
 40
0.5583524322421254
 40
0.7788645742162349
 40
1.0
 40
1.0
 40
1.0
 40
1.0
 10
50.63838328145312
 20
99.10003258209701
 30
0.0
 10
50.62751736168208
 20
99.15990342554419
 30
0.0
 10
50.60586184814553
 20
99.2792245587786
 30
0.0
 10
50.4811909747795
 20
99.406084025612
 30
0.0
 10
50.33175969248312
 20
99.45314691330557
 30
0.0
 10
50.23734227748855
 20
99.45705189623538
 30
0.0
 10
50.19006694577502
 20
99.45900714319225
 30
0.0
  0
LINE
  5
165
330
1F
100
AcDbEntity
  8
0
  6
Continuous
 62
     7
370
    30
100
AcDbLine
 10
50.9204324605
 20
99.1000325821
 30
0.0
 11
50.6383832815
 21
99.1000325821
 31
0.0
  0
SPLINE
  5
166
330
1F
100
AcDbEntity
  8
0
  6
Continuous
 62
     7
370
    30
100
AcDbSpline
210
0.0
220
0.0
230
1.0
 70
     8
 71
     3
 72
    11
 73
     7
 74
     0
 42
0.00000001
 43
0.00000001
 40
0.0
 40
0.0
 40
0.0
 40
0.0
 40
0.2808404705306894
 40
0.5601841267270787
 40
0.7798630917498001
 40
1.0
 40
1.0
 40
1.0
 40
1.0
 10
50.17884637139606
 20
99.68977770131107
 30
0.0
 10
50.27801862538114
 20
99.68371487841718
 30
0.0
 10
50.47583456832272
 20
99.6716215460641
 30
0.0
 10
50.73170396921264
 20
99.54550501331963
 30
0.0
 10
50.88794834568681
 20
99.33284139275266
 30
0.0
 10
50.90959690864067
 20
99.1776893678944
 30
0.0
 10
50.92043246053026
 20
99.10003258209701
 30
0.0
  0
SPLINE
  5
167
330
1F
100
AcDbEntity
  8
0
  6
Continuous
 62
     7
370
    30
100
AcDbSpline
210
0.0
220
0.0
230
1.0
 70
     8
 71
     3
 72
    11
 73
     7
 74
     0
 42
0.00000001
 43
0.00000001
 40
0.0
 40
0.0
 40
0.0
 40
0.0
 40
0.2788672563236519
 40
0.5575617622520674
 40
0.7786486005859546
 40
1.0
 40
1.0
 40
1.0
 40
1.0
 10
49.48453794143962
 20
99.1421004227924
 30
0.0
 10
49.49931165387755
 20
99.23484494181871
 30
0.0
 10
49.52884992685549
 20
99.42027652725916
 30
0.0
 10
49.73511702694275
 20
99.59988027590745
 30
0.0
 10
49.96070695741221
 20
99.67737912965622
 30
0.0
 10
50.10610425273459
 20
99.68564319689447
 30
0.0
 10
50.17884637139605
 20
99.68977770131107
 30
0.0
  0
SPLINE
  5
168
330
1F
100
AcDbEntity
  8
0
  6
Continuous
 62
     7
370
    30
100
AcDbSpline
210
0.0
220
0.0
230
1.0
 70
     8
 71
     3
 72
     9
 73
     5
 74
     0
 42
0.00000001
 43
0.00000001
 40
0.0
 40
0.0
 40
0.0
 40
0.0
 40
0.3215254693471225
 40
1.0
 40
1.0
 40
1.0
 40
1.0
 10
49.62295855305957
 20
98.82381161969181
 30
0.0
 10
49.59565857500866
 20
98.85125784038233
 30
0.0
 10
49.51075090624347
 20
98.9366203491324
 30
0.0
 10
49.4951337703709
 20
99.05904107694651
 30
0.0
 10
49.48453794143962
 20
99.1421004227924
 30
0.0
  0
LINE
  5
169
330
1F
100
AcDbEntity
  8
0
  6
Continuous
 62
     7
370
    30
100
AcDbLine
 10
54.8947919431
 20
99.6641365282
 30
0.0
 11
54.8947919431
 21
98.8238116197
 31
0.0
  0
LINE
  5
16A
330
1F
100
AcDbEntity
  8
0
  6
Continuous
 62
     7
370
    30
100
AcDbLine
 10
54.612742764
 20
99.6641365282
 30
0.0
 11
54.8947919431
 21
99.6641365282
 31
0.0
  0
LINE
  5
16B
330
1F
100
AcDbEntity
  8
0
  6
Continuous
 62
     7
370
    30
100
AcDbLine
 10
54.612742764
 20
98.8436227135
 30
0.0
 11
54.612742764
 21
99.6641365282
 31
0.0
  0
LINE
  5
16C
330
1F
100
AcDbEntity
  8
0
  6
Continuous
 62
     7
370
    30
100
AcDbLine
 10
53.6383819105
 20
98.8436227135
 30
0.0
 11
54.612742764
 21
98.8436227135
 31
0.0
  0
LINE
  5
16D
330
1F
100
AcDbEntity
  8
0
  6
Continuous
 62
     7
370
    30
100
AcDbLine
 10
53.6383819105
 20
99.6641365282
 30
0.0
 11
53.6383819105
 21
98.8436227135
 31
0.0
  0
LINE
  5
16E
330
1F
100
AcDbEntity
  8
0
  6
Continuous
 62
     7
370
    30
100
AcDbLine
 10
53.3563327315
 20
99.6641365282
 30
0.0
 11
53.6383819105
 21
99.6641365282
 31
0.0
  0
LINE
  5
16F
330
1F
100
AcDbEntity
  8
0
  6
Continuous
 62
     7
370
    30
100
AcDbLine
 10
53.3563327315
 20
98.8238116197
 30
0.0
 11
53.3563327315
 21
99.6641365282
 31
0.0
  0
LINE
  5
170
330
1F
100
AcDbEntity
  8
0
  6
Continuous
 62
     7
370
    30
100
AcDbLine
 10
57.9717178168
 20
99.4333659701
 30
0.0
 11
57.9717178168
 21
98.8238116197
 31
0.0
  0
LINE
  5
171
330
1F
100
AcDbEntity
  8
0
  6
Continuous
 62
     7
370
    30
100
AcDbLine
 10
58.6127434196
 20
99.4333659701
 30
0.0
 11
57.9717178168
 21
99.4333659701
 31
0.0
  0
LINE
  5
172
330
1F
100
AcDbEntity
  8
0
  6
Continuous
 62
     7
370
    30
100
AcDbLine
 10
58.6127434196
 20
99.6641365282
 30
0.0
 11
58.6127434196
 21
99.4333659701
 31
0.0
  0
LINE
  5
173
330
1F
100
AcDbEntity
  8
0
  6
Continuous
 62
     7
370
    30
100
AcDbLine
 10
57.0486393096
 20
99.6641365282
 30
0.0
 11
58.6127434196
 21
99.6641365282
 31
0.0
  0
LINE
  5
174
330
1F
100
AcDbEntity
  8
0
  6
Continuous
 62
     7
370
    30
100
AcDbLine
 10
57.0486393096
 20
99.4333659701
 30
0.0
 11
57.0486393096
 21
99.6641365282
 31
0.0
  0
LINE
  5
175
330
1F
100
AcDbEntity
  8
0
  6
Continuous
 62
     7
370
    30
100
AcDbLine
 10
57.6896649124
 20
99.4333659701
 30
0.0
 11
57.0486393096
 21
99.4333659701
 31
0.0
  0
LINE
  5
176
330
1F
100
AcDbEntity
  8
0
  6
Continuous
 62
     7
370
    30
100
AcDbLine
 10
57.6896649124
 20
98.8238116197
 30
0.0
 11
57.6896649124
 21
99.4333659701
 31
0.0
  0
LINE
  5
177
330
1F
100
AcDbEntity
  8
0
  6
Continuous
 62
     7
370
    30
100
AcDbLine
 10
44.3515237691
 20
99.4333659701
 30
0.0
 11
43.9460743489
 21
99.4333659701
 31
0.0
  0
SPLINE
  5
178
330
1F
100
AcDbEntity
  8
0
  6
Continuous
 62
     7
370
    30
100
AcDbSpline
210
0.0
220
0.0
230
1.0
 70
     8
 71
     3
 72
     9
 73
     5
 74
     0
 42
0.00000001
 43
0.00000001
 40
0.0
 40
0.0
 40
0.0
 40
0.0
 40
0.5592607550676285
 40
1.0
 40
1.0
 40
1.0
 40
1.0
 10
44.68205387614535
 20
99.39210092943188
 30
0.0
 10
44.62126033056239
 20
99.40694808221849
 30
0.0
 10
44.51255693052566
 20
99.43349590030172
 30
0.0
 10
44.40078572559177
 20
99.43340571726947
 30
0.0
 10
44.35152376912402
 20
99.43336597006794
 30
0.0
  0
SPLINE
  5
179
330
1F
100
AcDbEntity
  8
0
  6
Continuous
 62
     7
370
    30
100
AcDbSpline
210
0.0
220
0.0
230
1.0
 70
     8
 71
     3
 72
    11
 73
     7
 74
     0
 42
0.00000001
 43
0.00000001
 40
0.0
 40
0.0
 40
0.0
 40
0.0
 40
0.1299886742620981
 40
0.4686444435663326
 40
0.7348878996130919
 40
1.0
 40
1.0
 40
1.0
 40
1.0
 10
45.01271436832713
 20
98.82381161969181
 30
0.0
 10
45.01129407611495
 20
98.8537519533611
 30
0.0
 10
45.00617353728911
 20
98.96169498064627
 30
0.0
 10
44.95499824650548
 20
99.1260916931622
 30
0.0
 10
44.8421673688616
 20
99.29800552585557
 30
0.0
 10
44.73534922843089
 20
99.36078034803069
 30
0.0
 10
44.68205387614535
 20
99.39210092943188
 30
0.0
  0
LINE
  5
17A
330
1F
100
AcDbEntity
  8
0
  6
Continuous
 62
     7
370
    30
100
AcDbLine
 10
43.9460743489
 20
99.4333659701
 30
0.0
 11
43.9460743489
 21
98.8238116197
 31
0.0
  0
LINE
  5
17B
330
1F
100
AcDbEntity
  8
0
  6
Continuous
 62
     7
370
    30
100
AcDbLine
 10
40.3270852091
 20
99.4333659701
 30
0.0
 11
39.9460736933
 21
99.4333659701
 31
0.0
  0
SPLINE
  5
17C
330
1F
100
AcDbEntity
  8
0
  6
Continuous
 62
     7
370
    30
100
AcDbSpline
210
0.0
220
0.0
230
1.0
 70
     8
 71
     3
 72
    12
 73
     8
 74
     0
 42
0.00000001
 43
0.00000001
 40
0.0
 40
0.0
 40
0.0
 40
0.0
 40
0.2490915921224949
 40
0.3742630020264608
 40
0.4992545453218757
 40
0.7489948691954312
 40
1.0
 40
1.0
 40
1.0
 40
1.0
 10
40.79222868107126
 20
99.12086626809116
 30
0.0
 10
40.78648559931267
 20
99.17533524959488
 30
0.0
 10
40.77785655245668
 20
99.25717552513852
 30
0.0
 10
40.71597324350812
 20
99.3484739991232
 30
0.0
 10
40.62637581809085
 20
99.4126748024568
 30
0.0
 10
40.48822194071331
 20
99.43046166607276
 30
0.0
 10
40.38088782287191
 20
99.43239623992302
 30
0.0
 10
40.32708520911502
 20
99.43336597006794
 30
0.0
  0
SPLINE
  5
17D
330
1F
100
AcDbEntity
  8
0
  6
Continuous
 62
     7
370
    30
100
AcDbSpline
210
0.0
220
0.0
230
1.0
 70
     8
 71
     3
 72
    10
 73
     6
 74
     0
 42
0.00000001
 43
0.00000001
 40
0.0
 40
0.0
 40
0.0
 40
0.0
 40
0.2808930097554877
 40
0.5610132832513949
 40
1.0
 40
1.0
 40
1.0
 40
1.0
 10
40.59871847651767
 20
98.84162036996361
 30
0.0
 10
40.63063576746188
 20
98.85451761338348
 30
0.0
 10
40.69438254492952
 20
98.88027661992541
 30
0.0
 10
40.77817959707237
 20
98.9771752758124
 30
0.0
 10
40.78690323873379
 20
99.06639879577358
 30
0.0
 10
40.79222868107127
 20
99.12086626809116
 30
0.0
  0
LINE
  5
17E
330
1F
100
AcDbEntity
  8
0
  6
Continuous
 62
     7
370
    30
100
AcDbLine
 10
40.4975544932
 20
98.8238116197
 30
0.0
 11
40.5987184765
 21
98.84162037
 31
0.0
  0
LINE
  5
17F
330
1F
100
AcDbEntity
  8
0
  6
Continuous
 62
     7
370
    30
100
AcDbLine
 10
39.9460736933
 20
99.4333659701
 30
0.0
 11
39.9460736933
 21
98.8238116197
 31
0.0
  0
SPLINE
  5
180
330
1F
100
AcDbEntity
  8
0
  6
Continuous
 62
     7
370
    30
100
AcDbSpline
210
0.0
220
0.0
230
1.0
 70
     8
 71
     3
 72
     9
 73
     5
 74
     0
 42
0.00000001
 43
0.00000001
 40
0.0
 40
0.0
 40
0.0
 40
0.0
 40
0.5599075443401069
 40
1.0
 40
1.0
 40
1.0
 40
1.0
 10
56.03581855915355
 20
99.43336597006794
 30
0.0
 10
56.01681303500838
 20
99.3619651828403
 30
0.0
 10
55.98286899489445
 20
99.23444272319603
 30
0.0
 10
55.9247699426235
 20
99.11607030535032
 30
0.0
 10
55.89920098803805
 20
99.0639754972982
 30
0.0
  0
SPLINE
  5
181
330
1F
100
AcDbEntity
  8
0
  6
Continuous
 62
     7
370
    30
100
AcDbSpline
210
0.0
220
0.0
230
1.0
 70
     8
 71
     3
 72
     9
 73
     5
 74
     0
 42
0.00000001
 43
0.00000001
 40
0.0
 40
0.0
 40
0.0
 40
0.0
 40
0.5600047826862019
 40
0.9999999999999999
 40
0.9999999999999999
 40
0.9999999999999999
 40
0.9999999999999999
 10
56.18285576723384
 20
99.03593151193138
 30
0.0
 10
56.15532403363906
 20
99.11008863820251
 30
0.0
 10
56.10616064352887
 20
99.24251094701822
 30
0.0
 10
56.05731181158168
 20
99.37504959767134
 30
0.0
 10
56.03581855915355
 20
99.43336597006794
 30
0.0
  0
LINE
  5
182
330
1F
100
AcDbEntity
  8
0
  6
Continuous
 62
     7
370
    30
100
AcDbLine
 10
55.899200988
 20
99.0639754973
 30
0.0
 11
55.8103975179
 21
98.8238116197
 31
0.0
  0
LINE
  5
183
330
1F
100
AcDbEntity
  8
0
  6
Continuous
 62
     7
370
    30
100
AcDbLine
 10
56.2612656774
 20
98.8238116197
 30
0.0
 11
56.1828557672
 21
99.0359315119
 31
0.0
  0
SPLINE
  5
184
330
1F
100
AcDbEntity
  8
0
  6
Continuous
 62
     7
370
    30
100
AcDbSpline
210
0.0
220
0.0
230
1.0
 70
     8
 71
     3
 72
    11
 73
     7
 74
     0
 42
0.00000001
 43
0.00000001
 40
0.0
 40
0.0
 40
0.0
 40
0.0
 40
0.163604170121898
 40
0.4884212373399623
 40
0.7440958323560994
 40
1.0
 40
1.0
 40
1.0
 40
1.0
 10
43.00096820019053
 20
98.82381161969181
 30
0.0
 10
42.99629607102922
 20
98.87823009835704
 30
0.0
 10
42.98234797236962
 20
99.04069014240133
 30
0.0
 10
42.85110795286081
 20
99.26499920783
 30
0.0
 10
42.61666214275834
 20
99.43246360423092
 30
0.0
 10
42.44500253144057
 20
99.45015665026789
 30
0.0
 10
42.35913420937823
 20
99.45900714319225
 30
0.0
  0
SPLINE
  5
185
330
1F
100
AcDbEntity
  8
0
  6
Continuous
 62
     7
370
    30
100
AcDbSpline
210
0.0
220
0.0
230
1.0
 70
     8
 71
     3
 72
    12
 73
     8
 74
     0
 42
0.00000001
 43
0.00000001
 40
0.0
 40
0.0
 40
0.0
 40
0.0
 40
0.2217478902782783
 40
0.4434087191427556
 40
0.664628049495664
 40
0.9259830063545491
 40
1.0
 40
1.0
 40
1.0
 40
1.0
 10
42.35913420937823
 20
99.45900714319225
 30
0.0
 10
42.28408968030411
 20
99.45255237168828
 30
0.0
 10
42.13403008571829
 20
99.43964536291658
 30
0.0
 10
41.93337029697066
 20
99.32643916408038
 30
0.0
 10
41.7742412687869
 20
99.14546732071706
 30
0.0
 10
41.71311580201081
 20
98.9612696130804
 30
0.0
 10
41.70632332845582
 20
98.84866384779556
 30
0.0
 10
41.70482422135638
 20
98.82381161969181
 30
0.0
  0
LINE
  5
186
330
1F
100
AcDbEntity
  8
0
  6
Continuous
 62
     7
370
    30
100
AcDbLine
 10
157.6332543316
 20
102.6641351573
 30
0.0
 11
104.6332544918
 21
102.6641351573
 31
0.0
  0
ARC
  5
187
330
1F
100
AcDbEntity
  8
0
  6
Continuous
 62
     7
370
    30
100
AcDbCircle
 10
157.6332546594
 20
96.6641358874
 30
0.0
 40
6.000000000000014
100
AcDbArc
 50
0.0
 51
90.0
  0
LINE
  5
188
330
1F
100
AcDbEntity
  8
0
  6
Continuous
 62
     7
370
    30
100
AcDbLine
 10
163.633255315
 20
41.1641390465
 30
0.0
 11
163.633255315
 21
96.6641360364
 31
0.0
  0
ARC
  5
189
330
1F
100
AcDbEntity
  8
0
  6
Continuous
 62
     7
370
    30
100
AcDbCircle
 10
157.6332546594
 20
41.1641358874
 30
0.0
 40
6.0
100
AcDbArc
 50
270.0
 51
0.0
  0
LINE
  5
18A
330
1F
100
AcDbEntity
  8
0
  6
Continuous
 62
     7
370
    30
100
AcDbLine
 10
104.6332544918
 20
35.1641343377
 30
0.0
 11
157.6332543316
 21
35.1641343377
 31
0.0
  0
ARC
  5
18B
330
1F
100
AcDbEntity
  8
0
  6
Continuous
 62
     7
370
    30
100
AcDbCircle
 10
104.6332546594
 20
41.1641358874
 30
0.0
 40
6.000000000000014
100
AcDbArc
 50
180.0
 51
270.0
  0
LINE
  5
18C
330
1F
100
AcDbEntity
  8
0
  6
Continuous
 62
     7
370
    30
100
AcDbLine
 10
98.6332546724
 20
96.6641360364
 30
0.0
 11
98.6332546724
 21
41.1641390465
 31
0.0
  0
ARC
  5
18D
330
1F
100
AcDbEntity
  8
0
  6
Continuous
 62
     7
370
    30
100
AcDbCircle
 10
104.6332546594
 20
96.6641358874
 30
0.0
 40
6.000000000000014
100
AcDbArc
 50
90.0
 51
180.0
  0
LINE
  5
18E
330
1F
100
AcDbEntity
  8
0
  6
Continuous
 62
     7
370
    30
100
AcDbLine
 10
95.6332546464
 20
41.1641390465
 30
0.0
 11
95.6332546464
 21
96.6641360364
 31
0.0
  0
ARC
  5
18F
330
1F
100
AcDbEntity
  8
0
  6
Continuous
 62
     7
370
    30
100
AcDbCircle
 10
89.6332546594
 20
41.1641358874
 30
0.0
 40
6.0
100
AcDbArc
 50
270.0
 51
0.0
  0
LINE
  5
190
330
1F
100
AcDbEntity
  8
0
  6
Continuous
 62
     7
370
    30
100
AcDbLine
 10
36.6332549872
 20
35.1641343377
 30
0.0
 11
89.633254827
 21
35.1641343377
 31
0.0
  0
ARC
  5
191
330
1F
100
AcDbEntity
  8
0
  6
Continuous
 62
     7
370
    30
100
AcDbCircle
 10
36.6332546594
 20
41.1641358874
 30
0.0
 40
6.0
100
AcDbArc
 50
180.0
 51
270.0
  0
LINE
  5
192
330
1F
100
AcDbEntity
  8
0
  6
Continuous
 62
     7
370
    30
100
AcDbLine
 10
30.6332540037
 20
96.6641360364
 30
0.0
 11
30.6332540037
 21
41.1641390465
 31
0.0
  0
LINE
  5
193
330
1F
100
AcDbEntity
  8
0
  6
Continuous
 62
     7
370
    30
100
AcDbLine
 10
89.633254827
 20
102.6641351573
 30
0.0
 11
36.6332549872
 21
102.6641351573
 31
0.0
  0
ARC
  5
194
330
1F
100
AcDbEntity
  8
0
  6
Continuous
 62
     7
370
    30
100
AcDbCircle
 10
89.6332546594
 20
96.6641358874
 30
0.0
 40
6.000000000000014
100
AcDbArc
 50
0.0
 51
90.0
  0
ARC
  5
195
330
1F
100
AcDbEntity
  8
0
  6
Continuous
 62
     7
370
    30
100
AcDbCircle
 10
36.6332546594
 20
96.6641358874
 30
0.0
 40
6.0
100
AcDbArc
 50
90.0
 51
180.0
  0
LINE
  5
196
330
1F
100
AcDbEntity
  8
0
  6
Continuous
 62
     7
370
    30
100
AcDbLine
 10
71.133254123
 20
102.6641351573
 30
0.0
 11
71.133254123
 21
104.1641363345
 31
0.0
  0
LINE
  5
197
330
1F
100
AcDbEntity
  8
0
  6
Continuous
 62
     7
370
    30
100
AcDbLine
 10
71.133254123
 20
104.1641363345
 30
0.0
 11
71.433255476
 21
104.1641363345
 31
0.0
  0
LINE
  5
198
330
1F
100
AcDbEntity
  8
0
  6
Continuous
 62
     7
370
    30
100
AcDbLine
 10
104.6332544918
 20
102.6641351573
 30
0.0
 11
89.633254827
 21
102.6641351573
 31
0.0
  0
LINE
  5
199
330
1F
100
AcDbEntity
  8
0
  6
Continuous
 62
     7
370
    30
100
AcDbLine
 10
122.8332538428
 20
104.1641363345
 30
0.0
 11
71.433255476
 21
104.1641363345
 31
0.0
  0
LINE
  5
19A
330
1F
100
AcDbEntity
  8
0
  6
Continuous
 62
     7
370
    30
100
AcDbLine
 10
123.1332551958
 20
104.1641363345
 30
0.0
 11
123.1332551958
 21
102.6641351573
 31
0.0
  0
LINE
  5
19B
330
1F
100
AcDbEntity
  8
0
  6
Continuous
 62
     7
370
    30
100
AcDbLine
 10
122.8332538428
 20
104.1641363345
 30
0.0
 11
123.1332551958
 21
104.1641363345
 31
0.0
  0
ARC
  5
19C
330
1F
100
AcDbEntity
  8
0
  6
Continuous
 62
     7
370
    30
100
AcDbCircle
 10
122.8332546594
 20
123.8641358874
 30
0.0
 40
0.2999999999999972
100
AcDbArc
 50
0.0
 51
90.0
  0
LINE
  5
19D
330
1F
100
AcDbEntity
  8
0
  6
Continuous
 62
     7
370
    30
100
AcDbLine
 10
71.433255476
 20
124.1641358874
 30
0.0
 11
122.8332538428
 21
124.1641358874
 31
0.0
  0
LINE
  5
19E
330
1F
100
AcDbEntity
  8
0
  6
Continuous
 62
     7
370
    30
100
AcDbLine
 10
71.133254123
 20
104.4641358249
 30
0.0
 11
71.133254123
 21
123.8641358732
 31
0.0
  0
ARC
  5
19F
330
1F
100
AcDbEntity
  8
0
  6
Continuous
 62
     7
370
    30
100
AcDbCircle
 10
71.4332546594
 20
123.8641358874
 30
0.0
 40
0.2999999999999972
100
AcDbArc
 50
90.0
 51
180.0
  0
LINE
  5
1A0
330
1F
100
AcDbEntity
  8
0
  6
Continuous
 62
     7
370
    30
100
AcDbLine
 10
123.1332551958
 20
123.8641358732
 30
0.0
 11
123.1332551958
 21
104.4641358249
 31
0.0
  0
ARC
  5
1A1
330
1F
100
AcDbEntity
  8
0
  6
Continuous
 62
     7
370
    30
100
AcDbCircle
 10
122.8332546594
 20
104.4641358874
 30
0.0
 40
0.2999999999999972
100
AcDbArc
 50
270.0
 51
0.0
  0
ARC
  5
1A2
330
1F
100
AcDbEntity
  8
0
  6
Continuous
 62
     7
370
    30
100
AcDbCircle
 10
71.4332546594
 20
104.4641358874
 30
0.0
 40
0.2999999999999972
100
AcDbArc
 50
180.0
 51
270.0
  0
LINE
  5
1A3
330
1F
100
AcDbEntity
  8
0
  6
Continuous
 62
     7
370
    30
100
AcDbLine
 10
123.1332551958
 20
104.4641358249
 30
0.0
 11
123.1332551958
 21
104.1641363345
 31
0.0
  0
LINE
  5
1A4
330
1F
100
AcDbEntity
  8
0
  6
Continuous
 62
     7
370
    30
100
AcDbLine
 10
71.133254123
 20
104.1641363345
 30
0.0
 11
71.133254123
 21
104.4641358249
 31
0.0
  0
LINE
  5
1A5
330
1F
100
AcDbEntity
  8
0
  6
Continuous
 62
     7
370
    30
100
AcDbLine
 10
93.6018815535
 20
101.1641358427
 30
0.0
 11
100.6646277653
 21
101.1641358427
 31
0.0
  0
LINE
  5
1A6
330
1F
100
AcDbEntity
  8
0
  6
Continuous
 62
     7
370
    30
100
AcDbLine
 10
99.7598574302
 20
100.1641356788
 30
0.0
 11
94.5066518886
 21
100.1641356788
 31
0.0
  0
LINE
  5
1A7
330
1F
100
AcDbEntity
  8
0
  6
Continuous
 62
     8
370
     0
100
AcDbLine
 10
112.6332544061
 20
124.1641358874
 30
0.0
 11
112.6332544061
 21
124.8641358625
 31
0.0
  0
LINE
  5
1A8
330
1F
100
AcDbEntity
  8
0
  6
Continuous
 62
     8
370
     0
100
AcDbLine
 10
81.6332549127
 20
124.8641358625
 30
0.0
 11
81.6332549127
 21
124.1641358874
 31
0.0
  0
ELLIPSE
  5
1A9
330
1F
100
AcDbEntity
  8
0
  6
Continuous
 62
     8
370
     0
100
AcDbEllipse
 10
87.7851223265
 20
92.3160035545
 30
0.0
 11
-3.546567990600252
 21
-3.546567990600252
 31
0.0
210
0.0
220
0.0
230
0.9999999999999998
 40
0.9968887993
 41
2.357752512923527
 42
3.92543279425607
  0
LINE
  5
1AA
330
1F
100
AcDbEntity
  8
0
  6
Continuous
 62
     8
370
     0
100
AcDbLine
 10
87.8007272529
 20
97.3238123051
 30
0.0
 11
87.8007272529
 21
98.8238116197
 31
0.0
  0
LINE
  5
1AB
330
1F
100
AcDbEntity
  8
0
  6
Continuous
 62
     8
370
     0
100
AcDbLine
 10
94.2929305872
 20
92.3316085182
 30
0.0
 11
92.7929305742
 21
92.3316085182
 31
0.0
  0
LINE
  5
1AC
330
1F
100
AcDbEntity
  8
0
  6
Continuous
 62
     8
370
     0
100
AcDbLine
 10
87.8007272529
 20
97.3238123051
 30
0.0
 11
38.4657811644
 21
97.3238123051
 31
0.0
  0
LINE
  5
1AD
330
1F
100
AcDbEntity
  8
0
  6
Continuous
 62
     8
370
     0
100
AcDbLine
 10
38.4657811644
 20
97.3238123051
 30
0.0
 11
38.4657811644
 21
98.8238116197
 31
0.0
  0
ELLIPSE
  5
1AE
330
1F
100
AcDbEntity
  8
0
  6
Continuous
 62
     8
370
     0
100
AcDbEllipse
 10
38.4813869923
 20
92.3160035545
 30
0.0
 11
3.54656799060026
 21
-3.546567990600252
 31
0.0
210
0.0
220
0.0
230
1.0
 40
0.9968887993
 41
2.357752512923529
 42
3.92543279425607
  0
LINE
  5
1AF
330
1F
100
AcDbEntity
  8
0
  6
Continuous
 62
     8
370
     0
100
AcDbLine
 10
33.4735792401
 20
92.3316085182
 30
0.0
 11
31.9735762002
 21
92.3316085182
 31
0.0
  0
ELLIPSE
  5
1B0
330
1F
100
AcDbEntity
  8
0
  6
Continuous
 62
     8
370
     0
100
AcDbEllipse
 10
41.2652221128
 20
89.532168434
 30
0.0
 11
3.214687641936081
 21
-3.214687641936052
 31
0.0
210
0.0
220
0.0
230
1.0
 40
0.9898257217
 41
2.359272424483096
 42
3.923912882696496
  0
LINE
  5
1B1
330
1F
100
AcDbEntity
  8
0
  6
Continuous
 62
     8
370
     0
100
AcDbLine
 10
36.7420446398
 20
89.5692163549
 30
0.0
 11
35.2466684105
 21
89.5692163549
 31
0.0
  0
ELLIPSE
  5
1B2
330
1F
100
AcDbEntity
  8
0
  6
Continuous
 62
     8
370
     0
100
AcDbEllipse
 10
41.2652221128
 20
89.532168434
 30
0.0
 11
4.268838543638765
 21
-4.268838543638751
 31
0.0
210
0.0
220
0.0
230
1.0
 40
0.9938630013
 41
2.359272424483097
 42
3.923912882696499
  0
LINE
  5
1B3
330
1F
100
AcDbEntity
  8
0
  6
Continuous
 62
     8
370
     0
100
AcDbLine
 10
41.2281733277
 20
94.0553450428
 30
0.0
 11
41.2281733277
 21
95.550721272
 31
0.0
  0
ELLIPSE
  5
1B4
330
1F
100
AcDbEntity
  8
0
  6
Continuous
 62
     8
370
     0
100
AcDbEllipse
 10
85.001287206
 20
89.532168434
 30
0.0
 11
-4.268838543638765
 21
-4.268838543638751
 31
0.0
210
0.0
220
0.0
230
1.0
 40
0.9938630013
 41
2.359272424483102
 42
3.923912882696501
  0
LINE
  5
1B5
330
1F
100
AcDbEntity
  8
0
  6
Continuous
 62
     8
370
     0
100
AcDbLine
 10
91.0198404724
 20
89.5692163549
 30
0.0
 11
89.5244642431
 21
89.5692163549
 31
0.0
  0
ELLIPSE
  5
1B6
330
1F
100
AcDbEntity
  8
0
  6
Continuous
 62
     8
370
     0
100
AcDbEllipse
 10
85.001287206
 20
89.532168434
 30
0.0
 11
3.214687641936081
 21
3.214687641936052
 31
0.0
210
0.0
220
0.0
230
1.0
 40
0.9898257217
 41
5.500865078072911
 42
7.065505536286284
  0
LINE
  5
1B7
330
1F
100
AcDbEntity
  8
0
  6
Continuous
 62
     8
370
     0
100
AcDbLine
 10
85.0383360209
 20
94.0553450428
 30
0.0
 11
85.0383360209
 21
95.550721272
 31
0.0
  0
LINE
  5
1B8
330
1F
100
AcDbEntity
  8
0
  6
Continuous
 62
     8
370
     0
100
AcDbLine
 10
85.0383360209
 20
94.0553450428
 30
0.0
 11
41.2281733277
 21
94.0553450428
 31
0.0
  0
LINE
  5
1B9
330
1F
100
AcDbEntity
  8
0
  6
Continuous
 62
     8
370
     0
100
AcDbLine
 10
41.2281733277
 20
95.550721272
 30
0.0
 11
85.0383360209
 21
95.550721272
 31
0.0
  0
LINE
  5
1BA
330
1F
100
AcDbEntity
  8
0
  6
Continuous
 62
     8
370
     0
100
AcDbLine
 10
92.7929305742
 20
42.9966614984
 30
0.0
 11
92.7929305742
 21
92.3316085182
 31
0.0
  0
ELLIPSE
  5
1BB
330
1F
100
AcDbEntity
  8
0
  6
Continuous
 62
     8
370
     0
100
AcDbEllipse
 10
87.7851223265
 20
43.0122682203
 30
0.0
 11
-3.546567990600252
 21
3.54656799060026
 31
0.0
210
0.0
220
0.0
230
1.0
 40
0.9968887993
 41
2.35775251292353
 42
3.925432794256071
  0
LINE
  5
1BC
330
1F
100
AcDbEntity
  8
0
  6
Continuous
 62
     8
370
     0
100
AcDbLine
 10
38.4657811644
 20
38.004459574
 30
0.0
 11
87.8007272529
 21
38.004459574
 31
0.0
  0
ELLIPSE
  5
1BD
330
1F
100
AcDbEntity
  8
0
  6
Continuous
 62
     8
370
     0
100
AcDbEllipse
 10
38.4813869923
 20
43.0122682203
 30
0.0
 11
3.546567990600252
 21
3.54656799060026
 31
0.0
210
0.0
220
0.0
230
1.0
 40
0.9968887993
 41
2.357752512923528
 42
3.925432794256069
  0
LINE
  5
1BE
330
1F
100
AcDbEntity
  8
0
  6
Continuous
 62
     8
370
     0
100
AcDbLine
 10
33.4735792401
 20
92.3316085182
 30
0.0
 11
33.4735792401
 21
42.9966614984
 31
0.0
  0
ELLIPSE
  5
1BF
330
1F
100
AcDbEntity
  8
0
  6
Continuous
 62
     8
370
     0
100
AcDbEllipse
 10
85.001287206
 20
45.7961033408
 30
0.0
 11
-4.268838543638765
 21
4.268838543638751
 31
0.0
210
0.0
220
0.0
230
1.0
 40
0.9938630013
 41
2.359272424483096
 42
3.923912882696498
  0
LINE
  5
1C0
330
1F
100
AcDbEntity
  8
0
  6
Continuous
 62
     8
370
     0
100
AcDbLine
 10
91.0198404724
 20
89.5692163549
 30
0.0
 11
91.0198404724
 21
45.7590536616
 31
0.0
  0
LINE
  5
1C1
330
1F
100
AcDbEntity
  8
0
  6
Continuous
 62
     8
370
     0
100
AcDbLine
 10
35.2466684105
 20
45.7590536616
 30
0.0
 11
35.2466684105
 21
89.5692163549
 31
0.0
  0
ELLIPSE
  5
1C2
330
1F
100
AcDbEntity
  8
0
  6
Continuous
 62
     8
370
     0
100
AcDbEllipse
 10
41.2652221128
 20
45.7961033408
 30
0.0
 11
4.268838543638765
 21
4.268838543638751
 31
0.0
210
0.0
220
0.0
230
1.0
 40
0.9938630013
 41
2.359272424483101
 42
3.923912882696502
  0
LINE
  5
1C3
330
1F
100
AcDbEntity
  8
0
  6
Continuous
 62
     8
370
     0
100
AcDbLine
 10
85.0383360209
 20
39.7775487445
 30
0.0
 11
41.2281733277
 21
39.7775487445
 31
0.0
  0
LINE
  5
1C4
330
1F
100
AcDbEntity
  8
0
  6
Continuous
 62
     8
370
     0
100
AcDbLine
 10
94.2929305872
 20
42.9966614984
 30
0.0
 11
92.7929305742
 21
42.9966614984
 31
0.0
  0
LINE
  5
1C5
330
1F
100
AcDbEntity
  8
0
  6
Continuous
 62
     8
370
     0
100
AcDbLine
 10
33.4735792401
 20
42.9966614984
 30
0.0
 11
31.9735762002
 21
42.9966614984
 31
0.0
  0
LINE
  5
1C6
330
1F
100
AcDbEntity
  8
0
  6
Continuous
 62
     8
370
     0
100
AcDbLine
 10
36.7420446398
 20
89.5692163549
 30
0.0
 11
36.7420446398
 21
45.7590536616
 31
0.0
  0
LINE
  5
1C7
330
1F
100
AcDbEntity
  8
0
  6
Continuous
 62
     8
370
     0
100
AcDbLine
 10
36.7420446398
 20
45.7590536616
 30
0.0
 11
35.2466684105
 21
45.7590536616
 31
0.0
  0
LINE
  5
1C8
330
1F
100
AcDbEntity
  8
0
  6
Continuous
 62
     8
370
     0
100
AcDbLine
 10
91.0198404724
 20
45.7590536616
 30
0.0
 11
89.5244642431
 21
45.7590536616
 31
0.0
  0
LINE
  5
1C9
330
1F
100
AcDbEntity
  8
0
  6
Continuous
 62
     8
370
     0
100
AcDbLine
 10
89.5244642431
 20
45.7590536616
 30
0.0
 11
89.5244642431
 21
89.5692163549
 31
0.0
  0
LINE
  5
1CA
330
1F
100
AcDbEntity
  8
0
  6
Continuous
 62
     8
370
     0
100
AcDbLine
 10
87.8007272529
 20
36.5044565342
 30
0.0
 11
87.8007272529
 21
38.004459574
 31
0.0
  0
LINE
  5
1CB
330
1F
100
AcDbEntity
  8
0
  6
Continuous
 62
     8
370
     0
100
AcDbLine
 10
85.0383360209
 20
39.7775487445
 30
0.0
 11
85.0383360209
 21
41.2729249738
 31
0.0
  0
ELLIPSE
  5
1CC
330
1F
100
AcDbEntity
  8
0
  6
Continuous
 62
     8
370
     0
100
AcDbEllipse
 10
85.001287206
 20
45.7961033408
 30
0.0
 11
3.214687641936081
 21
-3.214687641936067
 31
0.0
210
0.0
220
0.0
230
1.0
 40
0.9898257217
 41
5.5008650780729
 42
7.065505536286278
  0
ELLIPSE
  5
1CD
330
1F
100
AcDbEntity
  8
0
  6
Continuous
 62
     8
370
     0
100
AcDbEllipse
 10
41.2652221128
 20
45.7961033408
 30
0.0
 11
3.214687641936081
 21
3.214687641936059
 31
0.0
210
0.0
220
0.0
230
1.0
 40
0.9898257217
 41
2.359272424483103
 42
3.923912882696504
  0
LINE
  5
1CE
330
1F
100
AcDbEntity
  8
0
  6
Continuous
 62
     8
370
     0
100
AcDbLine
 10
41.2281733277
 20
39.7775487445
 30
0.0
 11
41.2281733277
 21
41.2729249738
 31
0.0
  0
LINE
  5
1CF
330
1F
100
AcDbEntity
  8
0
  6
Continuous
 62
     8
370
     0
100
AcDbLine
 10
38.4657811644
 20
36.5044565342
 30
0.0
 11
38.4657811644
 21
38.004459574
 31
0.0
  0
LINE
  5
1D0
330
1F
100
AcDbEntity
  8
0
  6
Continuous
 62
     8
370
     0
100
AcDbLine
 10
41.2281733277
 20
41.2729249738
 30
0.0
 11
85.0383360209
 21
41.2729249738
 31
0.0
  0
ARC
  5
1D1
330
1F
100
AcDbEntity
  8
0
  6
Continuous
 62
     8
370
     0
100
AcDbCircle
 10
79.4899240857
 20
84.0208062824
 30
0.0
 40
4.518576110379942
100
AcDbArc
 50
0.4099717585
 51
89.5900282415
  0
LINE
  5
1D2
330
1F
100
AcDbEntity
  8
0
  6
Continuous
 62
     8
370
     0
100
AcDbLine
 10
79.5222558352
 20
88.5392667196
 30
0.0
 11
85.0383360209
 21
94.0553450428
 31
0.0
  0
LINE
  5
1D3
330
1F
100
AcDbEntity
  8
0
  6
Continuous
 62
     8
370
     0
100
AcDbLine
 10
89.5244642431
 20
89.5692163549
 30
0.0
 11
84.008384523
 21
84.0531380318
 31
0.0
  0
ARC
  5
1D4
330
1F
100
AcDbEntity
  8
0
  6
Continuous
 62
     8
370
     0
100
AcDbCircle
 10
46.7765842878
 20
84.0208091469
 30
0.0
 40
4.51857325222103
100
AcDbArc
 50
90.4099832723
 51
179.5900643062
  0
LINE
  5
1D5
330
1F
100
AcDbEntity
  8
0
  6
Continuous
 62
     8
370
     0
100
AcDbLine
 10
42.2581266882
 20
84.0531380318
 30
0.0
 11
36.7420446398
 21
89.5692163549
 31
0.0
  0
LINE
  5
1D6
330
1F
100
AcDbEntity
  8
0
  6
Continuous
 62
     8
370
     0
100
AcDbLine
 10
41.2281733277
 20
94.0553450428
 30
0.0
 11
46.7442516508
 21
88.5392667196
 31
0.0
  0
ARC
  5
1D7
330
1F
100
AcDbEntity
  8
0
  6
Continuous
 62
     8
370
     0
100
AcDbCircle
 10
79.4899305107
 20
51.3074610345
 30
0.0
 40
4.51856963956646
100
AcDbArc
 50
270.4098908739
 51
359.5901091261
  0
LINE
  5
1D8
330
1F
100
AcDbEntity
  8
0
  6
Continuous
 62
     8
370
     0
100
AcDbLine
 10
84.008384523
 20
51.2751357101
 30
0.0
 11
89.5244642431
 21
45.7590536616
 31
0.0
  0
LINE
  5
1D9
330
1F
100
AcDbEntity
  8
0
  6
Continuous
 62
     8
370
     0
100
AcDbLine
 10
85.0383360209
 20
41.2729249738
 30
0.0
 11
79.5222558352
 21
46.7890070222
 31
0.0
  0
ARC
  5
1DA
330
1F
100
AcDbEntity
  8
0
  6
Continuous
 62
     8
370
     0
100
AcDbCircle
 10
46.7765738395
 20
51.3074541466
 30
0.0
 40
4.518562729425449
100
AcDbArc
 50
180.4098041595
 51
269.5901482619
  0
LINE
  5
1DB
330
1F
100
AcDbEntity
  8
0
  6
Continuous
 62
     8
370
     0
100
AcDbLine
 10
46.7442516508
 20
46.7890070222
 30
0.0
 11
41.2281733277
 21
41.2729249738
 31
0.0
  0
LINE
  5
1DC
330
1F
100
AcDbEntity
  8
0
  6
Continuous
 62
     8
370
     0
100
AcDbLine
 10
36.7420446398
 20
45.7590536616
 30
0.0
 11
42.2581266882
 21
51.2751357101
 31
0.0
  0
LINE
  5
1DD
330
1F
100
AcDbEntity
  8
0
  6
Continuous
 62
     8
370
     0
100
AcDbLine
 10
46.7442516508
 20
88.5392667196
 30
0.0
 11
79.5222558352
 21
88.5392667196
 31
0.0
  0
LINE
  5
1DE
330
1F
100
AcDbEntity
  8
0
  6
Continuous
 62
     8
370
     0
100
AcDbLine
 10
42.2581266882
 20
51.2751357101
 30
0.0
 11
42.2581266882
 21
84.0531380318
 31
0.0
  0
LINE
  5
1DF
330
1F
100
AcDbEntity
  8
0
  6
Continuous
 62
     8
370
     0
100
AcDbLine
 10
84.008384523
 20
84.0531380318
 30
0.0
 11
84.008384523
 21
51.2751357101
 31
0.0
  0
LINE
  5
1E0
330
1F
100
AcDbEntity
  8
0
  6
Continuous
 62
     8
370
     0
100
AcDbLine
 10
79.5222558352
 20
46.7890070222
 30
0.0
 11
46.7442516508
 21
46.7890070222
 31
0.0
  0
LWPOLYLINE
  5
1E1
330
1F
100
AcDbEntity
  8
0
  6
Continuous
 62
     8
370
     0
100
AcDbPolyline
 90
       16
 70
   128
 43
0.0
 10
78.0268796059
 20
82.5577618025
 10
78.6227993938
 20
82.7067398868
 10
79.2128239097
 20
82.8542464815
 10
79.7911230745
 20
82.9988212727
 10
80.3519729795
 20
83.1390337489
 10
80.8898322555
 20
83.2734981022
 10
81.3993811878
 20
83.4008881293
 10
81.8755785274
 20
83.5199372314
 10
82.3137164386
 20
83.629471942
 10
82.7094624089
 20
83.7284082017
 10
83.0589039522
 20
83.8157662592
 10
83.3585839989
 20
83.8906855724
 10
83.6055390807
 20
83.9524248086
 10
83.7973282012
 20
84.00037302
 10
83.9320542561
 20
84.0340533696
 10
84.008384523
 20
84.0531380318
  0
LWPOLYLINE
  5
1E2
330
1F
100
AcDbEntity
  8
0
  6
Continuous
 62
     8
370
     0
100
AcDbPolyline
 90
       16
 70
   128
 43
0.0
 10
79.5222558352
 20
88.5392667196
 10
79.5031730356
 20
88.4629355214
 10
79.469492686
 20
88.3282103978
 10
79.4215444746
 20
88.1364212773
 10
79.3598052385
 20
87.8894643329
 10
79.2848859253
 20
87.5897833548
 10
79.1975260051
 20
87.2403436742
 10
79.0985897454
 20
86.8445986352
 10
78.9890550347
 20
86.4064597927
 10
78.8700059327
 20
85.9302633844
 10
78.7426177683
 20
85.4207144521
 10
78.6081534149
 20
84.8828533135
 10
78.4679409387
 20
84.3220034085
 10
78.3233661475
 20
83.7437042437
 10
78.1758595528
 20
83.1536815904
 10
78.0268796059
 20
82.5577618025
  0
LWPOLYLINE
  5
1E3
330
1F
100
AcDbEntity
  8
0
  6
Continuous
 62
     8
370
     0
100
AcDbPolyline
 90
       16
 70
   128
 43
0.0
 10
46.7442516508
 20
88.5392667196
 10
46.763336313
 20
88.4629355214
 10
46.7970166626
 20
88.3282103978
 10
46.844964874
 20
88.1364212773
 10
46.9067041101
 20
87.8894643329
 10
46.9816234233
 20
87.5897833548
 10
47.0689852061
 20
87.2403436742
 10
47.1679214659
 20
86.8445986352
 10
47.2774561765
 20
86.4064597927
 10
47.3965052786
 20
85.9302633844
 10
47.5238915803
 20
85.4207144521
 10
47.6583559337
 20
84.8828533135
 10
47.7985684099
 20
84.3220034085
 10
47.9431432011
 20
83.7437042437
 10
48.0906497958
 20
83.1536815904
 10
48.2396278801
 20
82.5577618025
  0
LWPOLYLINE
  5
1E4
330
1F
100
AcDbEntity
  8
0
  6
Continuous
 62
     8
370
     0
100
AcDbPolyline
 90
       16
 70
   128
 43
0.0
 10
42.2581266882
 20
84.0531380318
 10
42.3344541612
 20
84.0340533696
 10
42.4691830101
 20
84.00037302
 10
42.6609684052
 20
83.9524248086
 10
42.9079253497
 20
83.8906855724
 10
43.2076063278
 20
83.8157662592
 10
43.5570460083
 20
83.7284082017
 10
43.9527947726
 20
83.629471942
 10
44.3909298899
 20
83.5199372314
 10
44.8671300235
 20
83.4008881293
 10
45.3766752305
 20
83.2734981022
 10
45.9145363691
 20
83.1390337489
 10
46.4753862741
 20
82.9988212727
 10
47.0536854389
 20
82.8542464815
 10
47.6437118175
 20
82.7067398868
 10
48.2396278801
 20
82.5577618025
  0
LINE
  5
1E5
330
1F
100
AcDbEntity
  8
0
  6
Continuous
 62
     8
370
     0
100
AcDbLine
 10
78.0268796059
 20
82.5577618025
 30
0.0
 11
48.2396278801
 21
82.5577618025
 31
0.0
  0
LINE
  5
1E6
330
1F
100
AcDbEntity
  8
0
  6
Continuous
 62
     8
370
     0
100
AcDbLine
 10
48.2396278801
 20
82.5577618025
 30
0.0
 11
48.2396278801
 21
52.7705119393
 31
0.0
  0
LWPOLYLINE
  5
1E7
330
1F
100
AcDbEntity
  8
0
  6
Continuous
 62
     8
370
     0
100
AcDbPolyline
 90
       16
 70
   128
 43
0.0
 10
42.2581266882
 20
51.2751357101
 10
42.3344541612
 20
51.294216647
 10
42.4691830101
 20
51.3279007218
 10
42.6609684052
 20
51.375845208
 10
42.9079253497
 20
51.4375807188
 10
43.2076063278
 20
51.5125037573
 10
43.5570460083
 20
51.5998618148
 10
43.9527947726
 20
51.6987980745
 10
44.3909298899
 20
51.8083365105
 10
44.8671300235
 20
51.9273818872
 10
45.3766752305
 20
52.0547719143
 10
45.9145363691
 20
52.1892399929
 10
46.4753862741
 20
52.3294524692
 10
47.0536854389
 20
52.4740235351
 10
47.6437118175
 20
52.6215301297
 10
48.2396278801
 20
52.7705119393
  0
LINE
  5
1E8
330
1F
100
AcDbEntity
  8
0
  6
Continuous
 62
     8
370
     0
100
AcDbLine
 10
78.0268796059
 20
52.7705119393
 30
0.0
 11
78.0268796059
 21
82.5577618025
 31
0.0
  0
LWPOLYLINE
  5
1E9
330
1F
100
AcDbEntity
  8
0
  6
Continuous
 62
     8
370
     0
100
AcDbPolyline
 90
       16
 70
   128
 43
0.0
 10
78.0268796059
 20
52.7705119393
 10
78.6227993938
 20
52.6215301297
 10
79.2128239097
 20
52.4740235351
 10
79.7911230745
 20
52.3294524692
 10
80.3519729795
 20
52.1892399929
 10
80.8898322555
 20
52.0547719143
 10
81.3993811878
 20
51.9273818872
 10
81.8755785274
 20
51.8083365105
 10
82.3137164386
 20
51.6987980745
 10
82.7094624089
 20
51.5998618148
 10
83.0589039522
 20
51.5125037573
 10
83.3585839989
 20
51.4375807188
 10
83.6055390807
 20
51.375845208
 10
83.7973282012
 20
51.3279007218
 10
83.9320542561
 20
51.294216647
 10
84.008384523
 20
51.2751357101
  0
LWPOLYLINE
  5
1EA
330
1F
100
AcDbEntity
  8
0
  6
Continuous
 62
     8
370
     0
100
AcDbPolyline
 90
       16
 70
   128
 43
0.0
 10
48.2396278801
 20
52.7705119393
 10
48.0906497958
 20
52.1745921515
 10
47.9431432011
 20
51.5845657728
 10
47.7985684099
 20
51.0062666081
 10
47.6583559337
 20
50.445416703
 10
47.5238915803
 20
49.9075592897
 10
47.3965052786
 20
49.3980066321
 10
47.2774561765
 20
48.9218102239
 10
47.1679214659
 20
48.4836713813
 10
47.0689852061
 20
48.0879263423
 10
46.9816234233
 20
47.7384866617
 10
46.9067041101
 20
47.438809409
 10
46.844964874
 20
47.1918524645
 10
46.7970166626
 20
47.0000596188
 10
46.763336313
 20
46.8653382204
 10
46.7442516508
 20
46.7890070222
  0
LINE
  5
1EB
330
1F
100
AcDbEntity
  8
0
  6
Continuous
 62
     8
370
     0
100
AcDbLine
 10
78.0268796059
 20
52.7705119393
 30
0.0
 11
79.5222558352
 21
46.7890070222
 31
0.0
  0
LINE
  5
1EC
330
1F
100
AcDbEntity
  8
0
  6
Continuous
 62
     8
370
     0
100
AcDbLine
 10
48.2396278801
 20
52.7705119393
 30
0.0
 11
78.0268796059
 21
52.7705119393
 31
0.0
  0
LINE
  5
1ED
330
1F
100
AcDbEntity
  8
0
  6
Continuous
 62
     8
370
     0
100
AcDbLine
 10
155.8007281544
 20
97.3238123051
 30
0.0
 11
106.4657820659
 21
97.3238123051
 31
0.0
  0
LINE
  5
1EE
330
1F
100
AcDbEntity
  8
0
  6
Continuous
 62
     8
370
     0
100
AcDbLine
 10
106.4657820659
 20
97.3238123051
 30
0.0
 11
106.4657820659
 21
98.8238116197
 31
0.0
  0
LINE
  5
1EF
330
1F
100
AcDbEntity
  8
0
  6
Continuous
 62
     8
370
     0
100
AcDbLine
 10
155.8007281544
 20
97.3238123051
 30
0.0
 11
155.8007281544
 21
98.8238116197
 31
0.0
  0
ELLIPSE
  5
1F0
330
1F
100
AcDbEntity
  8
0
  6
Continuous
 62
     8
370
     0
100
AcDbEllipse
 10
155.7851223265
 20
92.3160035545
 30
0.0
 11
-3.546567990600266
 21
-3.546567990600252
 31
0.0
210
0.0
220
0.0
230
1.0
 40
0.9968887993
 41
2.357752512923526
 42
3.925432794256078
  0
LINE
  5
1F1
330
1F
100
AcDbEntity
  8
0
  6
Continuous
 62
     8
370
     0
100
AcDbLine
 10
162.2929331186
 20
92.3316085182
 30
0.0
 11
160.7929300787
 21
92.3316085182
 31
0.0
  0
ELLIPSE
  5
1F2
330
1F
100
AcDbEntity
  8
0
  6
Continuous
 62
     8
370
     0
100
AcDbEllipse
 10
106.4813869923
 20
92.3160035545
 30
0.0
 11
3.546567990600252
 21
-3.546567990600252
 31
0.0
210
0.0
220
0.0
230
0.9999999999999998
 40
0.9968887993
 41
2.35775251292353
 42
3.92543279425607
  0
LINE
  5
1F3
330
1F
100
AcDbEntity
  8
0
  6
Continuous
 62
     8
370
     0
100
AcDbLine
 10
101.4735787446
 20
92.3316085182
 30
0.0
 11
99.9735787316
 21
92.3316085182
 31
0.0
  0
LINE
  5
1F4
330
1F
100
AcDbEntity
  8
0
  6
Continuous
 62
     8
370
     0
100
AcDbLine
 10
160.7929300787
 20
42.9966614984
 30
0.0
 11
160.7929300787
 21
92.3316085182
 31
0.0
  0
ELLIPSE
  5
1F5
330
1F
100
AcDbEntity
  8
0
  6
Continuous
 62
     8
370
     0
100
AcDbEllipse
 10
155.7851223265
 20
43.0122682203
 30
0.0
 11
-3.546567990600266
 21
3.546567990600252
 31
0.0
210
0.0
220
0.0
230
1.0
 40
0.9968887993
 41
2.357752512923526
 42
3.925432794256066
  0
LINE
  5
1F6
330
1F
100
AcDbEntity
  8
0
  6
Continuous
 62
     8
370
     0
100
AcDbLine
 10
106.4657820659
 20
38.004459574
 30
0.0
 11
155.8007281544
 21
38.004459574
 31
0.0
  0
ELLIPSE
  5
1F7
330
1F
100
AcDbEntity
  8
0
  6
Continuous
 62
     8
370
     0
100
AcDbEllipse
 10
106.4813869923
 20
43.0122682203
 30
0.0
 11
3.546567990600252
 21
3.546567990600252
 31
0.0
210
0.0
220
0.0
230
0.9999999999999998
 40
0.9968887993
 41
2.357752512923528
 42
3.925432794256073
  0
LINE
  5
1F8
330
1F
100
AcDbEntity
  8
0
  6
Continuous
 62
     8
370
     0
100
AcDbLine
 10
101.4735787446
 20
92.3316085182
 30
0.0
 11
101.4735787446
 21
42.9966614984
 31
0.0
  0
ELLIPSE
  5
1F9
330
1F
100
AcDbEntity
  8
0
  6
Continuous
 62
     8
370
     0
100
AcDbEllipse
 10
153.001287206
 20
45.7961033408
 30
0.0
 11
-4.268838543638765
 21
4.268838543638758
 31
0.0
210
0.0
220
0.0
230
1.0
 40
0.9938630013
 41
2.359272424483094
 42
3.923912882696501
  0
LINE
  5
1FA
330
1F
100
AcDbEntity
  8
0
  6
Continuous
 62
     8
370
     0
100
AcDbLine
 10
159.0198409083
 20
89.5692163549
 30
0.0
 11
159.0198409083
 21
45.7590536616
 31
0.0
  0
ELLIPSE
  5
1FB
330
1F
100
AcDbEntity
  8
0
  6
Continuous
 62
     8
370
     0
100
AcDbEllipse
 10
153.001287206
 20
89.532168434
 30
0.0
 11
-4.268838543638765
 21
-4.268838543638751
 31
0.0
210
0.0
220
0.0
230
1.0
 40
0.9938630013
 41
2.359272424483101
 42
3.9239128826965
  0
LINE
  5
1FC
330
1F
100
AcDbEntity
  8
0
  6
Continuous
 62
     8
370
     0
100
AcDbLine
 10
109.2281732979
 20
95.550721272
 30
0.0
 11
153.0383359911
 21
95.550721272
 31
0.0
  0
ELLIPSE
  5
1FD
330
1F
100
AcDbEntity
  8
0
  6
Continuous
 62
     8
370
     0
100
AcDbEllipse
 10
109.2652221128
 20
89.532168434
 30
0.0
 11
4.268838543638779
 21
-4.26883854363875
 31
0.0
210
0.0
220
0.0
230
1.0
 40
0.9938630013
 41
2.359272424483093
 42
3.923912882696498
  0
LINE
  5
1FE
330
1F
100
AcDbEntity
  8
0
  6
Continuous
 62
     8
370
     0
100
AcDbLine
 10
103.2466688464
 20
45.7590536616
 30
0.0
 11
103.2466688464
 21
89.5692163549
 31
0.0
  0
ELLIPSE
  5
1FF
330
1F
100
AcDbEntity
  8
0
  6
Continuous
 62
     8
370
     0
100
AcDbEllipse
 10
109.2652221128
 20
45.7961033408
 30
0.0
 11
4.268838543638765
 21
4.268838543638758
 31
0.0
210
0.0
220
0.0
230
1.0
 40
0.9938630013
 41
2.3592724244831
 42
3.923912882696501
  0
LINE
  5
200
330
1F
100
AcDbEntity
  8
0
  6
Continuous
 62
     8
370
     0
100
AcDbLine
 10
153.0383359911
 20
39.7775487445
 30
0.0
 11
109.2281732979
 21
39.7775487445
 31
0.0
  0
LINE
  5
201
330
1F
100
AcDbEntity
  8
0
  6
Continuous
 62
     8
370
     0
100
AcDbLine
 10
153.0383359911
 20
94.0553450428
 30
0.0
 11
109.2281732979
 21
94.0553450428
 31
0.0
  0
LINE
  5
202
330
1F
100
AcDbEntity
  8
0
  6
Continuous
 62
     8
370
     0
100
AcDbLine
 10
109.2281732979
 20
94.0553450428
 30
0.0
 11
109.2281732979
 21
95.550721272
 31
0.0
  0
LINE
  5
203
330
1F
100
AcDbEntity
  8
0
  6
Continuous
 62
     8
370
     0
100
AcDbLine
 10
153.0383359911
 20
94.0553450428
 30
0.0
 11
153.0383359911
 21
95.550721272
 31
0.0
  0
ELLIPSE
  5
204
330
1F
100
AcDbEntity
  8
0
  6
Continuous
 62
     8
370
     0
100
AcDbEllipse
 10
109.2652221128
 20
89.532168434
 30
0.0
 11
3.214687641936081
 21
-3.214687641936052
 31
0.0
210
0.0
220
0.0
230
1.0
 40
0.9898257217
 41
2.359272424483094
 42
3.923912882696494
  0
LINE
  5
205
330
1F
100
AcDbEntity
  8
0
  6
Continuous
 62
     8
370
     0
100
AcDbLine
 10
104.7420450757
 20
89.5692163549
 30
0.0
 11
103.2466688464
 21
89.5692163549
 31
0.0
  0
LINE
  5
206
330
1F
100
AcDbEntity
  8
0
  6
Continuous
 62
     8
370
     0
100
AcDbLine
 10
159.0198409083
 20
89.5692163549
 30
0.0
 11
157.524464679
 21
89.5692163549
 31
0.0
  0
ELLIPSE
  5
207
330
1F
100
AcDbEntity
  8
0
  6
Continuous
 62
     8
370
     0
100
AcDbEllipse
 10
153.001287206
 20
89.532168434
 30
0.0
 11
3.214687641936081
 21
3.214687641936052
 31
0.0
210
0.0
220
0.0
230
1.0
 40
0.9898257217
 41
5.50086507807291
 42
7.065505536286283
  0
LINE
  5
208
330
1F
100
AcDbEntity
  8
0
  6
Continuous
 62
     8
370
     0
100
AcDbLine
 10
162.2929331186
 20
42.9966614984
 30
0.0
 11
160.7929300787
 21
42.9966614984
 31
0.0
  0
LINE
  5
209
330
1F
100
AcDbEntity
  8
0
  6
Continuous
 62
     8
370
     0
100
AcDbLine
 10
101.4735787446
 20
42.9966614984
 30
0.0
 11
99.9735787316
 21
42.9966614984
 31
0.0
  0
LINE
  5
20A
330
1F
100
AcDbEntity
  8
0
  6
Continuous
 62
     8
370
     0
100
AcDbLine
 10
104.7420450757
 20
89.5692163549
 30
0.0
 11
104.7420450757
 21
45.7590536616
 31
0.0
  0
LINE
  5
20B
330
1F
100
AcDbEntity
  8
0
  6
Continuous
 62
     8
370
     0
100
AcDbLine
 10
104.7420450757
 20
45.7590536616
 30
0.0
 11
103.2466688464
 21
45.7590536616
 31
0.0
  0
LINE
  5
20C
330
1F
100
AcDbEntity
  8
0
  6
Continuous
 62
     8
370
     0
100
AcDbLine
 10
159.0198409083
 20
45.7590536616
 30
0.0
 11
157.524464679
 21
45.7590536616
 31
0.0
  0
LINE
  5
20D
330
1F
100
AcDbEntity
  8
0
  6
Continuous
 62
     8
370
     0
100
AcDbLine
 10
157.524464679
 20
45.7590536616
 30
0.0
 11
157.524464679
 21
89.5692163549
 31
0.0
  0
LINE
  5
20E
330
1F
100
AcDbEntity
  8
0
  6
Continuous
 62
     8
370
     0
100
AcDbLine
 10
106.4657820659
 20
36.5044565342
 30
0.0
 11
106.4657820659
 21
38.004459574
 31
0.0
  0
ELLIPSE
  5
20F
330
1F
100
AcDbEntity
  8
0
  6
Continuous
 62
     8
370
     0
100
AcDbEllipse
 10
109.2652221128
 20
45.7961033408
 30
0.0
 11
3.214687641936081
 21
3.214687641936059
 31
0.0
210
0.0
220
0.0
230
1.0
 40
0.9898257217
 41
2.359272424483103
 42
3.923912882696504
  0
LINE
  5
210
330
1F
100
AcDbEntity
  8
0
  6
Continuous
 62
     8
370
     0
100
AcDbLine
 10
109.2281732979
 20
39.7775487445
 30
0.0
 11
109.2281732979
 21
41.2729249738
 31
0.0
  0
LINE
  5
211
330
1F
100
AcDbEntity
  8
0
  6
Continuous
 62
     8
370
     0
100
AcDbLine
 10
153.0383359911
 20
39.7775487445
 30
0.0
 11
153.0383359911
 21
41.2729249738
 31
0.0
  0
ELLIPSE
  5
212
330
1F
100
AcDbEntity
  8
0
  6
Continuous
 62
     8
370
     0
100
AcDbEllipse
 10
153.001287206
 20
45.7961033408
 30
0.0
 11
3.214687641936081
 21
-3.214687641936059
 31
0.0
210
0.0
220
0.0
230
1.0
 40
0.9898257217
 41
5.500865078072899
 42
7.065505536286278
  0
LINE
  5
213
330
1F
100
AcDbEntity
  8
0
  6
Continuous
 62
     8
370
     0
100
AcDbLine
 10
155.8007281544
 20
36.5044565342
 30
0.0
 11
155.8007281544
 21
38.004459574
 31
0.0
  0
LINE
  5
214
330
1F
100
AcDbEntity
  8
0
  6
Continuous
 62
     8
370
     0
100
AcDbLine
 10
109.2281732979
 20
41.2729249738
 30
0.0
 11
153.0383359911
 21
41.2729249738
 31
0.0
  0
ARC
  5
215
330
1F
100
AcDbEntity
  8
0
  6
Continuous
 62
     8
370
     0
100
AcDbCircle
 10
147.4899252931
 20
84.020809409
 30
0.0
 40
4.518572988322154
100
AcDbArc
 50
0.4099323951
 51
89.5900200264
  0
LINE
  5
216
330
1F
100
AcDbEntity
  8
0
  6
Continuous
 62
     8
370
     0
100
AcDbLine
 10
147.522257668
 20
88.5392667196
 30
0.0
 11
153.0383359911
 21
94.0553450428
 31
0.0
  0
LINE
  5
217
330
1F
100
AcDbEntity
  8
0
  6
Continuous
 62
     8
370
     0
100
AcDbLine
 10
157.524464679
 20
89.5692163549
 30
0.0
 11
152.0083826306
 21
84.0531380318
 31
0.0
  0
ARC
  5
218
330
1F
100
AcDbEntity
  8
0
  6
Continuous
 62
     8
370
     0
100
AcDbCircle
 10
114.7765869565
 20
84.0208045589
 30
0.0
 40
4.518577846120401
100
AcDbArc
 50
90.409993455
 51
179.590006545
  0
LINE
  5
219
330
1F
100
AcDbEntity
  8
0
  6
Continuous
 62
     8
370
     0
100
AcDbLine
 10
110.2581247958
 20
84.0531380318
 30
0.0
 11
104.7420450757
 21
89.5692163549
 31
0.0
  0
LINE
  5
21A
330
1F
100
AcDbEntity
  8
0
  6
Continuous
 62
     8
370
     0
100
AcDbLine
 10
109.2281732979
 20
94.0553450428
 30
0.0
 11
114.7442534836
 21
88.5392667196
 31
0.0
  0
ARC
  5
21B
330
1F
100
AcDbEntity
  8
0
  6
Continuous
 62
     8
370
     0
100
AcDbCircle
 10
147.4899331795
 20
51.3074564464
 30
0.0
 40
4.518565045685888
100
AcDbArc
 50
270.4098806913
 51
359.5901668873
  0
LINE
  5
21C
330
1F
100
AcDbEntity
  8
0
  6
Continuous
 62
     8
370
     0
100
AcDbLine
 10
152.0083826306
 20
51.2751357101
 30
0.0
 11
157.524464679
 21
45.7590536616
 31
0.0
  0
LINE
  5
21D
330
1F
100
AcDbEntity
  8
0
  6
Continuous
 62
     8
370
     0
100
AcDbLine
 10
153.0383359911
 20
41.2729249738
 30
0.0
 11
147.522257668
 21
46.7890070222
 31
0.0
  0
ARC
  5
21E
330
1F
100
AcDbEntity
  8
0
  6
Continuous
 62
     8
370
     0
100
AcDbCircle
 10
114.7765750468
 20
51.3074572732
 30
0.0
 40
4.518565851466215
100
AcDbArc
 50
180.4098435229
 51
269.5901564771
  0
LINE
  5
21F
330
1F
100
AcDbEntity
  8
0
  6
Continuous
 62
     8
370
     0
100
AcDbLine
 10
114.7442534836
 20
46.7890070222
 30
0.0
 11
109.2281732979
 21
41.2729249738
 31
0.0
  0
LINE
  5
220
330
1F
100
AcDbEntity
  8
0
  6
Continuous
 62
     8
370
     0
100
AcDbLine
 10
104.7420450757
 20
45.7590536616
 30
0.0
 11
110.2581247958
 21
51.2751357101
 31
0.0
  0
LINE
  5
221
330
1F
100
AcDbEntity
  8
0
  6
Continuous
 62
     8
370
     0
100
AcDbLine
 10
114.7442534836
 20
88.5392667196
 30
0.0
 11
147.522257668
 21
88.5392667196
 31
0.0
  0
LINE
  5
222
330
1F
100
AcDbEntity
  8
0
  6
Continuous
 62
     8
370
     0
100
AcDbLine
 10
152.0083826306
 20
84.0531380318
 30
0.0
 11
152.0083826306
 21
51.2751357101
 31
0.0
  0
LINE
  5
223
330
1F
100
AcDbEntity
  8
0
  6
Continuous
 62
     8
370
     0
100
AcDbLine
 10
110.2581247958
 20
51.2751357101
 30
0.0
 11
110.2581247958
 21
84.0531380318
 31
0.0
  0
LINE
  5
224
330
1F
100
AcDbEntity
  8
0
  6
Continuous
 62
     8
370
     0
100
AcDbLine
 10
147.522257668
 20
46.7890070222
 30
0.0
 11
114.7442534836
 21
46.7890070222
 31
0.0
  0
LWPOLYLINE
  5
225
330
1F
100
AcDbEntity
  8
0
  6
Continuous
 62
     8
370
     0
100
AcDbPolyline
 90
       16
 70
   128
 43
0.0
 10
147.522257668
 20
88.5392667196
 10
147.5031730058
 20
88.4629355214
 10
147.4694926562
 20
88.3282103978
 10
147.4215444448
 20
88.1364212773
 10
147.3598052087
 20
87.8894643329
 10
147.2848858955
 20
87.5897833548
 10
147.1975241127
 20
87.2403436742
 10
147.0985878529
 20
86.8445986352
 10
146.9890531423
 20
86.4064597927
 10
146.8700040402
 20
85.9302633844
 10
146.7426177385
 20
85.4207144521
 10
146.6081533851
 20
84.8828533135
 10
146.4679409089
 20
84.3220034085
 10
146.3233661177
 20
83.7437042437
 10
146.175859523
 20
83.1536815904
 10
146.0268814387
 20
82.5577618025
  0
LINE
  5
226
330
1F
100
AcDbEntity
  8
0
  6
Continuous
 62
     8
370
     0
100
AcDbLine
 10
146.0268814387
 20
82.5577618025
 30
0.0
 11
116.2396297129
 21
82.5577618025
 31
0.0
  0
LWPOLYLINE
  5
227
330
1F
100
AcDbEntity
  8
0
  6
Continuous
 62
     8
370
     0
100
AcDbPolyline
 90
       16
 70
   128
 43
0.0
 10
114.7442534836
 20
88.5392667196
 10
114.7633362832
 20
88.4629355214
 10
114.7970166328
 20
88.3282103978
 10
114.8449648442
 20
88.1364212773
 10
114.9067040803
 20
87.8894643329
 10
114.9816233935
 20
87.5897833548
 10
115.0689833137
 20
87.2403436742
 10
115.1679195734
 20
86.8445986352
 10
115.2774542841
 20
86.4064597927
 10
115.3965033861
 20
85.9302633844
 10
115.5238915505
 20
85.4207144521
 10
115.6583559038
 20
84.8828533135
 10
115.7985683801
 20
84.3220034085
 10
115.9431431713
 20
83.7437042437
 10
116.090649766
 20
83.1536815904
 10
116.2396297129
 20
82.5577618025
  0
LWPOLYLINE
  5
228
330
1F
100
AcDbEntity
  8
0
  6
Continuous
 62
     8
370
     0
100
AcDbPolyline
 90
       16
 70
   128
 43
0.0
 10
110.2581247958
 20
84.0531380318
 10
110.3344550627
 20
84.0340533696
 10
110.4691811176
 20
84.00037302
 10
110.6609702381
 20
83.9524248086
 10
110.9079253199
 20
83.8906855724
 10
111.2076053666
 20
83.8157662592
 10
111.5570469099
 20
83.7284082017
 10
111.9527928802
 20
83.629471942
 10
112.3909307914
 20
83.5199372314
 10
112.867128131
 20
83.4008881293
 10
113.3766770633
 20
83.2734981022
 10
113.9145363393
 20
83.1390337489
 10
114.4753862443
 20
82.9988212727
 10
115.0536854091
 20
82.8542464815
 10
115.643709925
 20
82.7067398868
 10
116.2396297129
 20
82.5577618025
  0
LWPOLYLINE
  5
229
330
1F
100
AcDbEntity
  8
0
  6
Continuous
 62
     8
370
     0
100
AcDbPolyline
 90
       16
 70
   128
 43
0.0
 10
146.0268814387
 20
82.5577618025
 10
146.6227975013
 20
82.7067398868
 10
147.2128238799
 20
82.8542464815
 10
147.7911230447
 20
82.9988212727
 10
148.3519729497
 20
83.1390337489
 10
148.8898340883
 20
83.2734981022
 10
149.3993792953
 20
83.4008881293
 10
149.8755794289
 20
83.5199372314
 10
150.3137145462
 20
83.629471942
 10
150.7094633105
 20
83.7284082017
 10
151.058902991
 20
83.8157662592
 10
151.3585839691
 20
83.8906855724
 10
151.6055409136
 20
83.9524248086
 10
151.7973263087
 20
84.00037302
 10
151.9320551576
 20
84.0340533696
 10
152.0083826306
 20
84.0531380318
  0
LINE
  5
22A
330
1F
100
AcDbEntity
  8
0
  6
Continuous
 62
     8
370
     0
100
AcDbLine
 10
116.2396297129
 20
82.5577618025
 30
0.0
 11
116.2396297129
 21
52.7705119393
 31
0.0
  0
LWPOLYLINE
  5
22B
330
1F
100
AcDbEntity
  8
0
  6
Continuous
 62
     8
370
     0
100
AcDbPolyline
 90
       16
 70
   128
 43
0.0
 10
110.2581247958
 20
51.2751357101
 10
110.3344550627
 20
51.294216647
 10
110.4691811176
 20
51.3279007218
 10
110.6609702381
 20
51.375845208
 10
110.9079253199
 20
51.4375807188
 10
111.2076053666
 20
51.5125037573
 10
111.5570469099
 20
51.5998618148
 10
111.9527928802
 20
51.6987980745
 10
112.3909307914
 20
51.8083365105
 10
112.867128131
 20
51.9273818872
 10
113.3766770633
 20
52.0547719143
 10
113.9145363393
 20
52.1892399929
 10
114.4753862443
 20
52.3294524692
 10
115.0536854091
 20
52.4740235351
 10
115.643709925
 20
52.6215301297
 10
116.2396297129
 20
52.7705119393
  0
LINE
  5
22C
330
1F
100
AcDbEntity
  8
0
  6
Continuous
 62
     8
370
     0
100
AcDbLine
 10
146.0268814387
 20
52.7705119393
 30
0.0
 11
146.0268814387
 21
82.5577618025
 31
0.0
  0
LWPOLYLINE
  5
22D
330
1F
100
AcDbEntity
  8
0
  6
Continuous
 62
     8
370
     0
100
AcDbPolyline
 90
       16
 70
   128
 43
0.0
 10
146.0268814387
 20
52.7705119393
 10
146.6227975013
 20
52.6215301297
 10
147.2128238799
 20
52.4740235351
 10
147.7911230447
 20
52.3294524692
 10
148.3519729497
 20
52.1892399929
 10
148.8898340883
 20
52.0547719143
 10
149.3993792953
 20
51.9273818872
 10
149.8755794289
 20
51.8083365105
 10
150.3137145462
 20
51.6987980745
 10
150.7094633105
 20
51.5998618148
 10
151.058902991
 20
51.5125037573
 10
151.3585839691
 20
51.4375807188
 10
151.6055409136
 20
51.375845208
 10
151.7973263087
 20
51.3279007218
 10
151.9320551576
 20
51.294216647
 10
152.0083826306
 20
51.2751357101
  0
LINE
  5
22E
330
1F
100
AcDbEntity
  8
0
  6
Continuous
 62
     8
370
     0
100
AcDbLine
 10
116.2396297129
 20
52.7705119393
 30
0.0
 11
114.7442534836
 21
46.7890070222
 31
0.0
  0
LINE
  5
22F
330
1F
100
AcDbEntity
  8
0
  6
Continuous
 62
     8
370
     0
100
AcDbLine
 10
116.2396297129
 20
52.7705119393
 30
0.0
 11
146.0268814387
 21
52.7705119393
 31
0.0
  0
LWPOLYLINE
  5
230
330
1F
100
AcDbEntity
  8
0
  6
Continuous
 62
     8
370
     0
100
AcDbPolyline
 90
       16
 70
   128
 43
0.0
 10
146.0268814387
 20
52.7705119393
 10
146.175859523
 20
52.1745921515
 10
146.3233661177
 20
51.5845657728
 10
146.4679409089
 20
51.0062666081
 10
146.6081533851
 20
50.445416703
 10
146.7426177385
 20
49.9075592897
 10
146.8700040402
 20
49.3980066321
 10
146.9890531423
 20
48.9218102239
 10
147.0985878529
 20
48.4836713813
 10
147.1975241127
 20
48.0879263423
 10
147.2848858955
 20
47.7384866617
 10
147.3598052087
 20
47.438809409
 10
147.4215444448
 20
47.1918524645
 10
147.4694926562
 20
47.0000596188
 10
147.5031730058
 20
46.8653382204
 10
147.522257668
 20
46.7890070222
  0
LINE
  5
231
330
1F
100
AcDbEntity
  8
0
  6
Continuous
 62
     8
370
     0
100
AcDbLine
 10
71.433255476
 20
104.1641363345
 30
0.0
 11
71.433255476
 21
102.6641351573
 31
0.0
  0
LINE
  5
232
330
1F
100
AcDbEntity
  8
0
  6
Continuous
 62
     8
370
     0
100
AcDbLine
 10
122.8332538428
 20
102.6641351573
 30
0.0
 11
122.8332538428
 21
104.1641363345
 31
0.0
  0
LINE
  5
233
330
1F
100
AcDbEntity
  8
0
  6
Continuous
 62
     8
370
     0
100
AcDbLine
 10
123.1332551958
 20
123.8641358732
 30
0.0
 11
122.8332538428
 21
123.8641358732
 31
0.0
  0
LINE
  5
234
330
1F
100
AcDbEntity
  8
0
  6
Continuous
 62
     8
370
     0
100
AcDbLine
 10
122.8332538428
 20
123.8641358732
 30
0.0
 11
122.8332538428
 21
124.1641358874
 31
0.0
  0
LINE
  5
235
330
1F
100
AcDbEntity
  8
0
  6
Continuous
 62
     8
370
     0
100
AcDbLine
 10
122.8332538428
 20
123.8641358732
 30
0.0
 11
71.433255476
 21
123.8641358732
 31
0.0
  0
LINE
  5
236
330
1F
100
AcDbEntity
  8
0
  6
Continuous
 62
     8
370
     0
100
AcDbLine
 10
71.433255476
 20
123.8641358732
 30
0.0
 11
71.433255476
 21
124.1641358874
 31
0.0
  0
LINE
  5
237
330
1F
100
AcDbEntity
  8
0
  6
Continuous
 62
     8
370
     0
100
AcDbLine
 10
71.433255476
 20
123.8641358732
 30
0.0
 11
71.433255476
 21
104.4641358249
 31
0.0
  0
LINE
  5
238
330
1F
100
AcDbEntity
  8
0
  6
Continuous
 62
     8
370
     0
100
AcDbLine
 10
71.433255476
 20
104.4641358249
 30
0.0
 11
71.133254123
 21
104.4641358249
 31
0.0
  0
LINE
  5
239
330
1F
100
AcDbEntity
  8
0
  6
Continuous
 62
     8
370
     0
100
AcDbLine
 10
71.433255476
 20
123.8641358732
 30
0.0
 11
71.133254123
 21
123.8641358732
 31
0.0
  0
LINE
  5
23A
330
1F
100
AcDbEntity
  8
0
  6
Continuous
 62
     8
370
     0
100
AcDbLine
 10
71.433255476
 20
104.4641358249
 30
0.0
 11
122.8332538428
 21
104.4641358249
 31
0.0
  0
LINE
  5
23B
330
1F
100
AcDbEntity
  8
0
  6
Continuous
 62
     8
370
     0
100
AcDbLine
 10
122.8332538428
 20
104.4641358249
 30
0.0
 11
122.8332538428
 21
123.8641358732
 31
0.0
  0
LINE
  5
23C
330
1F
100
AcDbEntity
  8
0
  6
Continuous
 62
     8
370
     0
100
AcDbLine
 10
123.1332551958
 20
104.4641358249
 30
0.0
 11
122.8332538428
 21
104.4641358249
 31
0.0
  0
LINE
  5
23D
330
1F
100
AcDbEntity
  8
0
  6
Continuous
 62
     8
370
     0
100
AcDbLine
 10
122.8332538428
 20
104.1641363345
 30
0.0
 11
122.8332538428
 21
104.4641358249
 31
0.0
  0
LINE
  5
23E
330
1F
100
AcDbEntity
  8
0
  6
Continuous
 62
     8
370
     0
100
AcDbLine
 10
71.433255476
 20
104.1641363345
 30
0.0
 11
71.433255476
 21
104.4641358249
 31
0.0
  0
DIMENSION
  5
23F
330
1F
100
AcDbEntity
  8
0
  6
Continuous
 62
     7
370
     0
100
AcDbDimension
  2
*D2
 10
24.1126401943
 20
35.1641358874
 30
0.0
 11
24.1126401943
 21
79.8333557264
 31
0.0
 70
   160
  1
(<>)
 71
     2
 42
-1.0
  3
SLDDIMSTYLE0
100
AcDbAlignedDimension
 13
71.4332546594
 23
124.1641358874
 33
0.0
 14
36.6332546594
 24
35.1641358874
 34
0.0
 50
90.0
100
AcDbRotatedDimension
  0
DIMENSION
  5
24B
330
1F
100
AcDbEntity
  8
0
  6
Continuous
 62
     7
370
     0
100
AcDbDimension
  2
*D3
 10
163.6332546594
 20
25.7662723103
 30
0.0
 11
96.6599228225
 21
25.7662723103
 31
0.0
 70
   160
  1
(<>)
 71
     2
 42
-1.0
  3
SLDDIMSTYLE0
100
AcDbAlignedDimension
 13
30.6332546594
 23
41.1641358874
 33
0.0
 14
163.6332546594
 24
41.1641358874
 34
0.0
 50
0.0
100
AcDbRotatedDimension
  0
LINE
  5
257
330
1F
100
AcDbEntity
  8
0
  6
CENTERX2
 62
     7
370
     0
100
AcDbLine
 10
29.3645687393
 20
67.6641358874
 30
0.0
 11
96.1729223196
 21
67.6641358874
 31
0.0
  0
LINE
  5
258
330
1F
100
AcDbEntity
  8
0
  6
CENTERX2
 62
     7
370
     0
100
AcDbLine
 10
97.6575523992
 20
67.6641358874
 30
0.0
 11
164.6943106071
 21
67.6641358874
 31
0.0
  0
LINE
  5
259
330
1F
100
AcDbEntity
  8
0
  6
CENTERX2
 62
     7
370
     0
100
AcDbLine
 10
97.1332546594
 20
125.8641358874
 30
0.0
 11
97.1332546594
 21
98.5148048853
 31
0.0
  0
LINE
  5
25A
330
1F
100
AcDbEntity
  8
0
  6
Continuous
 62
     7
370
    30
100
AcDbLine
 10
190.2808973287
 20
179.074578565
 30
0.0
 11
187.2808977683
 21
182.0745790568
 31
0.0
  0
LINE
  5
25B
330
1F
100
AcDbEntity
  8
0
  6
Continuous
 62
     7
370
    30
100
AcDbLine
 10
187.2808977683
 20
182.0745790568
 30
0.0
 11
184.2808977422
 21
179.074578565
 31
0.0
  0
LINE
  5
25C
330
1F
100
AcDbEntity
  8
0
  6
Continuous
 62
     7
370
    30
100
AcDbLine
 10
190.2808973287
 20
172.3947195527
 30
0.0
 11
190.2808973287
 21
179.074578565
 31
0.0
  0
LINE
  5
25D
330
1F
100
AcDbEntity
  8
0
  6
Continuous
 62
     7
370
    30
100
AcDbLine
 10
184.2808977422
 20
179.074578565
 30
0.0
 11
184.2808977422
 21
172.3947195527
 31
0.0
  0
LINE
  5
25E
330
1F
100
AcDbEntity
  8
0
  6
Continuous
 62
     7
370
    30
100
AcDbLine
 10
184.2808977422
 20
172.3947195527
 30
0.0
 11
184.8353974243
 21
172.0745792803
 31
0.0
  0
LINE
  5
25F
330
1F
100
AcDbEntity
  8
0
  6
Continuous
 62
     7
370
    30
100
AcDbLine
 10
189.726397181
 20
172.0745792803
 30
0.0
 11
190.2808973287
 21
172.3947195527
 31
0.0
  0
LINE
  5
260
330
1F
100
AcDbEntity
  8
0
  6
Continuous
 62
     7
370
    30
100
AcDbLine
 10
196.2808983122
 20
210.074579921
 30
0.0
 11
193.8318589424
 21
209.8171753999
 31
0.0
  0
LINE
  5
261
330
1F
100
AcDbEntity
  8
0
  6
Continuous
 62
     7
370
    30
100
AcDbLine
 10
193.8318589424
 20
200.3319832687
 30
0.0
 11
196.2808983122
 21
200.0745792132
 31
0.0
  0
ARC
  5
262
330
1F
100
AcDbEntity
  8
0
  6
Continuous
 62
     7
370
    30
100
AcDbCircle
 10
201.4808975522
 20
205.0745789972
 30
0.0
 40
9.000000000000007
100
AcDbArc
 50
194.4775121859
 51
211.7999516825
  0
ARC
  5
263
330
1F
100
AcDbEntity
  8
0
  6
Continuous
 62
     7
370
    30
100
AcDbCircle
 10
201.4808975522
 20
205.0745789972
 30
0.0
 40
9.000000000000002
100
AcDbArc
 50
148.2000483175
 51
165.5224878141
  0
SPLINE
  5
264
330
1F
100
AcDbEntity
  8
0
  6
Continuous
 62
     7
370
    30
100
AcDbSpline
210
0.0
220
0.0
230
1.0
 70
     8
 71
     3
 72
    14
 73
    10
 74
     0
 42
0.00000001
 43
0.00000001
 40
0.0
 40
0.0
 40
0.0
 40
0.0
 40
0.1162951325868723
 40
0.2854241026220758
 40
0.4168623972479397
 40
0.5073586809032389
 40
0.6721769169718419
 40
0.8802801068667094
 40
0.9999999999999999
 40
0.9999999999999999
 40
0.9999999999999999
 40
0.9999999999999999
 10
214.09665026711
 20
178.5745784830717
 30
0.0
 10
214.1246935528058
 20
178.5745738980291
 30
0.0
 10
214.1935204200722
 20
178.5745626449212
 30
0.0
 10
214.3010413619988
 20
178.5745607074737
 30
0.0
 10
214.3893339187288
 20
178.5745599404119
 30
0.0
 10
214.5406374950867
 20
178.5745591644911
 30
0.0
 10
214.8498151970036
 20
178.5745795350447
 30
0.0
 10
215.2308886258093
 20
178.5746384360835
 30
0.0
 10
215.5130263254378
 20
178.5746736547508
 30
0.0
 10
215.6160620694019
 20
178.5746865164903
 30
0.0
  0
SPLINE
  5
265
330
1F
100
AcDbEntity
  8
0
  6
Continuous
 62
     7
370
    30
100
AcDbSpline
210
0.0
220
0.0
230
1.0
 70
     8
 71
     3
 72
    13
 73
     9
 74
     0
 42
0.00000001
 43
0.00000001
 40
0.0
 40
0.0
 40
0.0
 40
0.0
 40
0.053839729066202
 40
0.216795361190845
 40
0.3897947286419077
 40
0.5884988913066596
 40
0.8372480630850877
 40
1.0
 40
1.0
 40
1.0
 40
1.0
 10
258.782584006057
 20
178.5745794143942
 30
0.0
 10
258.8076859611122
 20
178.5745764267826
 30
0.0
 10
258.9087635019389
 20
178.5745643966269
 30
0.0
 10
259.0593560155234
 20
178.5745597023695
 30
0.0
 10
259.1814534749112
 20
178.5745597884351
 30
0.0
 10
259.2765537659055
 20
178.5745604456147
 30
0.0
 10
259.376165263936
 20
178.5745638257952
 30
0.0
 10
259.4399279500112
 20
178.5745743289794
 30
0.0
 10
259.4651465957024
 20
178.5745784830717
 30
0.0
  0
SPLINE
  5
266
330
1F
100
AcDbEntity
  8
0
  6
Continuous
 62
     7
370
    30
100
AcDbSpline
210
0.0
220
0.0
230
1.0
 70
     8
 71
     3
 72
    12
 73
     8
 74
     0
 42
0.00000001
 43
0.00000001
 40
0.0
 40
0.0
 40
0.0
 40
0.0
 40
0.001178300953156
 40
0.1836591838873115
 40
0.3639002173795093
 40
0.5402811457255281
 40
1.0
 40
1.0
 40
1.0
 40
1.0
 10
217.0827945415832
 20
178.5745794143942
 30
0.0
 10
217.083765208928
 20
178.5745791029259
 30
0.0
 10
217.2350609979119
 20
178.5745305550406
 30
0.0
 10
217.5913971736037
 20
178.5745827424573
 30
0.0
 10
218.1160404224959
 20
178.574562059605
 30
0.0
 10
218.9197587569719
 20
178.5745707470788
 30
0.0
 10
219.5510905418942
 20
178.5745719939812
 30
0.0
 10
220.0073634927131
 20
178.5745728951362
 30
0.0
  0
LINE
  5
267
330
1F
100
AcDbEntity
  8
0
  6
Continuous
 62
     7
370
    30
100
AcDbLine
 10
182.7808974964
 20
211.0745782223
 30
0.0
 11
182.7808974964
 21
179.074578565
 31
0.0
  0
LINE
  5
268
330
1F
100
AcDbEntity
  8
0
  6
Continuous
 62
     7
370
    30
100
AcDbLine
 10
182.7808974964
 20
179.074578565
 30
0.0
 11
179.5808975772
 21
179.074578565
 31
0.0
  0
LINE
  5
269
330
1F
100
AcDbEntity
  8
0
  6
Continuous
 62
     7
370
    30
100
AcDbLine
 10
179.5808975772
 20
211.0745782223
 30
0.0
 11
182.7808974964
 21
211.0745782223
 31
0.0
  0
LINE
  5
26A
330
1F
100
AcDbEntity
  8
0
  6
Continuous
 62
     7
370
    30
100
AcDbLine
 10
179.5808975772
 20
211.0745782223
 30
0.0
 11
179.5808975772
 21
179.074578565
 31
0.0
  0
LINE
  5
26B
330
1F
100
AcDbEntity
  8
0
  6
Continuous
 62
     7
370
    30
100
AcDbLine
 10
187.2808977683
 20
208.0745786619
 30
0.0
 11
189.2808971648
 21
210.074579921
 31
0.0
  0
LINE
  5
26C
330
1F
100
AcDbEntity
  8
0
  6
Continuous
 62
     7
370
    30
100
AcDbLine
 10
191.2808974926
 20
210.074579921
 30
0.0
 11
189.2808971648
 21
210.074579921
 31
0.0
  0
LINE
  5
26D
330
1F
100
AcDbEntity
  8
0
  6
Continuous
 62
     7
370
    30
100
AcDbLine
 10
191.2808974926
 20
210.074579921
 30
0.0
 11
191.2808974926
 21
208.867472243
 31
0.0
  0
ARC
  5
26E
330
1F
100
AcDbEntity
  8
0
  6
Continuous
 62
     7
370
    30
100
AcDbCircle
 10
188.7808975522
 20
208.867472216
 30
0.0
 40
2.500000000000028
100
AcDbArc
 50
315.0
 51
0.0
  0
LINE
  5
26F
330
1F
100
AcDbEntity
  8
0
  6
Continuous
 62
     7
370
    30
100
AcDbLine
 10
190.5486646761
 20
207.099705581
 30
0.0
 11
188.8666839992
 21
205.4177249041
 31
0.0
  0
ARC
  5
270
330
1F
100
AcDbEntity
  8
0
  6
Continuous
 62
     7
370
    30
100
AcDbCircle
 10
190.2808975522
 20
204.0035111853
 30
0.0
 40
2.000000000000028
100
AcDbArc
 50
135.0
 51
180.0
  0
LINE
  5
271
330
1F
100
AcDbEntity
  8
0
  6
Continuous
 62
     7
370
    30
100
AcDbLine
 10
188.2808979322
 20
204.0035115745
 30
0.0
 11
188.2808979322
 21
189.976638528
 31
0.0
  0
LINE
  5
272
330
1F
100
AcDbEntity
  8
0
  6
Continuous
 62
     7
370
    30
100
AcDbLine
 10
188.1808971708
 20
189.976638528
 30
0.0
 11
188.2808979322
 21
189.976638528
 31
0.0
  0
LINE
  5
273
330
1F
100
AcDbEntity
  8
0
  6
Continuous
 62
     7
370
    30
100
AcDbLine
 10
188.2808979322
 20
189.7632937137
 30
0.0
 11
188.2808979322
 21
189.0576617983
 31
0.0
  0
LINE
  5
274
330
1F
100
AcDbEntity
  8
0
  6
Continuous
 62
     7
370
    30
100
AcDbLine
 10
188.1808971708
 20
189.0576617983
 30
0.0
 11
188.2808979322
 21
189.0576617983
 31
0.0
  0
LINE
  5
275
330
1F
100
AcDbEntity
  8
0
  6
Continuous
 62
     7
370
    30
100
AcDbLine
 10
188.1808971708
 20
188.8997486052
 30
0.0
 11
188.1808971708
 21
189.0576617983
 31
0.0
  0
LINE
  5
276
330
1F
100
AcDbEntity
  8
0
  6
Continuous
 62
     7
370
    30
100
AcDbLine
 10
188.2808979322
 20
188.8997486052
 30
0.0
 11
188.1808971708
 21
188.8997486052
 31
0.0
  0
LINE
  5
277
330
1F
100
AcDbEntity
  8
0
  6
Continuous
 62
     7
370
    30
100
AcDbLine
 10
188.2808979322
 20
188.8997486052
 30
0.0
 11
188.2808979322
 21
188.3218997349
 31
0.0
  0
LINE
  5
278
330
1F
100
AcDbEntity
  8
0
  6
Continuous
 62
     7
370
    30
100
AcDbLine
 10
188.1808971708
 20
188.3219002005
 30
0.0
 11
188.2808979322
 21
188.3218997349
 31
0.0
  0
LINE
  5
279
330
1F
100
AcDbEntity
  8
0
  6
Continuous
 62
     7
370
    30
100
AcDbLine
 10
188.1808971708
 20
188.1651516263
 30
0.0
 11
188.1808971708
 21
188.3219002005
 31
0.0
  0
LINE
  5
27A
330
1F
100
AcDbEntity
  8
0
  6
Continuous
 62
     7
370
    30
100
AcDbLine
 10
188.2808979322
 20
188.1651516263
 30
0.0
 11
188.1808971708
 21
188.1651516263
 31
0.0
  0
LINE
  5
27B
330
1F
100
AcDbEntity
  8
0
  6
Continuous
 62
     7
370
    30
100
AcDbLine
 10
188.2808979322
 20
188.1651516263
 30
0.0
 11
188.2808979322
 21
186.1456466098
 31
0.0
  0
ARC
  5
27C
330
1F
100
AcDbEntity
  8
0
  6
Continuous
 62
     7
370
    30
100
AcDbCircle
 10
190.2808975522
 20
186.145646809
 30
0.0
 40
2.000000000000028
100
AcDbArc
 50
180.0
 51
225.0
  0
LINE
  5
27D
330
1F
100
AcDbEntity
  8
0
  6
Continuous
 62
     7
370
    30
100
AcDbLine
 10
188.8666839992
 20
184.7314328146
 30
0.0
 11
190.5486646761
 21
183.0494530689
 31
0.0
  0
ARC
  5
27E
330
1F
100
AcDbEntity
  8
0
  6
Continuous
 62
     7
370
    30
100
AcDbCircle
 10
188.7808975522
 20
181.2816857783
 30
0.0
 40
2.500000000000028
100
AcDbArc
 50
0.0
 51
45.0
  0
LINE
  5
27F
330
1F
100
AcDbEntity
  8
0
  6
Continuous
 62
     7
370
    30
100
AcDbLine
 10
191.2808974926
 20
181.2816854757
 30
0.0
 11
191.2808974926
 21
180.0745787289
 31
0.0
  0
LINE
  5
280
330
1F
100
AcDbEntity
  8
0
  6
Continuous
 62
     7
370
    30
100
AcDbLine
 10
191.2808974926
 20
180.0745787289
 30
0.0
 11
189.2808971648
 21
180.0745787289
 31
0.0
  0
LINE
  5
281
330
1F
100
AcDbEntity
  8
0
  6
Continuous
 62
     7
370
    30
100
AcDbLine
 10
189.2808971648
 20
180.0745787289
 30
0.0
 11
187.2808977683
 21
182.0745790568
 31
0.0
  0
LINE
  5
282
330
1F
100
AcDbEntity
  8
0
  6
Continuous
 62
     7
370
    30
100
AcDbLine
 10
187.2808977683
 20
182.0745790568
 30
0.0
 11
185.2808974405
 21
180.0745787289
 31
0.0
  0
LINE
  5
283
330
1F
100
AcDbEntity
  8
0
  6
Continuous
 62
     7
370
    30
100
AcDbLine
 10
185.2808974405
 20
180.0745787289
 30
0.0
 11
182.7808974964
 21
180.0745787289
 31
0.0
  0
LINE
  5
284
330
1F
100
AcDbEntity
  8
0
  6
Continuous
 62
     7
370
    30
100
AcDbLine
 10
182.7808974964
 20
180.0745787289
 30
0.0
 11
182.7808974964
 21
210.074579921
 31
0.0
  0
LINE
  5
285
330
1F
100
AcDbEntity
  8
0
  6
Continuous
 62
     7
370
    30
100
AcDbLine
 10
185.2808974405
 20
210.074579921
 30
0.0
 11
182.7808974964
 21
210.074579921
 31
0.0
  0
LINE
  5
286
330
1F
100
AcDbEntity
  8
0
  6
Continuous
 62
     7
370
    30
100
AcDbLine
 10
185.2808974405
 20
210.074579921
 30
0.0
 11
187.2808977683
 21
208.0745786619
 31
0.0
  0
LINE
  5
287
330
1F
100
AcDbEntity
  8
0
  6
Continuous
 62
     7
370
    30
100
AcDbLine
 10
188.1808971708
 20
189.7632937137
 30
0.0
 11
188.1808971708
 21
189.976638528
 31
0.0
  0
LINE
  5
288
330
1F
100
AcDbEntity
  8
0
  6
Continuous
 62
     7
370
    30
100
AcDbLine
 10
188.2808979322
 20
189.7632937137
 30
0.0
 11
188.1808971708
 21
189.7632937137
 31
0.0
  0
SPLINE
  5
289
330
1F
100
AcDbEntity
  8
0
  6
Continuous
 62
     7
370
    30
100
AcDbSpline
210
0.0
220
0.0
230
1.0
 70
    24
 71
     3
 72
     9
 73
     5
 74
     0
 42
0.00000001
 43
0.00000001
 40
0.0
 40
0.0
 40
0.0
 40
0.0
 40
0.5597370966284777
 40
1.0
 40
1.0
 40
1.0
 40
1.0
 10
188.2808979322173
 20
189.976638528001
 30
0.0
 10
188.2808979322173
 20
189.9681550441817
 30
0.0
 10
188.2808979322173
 20
189.95299885055
 30
0.0
 10
188.2808979322173
 20
189.9366260265367
 30
0.0
 10
188.2808979322173
 20
189.9294176795003
 30
0.0
  0
LINE
  5
28A
330
1F
100
AcDbEntity
  8
0
  6
Continuous
 62
     7
370
    30
100
AcDbLine
 10
188.1808971708
 20
189.9294176795
 30
0.0
 11
188.2808979322
 21
189.9294176795
 31
0.0
  0
LINE
  5
28B
330
1F
100
AcDbEntity
  8
0
  6
Continuous
 62
     7
370
    30
100
AcDbLine
 10
188.2808979322
 20
188.2932601687
 30
0.0
 11
188.2808979322
 21
188.1651516263
 31
0.0
  0
SPLINE
  5
28C
330
1F
100
AcDbEntity
  8
0
  6
Continuous
 62
     7
370
    30
100
AcDbSpline
210
0.0
220
0.0
230
1.0
 70
    24
 71
     3
 72
     9
 73
     5
 74
     0
 42
0.00000001
 43
0.00000001
 40
0.0
 40
0.0
 40
0.0
 40
0.0
 40
0.7315071381072052
 40
1.0
 40
1.0
 40
1.0
 40
1.0
 10
188.2808979322173
 20
189.0576617982653
 30
0.0
 10
188.2808979322173
 20
189.033952744437
 30
0.0
 10
188.2808979322173
 20
189.0015415038718
 30
0.0
 10
188.2808979322173
 20
188.9438800930678
 30
0.0
 10
188.2808979322173
 20
188.9283984158603
 30
0.0
  0
LINE
  5
28D
330
1F
100
AcDbEntity
  8
0
  6
Continuous
 62
     7
370
    30
100
AcDbLine
 10
184.2808977422
 20
211.0745782223
 30
0.0
 11
182.7808974964
 21
211.0745782223
 31
0.0
  0
LINE
  5
28E
330
1F
100
AcDbEntity
  8
0
  6
Continuous
 62
     7
370
    30
100
AcDbLine
 10
182.7808974964
 20
179.074578565
 30
0.0
 11
184.2808977422
 21
179.074578565
 31
0.0
  0
LINE
  5
28F
330
1F
100
AcDbEntity
  8
0
  6
Continuous
 62
     7
370
    30
100
AcDbLine
 10
191.2808974926
 20
211.0745782223
 30
0.0
 11
190.2808973287
 21
211.0745782223
 31
0.0
  0
LINE
  5
290
330
1F
100
AcDbEntity
  8
0
  6
Continuous
 62
     7
370
    30
100
AcDbLine
 10
191.2808974926
 20
210.074579921
 30
0.0
 11
191.2808974926
 21
211.0745782223
 31
0.0
  0
LINE
  5
291
330
1F
100
AcDbEntity
  8
0
  6
Continuous
 62
     7
370
    30
100
AcDbLine
 10
191.2808974926
 20
179.074578565
 30
0.0
 11
190.2808973287
 21
179.074578565
 31
0.0
  0
LINE
  5
292
330
1F
100
AcDbEntity
  8
0
  6
Continuous
 62
     7
370
    30
100
AcDbLine
 10
191.2808974926
 20
179.074578565
 30
0.0
 11
191.2808974926
 21
180.0745787289
 31
0.0
  0
LINE
  5
293
330
1F
100
AcDbEntity
  8
0
  6
Continuous
 62
     7
370
    30
100
AcDbLine
 10
188.2808979322
 20
189.9238185682
 30
0.0
 11
188.2808979322
 21
189.7632937137
 31
0.0
  0
LINE
  5
294
330
1F
100
AcDbEntity
  8
0
  6
Continuous
 62
     7
370
    30
100
AcDbLine
 10
200.2808971052
 20
214.074578714
 30
0.0
 11
200.2808971052
 21
194.0745790447
 31
0.0
  0
LINE
  5
295
330
1F
100
AcDbEntity
  8
0
  6
Continuous
 62
     7
370
    30
100
AcDbLine
 10
201.7808982824
 20
214.074578714
 30
0.0
 11
201.7808982824
 21
194.0745790447
 31
0.0
  0
LINE
  5
296
330
1F
100
AcDbEntity
  8
0
  6
Continuous
 62
     7
370
    30
100
AcDbLine
 10
201.7808982824
 20
194.0745790447
 30
0.0
 11
200.2808971052
 21
194.0745790447
 31
0.0
  0
LINE
  5
297
330
1F
100
AcDbEntity
  8
0
  6
Continuous
 62
     7
370
    30
100
AcDbLine
 10
200.2808971052
 20
214.074578714
 30
0.0
 11
201.7808982824
 21
214.074578714
 31
0.0
  0
LINE
  5
298
330
1F
100
AcDbEntity
  8
0
  6
Continuous
 62
     7
370
    30
100
AcDbLine
 10
200.2808971052
 20
194.0745790447
 30
0.0
 11
203.2808975969
 21
194.0745790447
 31
0.0
  0
LINE
  5
299
330
1F
100
AcDbEntity
  8
0
  6
Continuous
 62
     7
370
    30
100
AcDbLine
 10
204.2808977609
 20
193.497228723
 30
0.0
 11
203.2808975969
 21
194.0745790447
 31
0.0
  0
LINE
  5
29A
330
1F
100
AcDbEntity
  8
0
  6
Continuous
 62
     7
370
    30
100
AcDbLine
 10
204.2808977609
 20
193.497228723
 30
0.0
 11
204.2808977609
 21
190.574579053
 31
0.0
  0
LINE
  5
29B
330
1F
100
AcDbEntity
  8
0
  6
Continuous
 62
     7
370
    30
100
AcDbLine
 10
204.2808977609
 20
190.574579053
 30
0.0
 11
203.2808975969
 21
190.574579053
 31
0.0
  0
ARC
  5
29C
330
1F
100
AcDbEntity
  8
0
  6
Continuous
 62
     7
370
    30
100
AcDbCircle
 10
203.2808975522
 20
187.5745789972
 30
0.0
 40
3.0
100
AcDbArc
 50
90.0
 51
180.0
  0
LINE
  5
29D
330
1F
100
AcDbEntity
  8
0
  6
Continuous
 62
     7
370
    30
100
AcDbLine
 10
200.2808971052
 20
187.574579027
 30
0.0
 11
200.2808971052
 21
172.3745787707
 31
0.0
  0
ARC
  5
29E
330
1F
100
AcDbEntity
  8
0
  6
Continuous
 62
     7
370
    30
100
AcDbCircle
 10
199.9808975522
 20
172.3745789972
 30
0.0
 40
0.3000000000000398
100
AcDbArc
 50
270.0
 51
0.0
  0
LINE
  5
29F
330
1F
100
AcDbEntity
  8
0
  6
Continuous
 62
     7
370
    30
100
AcDbLine
 10
199.9808976148
 20
172.0745792803
 30
0.0
 11
190.7808974107
 21
172.0745792803
 31
0.0
  0
LINE
  5
2A0
330
1F
100
AcDbEntity
  8
0
  6
Continuous
 62
     7
370
    30
100
AcDbLine
 10
190.7808974107
 20
172.0745792803
 30
0.0
 11
190.2808973287
 21
172.5745784309
 31
0.0
  0
LINE
  5
2A1
330
1F
100
AcDbEntity
  8
0
  6
Continuous
 62
     7
370
    30
100
AcDbLine
 10
190.2808973287
 20
176.5745790866
 30
0.0
 11
195.280897217
 21
176.5745790866
 31
0.0
  0
ARC
  5
2A2
330
1F
100
AcDbEntity
  8
0
  6
Continuous
 62
     7
370
    30
100
AcDbCircle
 10
195.2808975522
 20
177.5745789972
 30
0.0
 40
1.0
100
AcDbArc
 50
270.0
 51
0.0
  0
LINE
  5
2A3
330
1F
100
AcDbEntity
  8
0
  6
Continuous
 62
     7
370
    30
100
AcDbLine
 10
196.2808983122
 20
177.5745792505
 30
0.0
 11
196.2808983122
 21
211.0745782223
 31
0.0
  0
ARC
  5
2A4
330
1F
100
AcDbEntity
  8
0
  6
Continuous
 62
     7
370
    30
100
AcDbCircle
 10
195.2808975522
 20
211.0745789972
 30
0.0
 40
1.0
100
AcDbArc
 50
0.0
 51
90.0
  0
LINE
  5
2A5
330
1F
100
AcDbEntity
  8
0
  6
Continuous
 62
     7
370
    30
100
AcDbLine
 10
195.280897217
 20
212.0745783862
 30
0.0
 11
191.2808974926
 21
212.0745783862
 31
0.0
  0
LINE
  5
2A6
330
1F
100
AcDbEntity
  8
0
  6
Continuous
 62
     7
370
    30
100
AcDbLine
 10
191.2808974926
 20
212.0745783862
 30
0.0
 11
188.2808979322
 21
209.0745797571
 31
0.0
  0
LINE
  5
2A7
330
1F
100
AcDbEntity
  8
0
  6
Continuous
 62
     7
370
    30
100
AcDbLine
 10
188.2808979322
 20
209.0745797571
 30
0.0
 11
186.2808976044
 21
209.0745797571
 31
0.0
  0
LINE
  5
2A8
330
1F
100
AcDbEntity
  8
0
  6
Continuous
 62
     7
370
    30
100
AcDbLine
 10
186.2808976044
 20
209.0745797571
 30
0.0
 11
183.2808975783
 21
212.0745783862
 31
0.0
  0
LINE
  5
2A9
330
1F
100
AcDbEntity
  8
0
  6
Continuous
 62
     7
370
    30
100
AcDbLine
 10
180.2808975522
 20
212.0745783862
 30
0.0
 11
180.2808975522
 21
213.7745792237
 31
0.0
  0
ARC
  5
2AA
330
1F
100
AcDbEntity
  8
0
  6
Continuous
 62
     7
370
    30
100
AcDbCircle
 10
180.5808975522
 20
213.7745789972
 30
0.0
 40
0.2999999999999829
100
AcDbArc
 50
90.0
 51
180.0
  0
LINE
  5
2AB
330
1F
100
AcDbEntity
  8
0
  6
Continuous
 62
     7
370
    30
100
AcDbLine
 10
180.5808975665
 20
214.074578714
 30
0.0
 11
199.9808976148
 21
214.074578714
 31
0.0
  0
ARC
  5
2AC
330
1F
100
AcDbEntity
  8
0
  6
Continuous
 62
     7
370
    30
100
AcDbCircle
 10
199.9808975522
 20
213.7745789972
 30
0.0
 40
0.3000000000000114
100
AcDbArc
 50
0.0
 51
90.0
  0
LINE
  5
2AD
330
1F
100
AcDbEntity
  8
0
  6
Continuous
 62
     7
370
    30
100
AcDbLine
 10
200.2808971052
 20
213.7745792237
 30
0.0
 11
200.2808971052
 21
194.0745790447
 31
0.0
  0
LINE
  5
2AE
330
1F
100
AcDbEntity
  8
0
  6
Continuous
 62
     7
370
    30
100
AcDbLine
 10
183.2808975783
 20
212.0745783862
 30
0.0
 11
180.2808975522
 21
212.0745783862
 31
0.0
  0
LINE
  5
2AF
330
1F
100
AcDbEntity
  8
0
  6
Continuous
 62
     7
370
    30
100
AcDbLine
 10
184.2808977422
 20
172.5745784309
 30
0.0
 11
183.7808976603
 21
172.0745792803
 31
0.0
  0
LINE
  5
2B0
330
1F
100
AcDbEntity
  8
0
  6
Continuous
 62
     7
370
    30
100
AcDbLine
 10
183.7808976603
 20
172.0745792803
 30
0.0
 11
180.5808975665
 21
172.0745792803
 31
0.0
  0
LINE
  5
2B1
330
1F
100
AcDbEntity
  8
0
  6
Continuous
 62
     7
370
    30
100
AcDbLine
 10
180.2808975522
 20
172.3745787707
 30
0.0
 11
180.2808975522
 21
176.5745790866
 31
0.0
  0
LINE
  5
2B2
330
1F
100
AcDbEntity
  8
0
  6
Continuous
 62
     7
370
    30
100
AcDbLine
 10
180.2808975522
 20
176.5745790866
 30
0.0
 11
184.2808977422
 21
176.5745790866
 31
0.0
  0
ARC
  5
2B3
330
1F
100
AcDbEntity
  8
0
  6
Continuous
 62
     7
370
    30
100
AcDbCircle
 10
180.5808975522
 20
172.3745789972
 30
0.0
 40
0.3000000000000114
100
AcDbArc
 50
180.0
 51
270.0
  0
LINE
  5
2B4
330
1F
100
AcDbEntity
  8
0
  6
Continuous
 62
     7
370
    30
100
AcDbLine
 10
183.7808976603
 20
172.0745792803
 30
0.0
 11
184.8353974243
 21
172.0745792803
 31
0.0
  0
LINE
  5
2B5
330
1F
100
AcDbEntity
  8
0
  6
Continuous
 62
     7
370
    30
100
AcDbLine
 10
189.726397181
 20
172.0745792803
 30
0.0
 11
190.7808974107
 21
172.0745792803
 31
0.0
  0
LINE
  5
2B6
330
1F
100
AcDbEntity
  8
0
  6
Continuous
 62
     7
370
    30
100
AcDbLine
 10
183.2808975783
 20
212.0745783862
 30
0.0
 11
183.2808975783
 21
211.0745782223
 31
0.0
  0
LINE
  5
2B7
330
1F
100
AcDbEntity
  8
0
  6
Continuous
 62
     7
370
    30
100
AcDbLine
 10
180.2808975522
 20
211.0745782223
 30
0.0
 11
180.2808975522
 21
212.0745783862
 31
0.0
  0
LINE
  5
2B8
330
1F
100
AcDbEntity
  8
0
  6
Continuous
 62
     7
370
    30
100
AcDbLine
 10
180.2808975522
 20
176.5745790866
 30
0.0
 11
180.2808975522
 21
179.074578565
 31
0.0
  0
LINE
  5
2B9
330
1F
100
AcDbEntity
  8
0
  6
Continuous
 62
     7
370
    30
100
AcDbLine
 10
190.2808973287
 20
179.074578565
 30
0.0
 11
184.2808977422
 21
179.074578565
 31
0.0
  0
LINE
  5
2BA
330
1F
100
AcDbEntity
  8
0
  6
Continuous
 62
     7
370
    30
100
AcDbLine
 10
190.2808973287
 20
172.3947195527
 30
0.0
 11
184.2808977422
 21
172.3947195527
 31
0.0
  0
LINE
  5
2BB
330
1F
100
AcDbEntity
  8
0
  6
Continuous
 62
     7
370
    30
100
AcDbLine
 10
189.726397181
 20
172.0745792803
 30
0.0
 11
184.8353974243
 21
172.0745792803
 31
0.0
  0
LINE
  5
2BC
330
1F
100
AcDbEntity
  8
0
  6
Continuous
 62
     7
370
    30
100
AcDbLine
 10
193.8318589424
 20
205.0745791015
 30
0.0
 11
193.8318589424
 21
209.8171753999
 31
0.0
  0
LINE
  5
2BD
330
1F
100
AcDbEntity
  8
0
  6
Continuous
 62
     7
370
    30
100
AcDbLine
 10
193.8318589424
 20
200.3319832687
 30
0.0
 11
193.8318589424
 21
205.0745791015
 31
0.0
  0
LINE
  5
2BE
330
1F
100
AcDbEntity
  8
0
  6
Continuous
 62
     7
370
    30
100
AcDbLine
 10
192.7666848247
 20
202.8245791983
 30
0.0
 11
192.7666848247
 21
203.9495786842
 31
0.0
  0
LINE
  5
2BF
330
1F
100
AcDbEntity
  8
0
  6
Continuous
 62
     7
370
    30
100
AcDbLine
 10
192.7666848247
 20
203.9495786842
 30
0.0
 11
192.7666848247
 21
206.1995785874
 31
0.0
  0
LINE
  5
2C0
330
1F
100
AcDbEntity
  8
0
  6
Continuous
 62
     7
370
    30
100
AcDbLine
 10
192.7666848247
 20
206.1995785874
 30
0.0
 11
192.7666848247
 21
207.3245790046
 31
0.0
  0
SPLINE
  5
2C1
330
1F
100
AcDbEntity
  8
0
  6
Continuous
 62
     7
370
    30
100
AcDbSpline
210
0.0
220
0.0
230
1.0
 70
    24
 71
     3
 72
    15
 73
    11
 74
     0
 42
0.00000001
 43
0.00000001
 40
0.0
 40
0.0
 40
0.0
 40
0.0
 40
0.1250762584908309
 40
0.2500908368867096
 40
0.3750580450909773
 40
0.5000002226625837
 40
0.624941866905746
 40
0.7499092062234396
 40
0.8749237415091692
 40
1.0
 40
1.0
 40
1.0
 40
1.0
 10
218.0911672954418
 20
178.5745794143942
 30
0.0
 10
217.8295362781664
 20
178.5745794143942
 30
0.0
 10
217.3064032643121
 20
178.5745794143942
 30
0.0
 10
216.551956794147
 20
178.5745794143942
 30
0.0
 10
215.8568089062142
 20
178.5745794143942
 30
0.0
 10
215.2478630929935
 20
178.5745794143942
 30
0.0
 10
214.7474616265315
 20
178.5745794143942
 30
0.0
 10
214.3785058190203
 20
178.5745794143942
 30
0.0
 10
214.1411827403102
 20
178.5745794143942
 30
0.0
 10
214.1114968670328
 20
178.5745794143942
 30
0.0
 10
214.09665026711
 20
178.5745794143942
 30
0.0
  0
LINE
  5
2C2
330
1F
100
AcDbEntity
  8
0
  6
Continuous
 62
     7
370
    30
100
AcDbLine
 10
255.4706295674
 20
178.5745794144
 30
0.0
 11
218.0911672954
 21
178.5745794144
 31
0.0
  0
SPLINE
  5
2C3
330
1F
100
AcDbEntity
  8
0
  6
Continuous
 62
     7
370
    30
100
AcDbSpline
210
0.0
220
0.0
230
1.0
 70
    24
 71
     3
 72
    15
 73
    11
 74
     0
 42
0.00000001
 43
0.00000001
 40
0.0
 40
0.0
 40
0.0
 40
0.0
 40
0.1250762706231737
 40
0.2500908180352588
 40
0.3750584496358724
 40
0.4999997288376119
 40
0.6249419185285552
 40
0.7499091388545879
 40
0.8749237293768263
 40
1.0
 40
1.0
 40
1.0
 40
1.0
 10
259.4651465957024
 20
178.5745794143942
 30
0.0
 10
259.4502998930737
 20
178.5745794143942
 30
0.0
 10
259.4206138144352
 20
178.5745794143942
 30
0.0
 10
259.1832920978824
 20
178.5745794143942
 30
0.0
 10
258.8143303914883
 20
178.5745794143942
 30
0.0
 10
258.3139343001801
 20
178.5745794143942
 30
0.0
 10
257.7049876503567
 20
178.5745794143942
 30
0.0
 10
257.0098401503699
 20
178.5745794143942
 30
0.0
 10
256.2553935780591
 20
178.5745794143942
 30
0.0
 10
255.7322605778312
 20
178.5745794143942
 30
0.0
 10
255.4706295673706
 20
178.5745794143942
 30
0.0
  0
LINE
  5
2C4
330
1F
100
AcDbEntity
  8
0
  6
Continuous
 62
     7
370
    30
100
AcDbLine
 10
207.1212211345
 20
265.0745758977
 30
0.0
 11
212.1134249215
 21
265.0745758977
 31
0.0
  0
ARC
  5
2C5
330
1F
100
AcDbEntity
  8
0
  6
Continuous
 62
     7
370
    30
100
AcDbCircle
 10
207.121221531
 20
263.5745789972
 30
0.0
 40
1.5
100
AcDbArc
 50
90.0
 51
183.2
  0
LINE
  5
2C6
330
1F
100
AcDbEntity
  8
0
  6
Continuous
 62
     7
370
    30
100
AcDbLine
 10
212.1134249215
 20
265.0745758977
 30
0.0
 11
261.4483719413
 21
265.0745758977
 31
0.0
  0
LINE
  5
2C7
330
1F
100
AcDbEntity
  8
0
  6
Continuous
 62
     7
370
    30
100
AcDbLine
 10
261.4483719413
 20
265.0745758977
 30
0.0
 11
266.4405738656
 21
265.0745758977
 31
0.0
  0
ARC
  5
2C8
330
1F
100
AcDbEntity
  8
0
  6
Continuous
 62
     7
370
    30
100
AcDbCircle
 10
266.4405735735
 20
263.5745789972
 30
0.0
 40
1.5
100
AcDbArc
 50
356.8
 51
90.0
  0
LINE
  5
2C9
330
1F
100
AcDbEntity
  8
0
  6
Continuous
 62
     7
370
    30
100
AcDbLine
 10
208.2745412086
 20
216.0745790419
 30
0.0
 11
205.6235613023
 21
263.4908432331
 31
0.0
  0
LINE
  5
2CA
330
1F
100
AcDbEntity
  8
0
  6
Continuous
 62
     7
370
    30
100
AcDbLine
 10
267.9382374232
 20
263.4908432331
 30
0.0
 11
265.2872537916
 21
216.0745790419
 31
0.0
  0
LINE
  5
2CB
330
1F
100
AcDbEntity
  8
0
  6
Continuous
 62
     7
370
    30
100
AcDbLine
 10
211.6000761931
 20
180.943739247
 30
0.0
 11
210.9119163548
 21
194.0745790447
 31
0.0
  0
LINE
  5
2CC
330
1F
100
AcDbEntity
  8
0
  6
Continuous
 62
     7
370
    30
100
AcDbLine
 10
262.6498749201
 20
194.0745790447
 30
0.0
 11
261.9617169444
 21
180.943739247
 31
0.0
  0
ARC
  5
2CD
330
1F
100
AcDbEntity
  8
0
  6
Continuous
 62
     7
370
    30
100
AcDbCircle
 10
214.0966489961
 20
181.0745789972
 30
0.0
 40
2.5
100
AcDbArc
 50
183.0
 51
270.0
  0
ARC
  5
2CE
330
1F
100
AcDbEntity
  8
0
  6
Continuous
 62
     7
370
    30
100
AcDbCircle
 10
259.4651461084
 20
181.0745789972
 30
0.0
 40
2.5
100
AcDbArc
 50
270.0
 51
357.0
  0
LINE
  5
2CF
330
1F
100
AcDbEntity
  8
0
  6
Continuous
 62
     7
370
    30
100
AcDbLine
 10
201.7808982824
 20
216.0745790419
 30
0.0
 11
201.7808982824
 21
214.074578714
 31
0.0
  0
LINE
  5
2D0
330
1F
100
AcDbEntity
  8
0
  6
Continuous
 62
     7
370
    30
100
AcDbLine
 10
201.7808982824
 20
216.0745790419
 30
0.0
 11
207.7808974032
 21
216.0745790419
 31
0.0
  0
LINE
  5
2D1
330
1F
100
AcDbEntity
  8
0
  6
Continuous
 62
     7
370
    30
100
AcDbLine
 10
203.2808975969
 20
194.0745790447
 30
0.0
 11
207.7808974032
 21
194.0745790447
 31
0.0
  0
LINE
  5
2D2
330
1F
100
AcDbEntity
  8
0
  6
Continuous
 62
     7
370
    30
100
AcDbLine
 10
207.7808974032
 20
216.0745790419
 30
0.0
 11
263.2808943932
 21
216.0745790419
 31
0.0
  0
LINE
  5
2D3
330
1F
100
AcDbEntity
  8
0
  6
Continuous
 62
     7
370
    30
100
AcDbLine
 10
207.7808974032
 20
194.0745790447
 30
0.0
 11
263.2808943932
 21
194.0745790447
 31
0.0
  0
LINE
  5
2D4
330
1F
100
AcDbEntity
  8
0
  6
Continuous
 62
     7
370
    30
100
AcDbLine
 10
269.280899102
 20
216.0745790419
 30
0.0
 11
269.280899102
 21
194.0745790447
 31
0.0
  0
LINE
  5
2D5
330
1F
100
AcDbEntity
  8
0
  6
Continuous
 62
     7
370
    30
100
AcDbLine
 10
263.2808943932
 20
216.0745790419
 30
0.0
 11
269.280899102
 21
216.0745790419
 31
0.0
  0
LINE
  5
2D6
330
1F
100
AcDbEntity
  8
0
  6
Continuous
 62
     7
370
    30
100
AcDbLine
 10
263.2808943932
 20
194.0745790447
 30
0.0
 11
269.280899102
 21
194.0745790447
 31
0.0
  0
LINE
  5
2D7
330
1F
100
AcDbEntity
  8
0
  6
Continuous
 62
     8
370
     0
100
AcDbLine
 10
195.280897217
 20
209.9694745806
 30
0.0
 11
195.280897217
 21
212.0745783862
 31
0.0
  0
LINE
  5
2D8
330
1F
100
AcDbEntity
  8
0
  6
Continuous
 62
     8
370
     0
100
AcDbLine
 10
192.7666848247
 20
205.0745791015
 30
0.0
 11
188.5918702652
 21
205.0745791015
 31
0.0
  0
LINE
  5
2D9
330
1F
100
AcDbEntity
  8
0
  6
Continuous
 62
     8
370
     0
100
AcDbLine
 10
191.2808974926
 20
179.074578565
 30
0.0
 11
195.280897217
 21
179.074578565
 31
0.0
  0
LINE
  5
2DA
330
1F
100
AcDbEntity
  8
0
  6
Continuous
 62
     8
370
     0
100
AcDbLine
 10
195.280897217
 20
176.5745790866
 30
0.0
 11
195.280897217
 21
179.074578565
 31
0.0
  0
LINE
  5
2DB
330
1F
100
AcDbEntity
  8
0
  6
Continuous
 62
     8
370
     0
100
AcDbLine
 10
195.280897217
 20
179.074578565
 30
0.0
 11
196.2808983122
 21
179.074578565
 31
0.0
  0
LINE
  5
2DC
330
1F
100
AcDbEntity
  8
0
  6
Continuous
 62
     8
370
     0
100
AcDbLine
 10
195.280897217
 20
179.074578565
 30
0.0
 11
195.280897217
 21
200.1796831567
 31
0.0
  0
LINE
  5
2DD
330
1F
100
AcDbEntity
  8
0
  6
Continuous
 62
     8
370
     0
100
AcDbLine
 10
212.1134249215
 20
265.0745758977
 30
0.0
 11
212.1134249215
 21
263.4908432331
 31
0.0
  0
ELLIPSE
  5
2DE
330
1F
100
AcDbEntity
  8
0
  6
Continuous
 62
     8
370
     0
100
AcDbEllipse
 10
212.1290298851
 20
263.5745789972
 30
0.0
 11
6.505471085610083
 21
0.08368615031321269
 31
0.0
210
0.0
220
0.0
230
0.9999999999999999
 40
0.0128381133
 41
3.142144869307454
 42
4.709825150640338
  0
LINE
  5
2DF
330
1F
100
AcDbEntity
  8
0
  6
Continuous
 62
     8
370
     0
100
AcDbLine
 10
261.4483719413
 20
265.0745758977
 30
0.0
 11
261.4483719413
 21
263.4908432331
 31
0.0
  0
LINE
  5
2E0
330
1F
100
AcDbEntity
  8
0
  6
Continuous
 62
     8
370
     0
100
AcDbLine
 10
261.4483719413
 20
263.4908432331
 30
0.0
 11
212.1134249215
 21
263.4908432331
 31
0.0
  0
ELLIPSE
  5
2E1
330
1F
100
AcDbEntity
  8
0
  6
Continuous
 62
     8
370
     0
100
AcDbEllipse
 10
261.4327652193
 20
263.5745789972
 30
0.0
 11
6.505471085610111
 21
-0.08368615031315585
 31
0.0
210
0.0
220
0.0
230
1.0
 40
0.0128381133
 41
4.714952810129043
 42
6.282633091463384
  0
LINE
  5
2E2
330
1F
100
AcDbEntity
  8
0
  6
Continuous
 62
     8
370
     0
100
AcDbLine
 10
212.1134249215
 20
263.4908432331
 30
0.0
 11
214.7644048278
 21
216.0745790419
 31
0.0
  0
LINE
  5
2E3
330
1F
100
AcDbEntity
  8
0
  6
Continuous
 62
     8
370
     0
100
AcDbLine
 10
258.7973883097
 20
216.0745790419
 30
0.0
 11
261.4483719413
 21
263.4908432331
 31
0.0
  0
ELLIPSE
  5
2E4
330
1F
100
AcDbEntity
  8
0
  6
Continuous
 62
     8
370
     0
100
AcDbEllipse
 10
218.1021383801
 20
181.0745789972
 30
0.0
 11
6.502066286658675
 21
0.1307553256390293
 31
0.0
210
0.0
220
0.0
230
1.0
 40
0.020080808
 41
3.14224053998075
 42
4.710297811034357
  0
LINE
  5
2E5
330
1F
100
AcDbEntity
  8
0
  6
Continuous
 62
     8
370
     0
100
AcDbLine
 10
217.4030093198
 20
194.0745790447
 30
0.0
 11
218.0911672954
 21
180.943739247
 31
0.0
  0
ELLIPSE
  5
2E6
330
1F
100
AcDbEntity
  8
0
  6
Continuous
 62
     8
370
     0
100
AcDbEllipse
 10
255.4596567244
 20
181.0745789972
 30
0.0
 11
6.502066286658703
 21
-0.1307553256390293
 31
0.0
210
0.0
220
0.0
230
1.0
 40
0.020080808
 41
4.714480149735023
 42
6.282537420790003
  0
LINE
  5
2E7
330
1F
100
AcDbEntity
  8
0
  6
Continuous
 62
     8
370
     0
100
AcDbLine
 10
255.4706295674
 20
180.943739247
 30
0.0
 11
256.158787543
 21
194.0745790447
 31
0.0
  0
LINE
  5
2E8
330
1F
100
AcDbEntity
  8
0
  6
Continuous
 62
     8
370
     0
100
AcDbLine
 10
218.0911672954
 20
180.943739247
 30
0.0
 11
255.4706295674
 21
180.943739247
 31
0.0
  0
LINE
  5
2E9
330
1F
100
AcDbEntity
  8
0
  6
Continuous
 62
     8
370
     0
100
AcDbLine
 10
218.0911672954
 20
178.5745794144
 30
0.0
 11
218.0911672954
 21
180.943739247
 31
0.0
  0
LINE
  5
2EA
330
1F
100
AcDbEntity
  8
0
  6
Continuous
 62
     8
370
     0
100
AcDbLine
 10
255.4706295674
 20
180.943739247
 30
0.0
 11
255.4706295674
 21
178.5745794144
 31
0.0
  0
LINE
  5
2EB
330
1F
100
AcDbEntity
  8
0
  6
Continuous
 62
     8
370
     0
100
AcDbLine
 10
207.7808974032
 20
216.0745790419
 30
0.0
 11
207.7808974032
 21
194.0745790447
 31
0.0
  0
LINE
  5
2EC
330
1F
100
AcDbEntity
  8
0
  6
Continuous
 62
     8
370
     0
100
AcDbLine
 10
263.2808943932
 20
216.0745790419
 30
0.0
 11
263.2808943932
 21
194.0745790447
 31
0.0
  0
HATCH
  5
2ED
330
1F
100
AcDbEntity
  8
0
  6
Continuous
 62
     7
370
     0
100
AcDbHatch
 10
0.0
 20
0.0
 30
0.0
210
0.0
220
0.0
230
1.0
  2
ANSI31
 70
     0
 71
     0
 91
        1
 92
        0
 93
       24
 72
     1
 10
200.2808975522377
 20
194.0745789971617
 11
200.2808975522377
 21
213.7745789971617
 72
     2
 10
199.9808975522376
 20
213.7745789971617
 40
0.3
 50
0.0
 51
90.0
 73
     1
 72
     1
 10
199.9808975522376
 20
214.0745789971617
 11
180.5808975522377
 21
214.0745789971617
 72
     2
 10
180.5808975522377
 20
213.7745789971617
 40
0.3
 50
90.0
 51
180.0
 73
     1
 72
     1
 10
180.2808975522377
 20
213.7745789971617
 11
180.2808975522377
 21
212.0745789971617
 72
     1
 10
180.2808975522377
 20
212.0745789971617
 11
183.2808975522377
 21
212.0745789971617
 72
     1
 10
183.2808975522377
 20
212.0745789971617
 11
186.2808975522376
 21
209.0745789971617
 72
     1
 10
186.2808975522376
 20
209.0745789971617
 11
188.2808975522377
 21
209.0745789971617
 72
     1
 10
188.2808975522377
 20
209.0745789971617
 11
191.2808975522377
 21
212.0745789971617
 72
     1
 10
191.2808975522377
 20
212.0745789971617
 11
195.2808975522377
 21
212.0745789971617
 72
     2
 10
195.2808975522377
 20
211.0745789971617
 40
1.0
 50
270.0000000000008
 51
360.0000000000008
 73
     0
 72
     1
 10
196.2808975522377
 20
211.0745789971617
 11
196.2808975522377
 21
177.5745789971617
 72
     2
 10
195.2808975522377
 20
177.5745789971617
 40
1.0
 50
0.0
 51
90.0
 73
     0
 72
     1
 10
195.2808975522377
 20
176.5745789971617
 11
189.7808975522377
 21
176.5745789971617
 72
     1
 10
189.7808975522377
 20
176.5745789971617
 11
189.7808975522377
 21
173.0745789971617
 72
     1
 10
189.7808975522377
 20
173.0745789971617
 11
190.7808975522377
 21
172.0745789971617
 72
     1
 10
190.7808975522377
 20
172.0745789971617
 11
199.9808975522376
 21
172.0745789971617
 72
     2
 10
199.9808975522376
 20
172.3745789971617
 40
0.3
 50
270.0000000000008
 51
360.0000000000008
 73
     1
 72
     1
 10
200.2808975522377
 20
172.3745789971617
 11
200.2808975522377
 21
187.5745789971617
 72
     2
 10
203.2808975522377
 20
187.5745789971617
 40
3.0
 50
180.0
 51
270.0000000000008
 73
     0
 72
     1
 10
203.2808975522377
 20
190.5745789971617
 11
204.2808975522377
 21
190.5745789971617
 72
     1
 10
204.2808975522377
 20
190.5745789971617
 11
204.2808975522377
 21
193.4972287279721
 72
     1
 10
204.2808975522377
 20
193.4972287279721
 11
203.2808975522377
 21
194.0745789971617
 72
     1
 10
203.2808975522377
 20
194.0745789971617
 11
200.2808975522377
 21
194.0745789971617
 97
        0
 75
     0
 76
     1
 52
0.0
 41
1.0
 77
     0
 78
     1
 53
45.0
 43
0.0
 44
0.0
 45
-2.245064030267288
 46
2.245064030267288
 79
     0
 98
        1
 10
0.0
 20
0.0
  0
HATCH
  5
2EE
330
1F
100
AcDbEntity
  8
0
  6
Continuous
 62
     7
370
     0
100
AcDbHatch
 10
0.0
 20
0.0
 30
0.0
210
0.0
220
0.0
230
1.0
  2
ANSI31
 70
     0
 71
     0
 91
        1
 92
        0
 93
        6
 72
     1
 10
180.2808975522377
 20
176.5745789971617
 11
180.2808975522377
 21
172.3745789971617
 72
     2
 10
180.5808975522377
 20
172.3745789971617
 40
0.3
 50
180.0
 51
270.0000000000008
 73
     1
 72
     1
 10
180.5808975522377
 20
172.0745789971617
 11
183.7808975522377
 21
172.0745789971617
 72
     1
 10
183.7808975522377
 20
172.0745789971617
 11
184.7808975522377
 21
173.0745789971617
 72
     1
 10
184.7808975522377
 20
173.0745789971617
 11
184.7808975522377
 21
176.5745789971617
 72
     1
 10
184.7808975522377
 20
176.5745789971617
 11
180.2808975522377
 21
176.5745789971617
 97
        0
 75
     0
 76
     1
 52
0.0
 41
1.0
 77
     0
 78
     1
 53
45.0
 43
0.0
 44
0.0
 45
-2.245064030267288
 46
2.245064030267288
 79
     0
 98
        1
 10
0.0
 20
0.0
  0
HATCH
  5
2EF
330
1F
100
AcDbEntity
  8
0
  6
Continuous
 62
     7
370
     0
100
AcDbHatch
 10
0.0
 20
0.0
 30
0.0
210
0.0
220
0.0
230
1.0
  2
NET
 70
     0
 71
     0
 91
        1
 92
        0
 93
        4
 72
     1
 10
200.2808975522377
 20
194.0745789971617
 11
201.7808975522377
 21
194.0745789971617
 72
     1
 10
201.7808975522377
 20
194.0745789971617
 11
201.7808975522377
 21
214.0745789971617
 72
     1
 10
201.7808975522377
 20
214.0745789971617
 11
200.2808975522377
 21
214.0745789971617
 72
     1
 10
200.2808975522377
 20
214.0745789971617
 11
200.2808975522377
 21
194.0745789971617
 97
        0
 75
     0
 76
     1
 52
134.999991007
 41
1.0
 77
     0
 78
     2
 53
134.9999910069555
 43
0.0
 44
0.0
 45
-2.24506438264855
 46
-2.245063677885971
 79
     0
 53
224.9999910069555
 43
0.0
 44
0.0
 45
2.245063677885971
 46
-2.24506438264855
 79
     0
 98
        1
 10
0.0
 20
0.0
  0
HATCH
  5
2F0
330
1F
100
AcDbEntity
  8
0
  6
Continuous
 62
     7
370
     0
100
AcDbHatch
 10
0.0
 20
0.0
 30
0.0
210
0.0
220
0.0
230
1.0
  2
ANSI33
 70
     0
 71
     0
 91
        1
 92
        0
 93
       30
 72
     1
 10
187.2808975522377
 20
208.0745789971617
 11
185.2808975522377
 21
210.0745789971617
 72
     1
 10
185.2808975522377
 20
210.0745789971617
 11
182.7808975522377
 21
210.0745789971617
 72
     1
 10
182.7808975522377
 20
210.0745789971617
 11
182.7808975522377
 21
180.0745789971617
 72
     1
 10
182.7808975522377
 20
180.0745789971617
 11
185.2808975522376
 21
180.0745789971617
 72
     1
 10
185.2808975522376
 20
180.0745789971617
 11
187.2808975522377
 21
182.0745789971617
 72
     1
 10
187.2808975522377
 20
182.0745789971617
 11
189.2808975522377
 21
180.0745789971617
 72
     1
 10
189.2808975522377
 20
180.0745789971617
 11
191.2808975522377
 21
180.0745789971617
 72
     1
 10
191.2808975522377
 20
180.0745789971617
 11
191.2808975522377
 21
181.2816857783483
 72
     2
 10
188.7808975522377
 20
181.2816857783483
 40
2.5
 50
0.0
 51
44.99999999999954
 73
     1
 72
     1
 10
190.548664505204
 20
183.0494527313146
 11
188.8666839898646
 21
184.7314332466541
 72
     2
 10
190.2808975522377
 20
186.1456468090272
 40
2.0
 50
135.0000000000011
 51
180.0
 73
     0
 72
     1
 10
188.2808975522377
 20
186.1456468090272
 11
188.2808975522377
 21
188.1651516316371
 72
     1
 10
188.2808975522377
 20
188.1651516316371
 11
188.1808975522377
 21
188.165151630808
 72
     1
 10
188.1808975522377
 20
188.165151630808
 11
188.1808975522377
 21
188.3218999677503
 72
     1
 10
188.1808975522377
 20
188.3218999677503
 11
188.2808975522377
 21
188.3218999650145
 72
     1
 10
188.2808975522377
 20
188.3218999650145
 11
188.2808975522377
 21
188.8997484962422
 72
     1
 10
188.2808975522377
 20
188.8997484962422
 11
188.1808975522377
 21
188.8997485033368
 72
     1
 10
188.1808975522377
 20
188.8997485033368
 11
188.1808975522377
 21
189.0576619140032
 72
     1
 10
188.1808975522377
 20
189.0576619140032
 11
188.2808975522377
 21
189.0576619160055
 72
     1
 10
188.2808975522377
 20
189.0576619160055
 11
188.2808975522377
 21
189.7632937814792
 72
     1
 10
188.2808975522377
 20
189.7632937814792
 11
188.1808975522377
 21
189.7632937947748
 72
     1
 10
188.1808975522377
 20
189.7632937947748
 11
188.1808975522377
 21
189.976638485381
 72
     1
 10
188.1808975522377
 20
189.976638485381
 11
188.2808975522377
 21
189.976638479341
 72
     1
 10
188.2808975522377
 20
189.976638479341
 11
188.2808975522377
 21
204.0035111852962
 72
     2
 10
190.2808975522377
 20
204.0035111852962
 40
2.0
 50
180.0
 51
225.0000000000014
 73
     0
 72
     1
 10
188.8666839898646
 20
205.4177247476693
 11
190.548664505204
 21
207.0997052630088
 72
     2
 10
188.7808975522377
 20
208.8674722159751
 40
2.5
 50
315.0000000000008
 51
360.0000000000008
 73
     1
 72
     1
 10
191.2808975522377
 20
208.8674722159751
 11
191.2808975522377
 21
210.0745789971617
 72
     1
 10
191.2808975522377
 20
210.0745789971617
 11
189.2808975522377
 21
210.0745789971617
 72
     1
 10
189.2808975522377
 20
210.0745789971617
 11
187.2808975522377
 21
208.0745789971617
 97
        0
 75
     0
 76
     1
 52
90.0
 41
1.0
 77
     0
 78
     2
 53
135.0000000000002
 43
0.0
 44
0.0
 45
-4.490128060534562
 46
-4.490128060534592
 79
     0
 53
135.0000000000002
 43
-0.0000000000000157
 44
4.49013
 45
-4.490128060534562
 46
-4.490128060534592
 79
     2
 49
3.175
 49
-1.5875
 98
        1
 10
0.0
 20
0.0
  0
HATCH
  5
2F1
330
1F
100
AcDbEntity
  8
0
  6
Continuous
 62
     7
370
     0
100
AcDbHatch
 10
0.0
 20
0.0
 30
0.0
210
0.0
220
0.0
230
1.0
  2
ANSI37
 70
     0
 71
     0
 91
        1
 92
        0
 93
        4
 72
     1
 10
182.7808975522377
 20
179.0745789971617
 11
182.7808975522377
 21
211.0745789971617
 72
     1
 10
182.7808975522377
 20
211.0745789971617
 11
179.5808975522377
 21
211.0745789971617
 72
     1
 10
179.5808975522377
 20
211.0745789971617
 11
179.5808975522377
 21
179.0745789971617
 72
     1
 10
179.5808975522377
 20
179.0745789971617
 11
182.7808975522377
 21
179.0745789971617
 97
        0
 75
     0
 76
     1
 52
0.0
 41
1.0
 77
     0
 78
     2
 53
45.0
 43
0.0
 44
0.0
 45
-2.245064030267288
 46
2.245064030267288
 79
     0
 53
135.0
 43
0.0
 44
0.0
 45
-2.245064030267288
 46
-2.245064030267288
 79
     0
 98
        1
 10
0.0
 20
0.0
  0
MTEXT
  5
2F2
330
1F
100
AcDbEntity
  8
0
  6
Continuous
 62
     7
370
     0
100
AcDbMText
 10
238.3748387977
 20
277.8620371051
 30
0.0
 40
5.0
 41
0.0
 71
     2
 72
     1
  1
A-A
  7
SLDTEXTSTYLE0
 73
     1
 44
1.0
  0
LINE
  5
2F3
330
1F
100
AcDbEntity
  8
0
  6
CENTERX2
 62
     7
370
     0
100
AcDbLine
 10
177.5808975522
 20
195.0745789972
 30
0.0
 11
184.7808975522
 21
195.0745789972
 31
0.0
  0
LINE
  5
2F4
330
1F
100
AcDbEntity
  8
0
  6
CENTERX2
 62
     7
370
     0
100
AcDbLine
 10
187.2808975522
 20
170.0745789972
 30
0.0
 11
187.2808975522
 21
184.0745789972
 31
0.0
  0
LINE
  5
2F5
330
1F
100
AcDbEntity
  8
0
  6
CENTERX2
 62
     7
370
     0
100
AcDbLine
 10
181.2808975522
 20
205.0745789972
 30
0.0
 11
208.2808975522
 21
205.0745789972
 31
0.0
  0
LINE
  5
2F6
330
1F
100
AcDbEntity
  8
0
  6
CENTERX2
 62
     7
370
     0
100
AcDbLine
 10
236.7808975522
 20
267.2637318603
 30
0.0
 11
236.7808975522
 21
175.6913428625
 31
0.0
  0
ENDSEC
  0
SECTION
  2
OBJECTS
  0
DICTIONARY
  5
C
330
0
100
AcDbDictionary
281
     1
  3
ACAD_GROUP
350
D
  3
ACAD_LAYOUT
350
1A
  3
ACAD_MLINESTYLE
350
17
  3
ACAD_PLOTSETTINGS
350
19
  3
ACAD_PLOTSTYLENAME
350
E
  0
DICTIONARY
  5
D
102
{ACAD_REACTORS
330
C
102
}
330
C
100
AcDbDictionary
281
     1
  0
DICTIONARY
  5
1A
102
{ACAD_REACTORS
330
C
102
}
330
C
100
AcDbDictionary
281
     1
  3
Layout1
350
1E
  3
Layout2
350
26
  3
Model
350
22
  0
DICTIONARY
  5
17
102
{ACAD_REACTORS
330
C
102
}
330
C
100
AcDbDictionary
281
     1
  3
Standard
350
18
  0
DICTIONARY
  5
19
102
{ACAD_REACTORS
330
C
102
}
330
C
100
AcDbDictionary
281
     1
  0
ACDBDICTIONARYWDFLT
  5
E
102
{ACAD_REACTORS
330
C
102
}
330
C
100
AcDbDictionary
281
     1
  3
Normal
350
F
100
AcDbDictionaryWithDefault
340
F
  0
LAYOUT
  5
1E
102
{ACAD_REACTORS
330
1A
102
}
330
1A
100
AcDbPlotSettings
  1

  2
none_device
  4

  6

 40
0.0
 41
0.0
 42
0.0
 43
0.0
 44
0.0
 45
0.0
 46
0.0
 47
0.0
 48
0.0
 49
0.0
140
0.0
141
0.0
142
1.0
143
1.0
 70
   688
 72
     0
 73
     0
 74
     5
  7

 75
    16
147
1.0
148
0.0
149
0.0
100
AcDbLayout
  1
Layout1
 70
     1
 71
     1
 10
0.0
 20
0.0
 11
420.0
 21
297.0
 12
0.0
 22
0.0
 32
0.0
 14
1.0000000000E+20
 24
1.0000000000E+20
 34
1.0000000000E+20
 15
-1.0000000000E+20
 25
-1.0000000000E+20
 35
-1.0000000000E+20
146
0.0
 13
0.0
 23
0.0
 33
0.0
 16
1.0
 26
0.0
 36
0.0
 17
0.0
 27
1.0
 37
0.0
 76
     0
330
1B
  0
LAYOUT
  5
26
102
{ACAD_REACTORS
330
1A
102
}
330
1A
100
AcDbPlotSettings
  1

  2
none_device
  4

  6

 40
0.0
 41
0.0
 42
0.0
 43
0.0
 44
0.0
 45
0.0
 46
0.0
 47
0.0
 48
0.0
 49
0.0
140
0.0
141
0.0
142
1.0
143
1.0
 70
   688
 72
     0
 73
     0
 74
     5
  7

 75
    16
147
1.0
148
0.0
149
0.0
100
AcDbLayout
  1
Layout2
 70
     1
 71
     2
 10
0.0
 20
0.0
 11
0.0
 21
0.0
 12
0.0
 22
0.0
 32
0.0
 14
0.0
 24
0.0
 34
0.0
 15
0.0
 25
0.0
 35
0.0
146
0.0
 13
0.0
 23
0.0
 33
0.0
 16
1.0
 26
0.0
 36
0.0
 17
0.0
 27
1.0
 37
0.0
 76
     0
330
23
  0
LAYOUT
  5
22
102
{ACAD_REACTORS
330
1A
102
}
330
1A
100
AcDbPlotSettings
  1

  2
none_device
  4

  6

 40
0.0
 41
0.0
 42
0.0
 43
0.0
 44
0.0
 45
0.0
 46
0.0
 47
0.0
 48
0.0
 49
0.0
140
0.0
141
0.0
142
1.0
143
1.0
 70
  1712
 72
     0
 73
     0
 74
     0
  7

 75
     0
147
1.0
148
0.0
149
0.0
100
AcDbLayout
  1
Model
 70
     1
 71
     0
 10
0.0
 20
0.0
 11
420.0
 21
297.0
 12
0.0
 22
0.0
 32
0.0
 14
0.0
 24
0.0
 34
0.0
 15
420.0
 25
297.0
 35
0.0
146
0.0
 13
0.0
 23
0.0
 33
0.0
 16
1.0
 26
0.0
 36
0.0
 17
0.0
 27
1.0
 37
0.0
 76
     0
330
1F
331
29
  0
MLINESTYLE
  5
18
102
{ACAD_REACTORS
330
17
102
}
330
17
100
AcDbMlineStyle
  2
Standard
 70
     0
  3

 62
   256
 51
90.0
 52
90.0
 71
     2
 49
0.5
 62
   256
  6
BYLAYER
 49
-0.5
 62
   256
  6
BYLAYER
  0
ACDBPLACEHOLDER
  5
F
102
{ACAD_REACTORS
330
E
102
}
330
E
  0
ENDSEC
  0
EOF
