  0
SECTION
  2
HEADER
  9
$ACADVER
  1
AC1032
  9
$ACADMAINTVER
 90
       55
  9
$DWGCODEPAGE
  3
ANSI_1252
  9
$LASTSAVEDBY
  1
f.studer
  9
$REQUIREDVERSIONS
160
                 0
  9
$INSBASE
 10
0.0
 20
0.0
 30
0.0
  9
$EXTMIN
 10
0.0
 20
0.0
 30
0.0
  9
$EXTMAX
 10
1260.0
 20
891.0
 30
0.0
  9
$LIMMIN
 10
0.0
 20
0.0
  9
$LIMMAX
 10
1260.0
 20
891.0
  9
$ORTHOMODE
 70
     0
  9
$REGENMODE
 70
     1
  9
$FILLMODE
 70
     1
  9
$QTEXTMODE
 70
     0
  9
$MIRRTEXT
 70
     1
  9
$LTSCALE
 40
3.0
  9
$ATTMODE
 70
     1
  9
$TEXTSIZE
 40
10.5
  9
$TRACEWID
 40
1.0
  9
$TEXTSTYLE
  7
STANDARD
  9
$CLAYER
  8
0
  9
$CELTYPE
  6
ByLayer
  9
$CECOLOR
 62
   256
  9
$CELTSCALE
 40
1.0
  9
$DISPSILH
 70
     0
  9
$DIMSCALE
 40
1.0
  9
$DIMASZ
 40
9.906
  9
$DIMEXO
 40
3.0
  9
$DIMDLI
 40
3.75
  9
$DIMRND
 40
0.0
  9
$DIMDLE
 40
0.0
  9
$DIMEXE
 40
3.0
  9
$DIMTP
 40
0.0
  9
$DIMTM
 40
0.0
  9
$DIMTXT
 40
10.5
  9
$DIMCEN
 40
2.5
  9
$DIMTSZ
 40
0.0
  9
$DIMTOL
 70
     0
  9
$DIMLIM
 70
     0
  9
$DIMTIH
 70
     1
  9
$DIMTOH
 70
     1
  9
$DIMSE1
 70
     0
  9
$DIMSE2
 70
     0
  9
$DIMTAD
 70
     1
  9
$DIMZIN
 70
     0
  9
$DIMBLK
  1

  9
$DIMASO
 70
     1
  9
$DIMSHO
 70
     1
  9
$DIMPOST
  1

  9
$DIMAPOST
  1

  9
$DIMALT
 70
     0
  9
$DIMALTD
 70
     3
  9
$DIMALTF
 40
0.0393700787
  9
$DIMLFAC
 40
1.0
  9
$DIMTOFL
 70
     1
  9
$DIMTVP
 40
0.0
  9
$DIMTIX
 70
     0
  9
$DIMSOXD
 70
     0
  9
$DIMSAH
 70
     0
  9
$DIMBLK1
  1

  9
$DIMBLK2
  1

  9
$DIMSTYLE
  2
ISO-25
  9
$DIMCLRD
 70
     0
  9
$DIMCLRE
 70
     0
  9
$DIMCLRT
 70
     0
  9
$DIMTFAC
 40
1.0
  9
$DIMGAP
 40
4.572
  9
$DIMJUST
 70
     0
  9
$DIMSD1
 70
     0
  9
$DIMSD2
 70
     0
  9
$DIMTOLJ
 70
     0
  9
$DIMTZIN
 70
     0
  9
$DIMALTZ
 70
     0
  9
$DIMALTTZ
 70
     0
  9
$DIMUPT
 70
     0
  9
$DIMDEC
 70
     2
  9
$DIMTDEC
 70
     2
  9
$DIMALTU
 70
     2
  9
$DIMALTTD
 70
     3
  9
$DIMTXSTY
  7
STANDARD
  9
$DIMAUNIT
 70
     0
  9
$DIMADEC
 70
     2
  9
$DIMALTRND
 40
0.0
  9
$DIMAZIN
 70
     0
  9
$DIMDSEP
 70
    44
  9
$DIMATFIT
 70
     3
  9
$DIMFRAC
 70
     0
  9
$DIMLDRBLK
  1

  9
$DIMLUNIT
 70
     2
  9
$DIMLWD
 70
    -2
  9
$DIMLWE
 70
    -2
  9
$DIMTMOVE
 70
     0
  9
$DIMFXL
 40
1.0
  9
$DIMFXLON
 70
     0
  9
$DIMJOGANG
 40
0.7853981634
  9
$DIMTFILL
 70
     0
  9
$DIMTFILLCLR
 70
     0
  9
$DIMARCSYM
 70
     0
  9
$DIMLTYPE
  6

  9
$DIMLTEX1
  6

  9
$DIMLTEX2
  6

  9
$DIMTXTDIRECTION
 70
     0
  9
$LUNITS
 70
     2
  9
$LUPREC
 70
     2
  9
$SKETCHINC
 40
1.0
  9
$FILLETRAD
 40
0.0
  9
$AUNITS
 70
     0
  9
$AUPREC
 70
     2
  9
$MENU
  1
.
  9
$ELEVATION
 40
0.0
  9
$PELEVATION
 40
0.0
  9
$THICKNESS
 40
0.0
  9
$LIMCHECK
 70
     0
  9
$CHAMFERA
 40
0.0
  9
$CHAMFERB
 40
0.0
  9
$CHAMFERC
 40
0.0
  9
$CHAMFERD
 40
0.0
  9
$SKPOLY
 70
     0
  9
$TDCREATE
 40
2460336.701370417
  9
$TDUCREATE
 40
2460336.65970375
  9
$TDUPDATE
 40
2460336.701371482
  9
$TDUUPDATE
 40
2460336.659704815
  9
$TDINDWG
 40
0.0000000116
  9
$TDUSRTIMER
 40
0.0000000116
  9
$USRTIMER
 70
     1
  9
$ANGBASE
 50
0.0
  9
$ANGDIR
 70
     0
  9
$PDMODE
 70
     0
  9
$PDSIZE
 40
-1.0
  9
$PLINEWID
 40
0.0
  9
$SPLFRAME
 70
     0
  9
$SPLINETYPE
 70
     6
  9
$SPLINESEGS
 70
     8
  9
$HANDSEED
  5
382
  9
$SURFTAB1
 70
     6
  9
$SURFTAB2
 70
     6
  9
$SURFTYPE
 70
     6
  9
$SURFU
 70
     6
  9
$SURFV
 70
     6
  9
$UCSBASE
  2

  9
$UCSNAME
  2

  9
$UCSORG
 10
0.0
 20
0.0
 30
0.0
  9
$UCSXDIR
 10
1.0
 20
0.0
 30
0.0
  9
$UCSYDIR
 10
0.0
 20
1.0
 30
0.0
  9
$UCSORTHOREF
  2

  9
$UCSORTHOVIEW
 70
     0
  9
$UCSORGTOP
 10
0.0
 20
0.0
 30
0.0
  9
$UCSORGBOTTOM
 10
0.0
 20
0.0
 30
0.0
  9
$UCSORGLEFT
 10
0.0
 20
0.0
 30
0.0
  9
$UCSORGRIGHT
 10
0.0
 20
0.0
 30
0.0
  9
$UCSORGFRONT
 10
0.0
 20
0.0
 30
0.0
  9
$UCSORGBACK
 10
0.0
 20
0.0
 30
0.0
  9
$PUCSBASE
  2

  9
$PUCSNAME
  2

  9
$PUCSORG
 10
0.0
 20
0.0
 30
0.0
  9
$PUCSXDIR
 10
1.0
 20
0.0
 30
0.0
  9
$PUCSYDIR
 10
0.0
 20
1.0
 30
0.0
  9
$PUCSORTHOREF
  2

  9
$PUCSORTHOVIEW
 70
     0
  9
$PUCSORGTOP
 10
0.0
 20
0.0
 30
0.0
  9
$PUCSORGBOTTOM
 10
0.0
 20
0.0
 30
0.0
  9
$PUCSORGLEFT
 10
0.0
 20
0.0
 30
0.0
  9
$PUCSORGRIGHT
 10
0.0
 20
0.0
 30
0.0
  9
$PUCSORGFRONT
 10
0.0
 20
0.0
 30
0.0
  9
$PUCSORGBACK
 10
0.0
 20
0.0
 30
0.0
  9
$USERI1
 70
     0
  9
$USERI2
 70
     0
  9
$USERI3
 70
     0
  9
$USERI4
 70
     0
  9
$USERI5
 70
     0
  9
$USERR1
 40
0.0
  9
$USERR2
 40
0.0
  9
$USERR3
 40
0.0
  9
$USERR4
 40
0.0
  9
$USERR5
 40
0.0
  9
$WORLDVIEW
 70
     1
  9
$SHADEDGE
 70
     3
  9
$SHADEDIF
 70
    70
  9
$TILEMODE
 70
     1
  9
$MAXACTVP
 70
    64
  9
$PINSBASE
 10
0.0
 20
0.0
 30
0.0
  9
$PLIMCHECK
 70
     0
  9
$PEXTMIN
 10
1.0000000000E+20
 20
1.0000000000E+20
 30
1.0000000000E+20
  9
$PEXTMAX
 10
-1.0000000000E+20
 20
-1.0000000000E+20
 30
-1.0000000000E+20
  9
$PLIMMIN
 10
0.0
 20
0.0
  9
$PLIMMAX
 10
420.0
 20
297.0
  9
$UNITMODE
 70
     0
  9
$VISRETAIN
 70
     1
  9
$PLINEGEN
 70
     0
  9
$PSLTSCALE
 70
     1
  9
$TREEDEPTH
 70
  3020
  9
$CMLSTYLE
  2
Standard
  9
$CMLJUST
 70
     0
  9
$CMLSCALE
 40
20.0
  9
$PROXYGRAPHICS
 70
     1
  9
$MEASUREMENT
 70
     1
  9
$CELWEIGHT
370
    -1
  9
$ENDCAPS
280
     0
  9
$JOINSTYLE
280
     0
  9
$LWDISPLAY
290
     1
  9
$INSUNITS
 70
     4
  9
$HYPERLINKBASE
  1

  9
$STYLESHEET
  1

  9
$XEDIT
290
     1
  9
$CEPSNTYPE
380
     0
  9
$PSTYLEMODE
290
     1
  9
$FINGERPRINTGUID
  2
{a145fd70-2734-4d79-8767-6f776b93b33d}
  9
$VERSIONGUID
  2
{FAEB1C32-E019-11D5-929B-00C0DF256EC4}
  9
$EXTNAMES
290
     1
  9
$PSVPSCALE
 40
0.0
  9
$OLESTARTUP
290
     0
  9
$SORTENTS
280
   127
  9
$INDEXCTL
280
     0
  9
$HIDETEXT
280
     1
  9
$XCLIPFRAME
280
     2
  9
$HALOGAP
280
     0
  9
$OBSCOLOR
 70
   257
  9
$OBSLTYPE
280
     0
  9
$INTERSECTIONDISPLAY
280
     0
  9
$INTERSECTIONCOLOR
 70
   257
  9
$DIMASSOC
280
     2
  9
$PROJECTNAME
  1

  9
$CAMERADISPLAY
290
     0
  9
$LENSLENGTH
 40
50.0
  9
$CAMERAHEIGHT
 40
0.0
  9
$STEPSPERSEC
 40
2.0
  9
$STEPSIZE
 40
6.0
  9
$3DDWFPREC
 40
2.0
  9
$PSOLWIDTH
 40
5.0
  9
$PSOLHEIGHT
 40
80.0
  9
$LOFTANG1
 40
1.5707963268
  9
$LOFTANG2
 40
1.5707963268
  9
$LOFTMAG1
 40
0.0
  9
$LOFTMAG2
 40
0.0
  9
$LOFTPARAM
 70
     7
  9
$LOFTNORMALS
280
     1
  9
$LATITUDE
 40
37.795
  9
$LONGITUDE
 40
-122.394
  9
$NORTHDIRECTION
 40
0.0
  9
$TIMEZONE
 70
 -8000
  9
$LIGHTGLYPHDISPLAY
280
     1
  9
$TILEMODELIGHTSYNCH
280
     1
  9
$CMATERIAL
347
44
  9
$SOLIDHIST
280
     0
  9
$SHOWHIST
280
     1
  9
$DWFFRAME
280
     2
  9
$DGNFRAME
280
     2
  9
$REALWORLDSCALE
290
     1
  9
$INTERFERECOLOR
 62
   256
  9
$CSHADOW
280
     0
  9
$SHADOWPLANELOCATION
 40
0.0
  0
ENDSEC
  0
SECTION
  2
CLASSES
  0
CLASS
  1
ACDBDICTIONARYWDFLT
  2
AcDbDictionaryWithDefault
  3
ObjectDBX Classes
 90
        0
 91
        3
280
     0
281
     0
  0
CLASS
  1
VISUALSTYLE
  2
AcDbVisualStyle
  3
ObjectDBX Classes
 90
     4095
 91
        3
280
     0
281
     0
  0
CLASS
  1
MATERIAL
  2
AcDbMaterial
  3
ObjectDBX Classes
 90
     1153
 91
        3
280
     0
281
     0
  0
CLASS
  1
SCALE
  2
AcDbScale
  3
ObjectDBX Classes
 90
     1153
 91
        3
280
     0
281
     0
  0
CLASS
  1
TABLESTYLE
  2
AcDbTableStyle
  3
ObjectDBX Classes
 90
     4095
 91
        3
280
     0
281
     0
  0
CLASS
  1
MLEADERSTYLE
  2
AcDbMLeaderStyle
  3
ACDB_MLEADERSTYLE_CLASS
 90
     4095
 91
        3
280
     0
281
     0
  0
CLASS
  1
SUN
  2
AcDbSun
  3
SCENEOE
 90
     1153
 91
        3
280
     0
281
     0
  0
CLASS
  1
DICTIONARYVAR
  2
AcDbDictionaryVar
  3
ObjectDBX Classes
 90
        0
 91
        3
280
     0
281
     0
  0
CLASS
  1
CELLSTYLEMAP
  2
AcDbCellStyleMap
  3
ObjectDBX Classes
 90
     1152
 91
        3
280
     0
281
     0
  0
ENDSEC
  0
SECTION
  2
TABLES
  0
TABLE
  2
VPORT
  5
8
330
0
100
AcDbSymbolTable
 70
     1
  0
VPORT
  5
29
330
8
100
AcDbSymbolTableRecord
100
AcDbViewportTableRecord
  2
*Active
 70
     0
 10
0.0
 20
0.0
 11
1.0
 21
1.0
 12
630.0
 22
445.5
 13
0.0
 23
0.0
 14
10.0
 24
10.0
 15
10.0
 25
10.0
 16
0.0
 26
0.0
 36
1.0
 17
0.0
 27
0.0
 37
0.0
 40
891.0
 41
1.4141414141
 42
50.0
 43
0.0
 44
0.0
 50
0.0
 51
0.0
 71
     0
 72
  2000
 73
     1
 74
     3
 75
     0
 76
     0
 77
     0
 78
     0
281
     0
 65
     1
110
0.0
120
0.0
130
0.0
111
1.0
121
0.0
131
0.0
112
0.0
122
1.0
132
0.0
 79
     0
146
0.0
348
2F
 60
     3
 61
     5
292
     1
282
     1
141
0.0
142
0.0
 63
   250
361
5D
  0
ENDTAB
  0
TABLE
  2
LTYPE
  5
5
330
0
100
AcDbSymbolTable
 70
     8
  0
LTYPE
  5
14
330
5
100
AcDbSymbolTableRecord
100
AcDbLinetypeTableRecord
  2
ByBlock
 70
     0
  3

 72
    65
 73
     0
 40
0.0
  0
LTYPE
  5
15
330
5
100
AcDbSymbolTableRecord
100
AcDbLinetypeTableRecord
  2
ByLayer
 70
     0
  3

 72
    65
 73
     0
 40
0.0
  0
LTYPE
  5
16
330
5
100
AcDbSymbolTableRecord
100
AcDbLinetypeTableRecord
  2
Continuous
 70
     0
  3
Solid line
 72
    65
 73
     0
 40
0.0
  0
LTYPE
  5
5E
330
5
100
AcDbSymbolTableRecord
100
AcDbLinetypeTableRecord
  2
SLD-Durchgehend
 70
     0
  3
SolidWorks Line Style
 72
    65
 73
     0
 40
0.0
  0
LTYPE
  5
5F
330
5
100
AcDbSymbolTableRecord
100
AcDbLinetypeTableRecord
  2
SLD-Gestrichelt
 70
     0
  3
SolidWorks Line Style
 72
    65
 73
     2
 40
1.905
 49
1.27
 74
     0
 49
-0.635
 74
     0
  0
LTYPE
  5
60
330
5
100
AcDbSymbolTableRecord
100
AcDbLinetypeTableRecord
  2
SLD-Phantom
 70
     0
  3
SolidWorks Line Style
 72
    65
 73
     6
 40
12.7
 49
6.35
 74
     0
 49
-1.27
 74
     0
 49
1.27
 74
     0
 49
-1.27
 74
     0
 49
1.27
 74
     0
 49
-1.27
 74
     0
  0
LTYPE
  5
61
330
5
100
AcDbSymbolTableRecord
100
AcDbLinetypeTableRecord
  2
SLD-Kette
 70
     0
  3
SolidWorks Line Style
 72
    65
 73
     4
 40
10.16
 49
6.35
 74
     0
 49
-1.27
 74
     0
 49
1.27
 74
     0
 49
-1.27
 74
     0
  0
LTYPE
  5
62
330
5
100
AcDbSymbolTableRecord
100
AcDbLinetypeTableRecord
  2
SLD-Punktstrich
 70
     0
  3
SolidWorks Line Style
 72
    65
 73
     4
 40
19.05
 49
15.24
 74
     0
 49
-1.27
 74
     0
 49
1.27
 74
     0
 49
-1.27
 74
     0
  0
LTYPE
  5
63
330
5
100
AcDbSymbolTableRecord
100
AcDbLinetypeTableRecord
  2
SLD-Naht
 70
     0
  3
SolidWorks Line Style
 72
    65
 73
     2
 40
0.635
 49
0.0
 74
     0
 49
-0.635
 74
     0
  0
LTYPE
  5
64
330
5
100
AcDbSymbolTableRecord
100
AcDbLinetypeTableRecord
  2
SLD-Dicke-Dünne-Kette
 70
     0
  3
SolidWorks Line Style
 72
    65
 73
     4
 40
10.16
 49
6.35
 74
     0
 49
-1.27
 74
     0
 49
1.27
 74
     0
 49
-1.27
 74
     0
  0
ENDTAB
  0
TABLE
  2
LAYER
  5
2
330
0
100
AcDbSymbolTable
 70
     4
  0
LAYER
  5
10
330
2
100
AcDbSymbolTableRecord
100
AcDbLayerTableRecord
  2
0
 70
     0
 62
     7
  6
Continuous
370
    -3
390
F
347
46
348
0
  0
LAYER
  5
65
330
2
100
AcDbSymbolTableRecord
100
AcDbLayerTableRecord
  2
RAHMEN
 70
     0
 62
   179
  6
SLD-Durchgehend
370
    -3
390
F
347
46
348
0
  0
LAYER
  5
66
330
2
100
AcDbSymbolTableRecord
100
AcDbLayerTableRecord
  2
KOPF
 70
     0
 62
     7
  6
SLD-Durchgehend
370
    -3
390
F
347
46
348
0
  0
LAYER
  5
67
330
2
100
AcDbSymbolTableRecord
100
AcDbLayerTableRecord
  2
ZEICHNUNG
 70
     0
 62
     7
  6
SLD-Durchgehend
370
    -3
390
F
347
46
348
0
  0
ENDTAB
  0
TABLE
  2
STYLE
  5
3
330
0
100
AcDbSymbolTable
 70
     2
  0
STYLE
  5
11
330
3
100
AcDbSymbolTableRecord
100
AcDbTextStyleTableRecord
  2
STANDARD
 70
     0
 40
0.0
 41
1.0
 50
0.0
 71
     0
 42
10.5
  3
GOTHIC.TTF
  4

1001
ACAD
1000
CENTURY GOTHIC
1071
       34
  0
STYLE
  5
F6
330
3
100
AcDbSymbolTableRecord
100
AcDbTextStyleTableRecord
  2
SLDTEXTSTYLE0
 70
     0
 40
0.0
 41
0.913
 50
0.0
 71
     0
 42
10.5
  3
GOTHIC.TTF
  4

1001
ACAD
1000
Century Gothic
1071
      290
  0
ENDTAB
  0
TABLE
  2
VIEW
  5
6
330
0
100
AcDbSymbolTable
 70
     0
  0
ENDTAB
  0
TABLE
  2
UCS
  5
7
330
0
100
AcDbSymbolTable
 70
     0
  0
ENDTAB
  0
TABLE
  2
APPID
  5
9
330
0
100
AcDbSymbolTable
 70
     1
  0
APPID
  5
12
330
9
100
AcDbSymbolTableRecord
100
AcDbRegAppTableRecord
  2
ACAD
 70
     0
  0
ENDTAB
  0
TABLE
  2
DIMSTYLE
  5
A
330
0
100
AcDbSymbolTable
 70
     7
100
AcDbDimStyleTable
  0
DIMSTYLE
105
27
330
A
100
AcDbSymbolTableRecord
100
AcDbDimStyleTableRecord
  2
ISO-25
 70
     0
 41
2.5
 42
0.625
 43
3.75
 44
1.25
 73
     0
 74
     0
 77
     1
 78
     8
140
2.5
141
2.5
143
0.0393700787
147
0.625
171
     3
172
     1
178
     0
271
     2
272
     2
274
     3
278
    44
283
     0
284
     8
340
11
  0
DIMSTYLE
105
F7
102
{ACAD_REACTORS
330
F5
330
103
330
10D
330
24A
330
36A
102
}
330
A
100
AcDbSymbolTableRecord
100
AcDbDimStyleTableRecord
  2
SLDDIMSTYLE0
 70
     0
 41
9.906
 44
0.0
 45
0.000000001
 73
     0
 74
     0
 77
     1
 78
    12
 79
     3
140
10.5
147
2.625
172
     1
173
     1
178
     0
271
     2
272
     2
276
     2
284
    12
289
     0
340
F6
  0
DIMSTYLE
105
11A
102
{ACAD_REACTORS
330
119
330
189
330
196
330
255
330
2E5
102
}
330
A
100
AcDbSymbolTableRecord
100
AcDbDimStyleTableRecord
  2
SLDDIMSTYLE1
 70
     0
 41
9.906
 44
0.0
 45
0.000000001
 73
     0
 74
     0
 77
     1
 78
    12
 79
     3
140
10.5
147
2.625
173
     1
178
     0
271
     0
272
     0
276
     2
284
    12
340
F6
  0
DIMSTYLE
105
1A1
102
{ACAD_REACTORS
330
1A0
330
349
330
353
102
}
330
A
100
AcDbSymbolTableRecord
100
AcDbDimStyleTableRecord
  2
SLDDIMSTYLE2
 70
     0
 41
9.906
 44
0.0
 45
0.000000001
 73
     0
 74
     0
 77
     1
 78
    12
 79
     3
140
10.5
147
2.625
173
     1
178
     0
271
     2
272
     2
276
     2
284
    12
340
F6
  0
DIMSTYLE
105
332
102
{ACAD_REACTORS
330
331
102
}
330
A
100
AcDbSymbolTableRecord
100
AcDbDimStyleTableRecord
  2
SLDDIMSTYLE3
 70
     0
 41
9.906
 44
0.0
 45
0.000000001
 73
     0
 74
     0
 77
     1
 78
     4
 79
     1
140
10.5
147
2.625
172
     1
173
     1
178
     0
271
     2
272
     2
276
     2
284
    12
289
     0
340
F6
  0
DIMSTYLE
105
33F
102
{ACAD_REACTORS
330
33E
102
}
330
A
100
AcDbSymbolTableRecord
100
AcDbDimStyleTableRecord
  2
SLDDIMSTYLE4
 70
     0
 41
9.906
 44
0.0
 45
0.000000001
 73
     0
 74
     0
 77
     1
 78
     4
 79
     1
140
10.5
147
2.625
173
     1
178
     0
271
     2
272
     2
276
     2
284
    12
340
F6
  0
DIMSTYLE
105
35E
102
{ACAD_REACTORS
330
35D
102
}
330
A
100
AcDbSymbolTableRecord
100
AcDbDimStyleTableRecord
  2
SLDDIMSTYLE5
 70
     0
 41
9.906
 44
0.0
 45
0.000000001
 73
     0
 74
     0
 77
     1
 78
    12
 79
     3
140
10.5
147
2.625
172
     1
173
     1
178
     0
271
     0
272
     0
276
     2
284
    12
289
     0
340
F6
  0
ENDTAB
  0
TABLE
  2
BLOCK_RECORD
  5
1
330
0
100
AcDbSymbolTable
 70
    17
  0
BLOCK_RECORD
  5
1F
330
1
100
AcDbSymbolTableRecord
100
AcDbBlockTableRecord
  2
*Model_Space
340
22
 70
     0
280
     1
281
     0
  0
BLOCK_RECORD
  5
1B
330
1
100
AcDbSymbolTableRecord
100
AcDbBlockTableRecord
  2
*Paper_Space
340
1E
 70
     0
280
     1
281
     0
  0
BLOCK_RECORD
  5
23
330
1
100
AcDbSymbolTableRecord
100
AcDbBlockTableRecord
  2
*Paper_Space0
340
26
 70
     0
280
     1
281
     0
  0
BLOCK_RECORD
  5
F8
330
1
100
AcDbSymbolTableRecord
100
AcDbBlockTableRecord
  2
_D
340
0
 70
     0
280
     1
281
     0
  0
BLOCK_RECORD
  5
104
330
1
100
AcDbSymbolTableRecord
100
AcDbBlockTableRecord
  2
_D_1
340
0
 70
     0
280
     1
281
     0
  0
BLOCK_RECORD
  5
10E
330
1
100
AcDbSymbolTableRecord
100
AcDbBlockTableRecord
  2
_D_2
340
0
 70
     0
280
     1
281
     0
  0
BLOCK_RECORD
  5
11B
330
1
100
AcDbSymbolTableRecord
100
AcDbBlockTableRecord
  2
_D_3
340
0
 70
     0
280
     1
281
     0
  0
BLOCK_RECORD
  5
18A
330
1
100
AcDbSymbolTableRecord
100
AcDbBlockTableRecord
  2
_D_4
340
0
 70
     0
280
     1
281
     0
  0
BLOCK_RECORD
  5
197
330
1
100
AcDbSymbolTableRecord
100
AcDbBlockTableRecord
  2
_D_5
340
0
 70
     0
280
     1
281
     0
  0
BLOCK_RECORD
  5
1A2
330
1
100
AcDbSymbolTableRecord
100
AcDbBlockTableRecord
  2
_D_6
340
0
 70
     0
280
     1
281
     0
  0
BLOCK_RECORD
  5
24B
330
1
100
AcDbSymbolTableRecord
100
AcDbBlockTableRecord
  2
_D_7
340
0
 70
     0
280
     1
281
     0
  0
BLOCK_RECORD
  5
256
330
1
100
AcDbSymbolTableRecord
100
AcDbBlockTableRecord
  2
_D_8
340
0
 70
     0
280
     1
281
     0
  0
BLOCK_RECORD
  5
2E6
330
1
100
AcDbSymbolTableRecord
100
AcDbBlockTableRecord
  2
_D_9
340
0
 70
     0
280
     1
281
     0
  0
BLOCK_RECORD
  5
333
330
1
100
AcDbSymbolTableRecord
100
AcDbBlockTableRecord
  2
_D_10
340
0
 70
     0
280
     1
281
     0
  0
BLOCK_RECORD
  5
340
330
1
100
AcDbSymbolTableRecord
100
AcDbBlockTableRecord
  2
_D_11
340
0
 70
     0
280
     1
281
     0
  0
BLOCK_RECORD
  5
34A
330
1
100
AcDbSymbolTableRecord
100
AcDbBlockTableRecord
  2
_D_12
340
0
 70
     0
280
     1
281
     0
  0
BLOCK_RECORD
  5
354
330
1
100
AcDbSymbolTableRecord
100
AcDbBlockTableRecord
  2
_D_13
340
0
 70
     0
280
     1
281
     0
  0
BLOCK_RECORD
  5
35F
330
1
100
AcDbSymbolTableRecord
100
AcDbBlockTableRecord
  2
_D_14
340
0
 70
     0
280
     1
281
     0
  0
BLOCK_RECORD
  5
36B
330
1
100
AcDbSymbolTableRecord
100
AcDbBlockTableRecord
  2
_D_15
340
0
 70
     0
280
     1
281
     0
  0
ENDTAB
  0
ENDSEC
  0
SECTION
  2
BLOCKS
  0
BLOCK
  5
20
330
1F
100
AcDbEntity
  8
0
100
AcDbBlockBegin
  2
*Model_Space
 70
     0
 10
0.0
 20
0.0
 30
0.0
  3
*Model_Space
  1

  0
ENDBLK
  5
21
330
1F
100
AcDbEntity
  8
0
100
AcDbBlockEnd
  0
BLOCK
  5
1C
330
1B
100
AcDbEntity
 67
     1
  8
0
100
AcDbBlockBegin
  2
*Paper_Space
 70
     0
 10
0.0
 20
0.0
 30
0.0
  3
*Paper_Space
  1

  0
ENDBLK
  5
1D
330
1B
100
AcDbEntity
 67
     1
  8
0
100
AcDbBlockEnd
  0
BLOCK
  5
24
330
23
100
AcDbEntity
  8
0
100
AcDbBlockBegin
  2
*Paper_Space0
 70
     0
 10
0.0
 20
0.0
 30
0.0
  3
*Paper_Space0
  1

  0
ENDBLK
  5
25
330
23
100
AcDbEntity
  8
0
100
AcDbBlockEnd
  0
BLOCK
  5
F9
330
F8
100
AcDbEntity
  8
0
100
AcDbBlockBegin
  2
_D
 70
     0
 10
0.0
 20
0.0
 30
0.0
  3
_D
  1

  0
SOLID
  5
FB
330
F8
100
AcDbEntity
  8
0
  6
SLD-Durchgehend
 62
     7
370
    18
100
AcDbTrace
 10
618.8045146953
 20
807.5122055365
 30
0.0
 11
608.8985146953
 21
809.0362055365
 31
0.0
 12
608.8985146953
 22
805.9882055365
 32
0.0
 13
608.8985146953
 23
805.9882055365
 33
0.0
  0
SOLID
  5
FC
330
F8
100
AcDbEntity
  8
0
  6
SLD-Durchgehend
 62
     7
370
    18
100
AcDbTrace
 10
646.8045146953
 20
807.5122055365
 30
0.0
 11
656.7105146953
 21
805.9882055365
 31
0.0
 12
656.7105146953
 22
809.0362055365
 32
0.0
 13
656.7105146953
 23
809.0362055365
 33
0.0
  0
LINE
  5
FD
330
F8
100
AcDbEntity
  8
0
  6
SLD-Durchgehend
 62
     7
370
     0
100
AcDbLine
 10
618.8045146953
 20
780.6243251397
 30
0.0
 11
618.8045146953
 21
810.5122055365
 31
0.0
  0
LINE
  5
FE
330
F8
100
AcDbEntity
  8
0
  6
SLD-Durchgehend
 62
     7
370
     0
100
AcDbLine
 10
646.8045146953
 20
780.6243251397
 30
0.0
 11
646.8045146953
 21
810.5122055365
 31
0.0
  0
LINE
  5
FF
330
F8
100
AcDbEntity
  8
0
  6
SLD-Durchgehend
 62
     7
370
     0
100
AcDbLine
 10
618.8045146953
 20
807.5122055365
 30
0.0
 11
599.7545146953
 21
807.5122055365
 31
0.0
  0
LINE
  5
100
330
F8
100
AcDbEntity
  8
0
  6
SLD-Durchgehend
 62
     7
370
     0
100
AcDbLine
 10
618.8045146953
 20
807.5122055365
 30
0.0
 11
646.8045146953
 21
807.5122055365
 31
0.0
  0
LINE
  5
101
330
F8
100
AcDbEntity
  8
0
  6
SLD-Durchgehend
 62
     7
370
     0
100
AcDbLine
 10
646.8045146953
 20
807.5122055365
 30
0.0
 11
665.8545146953
 21
807.5122055365
 31
0.0
  0
MTEXT
  5
102
330
F8
100
AcDbEntity
  8
0
  6
SLD-Durchgehend
 62
     7
370
    18
100
AcDbMText
 10
623.2846096689
 20
820.9243143876
 30
0.0
 40
10.5
 41
0.0
 46
0.0
 71
     1
 72
     1
  1
28
  7
SLDTEXTSTYLE0
 73
     1
 44
1.0
  0
ENDBLK
  5
FA
330
F8
100
AcDbEntity
  8
0
100
AcDbBlockEnd
  0
BLOCK
  5
105
330
104
100
AcDbEntity
  8
0
100
AcDbBlockBegin
  2
_D_1
 70
     0
 10
0.0
 20
0.0
 30
0.0
  3
_D_1
  1

  0
SOLID
  5
107
330
104
100
AcDbEntity
  8
0
  6
SLD-Durchgehend
 62
     7
370
    18
100
AcDbTrace
 10
602.8045146953
 20
825.7826903699
 30
0.0
 11
612.7105146953
 21
824.2586903699
 31
0.0
 12
612.7105146953
 22
827.3066903699
 32
0.0
 13
612.7105146953
 23
827.3066903699
 33
0.0
  0
SOLID
  5
108
330
104
100
AcDbEntity
  8
0
  6
SLD-Durchgehend
 62
     7
370
    18
100
AcDbTrace
 10
662.8045146953
 20
825.7826903699
 30
0.0
 11
652.8985146953
 21
827.3066903699
 31
0.0
 12
652.8985146953
 22
824.2586903699
 32
0.0
 13
652.8985146953
 23
824.2586903699
 33
0.0
  0
LINE
  5
109
330
104
100
AcDbEntity
  8
0
  6
SLD-Durchgehend
 62
     7
370
     0
100
AcDbLine
 10
602.8045146953
 20
780.6243251397
 30
0.0
 11
602.8045146953
 21
828.7826903699
 31
0.0
  0
LINE
  5
10A
330
104
100
AcDbEntity
  8
0
  6
SLD-Durchgehend
 62
     7
370
     0
100
AcDbLine
 10
662.8045146953
 20
780.6243251397
 30
0.0
 11
662.8045146953
 21
828.7826903699
 31
0.0
  0
LINE
  5
10B
330
104
100
AcDbEntity
  8
0
  6
SLD-Durchgehend
 62
     7
370
     0
100
AcDbLine
 10
602.8045146953
 20
825.7826903699
 30
0.0
 11
662.8045146953
 21
825.7826903699
 31
0.0
  0
MTEXT
  5
10C
330
104
100
AcDbEntity
  8
0
  6
SLD-Durchgehend
 62
     7
370
    18
100
AcDbMText
 10
622.5296504782
 20
839.194799221
 30
0.0
 40
10.5
 41
0.0
 46
0.0
 71
     1
 72
     1
  1
60
  7
SLDTEXTSTYLE0
 73
     1
 44
1.0
  0
ENDBLK
  5
106
330
104
100
AcDbEntity
  8
0
100
AcDbBlockEnd
  0
BLOCK
  5
10F
330
10E
100
AcDbEntity
  8
0
100
AcDbBlockBegin
  2
_D_2
 70
     0
 10
0.0
 20
0.0
 30
0.0
  3
_D_2
  1

  0
SOLID
  5
111
330
10E
100
AcDbEntity
  8
0
  6
SLD-Durchgehend
 62
     7
370
    18
100
AcDbTrace
 10
613.3045146953
 20
667.5046858877
 30
0.0
 11
603.3985146953
 21
669.0286858877
 31
0.0
 12
603.3985146953
 22
665.9806858877
 32
0.0
 13
603.3985146953
 23
665.9806858877
 33
0.0
  0
SOLID
  5
112
330
10E
100
AcDbEntity
  8
0
  6
SLD-Durchgehend
 62
     7
370
    18
100
AcDbTrace
 10
652.3045146953
 20
667.5046858877
 30
0.0
 11
662.2105146953
 21
665.9806858877
 31
0.0
 12
662.2105146953
 22
669.0286858877
 32
0.0
 13
662.2105146953
 23
669.0286858877
 33
0.0
  0
LINE
  5
113
330
10E
100
AcDbEntity
  8
0
  6
SLD-Durchgehend
 62
     7
370
     0
100
AcDbLine
 10
613.3045146953
 20
703.0243251397
 30
0.0
 11
613.3045146953
 21
664.5046858877
 31
0.0
  0
LINE
  5
114
330
10E
100
AcDbEntity
  8
0
  6
SLD-Durchgehend
 62
     7
370
     0
100
AcDbLine
 10
652.3045146953
 20
703.0243251397
 30
0.0
 11
652.3045146953
 21
664.5046858877
 31
0.0
  0
LINE
  5
115
330
10E
100
AcDbEntity
  8
0
  6
SLD-Durchgehend
 62
     7
370
     0
100
AcDbLine
 10
613.3045146953
 20
667.5046858877
 30
0.0
 11
594.2545146953
 21
667.5046858877
 31
0.0
  0
LINE
  5
116
330
10E
100
AcDbEntity
  8
0
  6
SLD-Durchgehend
 62
     7
370
     0
100
AcDbLine
 10
613.3045146953
 20
667.5046858877
 30
0.0
 11
652.3045146953
 21
667.5046858877
 31
0.0
  0
LINE
  5
117
330
10E
100
AcDbEntity
  8
0
  6
SLD-Durchgehend
 62
     7
370
     0
100
AcDbLine
 10
652.3045146953
 20
667.5046858877
 30
0.0
 11
671.3545146953
 21
667.5046858877
 31
0.0
  0
MTEXT
  5
118
330
10E
100
AcDbEntity
  8
0
  6
SLD-Durchgehend
 62
     7
370
    18
100
AcDbMText
 10
625.1841151167
 20
680.9167947388
 30
0.0
 40
10.5
 41
0.0
 46
0.0
 71
     1
 72
     1
  1
39
  7
SLDTEXTSTYLE0
 73
     1
 44
1.0
  0
ENDBLK
  5
110
330
10E
100
AcDbEntity
  8
0
100
AcDbBlockEnd
  0
BLOCK
  5
11C
330
11B
100
AcDbEntity
  8
0
100
AcDbBlockBegin
  2
_D_3
 70
     0
 10
0.0
 20
0.0
 30
0.0
  3
_D_3
  1

  0
SOLID
  5
11E
330
11B
100
AcDbEntity
  8
0
  6
SLD-Durchgehend
 62
     7
370
    18
100
AcDbTrace
 10
702.4033337127
 20
777.6243251397
 30
0.0
 11
700.8793337127
 21
767.7183251397
 31
0.0
 12
703.9273337127
 22
767.7183251397
 32
0.0
 13
703.9273337127
 23
767.7183251397
 33
0.0
  0
SOLID
  5
11F
330
11B
100
AcDbEntity
  8
0
  6
SLD-Durchgehend
 62
     7
370
    18
100
AcDbTrace
 10
702.4033337127
 20
706.0243251397
 30
0.0
 11
703.9273337127
 21
715.9303251397
 31
0.0
 12
700.8793337127
 22
715.9303251397
 32
0.0
 13
700.8793337127
 23
715.9303251397
 33
0.0
  0
LINE
  5
120
330
11B
100
AcDbEntity
  8
0
  6
SLD-Durchgehend
 62
     7
370
     0
100
AcDbLine
 10
656.8045146953
 20
777.6243251397
 30
0.0
 11
705.4033337127
 21
777.6243251397
 31
0.0
  0
LINE
  5
121
330
11B
100
AcDbEntity
  8
0
  6
SLD-Durchgehend
 62
     7
370
     0
100
AcDbLine
 10
653.3052000454
 20
706.0243251397
 30
0.0
 11
705.4033337127
 21
706.0243251397
 31
0.0
  0
LINE
  5
122
330
11B
100
AcDbEntity
  8
0
  6
SLD-Durchgehend
 62
     7
370
     0
100
AcDbLine
 10
702.4033337127
 20
777.6243251397
 30
0.0
 11
702.4033337127
 21
706.0243251397
 31
0.0
  0
MTEXT
  5
123
330
11B
100
AcDbEntity
  8
0
  6
SLD-Durchgehend
 62
     7
370
    18
100
AcDbMText
 10
688.9912248616
 20
736.0057672647
 30
0.0
 40
10.5
 41
0.0
 46
0.0
 71
     1
 72
     1
  1
72
  7
SLDTEXTSTYLE0
 11
-7.044195017643634E-15
 21
1.0
 31
0.0
 73
     1
 44
1.0
  0
ENDBLK
  5
11D
330
11B
100
AcDbEntity
  8
0
100
AcDbBlockEnd
  0
BLOCK
  5
18B
330
18A
100
AcDbEntity
  8
0
100
AcDbBlockBegin
  2
_D_4
 70
     0
 10
0.0
 20
0.0
 30
0.0
  3
_D_4
  1

  0
SOLID
  5
18D
330
18A
100
AcDbEntity
  8
0
  6
SLD-Durchgehend
 62
     7
370
    18
100
AcDbTrace
 10
516.4820153784
 20
615.7005289668
 30
0.0
 11
506.5760153784
 21
617.2245289668
 31
0.0
 12
506.5760153784
 22
614.1765289668
 32
0.0
 13
506.5760153784
 23
614.1765289668
 33
0.0
  0
SOLID
  5
18E
330
18A
100
AcDbEntity
  8
0
  6
SLD-Durchgehend
 62
     7
370
    18
100
AcDbTrace
 10
106.2880884568
 20
615.7005289668
 30
0.0
 11
116.1940884568
 21
614.1765289668
 31
0.0
 12
116.1940884568
 22
617.2245289668
 32
0.0
 13
116.1940884568
 23
617.2245289668
 33
0.0
  0
LINE
  5
18F
330
18A
100
AcDbEntity
  8
0
  6
SLD-Durchgehend
 62
     7
370
     0
100
AcDbLine
 10
516.4820153784
 20
703.0243251397
 30
0.0
 11
516.4820153784
 21
612.7005289668
 31
0.0
  0
LINE
  5
190
330
18A
100
AcDbEntity
  8
0
  6
SLD-Durchgehend
 62
     7
370
     0
100
AcDbLine
 10
106.2880884568
 20
774.6243251397
 30
0.0
 11
106.2880884568
 21
612.7005289668
 31
0.0
  0
LINE
  5
191
330
18A
100
AcDbEntity
  8
0
  6
SLD-Durchgehend
 62
     7
370
     0
100
AcDbLine
 10
516.4820153784
 20
615.7005289668
 30
0.0
 11
106.2880884568
 21
615.7005289668
 31
0.0
  0
MTEXT
  5
192
330
18A
100
AcDbEntity
  8
0
  6
SLD-Durchgehend
 62
     7
370
    18
100
AcDbMText
 10
224.8287046501
 20
645.7813877911
 30
0.0
 40
10.5
 41
0.0
 46
0.0
 71
     1
 72
     1
  1
BA40vc947 / 
  7
SLDTEXTSTYLE0
 73
     1
 44
1.0
  0
MTEXT
  5
193
330
18A
100
AcDbEntity
  8
0
  6
SLD-Durchgehend
 62
     7
370
    18
100
AcDbMText
 10
312.7078743824
 20
645.7813877911
 30
0.0
 40
10.5
 41
0.0
 46
0.0
 71
     1
 72
     1
  1
410
  7
SLDTEXTSTYLE0
 73
     1
 44
1.0
  0
MTEXT
  5
194
330
18A
100
AcDbEntity
  8
0
  6
SLD-Durchgehend
 62
     7
370
    18
100
AcDbMText
 10
335.9828772196
 20
645.7813877911
 30
0.0
 40
10.5
 41
0.0
 46
0.0
 71
     1
 72
     1
  1
-590mm
  7
SLDTEXTSTYLE0
 73
     1
 44
1.0
  0
MTEXT
  5
195
330
18A
100
AcDbEntity
  8
0
  6
SLD-Durchgehend
 62
     7
370
    18
100
AcDbMText
 10
226.8630763688
 20
629.1126378179
 30
0.0
 40
10.5
 41
0.0
 46
0.0
 71
     1
 72
     1
  1
BA40vc948 / 330-510cm
  7
SLDTEXTSTYLE0
 73
     1
 44
1.0
  0
ENDBLK
  5
18C
330
18A
100
AcDbEntity
  8
0
100
AcDbBlockEnd
  0
BLOCK
  5
198
330
197
100
AcDbEntity
  8
0
100
AcDbBlockBegin
  2
_D_5
 70
     0
 10
0.0
 20
0.0
 30
0.0
  3
_D_5
  1

  0
SOLID
  5
19A
330
197
100
AcDbEntity
  8
0
  6
SLD-Durchgehend
 62
     7
370
    18
100
AcDbTrace
 10
549.8166877865
 20
706.0243251397
 30
0.0
 11
551.3406877865
 21
715.9303251397
 31
0.0
 12
548.2926877865
 22
715.9303251397
 32
0.0
 13
548.2926877865
 23
715.9303251397
 33
0.0
  0
SOLID
  5
19B
330
197
100
AcDbEntity
  8
0
  6
SLD-Durchgehend
 62
     7
370
    18
100
AcDbTrace
 10
549.8166877865
 20
786.6243251397
 30
0.0
 11
548.2926877865
 21
776.7183251397
 31
0.0
 12
551.3406877865
 22
776.7183251397
 32
0.0
 13
551.3406877865
 23
776.7183251397
 33
0.0
  0
LINE
  5
19C
330
197
100
AcDbEntity
  8
0
  6
SLD-Durchgehend
 62
     7
370
     0
100
AcDbLine
 10
517.4827007285
 20
706.0243251397
 30
0.0
 11
552.8166877865
 21
706.0243251397
 31
0.0
  0
LINE
  5
19D
330
197
100
AcDbEntity
  8
0
  6
SLD-Durchgehend
 62
     7
370
     0
100
AcDbLine
 10
511.7880884569
 20
786.6243251397
 30
0.0
 11
552.8166877865
 21
786.6243251397
 31
0.0
  0
LINE
  5
19E
330
197
100
AcDbEntity
  8
0
  6
SLD-Durchgehend
 62
     7
370
     0
100
AcDbLine
 10
549.8166877865
 20
706.0243251397
 30
0.0
 11
549.8166877865
 21
786.6243251397
 31
0.0
  0
MTEXT
  5
19F
330
197
100
AcDbEntity
  8
0
  6
SLD-Durchgehend
 62
     7
370
    18
100
AcDbMText
 10
536.4045789354
 20
740.3997317907
 30
0.0
 40
10.5
 41
0.0
 46
0.0
 71
     1
 72
     1
  1
81
  7
SLDTEXTSTYLE0
 11
6.123233995736766E-17
 21
1.0
 31
0.0
 73
     1
 44
1.0
  0
ENDBLK
  5
199
330
197
100
AcDbEntity
  8
0
100
AcDbBlockEnd
  0
BLOCK
  5
1A3
330
1A2
100
AcDbEntity
  8
0
100
AcDbBlockBegin
  2
_D_6
 70
     0
 10
0.0
 20
0.0
 30
0.0
  3
_D_6
  1

  0
SOLID
  5
1A5
330
1A2
100
AcDbEntity
  8
0
  6
SLD-Durchgehend
 62
     7
370
    18
100
AcDbTrace
 10
516.4820153784
 20
672.5853236029
 30
0.0
 11
506.5760153784
 21
674.1093236029
 31
0.0
 12
506.5760153784
 22
671.0613236029
 32
0.0
 13
506.5760153784
 23
671.0613236029
 33
0.0
  0
SOLID
  5
1A6
330
1A2
100
AcDbEntity
  8
0
  6
SLD-Durchgehend
 62
     7
370
    18
100
AcDbTrace
 10
256.4820153784
 20
672.5853236029
 30
0.0
 11
266.3880153784
 21
671.0613236029
 31
0.0
 12
266.3880153784
 22
674.1093236029
 32
0.0
 13
266.3880153784
 23
674.1093236029
 33
0.0
  0
LINE
  5
1A7
330
1A2
100
AcDbEntity
  8
0
  6
SLD-Durchgehend
 62
     7
370
     0
100
AcDbLine
 10
516.4820153784
 20
703.0243251397
 30
0.0
 11
516.4820153784
 21
669.5853236029
 31
0.0
  0
LINE
  5
1A8
330
1A2
100
AcDbEntity
  8
0
  6
SLD-Durchgehend
 62
     7
370
     0
100
AcDbLine
 10
256.4820153784
 20
703.0243251397
 30
0.0
 11
256.4820153784
 21
669.5853236029
 31
0.0
  0
LINE
  5
1A9
330
1A2
100
AcDbEntity
  8
0
  6
SLD-Durchgehend
 62
     7
370
     0
100
AcDbLine
 10
516.4820153784
 20
672.5853236029
 30
0.0
 11
256.4820153784
 21
672.5853236029
 31
0.0
  0
MTEXT
  5
1AA
330
1A2
100
AcDbEntity
  8
0
  6
SLD-Durchgehend
 62
     7
370
    18
100
AcDbMText
 10
360.4243387285
 20
685.9974324541
 30
0.0
 40
10.5
 41
0.0
 46
0.0
 71
     1
 72
     1
  1
260
  7
SLDTEXTSTYLE0
 73
     1
 44
1.0
  0
ENDBLK
  5
1A4
330
1A2
100
AcDbEntity
  8
0
100
AcDbBlockEnd
  0
BLOCK
  5
24C
330
24B
100
AcDbEntity
  8
0
100
AcDbBlockBegin
  2
_D_7
 70
     0
 10
0.0
 20
0.0
 30
0.0
  3
_D_7
  1

  0
SOLID
  5
24E
330
24B
100
AcDbEntity
  8
0
  6
SLD-Durchgehend
 62
     7
370
    18
100
AcDbTrace
 10
646.8045146953
 20
342.1164624541
 30
0.0
 11
636.8985146953
 21
343.6404624541
 31
0.0
 12
636.8985146953
 22
340.5924624541
 32
0.0
 13
636.8985146953
 23
340.5924624541
 33
0.0
  0
SOLID
  5
24F
330
24B
100
AcDbEntity
  8
0
  6
SLD-Durchgehend
 62
     7
370
    18
100
AcDbTrace
 10
660.8045146953
 20
342.1164624541
 30
0.0
 11
670.7105146953
 21
340.5924624541
 31
0.0
 12
670.7105146953
 22
343.6404624541
 32
0.0
 13
670.7105146953
 23
343.6404624541
 33
0.0
  0
LINE
  5
250
330
24B
100
AcDbEntity
  8
0
  6
SLD-Durchgehend
 62
     7
370
     0
100
AcDbLine
 10
646.8045146953
 20
342.1164624541
 30
0.0
 11
627.7545146953
 21
342.1164624541
 31
0.0
  0
LINE
  5
251
330
24B
100
AcDbEntity
  8
0
  6
SLD-Durchgehend
 62
     7
370
     0
100
AcDbLine
 10
646.8045146953
 20
342.1164624541
 30
0.0
 11
660.8045146953
 21
342.1164624541
 31
0.0
  0
LINE
  5
252
330
24B
100
AcDbEntity
  8
0
  6
SLD-Durchgehend
 62
     7
370
     0
100
AcDbLine
 10
660.8045146953
 20
342.1164624541
 30
0.0
 11
703.288205834
 21
342.1164624541
 31
0.0
  0
MTEXT
  5
253
330
24B
100
AcDbEntity
  8
0
  6
SLD-Durchgehend
 62
     7
370
    18
100
AcDbMText
 10
671.9362250807
 20
355.5285718291
 30
0.0
 40
10.5
 41
0.0
 46
0.0
 71
     1
 72
     1
  1
%%c
  7
SLDTEXTSTYLE0
 73
     1
 44
1.0
  0
MTEXT
  5
254
330
24B
100
AcDbEntity
  8
0
  6
SLD-Durchgehend
 62
     7
370
    18
100
AcDbMText
 10
687.7715372759
 20
355.688988359
 30
0.0
 40
10.5
 41
0.0
 46
0.0
 71
     1
 72
     1
  1
14
  7
SLDTEXTSTYLE0
 73
     1
 44
1.0
  0
ENDBLK
  5
24D
330
24B
100
AcDbEntity
  8
0
100
AcDbBlockEnd
  0
BLOCK
  5
257
330
256
100
AcDbEntity
  8
0
100
AcDbBlockBegin
  2
_D_8
 70
     0
 10
0.0
 20
0.0
 30
0.0
  3
_D_8
  1

  0
SOLID
  5
259
330
256
100
AcDbEntity
  8
0
  6
SLD-Durchgehend
 62
     7
370
    18
100
AcDbTrace
 10
582.4260032763
 20
598.7617800457
 30
0.0
 11
580.9020032763
 21
588.8557800457
 31
0.0
 12
583.9500032763
 22
588.8557800457
 32
0.0
 13
583.9500032763
 23
588.8557800457
 33
0.0
  0
SOLID
  5
25A
330
256
100
AcDbEntity
  8
0
  6
SLD-Durchgehend
 62
     7
370
    18
100
AcDbTrace
 10
582.4260032763
 20
217.5267860505
 30
0.0
 11
583.9500032763
 21
227.4327860505
 31
0.0
 12
580.9020032763
 22
227.4327860505
 32
0.0
 13
580.9020032763
 23
227.4327860505
 33
0.0
  0
LINE
  5
25B
330
256
100
AcDbEntity
  8
0
  6
SLD-Durchgehend
 62
     7
370
     0
100
AcDbLine
 10
599.8045146953
 20
598.7617800457
 30
0.0
 11
579.4260032763
 21
598.7617800457
 31
0.0
  0
LINE
  5
25C
330
256
100
AcDbEntity
  8
0
  6
SLD-Durchgehend
 62
     7
370
     0
100
AcDbLine
 10
601.8045146953
 20
217.5267860505
 30
0.0
 11
579.4260032763
 21
217.5267860505
 31
0.0
  0
LINE
  5
25D
330
256
100
AcDbEntity
  8
0
  6
SLD-Durchgehend
 62
     7
370
     0
100
AcDbLine
 10
582.4260032763
 20
598.7617800457
 30
0.0
 11
582.4260032763
 21
217.5267860505
 31
0.0
  0
MTEXT
  5
25E
330
256
100
AcDbEntity
  8
0
  6
SLD-Durchgehend
 62
     7
370
    18
100
AcDbMText
 10
569.0138944252
 20
419.0619548662
 30
0.0
 40
10.5
 41
0.0
 46
0.0
 71
     1
 72
     1
  1
381
  7
SLDTEXTSTYLE0
 11
-7.044195017643634E-15
 21
1.0
 31
0.0
 73
     1
 44
1.0
  0
ENDBLK
  5
258
330
256
100
AcDbEntity
  8
0
100
AcDbBlockEnd
  0
BLOCK
  5
2E7
330
2E6
100
AcDbEntity
  8
0
100
AcDbBlockBegin
  2
_D_9
 70
     0
 10
0.0
 20
0.0
 30
0.0
  3
_D_9
  1

  0
SOLID
  5
2E9
330
2E6
100
AcDbEntity
  8
0
  6
SLD-Durchgehend
 62
     7
370
    18
100
AcDbTrace
 10
878.8716475847
 20
706.0243251397
 30
0.0
 11
880.3956475847
 21
715.9303251397
 31
0.0
 12
877.3476475847
 22
715.9303251397
 32
0.0
 13
877.3476475847
 23
715.9303251397
 33
0.0
  0
SOLID
  5
2EA
330
2E6
100
AcDbEntity
  8
0
  6
SLD-Durchgehend
 62
     7
370
    18
100
AcDbTrace
 10
878.8716475847
 20
813.4243251397
 30
0.0
 11
877.3476475847
 21
803.5183251397
 31
0.0
 12
880.3956475847
 22
803.5183251397
 32
0.0
 13
880.3956475847
 23
803.5183251397
 33
0.0
  0
LINE
  5
2EB
330
2E6
100
AcDbEntity
  8
0
  6
SLD-Durchgehend
 62
     7
370
     0
100
AcDbLine
 10
832.3832259347
 20
706.0243251397
 30
0.0
 11
881.8716475847
 21
706.0243251397
 31
0.0
  0
LINE
  5
2EC
330
2E6
100
AcDbEntity
  8
0
  6
SLD-Durchgehend
 62
     7
370
     0
100
AcDbLine
 10
814.9825405847
 20
813.4243251397
 30
0.0
 11
881.8716475847
 21
813.4243251397
 31
0.0
  0
LINE
  5
2ED
330
2E6
100
AcDbEntity
  8
0
  6
SLD-Durchgehend
 62
     7
370
     0
100
AcDbLine
 10
878.8716475847
 20
706.0243251397
 30
0.0
 11
878.8716475847
 21
813.4243251397
 31
0.0
  0
MTEXT
  5
2EE
330
2E6
100
AcDbEntity
  8
0
  6
SLD-Durchgehend
 62
     7
370
    18
100
AcDbMText
 10
865.4595387336
 20
751.9794808794
 30
0.0
 40
10.5
 41
0.0
 46
0.0
 71
     1
 72
     1
  1
107
  7
SLDTEXTSTYLE0
 11
6.123233995736766E-17
 21
1.0
 31
0.0
 73
     1
 44
1.0
  0
ENDBLK
  5
2E8
330
2E6
100
AcDbEntity
  8
0
100
AcDbBlockEnd
  0
BLOCK
  5
334
330
333
100
AcDbEntity
  8
0
100
AcDbBlockBegin
  2
_D_10
 70
     0
 10
0.0
 20
0.0
 30
0.0
  3
_D_10
  1

  0
SOLID
  5
336
330
333
100
AcDbEntity
  8
0
  6
SLD-Durchgehend
 62
     7
370
    18
100
AcDbTrace
 10
223.8132736474
 20
477.0363693189
 30
0.0
 11
225.3372736474
 21
486.9423693189
 31
0.0
 12
222.2892736474
 22
486.9423693189
 32
0.0
 13
222.2892736474
 23
486.9423693189
 33
0.0
  0
SOLID
  5
337
330
333
100
AcDbEntity
  8
0
  6
SLD-Durchgehend
 62
     7
370
    18
100
AcDbTrace
 10
223.8132736474
 20
441.5348611977
 30
0.0
 11
222.2892736474
 21
431.6288611977
 31
0.0
 12
225.3372736474
 22
431.6288611977
 32
0.0
 13
225.3372736474
 23
431.6288611977
 33
0.0
  0
LINE
  5
338
330
333
100
AcDbEntity
  8
0
  6
SLD-Durchgehend
 62
     7
370
     0
100
AcDbLine
 10
257.7320153784
 20
477.0363693189
 30
0.0
 11
220.8132736474
 21
477.0363693189
 31
0.0
  0
LINE
  5
339
330
333
100
AcDbEntity
  8
0
  6
SLD-Durchgehend
 62
     7
370
     0
100
AcDbLine
 10
257.7320153784
 20
441.5348611977
 30
0.0
 11
220.8132736474
 21
441.5348611977
 31
0.0
  0
LINE
  5
33A
330
333
100
AcDbEntity
  8
0
  6
SLD-Durchgehend
 62
     7
370
     0
100
AcDbLine
 10
223.8132736474
 20
477.0363693189
 30
0.0
 11
223.8132736474
 21
496.0863693189
 31
0.0
  0
LINE
  5
33B
330
333
100
AcDbEntity
  8
0
  6
SLD-Durchgehend
 62
     7
370
     0
100
AcDbLine
 10
223.8132736474
 20
477.0363693189
 30
0.0
 11
223.8132736474
 21
441.5348611977
 31
0.0
  0
LINE
  5
33C
330
333
100
AcDbEntity
  8
0
  6
SLD-Durchgehend
 62
     7
370
     0
100
AcDbLine
 10
223.8132736474
 20
441.5348611977
 30
0.0
 11
223.8132736474
 21
422.4848611977
 31
0.0
  0
MTEXT
  5
33D
330
333
100
AcDbEntity
  8
0
  6
SLD-Durchgehend
 62
     7
370
    18
100
AcDbMText
 10
210.4011647963
 20
442.9410303402
 30
0.0
 40
10.5
 41
0.0
 46
0.0
 71
     1
 72
     1
  1
35.50
  7
SLDTEXTSTYLE0
 11
-3.491481338843133E-15
 21
1.0
 31
0.0
 73
     1
 44
1.0
  0
ENDBLK
  5
335
330
333
100
AcDbEntity
  8
0
100
AcDbBlockEnd
  0
BLOCK
  5
341
330
340
100
AcDbEntity
  8
0
100
AcDbBlockBegin
  2
_D_11
 70
     0
 10
0.0
 20
0.0
 30
0.0
  3
_D_11
  1

  0
SOLID
  5
343
330
340
100
AcDbEntity
  8
0
  6
SLD-Durchgehend
 62
     7
370
    18
100
AcDbTrace
 10
259.2320153784
 20
524.3376704541
 30
0.0
 11
269.1380153784
 21
522.8136704541
 31
0.0
 12
269.1380153784
 22
525.8616704541
 32
0.0
 13
269.1380153784
 23
525.8616704541
 33
0.0
  0
SOLID
  5
344
330
340
100
AcDbEntity
  8
0
  6
SLD-Durchgehend
 62
     7
370
    18
100
AcDbTrace
 10
513.7320153784
 20
524.3376704541
 30
0.0
 11
503.8260153784
 21
525.8616704541
 31
0.0
 12
503.8260153784
 22
522.8136704541
 32
0.0
 13
503.8260153784
 23
522.8136704541
 33
0.0
  0
LINE
  5
345
330
340
100
AcDbEntity
  8
0
  6
SLD-Durchgehend
 62
     7
370
     0
100
AcDbLine
 10
259.2320153784
 20
474.7856152583
 30
0.0
 11
259.2320153784
 21
527.3376704541
 31
0.0
  0
LINE
  5
346
330
340
100
AcDbEntity
  8
0
  6
SLD-Durchgehend
 62
     7
370
     0
100
AcDbLine
 10
513.7320153784
 20
474.7856152583
 30
0.0
 11
513.7320153784
 21
527.3376704541
 31
0.0
  0
LINE
  5
347
330
340
100
AcDbEntity
  8
0
  6
SLD-Durchgehend
 62
     7
370
     0
100
AcDbLine
 10
259.2320153784
 20
524.3376704541
 30
0.0
 11
513.7320153784
 21
524.3376704541
 31
0.0
  0
MTEXT
  5
348
330
340
100
AcDbEntity
  8
0
  6
SLD-Durchgehend
 62
     7
370
    18
100
AcDbMText
 10
353.2307091816
 20
537.7497793052
 30
0.0
 40
10.5
 41
0.0
 46
0.0
 71
     1
 72
     1
  1
254.50
  7
SLDTEXTSTYLE0
 73
     1
 44
1.0
  0
ENDBLK
  5
342
330
340
100
AcDbEntity
  8
0
100
AcDbBlockEnd
  0
BLOCK
  5
34B
330
34A
100
AcDbEntity
  8
0
100
AcDbBlockBegin
  2
_D_12
 70
     0
 10
0.0
 20
0.0
 30
0.0
  3
_D_12
  1

  0
SOLID
  5
34D
330
34A
100
AcDbEntity
  8
0
  6
SLD-Durchgehend
 62
     7
370
    18
100
AcDbTrace
 10
498.4820153784
 20
387.0794354331
 30
0.0
 11
488.5760153784
 21
388.6034354331
 31
0.0
 12
488.5760153784
 22
385.5554354331
 32
0.0
 13
488.5760153784
 23
385.5554354331
 33
0.0
  0
SOLID
  5
34E
330
34A
100
AcDbEntity
  8
0
  6
SLD-Durchgehend
 62
     7
370
    18
100
AcDbTrace
 10
274.4820153784
 20
387.0794354331
 30
0.0
 11
284.3880153784
 21
385.5554354331
 31
0.0
 12
284.3880153784
 22
388.6034354331
 32
0.0
 13
284.3880153784
 23
388.6034354331
 33
0.0
  0
LINE
  5
34F
330
34A
100
AcDbEntity
  8
0
  6
SLD-Durchgehend
 62
     7
370
     0
100
AcDbLine
 10
498.4820153784
 20
456.2856152583
 30
0.0
 11
498.4820153784
 21
384.0794354331
 31
0.0
  0
LINE
  5
350
330
34A
100
AcDbEntity
  8
0
  6
SLD-Durchgehend
 62
     7
370
     0
100
AcDbLine
 10
274.4820153784
 20
456.2856152583
 30
0.0
 11
274.4820153784
 21
384.0794354331
 31
0.0
  0
LINE
  5
351
330
34A
100
AcDbEntity
  8
0
  6
SLD-Durchgehend
 62
     7
370
     0
100
AcDbLine
 10
498.4820153784
 20
387.0794354331
 30
0.0
 11
274.4820153784
 21
387.0794354331
 31
0.0
  0
MTEXT
  5
352
330
34A
100
AcDbEntity
  8
0
  6
SLD-Durchgehend
 62
     7
370
    18
100
AcDbMText
 10
362.9286270304
 20
400.4915442842
 30
0.0
 40
10.5
 41
0.0
 46
0.0
 71
     1
 72
     1
  1
224
  7
SLDTEXTSTYLE0
 73
     1
 44
1.0
  0
ENDBLK
  5
34C
330
34A
100
AcDbEntity
  8
0
100
AcDbBlockEnd
  0
BLOCK
  5
355
330
354
100
AcDbEntity
  8
0
100
AcDbBlockBegin
  2
_D_13
 70
     0
 10
0.0
 20
0.0
 30
0.0
  3
_D_13
  1

  0
SOLID
  5
357
330
354
100
AcDbEntity
  8
0
  6
SLD-Durchgehend
 62
     7
370
    18
100
AcDbTrace
 10
334.4820153784
 20
412.3050261906
 30
0.0
 11
344.3880153784
 21
410.7810261906
 31
0.0
 12
344.3880153784
 22
413.8290261906
 32
0.0
 13
344.3880153784
 23
413.8290261906
 33
0.0
  0
SOLID
  5
358
330
354
100
AcDbEntity
  8
0
  6
SLD-Durchgehend
 62
     7
370
    18
100
AcDbTrace
 10
438.4820153784
 20
412.3050261906
 30
0.0
 11
428.5760153784
 21
413.8290261906
 31
0.0
 12
428.5760153784
 22
410.7810261906
 32
0.0
 13
428.5760153784
 23
410.7810261906
 33
0.0
  0
LINE
  5
359
330
354
100
AcDbEntity
  8
0
  6
SLD-Durchgehend
 62
     7
370
     0
100
AcDbLine
 10
334.4820153784
 20
456.2856152583
 30
0.0
 11
334.4820153784
 21
409.3050261906
 31
0.0
  0
LINE
  5
35A
330
354
100
AcDbEntity
  8
0
  6
SLD-Durchgehend
 62
     7
370
     0
100
AcDbLine
 10
438.4820153784
 20
456.2856152583
 30
0.0
 11
438.4820153784
 21
409.3050261906
 31
0.0
  0
LINE
  5
35B
330
354
100
AcDbEntity
  8
0
  6
SLD-Durchgehend
 62
     7
370
     0
100
AcDbLine
 10
334.4820153784
 20
412.3050261906
 30
0.0
 11
438.4820153784
 21
412.3050261906
 31
0.0
  0
MTEXT
  5
35C
330
354
100
AcDbEntity
  8
0
  6
SLD-Durchgehend
 62
     7
370
    18
100
AcDbMText
 10
362.9286270304
 20
425.7171350417
 30
0.0
 40
10.5
 41
0.0
 46
0.0
 71
     1
 72
     1
  1
104
  7
SLDTEXTSTYLE0
 73
     1
 44
1.0
  0
ENDBLK
  5
356
330
354
100
AcDbEntity
  8
0
100
AcDbBlockEnd
  0
BLOCK
  5
360
330
35F
100
AcDbEntity
  8
0
100
AcDbBlockBegin
  2
_D_14
 70
     0
 10
0.0
 20
0.0
 30
0.0
  3
_D_14
  1

  0
SOLID
  5
362
330
35F
100
AcDbEntity
  8
0
  6
SLD-Durchgehend
 62
     7
370
    18
100
AcDbTrace
 10
498.4820153784
 20
499.4210862455
 30
0.0
 11
488.5760153784
 21
500.9450862455
 31
0.0
 12
488.5760153784
 22
497.8970862455
 32
0.0
 13
488.5760153784
 23
497.8970862455
 33
0.0
  0
SOLID
  5
363
330
35F
100
AcDbEntity
  8
0
  6
SLD-Durchgehend
 62
     7
370
    18
100
AcDbTrace
 10
513.7320153784
 20
499.4210862455
 30
0.0
 11
523.6380153784
 21
497.8970862455
 31
0.0
 12
523.6380153784
 22
500.9450862455
 32
0.0
 13
523.6380153784
 23
500.9450862455
 33
0.0
  0
LINE
  5
364
330
35F
100
AcDbEntity
  8
0
  6
SLD-Durchgehend
 62
     7
370
     0
100
AcDbLine
 10
498.4820153784
 20
462.2856152583
 30
0.0
 11
498.4820153784
 21
502.4210862455
 31
0.0
  0
LINE
  5
365
330
35F
100
AcDbEntity
  8
0
  6
SLD-Durchgehend
 62
     7
370
     0
100
AcDbLine
 10
513.7320153784
 20
474.7856152583
 30
0.0
 11
513.7320153784
 21
502.4210862455
 31
0.0
  0
LINE
  5
366
330
35F
100
AcDbEntity
  8
0
  6
SLD-Durchgehend
 62
     7
370
     0
100
AcDbLine
 10
498.4820153784
 20
499.4210862455
 30
0.0
 11
479.4320153784
 21
499.4210862455
 31
0.0
  0
LINE
  5
367
330
35F
100
AcDbEntity
  8
0
  6
SLD-Durchgehend
 62
     7
370
     0
100
AcDbLine
 10
498.4820153784
 20
499.4210862455
 30
0.0
 11
513.7320153784
 21
499.4210862455
 31
0.0
  0
LINE
  5
368
330
35F
100
AcDbEntity
  8
0
  6
SLD-Durchgehend
 62
     7
370
     0
100
AcDbLine
 10
513.7320153784
 20
499.4210862455
 30
0.0
 11
548.9605091132
 21
499.4210862455
 31
0.0
  0
MTEXT
  5
369
330
35F
100
AcDbEntity
  8
0
  6
SLD-Durchgehend
 62
     7
370
    18
100
AcDbMText
 10
533.4438419521
 20
512.8331950967
 30
0.0
 40
10.5
 41
0.0
 46
0.0
 71
     1
 72
     1
  1
15
  7
SLDTEXTSTYLE0
 73
     1
 44
1.0
  0
ENDBLK
  5
361
330
35F
100
AcDbEntity
  8
0
100
AcDbBlockEnd
  0
BLOCK
  5
36C
330
36B
100
AcDbEntity
  8
0
100
AcDbBlockBegin
  2
_D_15
 70
     0
 10
0.0
 20
0.0
 30
0.0
  3
_D_15
  1

  0
SOLID
  5
36E
330
36B
100
AcDbEntity
  8
0
  6
SLD-Durchgehend
 62
     7
370
    18
100
AcDbTrace
 10
271.9820153784
 20
494.9933886267
 30
0.0
 11
262.0760153784
 21
496.5173886267
 31
0.0
 12
262.0760153784
 22
493.4693886267
 32
0.0
 13
262.0760153784
 23
493.4693886267
 33
0.0
  0
SOLID
  5
36F
330
36B
100
AcDbEntity
  8
0
  6
SLD-Durchgehend
 62
     7
370
    18
100
AcDbTrace
 10
276.9820153784
 20
494.9933886267
 30
0.0
 11
286.8880153784
 21
493.4693886267
 31
0.0
 12
286.8880153784
 22
496.5173886267
 32
0.0
 13
286.8880153784
 23
496.5173886267
 33
0.0
  0
LINE
  5
370
330
36B
100
AcDbEntity
  8
0
  6
SLD-Durchgehend
 62
     7
370
     0
100
AcDbLine
 10
271.9820153784
 20
462.2856152583
 30
0.0
 11
271.9820153784
 21
497.9933886267
 31
0.0
  0
LINE
  5
371
330
36B
100
AcDbEntity
  8
0
  6
SLD-Durchgehend
 62
     7
370
     0
100
AcDbLine
 10
276.9820153784
 20
462.2856152583
 30
0.0
 11
276.9820153784
 21
497.9933886267
 31
0.0
  0
LINE
  5
372
330
36B
100
AcDbEntity
  8
0
  6
SLD-Durchgehend
 62
     7
370
     0
100
AcDbLine
 10
271.9820153784
 20
494.9933886267
 30
0.0
 11
252.9320153784
 21
494.9933886267
 31
0.0
  0
LINE
  5
373
330
36B
100
AcDbEntity
  8
0
  6
SLD-Durchgehend
 62
     7
370
     0
100
AcDbLine
 10
271.9820153784
 20
494.9933886267
 30
0.0
 11
276.9820153784
 21
494.9933886267
 31
0.0
  0
LINE
  5
374
330
36B
100
AcDbEntity
  8
0
  6
SLD-Durchgehend
 62
     7
370
     0
100
AcDbLine
 10
276.9820153784
 20
494.9933886267
 30
0.0
 11
307.1854413089
 21
494.9933886267
 31
0.0
  0
MTEXT
  5
375
330
36B
100
AcDbEntity
  8
0
  6
SLD-Durchgehend
 62
     7
370
    18
100
AcDbMText
 10
283.5917948347
 20
508.4054980017
 30
0.0
 40
10.5
 41
0.0
 46
0.0
 71
     1
 72
     1
  1
%%c
  7
SLDTEXTSTYLE0
 73
     1
 44
1.0
  0
MTEXT
  5
376
330
36B
100
AcDbEntity
  8
0
  6
SLD-Durchgehend
 62
     7
370
    18
100
AcDbMText
 10
299.4271070298
 20
508.5659145317
 30
0.0
 40
10.5
 41
0.0
 46
0.0
 71
     1
 72
     1
  1
5
  7
SLDTEXTSTYLE0
 73
     1
 44
1.0
  0
ENDBLK
  5
36D
330
36B
100
AcDbEntity
  8
0
100
AcDbBlockEnd
  0
ENDSEC
  0
SECTION
  2
ENTITIES
  0
SPLINE
  5
68
330
1F
100
AcDbEntity
  8
0
  6
SLD-Durchgehend
 62
     7
370
    25
100
AcDbSpline
210
0.0
220
0.0
230
1.0
 70
     8
 71
     3
 72
    15
 73
    11
 74
     0
 42
0.00000001
 43
0.00000001
 40
0.0
 40
0.0
 40
0.0
 40
0.0
 40
0.1207252188239618
 40
0.2499999999999999
 40
0.3792747811760392
 40
0.5000000000000004
 40
0.6207252188239625
 40
0.7499999999999999
 40
0.8792747811760383
 40
1.0
 40
1.0
 40
1.0
 40
1.0
 10
633.6045146953187
 20
771.162127371157
 30
0.0
 10
634.3563678183864
 20
771.3231040014675
 30
0.0
 10
635.9133190718024
 20
771.6564573635045
 30
0.0
 10
637.8576494747621
 20
773.1884629097541
 30
0.0
 10
639.1226132874734
 20
775.2732295523728
 30
0.0
 10
639.5406451319144
 20
777.6243251397185
 30
0.0
 10
639.1226132874735
 20
779.9754207270643
 30
0.0
 10
637.8576494747621
 20
782.0601873696826
 30
0.0
 10
635.9133190718024
 20
783.5921929159324
 30
0.0
 10
634.3563678183864
 20
783.9255462779695
 30
0.0
 10
633.6045146953187
 20
784.0865229082799
 30
0.0
  0
LINE
  5
69
330
1F
100
AcDbEntity
  8
0
  6
SLD-Durchgehend
 62
     7
370
    25
100
AcDbLine
 10
633.6045146953
 20
784.0865229083
 30
0.0
 11
633.6045146953
 21
771.1621273712
 31
0.0
  0
SPLINE
  5
6A
330
1F
100
AcDbEntity
  8
0
  6
SLD-Durchgehend
 62
     7
370
    25
100
AcDbSpline
210
0.0
220
0.0
230
1.0
 70
     8
 71
     3
 72
    15
 73
    11
 74
     0
 42
0.00000001
 43
0.00000001
 40
0.0
 40
0.0
 40
0.0
 40
0.0
 40
0.1207252188239614
 40
0.2499999999999999
 40
0.3792747811760379
 40
0.4999999999999998
 40
0.6207252188239618
 40
0.7499999999999998
 40
0.8792747811760383
 40
1.0
 40
1.0
 40
1.0
 40
1.0
 10
632.2045146953187
 20
784.0865229082798
 30
0.0
 10
631.4526615722511
 20
783.9255462779695
 30
0.0
 10
629.8957103188351
 20
783.5921929159324
 30
0.0
 10
627.9513799158755
 20
782.0601873696826
 30
0.0
 10
626.6864161031641
 20
779.9754207270643
 30
0.0
 10
626.2683842587231
 20
777.6243251397185
 30
0.0
 10
626.6864161031641
 20
775.2732295523728
 30
0.0
 10
627.9513799158755
 20
773.1884629097543
 30
0.0
 10
629.8957103188351
 20
771.6564573635045
 30
0.0
 10
631.4526615722511
 20
771.3231040014675
 30
0.0
 10
632.2045146953187
 20
771.162127371157
 30
0.0
  0
LINE
  5
6B
330
1F
100
AcDbEntity
  8
0
  6
SLD-Durchgehend
 62
     7
370
    25
100
AcDbLine
 10
632.2045146953
 20
771.1621273712
 30
0.0
 11
632.2045146953
 21
784.0865229083
 31
0.0
  0
ARC
  5
6C
330
1F
100
AcDbEntity
  8
0
  6
SLD-Durchgehend
 62
     7
370
    25
100
AcDbCircle
 10
632.9045146953
 20
777.6243251397
 30
0.0
 40
7.000000000007897
100
AcDbArc
 50
275.7391704773
 51
84.2608295227
  0
SPLINE
  5
6D
330
1F
100
AcDbEntity
  8
0
  6
SLD-Durchgehend
 62
     7
370
    25
100
AcDbSpline
210
0.0
220
0.0
230
1.0
 70
    24
 71
     3
 72
    12
 73
     8
 74
     0
 42
0.00000001
 43
0.00000001
 40
0.0
 40
0.0
 40
0.0
 40
0.0
 40
0.2161879500552915
 40
0.4323990497072141
 40
0.6479714157428664
 40
0.8624217852508906
 40
1.0
 40
1.0
 40
1.0
 40
1.0
 10
633.6045146953187
 20
771.162127371157
 30
0.0
 10
633.6045146953185
 20
771.1053699827775
 30
0.0
 10
633.6045146953176
 20
770.9918491283867
 30
0.0
 10
633.6045146953163
 20
770.8406596632038
 30
0.0
 10
633.6045146953161
 20
770.7270225219356
 30
0.0
 10
633.6045146953143
 20
770.6676988821213
 30
0.0
 10
633.6045146953176
 20
770.6617413684414
 30
0.0
 10
633.6045146953187
 20
770.6594130799642
 30
0.0
  0
SPLINE
  5
6E
330
1F
100
AcDbEntity
  8
0
  6
SLD-Durchgehend
 62
     7
370
    25
100
AcDbSpline
210
0.0
220
0.0
230
1.0
 70
    24
 71
     3
 72
    12
 73
     8
 74
     0
 42
0.00000001
 43
0.00000001
 40
0.0
 40
0.0
 40
0.0
 40
0.0
 40
0.21328674599422
 40
0.4265576686395272
 40
0.6402883409406042
 40
0.8550498528796078
 40
1.0
 40
1.0
 40
1.0
 40
1.0
 10
633.6045146953187
 20
784.5892371994647
 30
0.0
 10
633.6045146953187
 20
784.583722297316
 30
0.0
 10
633.6045146953187
 20
784.5726929021585
 30
0.0
 10
633.6045146953187
 20
784.4867305262004
 30
0.0
 10
633.6045146953187
 20
784.3600928342041
 30
0.0
 10
633.6045146953187
 20
784.2186148497581
 30
0.0
 10
633.6045146953187
 20
784.1244626653929
 30
0.0
 10
633.6045146953187
 20
784.0865229082798
 30
0.0
  0
ARC
  5
6F
330
1F
100
AcDbEntity
  8
0
  6
SLD-Durchgehend
 62
     7
370
    25
100
AcDbCircle
 10
632.9045146953
 20
777.6243251397
 30
0.0
 40
7.000000000000104
100
AcDbArc
 50
95.7391704773
 51
264.2608295227
  0
SPLINE
  5
70
330
1F
100
AcDbEntity
  8
0
  6
SLD-Durchgehend
 62
     7
370
    25
100
AcDbSpline
210
0.0
220
0.0
230
1.0
 70
    24
 71
     3
 72
    12
 73
     8
 74
     0
 42
0.00000001
 43
0.00000001
 40
0.0
 40
0.0
 40
0.0
 40
0.0
 40
0.2132867459942515
 40
0.4265576686395915
 40
0.6402883409407086
 40
0.8550498528797302
 40
1.0
 40
1.0
 40
1.0
 40
1.0
 10
632.2045146953187
 20
770.6594130799721
 30
0.0
 10
632.2045146953187
 20
770.664927982121
 30
0.0
 10
632.2045146953187
 20
770.6759573772786
 30
0.0
 10
632.2045146953187
 20
770.7619197532365
 30
0.0
 10
632.2045146953187
 20
770.888557445233
 30
0.0
 10
632.2045146953187
 20
771.030035429679
 30
0.0
 10
632.2045146953187
 20
771.124187614044
 30
0.0
 10
632.2045146953187
 20
771.162127371157
 30
0.0
  0
SPLINE
  5
71
330
1F
100
AcDbEntity
  8
0
  6
SLD-Durchgehend
 62
     7
370
    25
100
AcDbSpline
210
0.0
220
0.0
230
1.0
 70
    24
 71
     3
 72
    12
 73
     8
 74
     0
 42
0.00000001
 43
0.00000001
 40
0.0
 40
0.0
 40
0.0
 40
0.0
 40
0.2161879500552452
 40
0.4323990497071238
 40
0.6479714157427062
 40
0.8624217852506474
 40
1.0
 40
1.0
 40
1.0
 40
1.0
 10
632.2045146953187
 20
784.0865229082798
 30
0.0
 10
632.2045146953192
 20
784.1432802966594
 30
0.0
 10
632.2045146953199
 20
784.25680115105
 30
0.0
 10
632.2045146953211
 20
784.4079906162332
 30
0.0
 10
632.2045146953214
 20
784.5216277575001
 30
0.0
 10
632.2045146953233
 20
784.5809513973192
 30
0.0
 10
632.2045146953201
 20
784.5869089109907
 30
0.0
 10
632.2045146953187
 20
784.5892371994647
 30
0.0
  0
LINE
  5
72
330
1F
100
AcDbEntity
  8
0
  6
SLD-Durchgehend
 62
     7
370
    25
100
AcDbLine
 10
633.6045146953
 20
770.65941308
 30
0.0
 11
632.2045146953
 21
770.65941308
 31
0.0
  0
LINE
  5
73
330
1F
100
AcDbEntity
  8
0
  6
SLD-Durchgehend
 62
     7
370
    25
100
AcDbLine
 10
632.2045146953
 20
784.5892371995
 30
0.0
 11
633.6045146953
 21
784.5892371995
 31
0.0
  0
LINE
  5
74
330
1F
100
AcDbEntity
  8
0
  6
SLD-Durchgehend
 62
     7
370
    25
100
AcDbLine
 10
632.8045146578
 20
733.1670595623
 30
0.0
 11
634.8045146953
 21
733.5243251397
 31
0.0
  0
LINE
  5
75
330
1F
100
AcDbEntity
  8
0
  6
SLD-Durchgehend
 62
     7
370
    25
100
AcDbLine
 10
634.8045146953
 20
733.5243251397
 30
0.0
 11
636.8045146578
 21
733.1670595623
 31
0.0
  0
LINE
  5
76
330
1F
100
AcDbEntity
  8
0
  6
SLD-Durchgehend
 62
     7
370
    25
100
AcDbLine
 10
636.8045146953
 20
723.5243251397
 30
0.0
 11
636.8045146578
 21
733.1670595623
 31
0.0
  0
LINE
  5
77
330
1F
100
AcDbEntity
  8
0
  6
SLD-Durchgehend
 62
     7
370
    25
100
AcDbLine
 10
632.8045146953
 20
723.5243251397
 30
0.0
 11
632.8045146578
 21
733.1670595623
 31
0.0
  0
LINE
  5
78
330
1F
100
AcDbEntity
  8
0
  6
SLD-Durchgehend
 62
     7
370
    25
100
AcDbLine
 10
628.8045146953
 20
733.1670595623
 30
0.0
 11
630.8045146953
 21
733.5243251397
 31
0.0
  0
LINE
  5
79
330
1F
100
AcDbEntity
  8
0
  6
SLD-Durchgehend
 62
     7
370
    25
100
AcDbLine
 10
630.8045146953
 20
733.5243251397
 30
0.0
 11
632.8045146578
 21
733.1670595623
 31
0.0
  0
LINE
  5
7A
330
1F
100
AcDbEntity
  8
0
  6
SLD-Durchgehend
 62
     7
370
    25
100
AcDbLine
 10
628.8045146953
 20
733.1670595623
 30
0.0
 11
628.8045146953
 21
723.5243251397
 31
0.0
  0
LINE
  5
7B
330
1F
100
AcDbEntity
  8
0
  6
SLD-Durchgehend
 62
     7
370
    25
100
AcDbLine
 10
634.8045146953
 20
733.5243251397
 30
0.0
 11
630.8045146953
 21
733.5243251397
 31
0.0
  0
LINE
  5
7C
330
1F
100
AcDbEntity
  8
0
  6
SLD-Durchgehend
 62
     7
370
    25
100
AcDbLine
 10
628.8045146953
 20
733.5243251397
 30
0.0
 11
628.8045146953
 21
733.1670595623
 31
0.0
  0
LINE
  5
7D
330
1F
100
AcDbEntity
  8
0
  6
SLD-Durchgehend
 62
     7
370
    25
100
AcDbLine
 10
630.8045146953
 20
733.5243251397
 30
0.0
 11
628.8045146953
 21
733.5243251397
 31
0.0
  0
LINE
  5
7E
330
1F
100
AcDbEntity
  8
0
  6
SLD-Durchgehend
 62
     7
370
    25
100
AcDbLine
 10
636.8045146578
 20
733.1670595623
 30
0.0
 11
636.8045146953
 21
733.5243251397
 31
0.0
  0
LINE
  5
7F
330
1F
100
AcDbEntity
  8
0
  6
SLD-Durchgehend
 62
     7
370
    25
100
AcDbLine
 10
636.8045146953
 20
733.5243251397
 30
0.0
 11
634.8045146953
 21
733.5243251397
 31
0.0
  0
CIRCLE
  5
80
330
1F
100
AcDbEntity
  8
0
  6
SLD-Durchgehend
 62
     7
370
    25
100
AcDbCircle
 10
653.8045146953
 20
777.6243251397
 30
0.0
 40
6.999999999999926
  0
CIRCLE
  5
81
330
1F
100
AcDbEntity
  8
0
  6
SLD-Durchgehend
 62
     7
370
    25
100
AcDbCircle
 10
611.8045146953
 20
777.6243251397
 30
0.0
 40
7.000000000000007
  0
LINE
  5
82
330
1F
100
AcDbEntity
  8
0
  6
SLD-Durchgehend
 62
     7
370
    25
100
AcDbLine
 10
639.8045146953
 20
774.1243251397
 30
0.0
 11
638.3045146953
 21
772.6243251397
 31
0.0
  0
LINE
  5
83
330
1F
100
AcDbEntity
  8
0
  6
SLD-Durchgehend
 62
     7
370
    25
100
AcDbLine
 10
642.3045146953
 20
774.1243251397
 30
0.0
 11
639.8045146953
 21
774.1243251397
 31
0.0
  0
LINE
  5
84
330
1F
100
AcDbEntity
  8
0
  6
SLD-Durchgehend
 62
     7
370
    25
100
AcDbLine
 10
642.3045146953
 20
776.1243251397
 30
0.0
 11
642.3045146953
 21
774.1243251397
 31
0.0
  0
LINE
  5
85
330
1F
100
AcDbEntity
  8
0
  6
SLD-Durchgehend
 62
     7
370
    25
100
AcDbLine
 10
643.8045146953
 20
777.6243251397
 30
0.0
 11
642.3045146953
 21
776.1243251397
 31
0.0
  0
LINE
  5
86
330
1F
100
AcDbEntity
  8
0
  6
SLD-Durchgehend
 62
     7
370
    25
100
AcDbLine
 10
642.3045146953
 20
779.1243251397
 30
0.0
 11
643.8045146953
 21
777.6243251397
 31
0.0
  0
LINE
  5
87
330
1F
100
AcDbEntity
  8
0
  6
SLD-Durchgehend
 62
     7
370
    25
100
AcDbLine
 10
638.3045146953
 20
782.6243251397
 30
0.0
 11
639.8045146953
 21
781.1243251397
 31
0.0
  0
LINE
  5
88
330
1F
100
AcDbEntity
  8
0
  6
SLD-Durchgehend
 62
     7
370
    25
100
AcDbLine
 10
638.0502199029
 20
782.3700303473
 30
0.0
 11
638.3045146953
 21
782.6243251397
 31
0.0
  0
LINE
  5
89
330
1F
100
AcDbEntity
  8
0
  6
SLD-Durchgehend
 62
     7
370
    25
100
AcDbLine
 10
627.6638669645
 20
782.2649728705
 30
0.0
 11
627.3045146953
 21
782.6243251397
 31
0.0
  0
LINE
  5
8A
330
1F
100
AcDbEntity
  8
0
  6
SLD-Durchgehend
 62
     7
370
    25
100
AcDbLine
 10
627.3045146953
 20
782.6243251397
 30
0.0
 11
625.8045146953
 21
781.1243251397
 31
0.0
  0
LINE
  5
8B
330
1F
100
AcDbEntity
  8
0
  6
SLD-Durchgehend
 62
     7
370
    25
100
AcDbLine
 10
625.8045146953
 20
781.1243251397
 30
0.0
 11
623.3045146953
 21
781.1243251397
 31
0.0
  0
LINE
  5
8C
330
1F
100
AcDbEntity
  8
0
  6
SLD-Durchgehend
 62
     7
370
    25
100
AcDbLine
 10
623.3045146953
 20
781.1243251397
 30
0.0
 11
623.3045146953
 21
779.1243251397
 31
0.0
  0
LINE
  5
8D
330
1F
100
AcDbEntity
  8
0
  6
SLD-Durchgehend
 62
     7
370
    25
100
AcDbLine
 10
623.3045146953
 20
779.1243251397
 30
0.0
 11
621.8045146953
 21
777.6243251397
 31
0.0
  0
LINE
  5
8E
330
1F
100
AcDbEntity
  8
0
  6
SLD-Durchgehend
 62
     7
370
    25
100
AcDbLine
 10
621.8045146953
 20
777.6243251397
 30
0.0
 11
623.3045146953
 21
776.1243251397
 31
0.0
  0
LINE
  5
8F
330
1F
100
AcDbEntity
  8
0
  6
SLD-Durchgehend
 62
     7
370
    25
100
AcDbLine
 10
623.3045146953
 20
776.1243251397
 30
0.0
 11
623.3045146953
 21
774.1243251397
 31
0.0
  0
LINE
  5
90
330
1F
100
AcDbEntity
  8
0
  6
SLD-Durchgehend
 62
     7
370
    25
100
AcDbLine
 10
623.3045146953
 20
774.1243251397
 30
0.0
 11
625.8045146953
 21
774.1243251397
 31
0.0
  0
LINE
  5
91
330
1F
100
AcDbEntity
  8
0
  6
SLD-Durchgehend
 62
     7
370
    25
100
AcDbLine
 10
625.8045146953
 20
774.1243251397
 30
0.0
 11
627.3045146953
 21
772.6243251397
 31
0.0
  0
LINE
  5
92
330
1F
100
AcDbEntity
  8
0
  6
SLD-Durchgehend
 62
     7
370
    25
100
AcDbLine
 10
627.3045146953
 20
772.6243251397
 30
0.0
 11
627.6638669645
 21
772.9836774089
 31
0.0
  0
LINE
  5
93
330
1F
100
AcDbEntity
  8
0
  6
SLD-Durchgehend
 62
     7
370
    25
100
AcDbLine
 10
638.3045146953
 20
772.6243251397
 30
0.0
 11
638.0502199029
 21
772.8786199322
 31
0.0
  0
LINE
  5
94
330
1F
100
AcDbEntity
  8
0
  6
SLD-Durchgehend
 62
     7
370
    25
100
AcDbLine
 10
646.077108085
 20
779.6948775005
 30
0.0
 11
647.0430339113
 21
779.4360584554
 31
0.0
  0
ARC
  5
95
330
1F
100
AcDbEntity
  8
0
  6
SLD-Durchgehend
 62
     7
370
    25
100
AcDbCircle
 10
653.8045146953
 20
777.6243251397
 30
0.0
 40
8.000000000000105
100
AcDbArc
 50
165.0
 51
195.0
  0
LINE
  5
96
330
1F
100
AcDbEntity
  8
0
  6
SLD-Durchgehend
 62
     7
370
    25
100
AcDbLine
 10
647.0430339113
 20
775.812591824
 30
0.0
 11
646.077108085
 21
775.5537727789
 31
0.0
  0
LINE
  5
97
330
1F
100
AcDbEntity
  8
0
  6
SLD-Durchgehend
 62
     7
370
    25
100
AcDbLine
 10
647.8544155003
 20
773.937006389
 30
0.0
 11
646.8418604299
 21
773.0873718029
 31
0.0
  0
ARC
  5
98
330
1F
100
AcDbEntity
  8
0
  6
SLD-Durchgehend
 62
     7
370
    25
100
AcDbCircle
 10
647.4846480396
 20
772.3213273598
 30
0.0
 40
1.000000000000117
100
AcDbArc
 50
130.0
 51
310.0
  0
LINE
  5
99
330
1F
100
AcDbEntity
  8
0
  6
SLD-Durchgehend
 62
     7
370
    25
100
AcDbLine
 10
649.1399907196
 20
772.4049175028
 30
0.0
 11
648.1274356493
 21
771.5552829167
 31
0.0
  0
LINE
  5
9A
330
1F
100
AcDbEntity
  8
0
  6
SLD-Durchgehend
 62
     7
370
    25
100
AcDbLine
 10
650.4235686014
 20
770.3738628434
 30
0.0
 11
650.8461868631
 21
771.2801706305
 31
0.0
  0
ARC
  5
9B
330
1F
100
AcDbEntity
  8
0
  6
SLD-Durchgehend
 62
     7
370
    25
100
AcDbCircle
 10
653.8045146953
 20
777.6243251397
 30
0.0
 40
8.000000000000004
100
AcDbArc
 50
245.0
 51
275.0
  0
LINE
  5
9C
330
1F
100
AcDbEntity
  8
0
  6
SLD-Durchgehend
 62
     7
370
    25
100
AcDbLine
 10
654.4146048945
 20
770.6509622531
 30
0.0
 11
654.5017606373
 21
769.654767555
 31
0.0
  0
LINE
  5
9D
330
1F
100
AcDbEntity
  8
0
  6
SLD-Durchgehend
 62
     7
370
    25
100
AcDbLine
 10
655.8750670561
 20
769.8969185294
 30
0.0
 11
655.616248011
 21
770.8628443557
 31
0.0
  0
ARC
  5
9E
330
1F
100
AcDbEntity
  8
0
  6
SLD-Durchgehend
 62
     7
370
    25
100
AcDbCircle
 10
653.8045146953
 20
777.6243251397
 30
0.0
 40
7.999999999999995
100
AcDbArc
 50
285.0
 51
315.0
  0
LINE
  5
9F
330
1F
100
AcDbEntity
  8
0
  6
SLD-Durchgehend
 62
     7
370
    25
100
AcDbLine
 10
658.7542621636
 20
772.6745776714
 30
0.0
 11
659.4613689448
 21
771.9674708902
 31
0.0
  0
LINE
  5
A0
330
1F
100
AcDbEntity
  8
0
  6
SLD-Durchgehend
 62
     7
370
    25
100
AcDbLine
 10
660.3577310496
 20
773.0357136489
 30
0.0
 11
659.5385790053
 21
773.6092900853
 31
0.0
  0
ARC
  5
A1
330
1F
100
AcDbEntity
  8
0
  6
SLD-Durchgehend
 62
     7
370
    25
100
AcDbCircle
 10
653.8045146953
 20
777.6243251397
 30
0.0
 40
7.99999999999998
100
AcDbArc
 50
325.0
 51
355.0
  0
LINE
  5
A2
330
1F
100
AcDbEntity
  8
0
  6
SLD-Durchgehend
 62
     7
370
    25
100
AcDbLine
 10
660.777877582
 20
777.0142349405
 30
0.0
 11
661.77407228
 21
776.9270791977
 31
0.0
  0
LINE
  5
A3
330
1F
100
AcDbEntity
  8
0
  6
SLD-Durchgehend
 62
     7
370
    25
100
AcDbLine
 10
661.77407228
 20
778.3215710817
 30
0.0
 11
660.777877582
 21
778.2344153389
 31
0.0
  0
ARC
  5
A4
330
1F
100
AcDbEntity
  8
0
  6
SLD-Durchgehend
 62
     7
370
    25
100
AcDbCircle
 10
653.8045146953
 20
777.6243251397
 30
0.0
 40
7.999999999999952
100
AcDbArc
 50
5.0
 51
35.0
  0
LINE
  5
A5
330
1F
100
AcDbEntity
  8
0
  6
SLD-Durchgehend
 62
     7
370
    25
100
AcDbLine
 10
659.5385790053
 20
781.6393601942
 30
0.0
 11
660.3577310496
 21
782.2129366305
 31
0.0
  0
LINE
  5
A6
330
1F
100
AcDbEntity
  8
0
  6
SLD-Durchgehend
 62
     7
370
    25
100
AcDbLine
 10
659.4613689448
 20
783.2811793892
 30
0.0
 11
658.7542621636
 21
782.574072608
 31
0.0
  0
ARC
  5
A7
330
1F
100
AcDbEntity
  8
0
  6
SLD-Durchgehend
 62
     7
370
    25
100
AcDbCircle
 10
653.8045146953
 20
777.6243251397
 30
0.0
 40
7.999999999999984
100
AcDbArc
 50
45.0
 51
75.0
  0
LINE
  5
A8
330
1F
100
AcDbEntity
  8
0
  6
SLD-Durchgehend
 62
     7
370
    25
100
AcDbLine
 10
655.616248011
 20
784.3858059237
 30
0.0
 11
655.8750670561
 21
785.35173175
 31
0.0
  0
LINE
  5
A9
330
1F
100
AcDbEntity
  8
0
  6
SLD-Durchgehend
 62
     7
370
    25
100
AcDbLine
 10
654.5017606373
 20
785.5938827244
 30
0.0
 11
654.4146048945
 21
784.5976880264
 31
0.0
  0
LINE
  5
AA
330
1F
100
AcDbEntity
  8
0
  6
SLD-Durchgehend
 62
     7
370
    25
100
AcDbLine
 10
650.8461868631
 20
783.968479649
 30
0.0
 11
650.4235686014
 21
784.874787436
 31
0.0
  0
LINE
  5
AB
330
1F
100
AcDbEntity
  8
0
  6
SLD-Durchgehend
 62
     7
370
    25
100
AcDbLine
 10
649.1399907196
 20
782.8437327766
 30
0.0
 11
648.1274356493
 21
783.6933673627
 31
0.0
  0
ARC
  5
AC
330
1F
100
AcDbEntity
  8
0
  6
SLD-Durchgehend
 62
     7
370
    25
100
AcDbCircle
 10
647.4846480396
 20
782.9273229196
 30
0.0
 40
1.000000000000044
100
AcDbArc
 50
50.0
 51
230.0
  0
LINE
  5
AD
330
1F
100
AcDbEntity
  8
0
  6
SLD-Durchgehend
 62
     7
370
    25
100
AcDbLine
 10
647.8544155003
 20
781.3116438904
 30
0.0
 11
646.8418604299
 21
782.1612784765
 31
0.0
  0
LINE
  5
AE
330
1F
100
AcDbEntity
  8
0
  6
SLD-Durchgehend
 62
     7
370
    25
100
AcDbLine
 10
653.8045146953
 20
786.6243251397
 30
0.0
 11
611.8045146953
 21
786.6243251397
 31
0.0
  0
ARC
  5
AF
330
1F
100
AcDbEntity
  8
0
  6
SLD-Durchgehend
 62
     7
370
    25
100
AcDbCircle
 10
653.8045146953
 20
777.6243251397
 30
0.0
 40
9.0
100
AcDbArc
 50
270.0
 51
90.0
  0
LINE
  5
B0
330
1F
100
AcDbEntity
  8
0
  6
SLD-Durchgehend
 62
     7
370
    25
100
AcDbLine
 10
611.8045146953
 20
768.6243251397
 30
0.0
 11
653.8045146953
 21
768.6243251397
 31
0.0
  0
ARC
  5
B1
330
1F
100
AcDbEntity
  8
0
  6
SLD-Durchgehend
 62
     7
370
    25
100
AcDbCircle
 10
611.8045146953
 20
777.6243251397
 30
0.0
 40
9.0
100
AcDbArc
 50
90.0
 51
270.0
  0
ARC
  5
B2
330
1F
100
AcDbEntity
  8
0
  6
SLD-Durchgehend
 62
     7
370
    25
100
AcDbCircle
 10
618.124381351
 20
782.9273229196
 30
0.0
 40
1.000000000000044
100
AcDbArc
 50
310.0
 51
130.0
  0
LINE
  5
B3
330
1F
100
AcDbEntity
  8
0
  6
SLD-Durchgehend
 62
     7
370
    25
100
AcDbLine
 10
616.469038671
 20
782.8437327766
 30
0.0
 11
617.4815937414
 21
783.6933673627
 31
0.0
  0
LINE
  5
B4
330
1F
100
AcDbEntity
  8
0
  6
SLD-Durchgehend
 62
     7
370
    25
100
AcDbLine
 10
614.7628425275
 20
783.968479649
 30
0.0
 11
615.1854607892
 21
784.874787436
 31
0.0
  0
ARC
  5
B5
330
1F
100
AcDbEntity
  8
0
  6
SLD-Durchgehend
 62
     7
370
    25
100
AcDbCircle
 10
611.8045146953
 20
777.6243251397
 30
0.0
 40
8.000000000000071
100
AcDbArc
 50
65.0
 51
95.0
  0
LINE
  5
B6
330
1F
100
AcDbEntity
  8
0
  6
SLD-Durchgehend
 62
     7
370
    25
100
AcDbLine
 10
611.1072687533
 20
785.5938827244
 30
0.0
 11
611.1944244961
 21
784.5976880264
 31
0.0
  0
LINE
  5
B7
330
1F
100
AcDbEntity
  8
0
  6
SLD-Durchgehend
 62
     7
370
    25
100
AcDbLine
 10
609.9927813796
 20
784.3858059237
 30
0.0
 11
609.7339623345
 21
785.35173175
 31
0.0
  0
ARC
  5
B8
330
1F
100
AcDbEntity
  8
0
  6
SLD-Durchgehend
 62
     7
370
    25
100
AcDbCircle
 10
611.8045146953
 20
777.6243251397
 30
0.0
 40
7.999999999999984
100
AcDbArc
 50
105.0
 51
135.0
  0
LINE
  5
B9
330
1F
100
AcDbEntity
  8
0
  6
SLD-Durchgehend
 62
     7
370
    25
100
AcDbLine
 10
606.1476604458
 20
783.2811793892
 30
0.0
 11
606.854767227
 21
782.574072608
 31
0.0
  0
LINE
  5
BA
330
1F
100
AcDbEntity
  8
0
  6
SLD-Durchgehend
 62
     7
370
    25
100
AcDbLine
 10
606.0704503853
 20
781.6393601942
 30
0.0
 11
605.251298341
 21
782.2129366305
 31
0.0
  0
ARC
  5
BB
330
1F
100
AcDbEntity
  8
0
  6
SLD-Durchgehend
 62
     7
370
    25
100
AcDbCircle
 10
611.8045146953
 20
777.6243251397
 30
0.0
 40
7.999999999999977
100
AcDbArc
 50
145.0
 51
175.0
  0
LINE
  5
BC
330
1F
100
AcDbEntity
  8
0
  6
SLD-Durchgehend
 62
     7
370
    25
100
AcDbLine
 10
603.8349571106
 20
778.3215710817
 30
0.0
 11
604.8311518087
 21
778.2344153389
 31
0.0
  0
ARC
  5
BD
330
1F
100
AcDbEntity
  8
0
  6
SLD-Durchgehend
 62
     7
370
    25
100
AcDbCircle
 10
611.8045146953
 20
777.6243251397
 30
0.0
 40
7.999999999999967
100
AcDbArc
 50
185.0
 51
215.0
  0
LINE
  5
BE
330
1F
100
AcDbEntity
  8
0
  6
SLD-Durchgehend
 62
     7
370
    25
100
AcDbLine
 10
606.854767227
 20
772.6745776714
 30
0.0
 11
606.1476604458
 21
771.9674708902
 31
0.0
  0
ARC
  5
BF
330
1F
100
AcDbEntity
  8
0
  6
SLD-Durchgehend
 62
     7
370
    25
100
AcDbCircle
 10
611.8045146953
 20
777.6243251397
 30
0.0
 40
7.999999999999995
100
AcDbArc
 50
225.0
 51
255.0
  0
LINE
  5
C0
330
1F
100
AcDbEntity
  8
0
  6
SLD-Durchgehend
 62
     7
370
    25
100
AcDbLine
 10
609.7339623345
 20
769.8969185294
 30
0.0
 11
609.9927813796
 21
770.8628443557
 31
0.0
  0
LINE
  5
C1
330
1F
100
AcDbEntity
  8
0
  6
SLD-Durchgehend
 62
     7
370
    25
100
AcDbLine
 10
611.1944244961
 20
770.6509622531
 30
0.0
 11
611.1072687533
 21
769.654767555
 31
0.0
  0
ARC
  5
C2
330
1F
100
AcDbEntity
  8
0
  6
SLD-Durchgehend
 62
     7
370
    25
100
AcDbCircle
 10
611.8045146953
 20
777.6243251397
 30
0.0
 40
8.000000000000004
100
AcDbArc
 50
265.0
 51
295.0
  0
LINE
  5
C3
330
1F
100
AcDbEntity
  8
0
  6
SLD-Durchgehend
 62
     7
370
    25
100
AcDbLine
 10
615.1854607892
 20
770.3738628434
 30
0.0
 11
614.7628425275
 21
771.2801706305
 31
0.0
  0
LINE
  5
C4
330
1F
100
AcDbEntity
  8
0
  6
SLD-Durchgehend
 62
     7
370
    25
100
AcDbLine
 10
616.469038671
 20
772.4049175028
 30
0.0
 11
617.4815937414
 21
771.5552829167
 31
0.0
  0
ARC
  5
C5
330
1F
100
AcDbEntity
  8
0
  6
SLD-Durchgehend
 62
     7
370
    25
100
AcDbCircle
 10
618.124381351
 20
772.3213273598
 30
0.0
 40
1.000000000000117
100
AcDbArc
 50
230.0
 51
50.0
  0
LINE
  5
C6
330
1F
100
AcDbEntity
  8
0
  6
SLD-Durchgehend
 62
     7
370
    25
100
AcDbLine
 10
617.7546138903
 20
773.937006389
 30
0.0
 11
618.7671689607
 21
773.0873718029
 31
0.0
  0
LINE
  5
C7
330
1F
100
AcDbEntity
  8
0
  6
SLD-Durchgehend
 62
     7
370
    25
100
AcDbLine
 10
618.5659954793
 20
775.812591824
 30
0.0
 11
619.5319213056
 21
775.5537727789
 31
0.0
  0
ARC
  5
C8
330
1F
100
AcDbEntity
  8
0
  6
SLD-Durchgehend
 62
     7
370
    25
100
AcDbCircle
 10
611.8045146953
 20
777.6243251397
 30
0.0
 40
8.000000000000133
100
AcDbArc
 50
345.0
 51
15.0
  0
LINE
  5
C9
330
1F
100
AcDbEntity
  8
0
  6
SLD-Durchgehend
 62
     7
370
    25
100
AcDbLine
 10
619.5319213056
 20
779.6948775005
 30
0.0
 11
618.5659954793
 21
779.4360584554
 31
0.0
  0
LINE
  5
CA
330
1F
100
AcDbEntity
  8
0
  6
SLD-Durchgehend
 62
     7
370
    25
100
AcDbLine
 10
617.7546138903
 20
781.3116438904
 30
0.0
 11
618.7671689607
 21
782.1612784765
 31
0.0
  0
ARC
  5
CB
330
1F
100
AcDbEntity
  8
0
  6
SLD-Durchgehend
 62
     7
370
    25
100
AcDbCircle
 10
653.8045146953
 20
777.6243251397
 30
0.0
 40
8.000000000000071
100
AcDbArc
 50
85.0
 51
115.0
  0
LINE
  5
CC
330
1F
100
AcDbEntity
  8
0
  6
SLD-Durchgehend
 62
     7
370
    25
100
AcDbLine
 10
639.8045146953
 20
781.1243251397
 30
0.0
 11
642.3045146953
 21
781.1243251397
 31
0.0
  0
LINE
  5
CD
330
1F
100
AcDbEntity
  8
0
  6
SLD-Durchgehend
 62
     7
370
    25
100
AcDbLine
 10
605.251298341
 20
773.0357136489
 30
0.0
 11
606.0704503853
 21
773.6092900853
 31
0.0
  0
LINE
  5
CE
330
1F
100
AcDbEntity
  8
0
  6
SLD-Durchgehend
 62
     7
370
    25
100
AcDbLine
 10
642.3045146953
 20
781.1243251397
 30
0.0
 11
642.3045146953
 21
779.1243251397
 31
0.0
  0
LINE
  5
CF
330
1F
100
AcDbEntity
  8
0
  6
SLD-Durchgehend
 62
     7
370
    25
100
AcDbLine
 10
604.8311518087
 20
777.0142349405
 30
0.0
 11
603.8349571106
 21
776.9270791977
 31
0.0
  0
LINE
  5
D0
330
1F
100
AcDbEntity
  8
0
  6
SLD-Durchgehend
 62
     7
370
    25
100
AcDbLine
 10
639.8045146953
 20
723.5243251397
 30
0.0
 11
637.8045146953
 21
723.5243251397
 31
0.0
  0
LINE
  5
D1
330
1F
100
AcDbEntity
  8
0
  6
SLD-Durchgehend
 62
     7
370
    25
100
AcDbLine
 10
637.8045146953
 20
723.5243251397
 30
0.0
 11
627.8045146953
 21
723.5243251397
 31
0.0
  0
LINE
  5
D2
330
1F
100
AcDbEntity
  8
0
  6
SLD-Durchgehend
 62
     7
370
    25
100
AcDbLine
 10
625.8045146953
 20
723.5243251397
 30
0.0
 11
625.8045146953
 21
722.8230920447
 31
0.0
  0
LINE
  5
D3
330
1F
100
AcDbEntity
  8
0
  6
SLD-Durchgehend
 62
     7
370
    25
100
AcDbLine
 10
627.8045146953
 20
723.5243251397
 30
0.0
 11
625.8045146953
 21
723.5243251397
 31
0.0
  0
LINE
  5
D4
330
1F
100
AcDbEntity
  8
0
  6
SLD-Durchgehend
 62
     7
370
    25
100
AcDbLine
 10
639.8045146953
 20
732.5243251397
 30
0.0
 11
639.8045146953
 21
723.5243251397
 31
0.0
  0
LINE
  5
D5
330
1F
100
AcDbEntity
  8
0
  6
SLD-Durchgehend
 62
     7
370
    25
100
AcDbLine
 10
625.8045146953
 20
723.5243251397
 30
0.0
 11
625.8045146953
 21
732.5243251397
 31
0.0
  0
LWPOLYLINE
  5
D6
330
1F
100
AcDbEntity
  8
0
  6
SLD-Durchgehend
 62
     7
370
    25
100
AcDbPolyline
 90
        3
 70
   128
 43
0.0
 10
625.8045146953
 20
779.5243251397
 10
625.9574814902
 20
780.9797069754
 10
626.0529845609
 20
781.3727950053
  0
LWPOLYLINE
  5
D7
330
1F
100
AcDbEntity
  8
0
  6
SLD-Durchgehend
 62
     7
370
    25
100
AcDbPolyline
 90
        3
 70
   128
 43
0.0
 10
639.5560448297
 20
781.3727950053
 10
639.6515479004
 20
780.9797069754
 10
639.8045146953
 20
779.5243251397
  0
LINE
  5
D8
330
1F
100
AcDbEntity
  8
0
  6
SLD-Durchgehend
 62
     7
370
    25
100
AcDbLine
 10
639.8045146953
 20
779.5243251397
 30
0.0
 11
639.8045146953
 21
778.803307752
 31
0.0
  0
LINE
  5
D9
330
1F
100
AcDbEntity
  8
0
  6
SLD-Durchgehend
 62
     7
370
    25
100
AcDbLine
 10
639.8045146953
 20
776.4453425274
 30
0.0
 11
639.8045146953
 21
774.1243251397
 31
0.0
  0
LINE
  5
DA
330
1F
100
AcDbEntity
  8
0
  6
SLD-Durchgehend
 62
     7
370
    25
100
AcDbLine
 10
639.8045146953
 20
768.6243251397
 30
0.0
 11
639.8045146953
 21
732.5243251397
 31
0.0
  0
LINE
  5
DB
330
1F
100
AcDbEntity
  8
0
  6
SLD-Durchgehend
 62
     7
370
    25
100
AcDbLine
 10
625.8045146953
 20
732.5243251397
 30
0.0
 11
625.8045146953
 21
768.6243251397
 31
0.0
  0
LINE
  5
DC
330
1F
100
AcDbEntity
  8
0
  6
SLD-Durchgehend
 62
     7
370
    25
100
AcDbLine
 10
625.8045146953
 20
774.1243251397
 30
0.0
 11
625.8045146953
 21
779.5243251397
 31
0.0
  0
LINE
  5
DD
330
1F
100
AcDbEntity
  8
0
  6
SLD-Durchgehend
 62
     7
370
    25
100
AcDbLine
 10
649.9239274727
 20
720.5845372622
 30
0.0
 11
632.8045146953
 21
721.0768366478
 31
0.0
  0
LINE
  5
DE
330
1F
100
AcDbEntity
  8
0
  6
SLD-Durchgehend
 62
     7
370
    25
100
AcDbLine
 10
649.9239274727
 20
720.5845372622
 30
0.0
 11
650.3052000454
 21
706.0243251397
 31
0.0
  0
LINE
  5
DF
330
1F
100
AcDbEntity
  8
0
  6
SLD-Durchgehend
 62
     7
370
    25
100
AcDbLine
 10
615.3038293453
 20
706.0243251397
 30
0.0
 11
650.3052000454
 21
706.0243251397
 31
0.0
  0
LINE
  5
E0
330
1F
100
AcDbEntity
  8
0
  6
SLD-Durchgehend
 62
     7
370
    25
100
AcDbLine
 10
615.6851019179
 20
720.5845372622
 30
0.0
 11
615.3038293453
 21
706.0243251397
 31
0.0
  0
LINE
  5
E1
330
1F
100
AcDbEntity
  8
0
  6
SLD-Durchgehend
 62
     7
370
    25
100
AcDbLine
 10
632.8045146953
 20
721.0768366478
 30
0.0
 11
615.6851019179
 21
720.5845372622
 31
0.0
  0
LINE
  5
E2
330
1F
100
AcDbEntity
  8
0
  6
SLD-Durchgehend
 62
     7
370
    25
100
AcDbLine
 10
613.3045146953
 20
706.0243251397
 30
0.0
 11
615.3038293453
 21
706.0243251397
 31
0.0
  0
LINE
  5
E3
330
1F
100
AcDbEntity
  8
0
  6
SLD-Durchgehend
 62
     7
370
    25
100
AcDbLine
 10
613.685787268
 20
720.5845372622
 30
0.0
 11
613.3045146953
 21
706.0243251397
 31
0.0
  0
ARC
  5
E4
330
1F
100
AcDbEntity
  8
0
  6
SLD-Durchgehend
 62
     7
370
    25
100
AcDbCircle
 10
614.685444593
 20
701.4751506749
 30
0.0
 40
19.13551594576007
100
AcDbArc
 50
87.0054515334
 51
92.9945484666
  0
LINE
  5
E5
330
1F
100
AcDbEntity
  8
0
  6
SLD-Durchgehend
 62
     7
370
    25
100
AcDbLine
 10
652.3045146953
 20
706.0243251397
 30
0.0
 11
651.9232421226
 21
720.5845372622
 31
0.0
  0
LINE
  5
E6
330
1F
100
AcDbEntity
  8
0
  6
SLD-Durchgehend
 62
     7
370
    25
100
AcDbLine
 10
650.3052000454
 20
706.0243251397
 30
0.0
 11
652.3045146953
 21
706.0243251397
 31
0.0
  0
ARC
  5
E7
330
1F
100
AcDbEntity
  8
0
  6
SLD-Durchgehend
 62
     7
370
    25
100
AcDbCircle
 10
650.9235847977
 20
701.4751506749
 30
0.0
 40
19.1355159457662
100
AcDbArc
 50
87.0054515334
 51
92.9945484666
  0
SPLINE
  5
E8
330
1F
100
AcDbEntity
  8
0
  6
SLD-Durchgehend
 62
     7
370
    25
100
AcDbSpline
210
0.0
220
0.0
230
1.0
 70
     8
 71
     3
 72
    12
 73
     8
 74
     0
 42
0.00000001
 43
0.00000001
 40
0.0
 40
0.0
 40
0.0
 40
0.0
 40
0.2426412438196132
 40
0.4993505795730223
 40
0.6228349314573731
 40
0.7598722069950424
 40
0.9999999999999999
 40
0.9999999999999999
 40
0.9999999999999999
 40
0.9999999999999999
 10
650.0388228604563
 20
722.5288804006752
 30
0.0
 10
650.0368103133976
 20
722.5016658703663
 30
0.0
 10
650.0326685338536
 20
722.4456589390276
 30
0.0
 10
650.0107037628222
 20
722.0739024604801
 30
0.0
 10
649.9868653395149
 20
721.6700722738954
 30
0.0
 10
649.9605306808479
 20
721.2181156626658
 30
0.0
 10
649.9381661722423
 20
720.8310001528039
 30
0.0
 10
649.9239274726888
 20
720.5845372622179
 30
0.0
  0
ARC
  5
E9
330
1F
100
AcDbEntity
  8
0
  6
SLD-Durchgehend
 62
     7
370
    25
100
AcDbCircle
 10
649.9239274727
 20
720.5321833656
 30
0.0
 40
2.000000000000084
100
AcDbArc
 50
1.5
 51
86.7066764426
  0
SPLINE
  5
EA
330
1F
100
AcDbEntity
  8
0
  6
SLD-Durchgehend
 62
     7
370
    25
100
AcDbSpline
210
0.0
220
0.0
230
1.0
 70
     8
 71
     3
 72
    12
 73
     8
 74
     0
 42
0.00000001
 43
0.00000001
 40
0.0
 40
0.0
 40
0.0
 40
0.0
 40
0.2401277857678421
 40
0.3771498640767484
 40
0.5006494213327298
 40
0.7573521667897697
 40
1.0
 40
1.0
 40
1.0
 40
1.0
 10
615.685101917932
 20
720.5845372622179
 30
0.0
 10
615.6708632058767
 20
720.8310002066295
 30
0.0
 10
615.648499578531
 20
721.2181002071044
 30
0.0
 10
615.6221648807456
 20
721.6700589097392
 30
0.0
 10
615.5983265043391
 20
722.0738884950594
 30
0.0
 10
615.5763603429212
 20
722.4456558824146
 30
0.0
 10
615.5722189459696
 20
722.5016643733863
 30
0.0
 10
615.5702065301645
 20
722.5288804006752
 30
0.0
  0
ARC
  5
EB
330
1F
100
AcDbEntity
  8
0
  6
SLD-Durchgehend
 62
     7
370
    25
100
AcDbCircle
 10
615.6851019179
 20
720.5321833656
 30
0.0
 40
1.999999999999889
100
AcDbArc
 50
93.2933235573
 51
178.5
  0
LINE
  5
EC
330
1F
100
AcDbEntity
  8
0
  6
SLD-Durchgehend
 62
     7
370
    25
100
AcDbLine
 10
615.5702065302
 20
722.5288804007
 30
0.0
 11
632.8045146953
 21
723.0243251397
 31
0.0
  0
LINE
  5
ED
330
1F
100
AcDbEntity
  8
0
  6
SLD-Durchgehend
 62
     7
370
    25
100
AcDbLine
 10
632.8045146953
 20
723.0243251397
 30
0.0
 11
650.0388228605
 21
722.5288804007
 31
0.0
  0
LINE
  5
EE
330
1F
100
AcDbEntity
  8
0
  6
SLD-Durchgehend
 62
     7
370
    25
100
AcDbLine
 10
640.3045146953
 20
720.9432018879
 30
0.0
 11
632.8045146953
 21
721.0374288512
 31
0.0
  0
ARC
  5
EF
330
1F
100
AcDbEntity
  8
0
  6
SLD-Durchgehend
 62
     7
370
    25
100
AcDbCircle
 10
624.5045146953
 20
722.6093714955
 30
0.0
 40
0.3000000000000516
100
AcDbArc
 50
38.323672393
 51
91.5869729094
  0
LWPOLYLINE
  5
F0
330
1F
100
AcDbEntity
  8
0
  6
SLD-Durchgehend
 62
     7
370
    25
100
AcDbPolyline
 90
        3
 70
   128
 43
0.0
 10
641.1128230036
 20
722.9092564268
 10
641.0531350832
 20
722.9049389759
 10
641.0000926261
 20
722.8906116624
  0
LINE
  5
F1
330
1F
100
AcDbEntity
  8
0
  6
SLD-Durchgehend
 62
     7
370
    25
100
AcDbLine
 10
637.8045146953
 20
722.8805872147
 30
0.0
 11
637.8045146953
 21
723.5243251397
 31
0.0
  0
LINE
  5
F2
330
1F
100
AcDbEntity
  8
0
  6
SLD-Durchgehend
 62
     7
370
    25
100
AcDbLine
 10
627.8045146953
 20
722.8805872147
 30
0.0
 11
627.8045146953
 21
723.5243251397
 31
0.0
  0
LINE
  5
F3
330
1F
100
AcDbEntity
  8
0
  6
SLD-Durchgehend
 62
     7
370
    25
100
AcDbLine
 10
639.8045146953
 20
732.5243251397
 30
0.0
 11
636.8045146603
 21
732.5243251397
 31
0.0
  0
LINE
  5
F4
330
1F
100
AcDbEntity
  8
0
  6
SLD-Durchgehend
 62
     7
370
    25
100
AcDbLine
 10
628.8045146953
 20
732.5243251397
 30
0.0
 11
625.8045146953
 21
732.5243251397
 31
0.0
  0
DIMENSION
  5
F5
330
1F
100
AcDbEntity
  8
0
  6
SLD-Durchgehend
 62
     7
370
    18
100
AcDbDimension
280
     0
  2
_D
 10
646.8045146953
 20
807.5122055363
 30
0.0
 11
631.0429432497
 21
807.5122055363
 31
0.0
 70
   160
  1
<>
 71
     2
 42
-1.0
 73
     0
 74
     0
 75
     0
  3
SLDDIMSTYLE0
100
AcDbAlignedDimension
 13
618.8045146953
 23
777.6243251397
 33
0.0
 14
646.8045146953
 24
777.6243251397
 34
0.0
 50
0.0
100
AcDbRotatedDimension
  0
DIMENSION
  5
103
330
1F
100
AcDbEntity
  8
0
  6
SLD-Durchgehend
 62
     7
370
    18
100
AcDbDimension
280
     0
  2
_D_1
 10
662.8045146953
 20
825.7826903699
 30
0.0
 11
630.2879840587
 21
825.7826903699
 31
0.0
 70
   160
  1
<>
 71
     2
 42
-1.0
 73
     0
 74
     0
 75
     0
  3
SLDDIMSTYLE0
100
AcDbAlignedDimension
 13
602.8045146953
 23
777.6243251397
 33
0.0
 14
662.8045146953
 24
777.6243251397
 34
0.0
100
AcDbRotatedDimension
  0
DIMENSION
  5
10D
330
1F
100
AcDbEntity
  8
0
  6
SLD-Durchgehend
 62
     7
370
    18
100
AcDbDimension
280
     0
  2
_D_2
 10
652.3045146953
 20
667.5046858877
 30
0.0
 11
632.9424486972
 21
667.5046858877
 31
0.0
 70
   160
  1
<>
 71
     2
 42
-1.0
 73
     0
 74
     0
 75
     0
  3
SLDDIMSTYLE0
100
AcDbAlignedDimension
 13
613.3045146953
 23
706.0243251397
 33
0.0
 14
652.3045146953
 24
706.0243251397
 34
0.0
100
AcDbRotatedDimension
  0
DIMENSION
  5
119
330
1F
100
AcDbEntity
  8
0
  6
SLD-Durchgehend
 62
     7
370
    18
100
AcDbDimension
280
     0
  2
_D_3
 10
702.4033337127
 20
706.0243251397
 30
0.0
 11
702.4033337127
 21
743.7641008452
 31
0.0
 70
   160
  1
<>
 71
     2
 42
-1.0
 73
     0
 74
     0
 75
     0
  3
SLDDIMSTYLE1
100
AcDbAlignedDimension
 13
653.8045146953
 23
777.6243251397
 33
0.0
 14
650.3052000454
 24
706.0243251397
 34
0.0
 50
90.0
100
AcDbRotatedDimension
  0
LINE
  5
124
330
1F
100
AcDbEntity
  8
0
  6
SLD-Durchgehend
 62
     7
370
    25
100
AcDbLine
 10
515.7880884568
 20
770.6243251397
 30
0.0
 11
519.2880884569
 21
770.6243251397
 31
0.0
  0
LINE
  5
125
330
1F
100
AcDbEntity
  8
0
  6
SLD-Durchgehend
 62
     7
370
    25
100
AcDbLine
 10
519.2880884569
 20
784.6243251397
 30
0.0
 11
515.7880884568
 21
784.6243251397
 31
0.0
  0
ARC
  5
126
330
1F
100
AcDbEntity
  8
0
  6
SLD-Durchgehend
 62
     7
370
    25
100
AcDbCircle
 10
519.2880884569
 20
784.1243251397
 30
0.0
 40
0.5000000000001137
100
AcDbArc
 50
0.0
 51
90.0
  0
ARC
  5
127
330
1F
100
AcDbEntity
  8
0
  6
SLD-Durchgehend
 62
     7
370
    25
100
AcDbCircle
 10
519.2880884569
 20
771.1243251397
 30
0.0
 40
0.5000000000001137
100
AcDbArc
 50
270.0
 51
0.0
  0
LINE
  5
128
330
1F
100
AcDbEntity
  8
0
  6
SLD-Durchgehend
 62
     7
370
    25
100
AcDbLine
 10
489.7880884569
 20
733.5243251398
 30
0.0
 11
489.169286325
 21
733.1670595623
 31
0.0
  0
LINE
  5
129
330
1F
100
AcDbEntity
  8
0
  6
SLD-Durchgehend
 62
     7
370
    25
100
AcDbLine
 10
498.4068906037
 20
733.1670595537
 30
0.0
 11
497.7880884568
 21
733.5243251398
 31
0.0
  0
LINE
  5
12A
330
1F
100
AcDbEntity
  8
0
  6
SLD-Durchgehend
 62
     7
370
    25
100
AcDbLine
 10
459.7880884569
 20
733.5243251398
 30
0.0
 11
459.169286325
 21
733.1670595623
 31
0.0
  0
LINE
  5
12B
330
1F
100
AcDbEntity
  8
0
  6
SLD-Durchgehend
 62
     7
370
    25
100
AcDbLine
 10
468.4068906037
 20
733.1670595537
 30
0.0
 11
467.7880884568
 21
733.5243251398
 31
0.0
  0
LINE
  5
12C
330
1F
100
AcDbEntity
  8
0
  6
SLD-Durchgehend
 62
     7
370
    25
100
AcDbLine
 10
488.7880884569
 20
784.6243251397
 30
0.0
 11
108.7880884568
 21
784.6243251397
 31
0.0
  0
LINE
  5
12D
330
1F
100
AcDbEntity
  8
0
  6
SLD-Durchgehend
 62
     7
370
    25
100
AcDbLine
 10
108.7880884568
 20
770.6243251397
 30
0.0
 11
488.7880884569
 21
770.6243251397
 31
0.0
  0
LINE
  5
12E
330
1F
100
AcDbEntity
  8
0
  6
SLD-Durchgehend
 62
     7
370
    25
100
AcDbLine
 10
107.5530944616
 20
770.6243251397
 30
0.0
 11
108.7880884568
 21
770.6243251397
 31
0.0
  0
LINE
  5
12F
330
1F
100
AcDbEntity
  8
0
  6
SLD-Durchgehend
 62
     7
370
    25
100
AcDbLine
 10
108.7880884568
 20
784.6243251397
 30
0.0
 11
107.5530944616
 21
784.6243251397
 31
0.0
  0
ARC
  5
130
330
1F
100
AcDbEntity
  8
0
  6
SLD-Durchgehend
 62
     7
370
    25
100
AcDbCircle
 10
126.2880884568
 20
777.6243251397
 30
0.0
 40
19.99999999999999
100
AcDbArc
 50
159.5126848853
 51
200.4873151147
  0
LINE
  5
131
330
1F
100
AcDbEntity
  8
0
  6
SLD-Durchgehend
 62
     7
370
    25
100
AcDbLine
 10
515.7880884568
 20
786.5243251397
 30
0.0
 11
508.7880884568
 21
786.5243251397
 31
0.0
  0
LINE
  5
132
330
1F
100
AcDbEntity
  8
0
  6
SLD-Durchgehend
 62
     7
370
    25
100
AcDbLine
 10
271.5632879511
 20
723.0243251397
 30
0.0
 11
258.8610051195
 21
723.0243251397
 31
0.0
  0
LINE
  5
133
330
1F
100
AcDbEntity
  8
0
  6
SLD-Durchgehend
 62
     7
370
    25
100
AcDbLine
 10
514.1034868912
 20
723.0243251397
 30
0.0
 11
512.6624816464
 21
723.0243251397
 31
0.0
  0
SPLINE
  5
134
330
1F
100
AcDbEntity
  8
0
  6
SLD-Durchgehend
 62
     7
370
    25
100
AcDbSpline
210
0.0
220
0.0
230
1.0
 70
     8
 71
     3
 72
    13
 73
     9
 74
     0
 42
0.00000001
 43
0.00000001
 40
0.0
 40
0.0
 40
0.0
 40
0.0
 40
0.2398157319659417
 40
0.3685914649208522
 40
0.5000009419844949
 40
0.6314102637104997
 40
0.7601855671765914
 40
1.0
 40
1.0
 40
1.0
 40
1.0
 10
258.8754863058769
 20
723.0241913307025
 30
0.0
 10
258.6277372543416
 20
722.9983026492873
 30
0.0
 10
258.2469524530711
 20
722.9585123197312
 30
0.0
 10
257.7873403354497
 20
722.7168903890225
 30
0.0
 10
257.4699614476635
 20
722.4669990419684
 30
0.0
 10
257.2118478445646
 20
722.156270795763
 30
0.0
 10
256.958278457264
 20
721.7031426552754
 30
0.0
 10
256.9085356619345
 20
721.323531430389
 30
0.0
 10
256.8761716564439
 20
721.0765461195499
 30
0.0
  0
LINE
  5
135
330
1F
100
AcDbEntity
  8
0
  6
SLD-Durchgehend
 62
     7
370
    25
100
AcDbLine
 10
509.1051966017
 20
722.9093714955
 30
0.0
 11
273.8632879511
 21
722.9093714955
 31
0.0
  0
ARC
  5
136
330
1F
100
AcDbEntity
  8
0
  6
SLD-Durchgehend
 62
     7
370
    25
100
AcDbCircle
 10
271.5632879511
 20
722.7243251397
 30
0.0
 40
0.2999999999999545
100
AcDbArc
 50
47.5092251844
 51
90.0
  0
SPLINE
  5
137
330
1F
100
AcDbEntity
  8
0
  6
SLD-Durchgehend
 62
     7
370
    25
100
AcDbSpline
210
0.0
220
0.0
230
1.0
 70
    24
 71
     3
 72
    16
 73
    12
 74
     0
 42
0.00000001
 43
0.00000001
 40
0.0
 40
0.0
 40
0.0
 40
0.0
 40
0.1248756536931187
 40
0.2498756536931183
 40
0.3748756536931187
 40
0.4998756536931188
 40
0.6248756536931189
 40
0.7498756536931185
 40
0.8748756536931187
 40
0.9998756536931186
 40
0.9999999999999999
 40
0.9999999999999999
 40
0.9999999999999999
 40
0.9999999999999999
 10
515.7880884568634
 20
784.6237955894484
 30
0.0
 10
515.7880884568634
 20
784.5190230360611
 30
0.0
 10
515.7880884568634
 20
784.3093736008631
 30
0.0
 10
515.7880884568634
 20
782.6917157557494
 30
0.0
 10
515.7880884568634
 20
780.3794126649013
 30
0.0
 10
515.7880884568634
 20
777.6246427616677
 30
0.0
 10
515.7880884568635
 20
774.8845877329275
 30
0.0
 10
515.7880884568634
 20
772.5256096819818
 30
0.0
 10
515.7880884568635
 20
771.0721944363902
 30
0.0
 10
515.7880884568634
 20
770.4470783860439
 30
0.0
 10
515.7880884568634
 20
770.6246781945371
 30
0.0
 10
515.7880884568634
 20
770.6248546900068
 30
0.0
  0
LINE
  5
138
330
1F
100
AcDbEntity
  8
0
  6
SLD-Durchgehend
 62
     7
370
    25
100
AcDbLine
 10
517.9880884569
 20
771.4587750096
 30
0.0
 11
519.2880884569
 21
771.4587750096
 31
0.0
  0
LINE
  5
139
330
1F
100
AcDbEntity
  8
0
  6
SLD-Durchgehend
 62
     7
370
    25
100
AcDbLine
 10
517.9880884569
 20
770.9225063983
 30
0.0
 11
517.9880884569
 21
771.4587750096
 31
0.0
  0
LINE
  5
13A
330
1F
100
AcDbEntity
  8
0
  6
SLD-Durchgehend
 62
     7
370
    25
100
AcDbLine
 10
519.2880884569
 20
770.9225063983
 30
0.0
 11
517.9880884569
 21
770.9225063983
 31
0.0
  0
SPLINE
  5
13B
330
1F
100
AcDbEntity
  8
0
  6
SLD-Durchgehend
 62
     7
370
    25
100
AcDbSpline
210
0.0
220
0.0
230
1.0
 70
    24
 71
     3
 72
    15
 73
    11
 74
     0
 42
0.00000001
 43
0.00000001
 40
0.0
 40
0.0
 40
0.0
 40
0.0
 40
0.0255887130279706
 40
0.1688508747498038
 40
0.3121130364716372
 40
0.4459005831665363
 40
0.5796881298614355
 40
0.7229502915832681
 40
0.8662124533051013
 40
1.0
 40
1.0
 40
1.0
 40
1.0
 10
519.7880884568635
 20
784.0620013794285
 30
0.0
 10
519.7880884568635
 20
784.0813645534007
 30
0.0
 10
519.7880884568635
 20
784.2091352958989
 30
0.0
 10
519.7880884568635
 20
783.581220532273
 30
0.0
 10
519.7880884568635
 20
782.1873502703246
 30
0.0
 10
519.7880884568635
 20
780.1638442777532
 30
0.0
 10
519.7880884568635
 20
777.8350953432824
 30
0.0
 10
519.7880884568635
 20
775.423893983472
 30
0.0
 10
519.7880884568635
 20
773.264202819717
 30
0.0
 10
519.7880884568635
 20
772.3598561064654
 30
0.0
 10
519.7880884568635
 20
771.9231462870653
 30
0.0
  0
SPLINE
  5
13C
330
1F
100
AcDbEntity
  8
0
  6
SLD-Durchgehend
 62
     7
370
    25
100
AcDbSpline
210
0.0
220
0.0
230
1.0
 70
     8
 71
     3
 72
    12
 73
     8
 74
     0
 42
0.00000001
 43
0.00000001
 40
0.0
 40
0.0
 40
0.0
 40
0.0
 40
0.2132867459942444
 40
0.4265576686395844
 40
0.640288340940703
 40
0.8550498528797144
 40
1.0
 40
1.0
 40
1.0
 40
1.0
 10
519.2880884568635
 20
771.4587750095661
 30
0.0
 10
519.344086805521
 20
771.463869279216
 30
0.0
 10
519.4560793484219
 20
771.4740574405814
 30
0.0
 10
519.6054180326311
 20
771.5534632960356
 30
0.0
 10
519.7184935057154
 20
771.6704420806913
 30
0.0
 10
519.7792621288078
 20
771.8011292593278
 30
0.0
 10
519.7855533382265
 20
771.8881002702968
 30
0.0
 10
519.7880884568635
 20
771.9231462870653
 30
0.0
  0
SPLINE
  5
13D
330
1F
100
AcDbEntity
  8
0
  6
SLD-Durchgehend
 62
     7
370
    25
100
AcDbSpline
210
0.0
220
0.0
230
1.0
 70
     8
 71
     3
 72
    12
 73
     8
 74
     0
 42
0.00000001
 43
0.00000001
 40
0.0
 40
0.0
 40
0.0
 40
0.0
 40
0.216187950055289
 40
0.4323990497072149
 40
0.6479714157428691
 40
0.8624217852508891
 40
0.9999999999999999
 40
0.9999999999999999
 40
0.9999999999999999
 40
0.9999999999999999
 10
519.7880884568635
 20
771.3868776757768
 30
0.0
 10
519.7825211647763
 20
771.334449285712
 30
0.0
 10
519.7713859844512
 20
771.2295868915045
 30
0.0
 10
519.6844556924492
 20
771.0899289459832
 30
0.0
 10
519.5566458747296
 20
770.9849591343279
 30
0.0
 10
519.4162123299909
 20
770.9301602259038
 30
0.0
 10
519.3240909261261
 20
770.924657103579
 30
0.0
 10
519.2880884568646
 20
770.9225063982702
 30
0.0
  0
LINE
  5
13E
330
1F
100
AcDbEntity
  8
0
  6
SLD-Durchgehend
 62
     7
370
    25
100
AcDbLine
 10
519.7880884569
 20
771.7734269043
 30
0.0
 11
519.7880884569
 21
771.3868776758
 31
0.0
  0
LINE
  5
13F
330
1F
100
AcDbEntity
  8
0
  6
SLD-Durchgehend
 62
     7
370
    25
100
AcDbLine
 10
519.7880884569
 20
771.3868776758
 30
0.0
 11
519.7880884569
 21
771.2605972881
 31
0.0
  0
LINE
  5
140
330
1F
100
AcDbEntity
  8
0
  6
SLD-Durchgehend
 62
     7
370
    25
100
AcDbLine
 10
496.0974895503
 20
733.167059545
 30
0.0
 11
497.252190072
 21
733.5243251397
 31
0.0
  0
LINE
  5
141
330
1F
100
AcDbEntity
  8
0
  6
SLD-Durchgehend
 62
     7
370
    25
100
AcDbLine
 10
497.252190072
 20
733.5243251397
 30
0.0
 11
498.4068906037
 21
733.1670595537
 31
0.0
  0
LINE
  5
142
330
1F
100
AcDbEntity
  8
0
  6
SLD-Durchgehend
 62
     7
370
    25
100
AcDbLine
 10
498.4068906037
 20
733.1670595537
 30
0.0
 11
498.4068906104
 21
723.5243251397
 31
0.0
  0
LINE
  5
143
330
1F
100
AcDbEntity
  8
0
  6
SLD-Durchgehend
 62
     7
370
    25
100
AcDbLine
 10
496.0974895503
 20
733.167059545
 30
0.0
 11
496.0974895336
 21
723.5243251397
 31
0.0
  0
LINE
  5
144
330
1F
100
AcDbEntity
  8
0
  6
SLD-Durchgehend
 62
     7
370
    25
100
AcDbLine
 10
491.4786873584
 20
733.1670595623
 30
0.0
 11
493.7880884568
 21
733.5243251397
 31
0.0
  0
LINE
  5
145
330
1F
100
AcDbEntity
  8
0
  6
SLD-Durchgehend
 62
     7
370
    25
100
AcDbLine
 10
493.7880884568
 20
733.5243251397
 30
0.0
 11
496.0974895503
 21
733.167059545
 31
0.0
  0
LINE
  5
146
330
1F
100
AcDbEntity
  8
0
  6
SLD-Durchgehend
 62
     7
370
    25
100
AcDbLine
 10
491.4786873801
 20
723.5243251397
 30
0.0
 11
491.4786873584
 21
733.1670595623
 31
0.0
  0
LINE
  5
147
330
1F
100
AcDbEntity
  8
0
  6
SLD-Durchgehend
 62
     7
370
    25
100
AcDbLine
 10
489.169286325
 20
733.1670595623
 30
0.0
 11
490.3239868417
 21
733.5243251397
 31
0.0
  0
LINE
  5
148
330
1F
100
AcDbEntity
  8
0
  6
SLD-Durchgehend
 62
     7
370
    25
100
AcDbLine
 10
490.3239868417
 20
733.5243251397
 30
0.0
 11
491.4786873584
 21
733.1670595623
 31
0.0
  0
LINE
  5
149
330
1F
100
AcDbEntity
  8
0
  6
SLD-Durchgehend
 62
     7
370
    25
100
AcDbLine
 10
489.1692863033
 20
723.5243251397
 30
0.0
 11
489.169286325
 21
733.1670595623
 31
0.0
  0
LINE
  5
14A
330
1F
100
AcDbEntity
  8
0
  6
SLD-Durchgehend
 62
     7
370
    25
100
AcDbLine
 10
497.252190072
 20
733.5243251397
 30
0.0
 11
493.7880884568
 21
733.5243251397
 31
0.0
  0
LINE
  5
14B
330
1F
100
AcDbEntity
  8
0
  6
SLD-Durchgehend
 62
     7
370
    25
100
AcDbLine
 10
493.7880884568
 20
733.5243251397
 30
0.0
 11
490.3239868417
 21
733.5243251397
 31
0.0
  0
LINE
  5
14C
330
1F
100
AcDbEntity
  8
0
  6
SLD-Durchgehend
 62
     7
370
    25
100
AcDbLine
 10
490.3239868417
 20
733.5243251397
 30
0.0
 11
489.7880884569
 21
733.5243251397
 31
0.0
  0
LINE
  5
14D
330
1F
100
AcDbEntity
  8
0
  6
SLD-Durchgehend
 62
     7
370
    25
100
AcDbLine
 10
497.7880884568
 20
733.5243251397
 30
0.0
 11
497.252190072
 21
733.5243251397
 31
0.0
  0
LINE
  5
14E
330
1F
100
AcDbEntity
  8
0
  6
SLD-Durchgehend
 62
     7
370
    25
100
AcDbLine
 10
466.0974895503
 20
733.167059545
 30
0.0
 11
467.252190072
 21
733.5243251397
 31
0.0
  0
LINE
  5
14F
330
1F
100
AcDbEntity
  8
0
  6
SLD-Durchgehend
 62
     7
370
    25
100
AcDbLine
 10
467.252190072
 20
733.5243251397
 30
0.0
 11
468.4068906037
 21
733.1670595537
 31
0.0
  0
LINE
  5
150
330
1F
100
AcDbEntity
  8
0
  6
SLD-Durchgehend
 62
     7
370
    25
100
AcDbLine
 10
468.4068906037
 20
733.1670595537
 30
0.0
 11
468.4068906104
 21
723.5243251397
 31
0.0
  0
LINE
  5
151
330
1F
100
AcDbEntity
  8
0
  6
SLD-Durchgehend
 62
     7
370
    25
100
AcDbLine
 10
466.0974895503
 20
733.167059545
 30
0.0
 11
466.0974895336
 21
723.5243251397
 31
0.0
  0
LINE
  5
152
330
1F
100
AcDbEntity
  8
0
  6
SLD-Durchgehend
 62
     7
370
    25
100
AcDbLine
 10
461.4786873584
 20
733.1670595623
 30
0.0
 11
463.7880884568
 21
733.5243251397
 31
0.0
  0
LINE
  5
153
330
1F
100
AcDbEntity
  8
0
  6
SLD-Durchgehend
 62
     7
370
    25
100
AcDbLine
 10
463.7880884568
 20
733.5243251397
 30
0.0
 11
466.0974895503
 21
733.167059545
 31
0.0
  0
LINE
  5
154
330
1F
100
AcDbEntity
  8
0
  6
SLD-Durchgehend
 62
     7
370
    25
100
AcDbLine
 10
461.4786873801
 20
723.5243251397
 30
0.0
 11
461.4786873584
 21
733.1670595623
 31
0.0
  0
LINE
  5
155
330
1F
100
AcDbEntity
  8
0
  6
SLD-Durchgehend
 62
     7
370
    25
100
AcDbLine
 10
459.169286325
 20
733.1670595623
 30
0.0
 11
460.3239868417
 21
733.5243251397
 31
0.0
  0
LINE
  5
156
330
1F
100
AcDbEntity
  8
0
  6
SLD-Durchgehend
 62
     7
370
    25
100
AcDbLine
 10
460.3239868417
 20
733.5243251397
 30
0.0
 11
461.4786873584
 21
733.1670595623
 31
0.0
  0
LINE
  5
157
330
1F
100
AcDbEntity
  8
0
  6
SLD-Durchgehend
 62
     7
370
    25
100
AcDbLine
 10
459.1692863033
 20
723.5243251397
 30
0.0
 11
459.169286325
 21
733.1670595623
 31
0.0
  0
LINE
  5
158
330
1F
100
AcDbEntity
  8
0
  6
SLD-Durchgehend
 62
     7
370
    25
100
AcDbLine
 10
467.252190072
 20
733.5243251397
 30
0.0
 11
463.7880884568
 21
733.5243251397
 31
0.0
  0
LINE
  5
159
330
1F
100
AcDbEntity
  8
0
  6
SLD-Durchgehend
 62
     7
370
    25
100
AcDbLine
 10
463.7880884568
 20
733.5243251397
 30
0.0
 11
460.3239868417
 21
733.5243251397
 31
0.0
  0
LINE
  5
15A
330
1F
100
AcDbEntity
  8
0
  6
SLD-Durchgehend
 62
     7
370
    25
100
AcDbLine
 10
460.3239868417
 20
733.5243251397
 30
0.0
 11
459.7880884569
 21
733.5243251397
 31
0.0
  0
LINE
  5
15B
330
1F
100
AcDbEntity
  8
0
  6
SLD-Durchgehend
 62
     7
370
    25
100
AcDbLine
 10
467.7880884568
 20
733.5243251397
 30
0.0
 11
467.252190072
 21
733.5243251397
 31
0.0
  0
LINE
  5
15C
330
1F
100
AcDbEntity
  8
0
  6
SLD-Durchgehend
 62
     7
370
    25
100
AcDbLine
 10
108.7880884568
 20
770.8986669637
 30
0.0
 11
108.7880884568
 21
784.6243251397
 31
0.0
  0
LINE
  5
15D
330
1F
100
AcDbEntity
  8
0
  6
SLD-Durchgehend
 62
     7
370
    25
100
AcDbLine
 10
108.7880884568
 20
770.6243251397
 30
0.0
 11
108.7880884568
 21
770.8986669637
 31
0.0
  0
LINE
  5
15E
330
1F
100
AcDbEntity
  8
0
  6
SLD-Durchgehend
 62
     7
370
    25
100
AcDbLine
 10
107.5530944616
 20
770.8986669637
 30
0.0
 11
107.5530944616
 21
784.6243251397
 31
0.0
  0
LINE
  5
15F
330
1F
100
AcDbEntity
  8
0
  6
SLD-Durchgehend
 62
     7
370
    25
100
AcDbLine
 10
107.5530944616
 20
770.6243251397
 30
0.0
 11
107.5530944616
 21
770.8986669637
 31
0.0
  0
LINE
  5
160
330
1F
100
AcDbEntity
  8
0
  6
SLD-Durchgehend
 62
     7
370
    25
100
AcDbLine
 10
488.7880884569
 20
768.6243251397
 30
0.0
 11
508.7880884569
 21
768.6243251397
 31
0.0
  0
LINE
  5
161
330
1F
100
AcDbEntity
  8
0
  6
SLD-Durchgehend
 62
     7
370
    25
100
AcDbLine
 10
488.7880884569
 20
768.6243251397
 30
0.0
 11
488.7880884569
 21
786.6243251397
 31
0.0
  0
LINE
  5
162
330
1F
100
AcDbEntity
  8
0
  6
SLD-Durchgehend
 62
     7
370
    25
100
AcDbLine
 10
488.7880884569
 20
786.6243251397
 30
0.0
 11
508.7880884569
 21
786.6243251397
 31
0.0
  0
LINE
  5
163
330
1F
100
AcDbEntity
  8
0
  6
SLD-Durchgehend
 62
     7
370
    25
100
AcDbLine
 10
508.7880884569
 20
768.6243251397
 30
0.0
 11
508.7880884569
 21
786.6243251397
 31
0.0
  0
LINE
  5
164
330
1F
100
AcDbEntity
  8
0
  6
SLD-Durchgehend
 62
     7
370
    25
100
AcDbLine
 10
515.7880884568
 20
779.5243251397
 30
0.0
 11
508.7880884568
 21
779.5243251397
 31
0.0
  0
LINE
  5
165
330
1F
100
AcDbEntity
  8
0
  6
SLD-Durchgehend
 62
     7
370
    25
100
AcDbLine
 10
515.7880884568
 20
779.5243251397
 30
0.0
 11
515.7880884568
 21
786.5243251397
 31
0.0
  0
ARC
  5
166
330
1F
100
AcDbEntity
  8
0
  6
SLD-Durchgehend
 62
     7
370
    25
100
AcDbCircle
 10
499.7880884568
 20
732.5243251397
 30
0.0
 40
15.99999999999999
100
AcDbArc
 50
323.5764263577
 51
0.0
  0
LINE
  5
167
330
1F
100
AcDbEntity
  8
0
  6
SLD-Durchgehend
 62
     7
370
    25
100
AcDbLine
 10
499.7880884568
 20
723.5243251397
 30
0.0
 11
457.7880884568
 21
723.5243251397
 31
0.0
  0
ARC
  5
168
330
1F
100
AcDbEntity
  8
0
  6
SLD-Durchgehend
 62
     7
370
    25
100
AcDbCircle
 10
499.7880884568
 20
732.5243251397
 30
0.0
 40
9.000000000000057
100
AcDbArc
 50
270.0
 51
0.0
  0
LINE
  5
169
330
1F
100
AcDbEntity
  8
0
  6
SLD-Durchgehend
 62
     7
370
    25
100
AcDbLine
 10
508.7880884569
 20
768.6243251397
 30
0.0
 11
508.7880884568
 21
732.5243251397
 31
0.0
  0
LINE
  5
16A
330
1F
100
AcDbEntity
  8
0
  6
SLD-Durchgehend
 62
     7
370
    25
100
AcDbLine
 10
515.7880884568
 20
732.5243251397
 30
0.0
 11
515.7880884568
 21
779.5243251397
 31
0.0
  0
LINE
  5
16B
330
1F
100
AcDbEntity
  8
0
  6
SLD-Durchgehend
 62
     7
370
    25
100
AcDbLine
 10
455.7880884568
 20
722.9093714955
 30
0.0
 11
455.7880884568
 21
723.5243251397
 31
0.0
  0
LINE
  5
16C
330
1F
100
AcDbEntity
  8
0
  6
SLD-Durchgehend
 62
     7
370
    25
100
AcDbLine
 10
457.7880884568
 20
723.5243251397
 30
0.0
 11
455.7880884568
 21
723.5243251397
 31
0.0
  0
LINE
  5
16D
330
1F
100
AcDbEntity
  8
0
  6
SLD-Durchgehend
 62
     7
370
    25
100
AcDbLine
 10
516.1007428058
 20
720.5845372622
 30
0.0
 11
516.4820153784
 21
706.0243251397
 31
0.0
  0
LINE
  5
16E
330
1F
100
AcDbEntity
  8
0
  6
SLD-Durchgehend
 62
     7
370
    25
100
AcDbLine
 10
514.4827007285
 20
706.0243251397
 30
0.0
 11
516.4820153784
 21
706.0243251397
 31
0.0
  0
LINE
  5
16F
330
1F
100
AcDbEntity
  8
0
  6
SLD-Durchgehend
 62
     7
370
    25
100
AcDbLine
 10
514.1014281558
 20
720.5845372622
 30
0.0
 11
514.4827007285
 21
706.0243251397
 31
0.0
  0
ARC
  5
170
330
1F
100
AcDbEntity
  8
0
  6
SLD-Durchgehend
 62
     7
370
    25
100
AcDbCircle
 10
515.1010854808
 20
701.4751506749
 30
0.0
 40
19.13551594576428
100
AcDbArc
 50
87.0054515334
 51
92.9945484666
  0
LINE
  5
171
330
1F
100
AcDbEntity
  8
0
  6
SLD-Durchgehend
 62
     7
370
    25
100
AcDbLine
 10
258.4813300284
 20
706.0243251397
 30
0.0
 11
258.862602601
 21
720.5845372622
 31
0.0
  0
LINE
  5
172
330
1F
100
AcDbEntity
  8
0
  6
SLD-Durchgehend
 62
     7
370
    25
100
AcDbLine
 10
514.1014281558
 20
720.5845372622
 30
0.0
 11
258.862602601
 21
720.5845372622
 31
0.0
  0
LINE
  5
173
330
1F
100
AcDbEntity
  8
0
  6
SLD-Durchgehend
 62
     7
370
    25
100
AcDbLine
 10
258.4813300284
 20
706.0243251397
 30
0.0
 11
514.4827007285
 21
706.0243251397
 31
0.0
  0
LINE
  5
174
330
1F
100
AcDbEntity
  8
0
  6
SLD-Durchgehend
 62
     7
370
    25
100
AcDbLine
 10
256.8632879511
 20
720.5845372622
 30
0.0
 11
256.4820153784
 21
706.0243251397
 31
0.0
  0
ARC
  5
175
330
1F
100
AcDbEntity
  8
0
  6
SLD-Durchgehend
 62
     7
370
    25
100
AcDbCircle
 10
257.8629452761
 20
701.4751506749
 30
0.0
 40
19.13551594576825
100
AcDbArc
 50
87.0054515334
 51
92.9945484666
  0
LINE
  5
176
330
1F
100
AcDbEntity
  8
0
  6
SLD-Durchgehend
 62
     7
370
    25
100
AcDbLine
 10
256.4820153784
 20
706.0243251397
 30
0.0
 11
258.4813300284
 21
706.0243251397
 31
0.0
  0
LINE
  5
177
330
1F
100
AcDbEntity
  8
0
  6
SLD-Durchgehend
 62
     7
370
    25
100
AcDbLine
 10
514.1014281558
 20
720.5845372622
 30
0.0
 11
514.1014281558
 21
722.5288804007
 31
0.0
  0
SPLINE
  5
178
330
1F
100
AcDbEntity
  8
0
  6
SLD-Durchgehend
 62
     7
370
    25
100
AcDbSpline
210
0.0
220
0.0
230
1.0
 70
     8
 71
     3
 72
    12
 73
     8
 74
     0
 42
0.00000001
 43
0.00000001
 40
0.0
 40
0.0
 40
0.0
 40
0.0
 40
0.2426478331966022
 40
0.499350578667112
 40
0.6228501361671879
 40
0.7598722142322075
 40
1.0
 40
1.0
 40
1.0
 40
1.0
 10
514.101428155802
 20
722.5288804006752
 30
0.0
 10
514.3513389630441
 20
722.501664373389
 30
0.0
 10
514.8656361837014
 20
722.4456558824193
 30
0.0
 10
515.4178932714991
 20
722.0738884949291
 30
0.0
 10
515.760227680948
 20
721.6700589095241
 30
0.0
 10
516.0174261708363
 20
721.2181002068567
 30
0.0
 10
516.0683317196346
 20
720.8310002066304
 30
0.0
 10
516.100742805753
 20
720.5845372622179
 30
0.0
  0
LINE
  5
179
330
1F
100
AcDbEntity
  8
0
  6
SLD-Durchgehend
 62
     7
370
    25
100
AcDbLine
 10
258.862602601
 20
722.5288804007
 30
0.0
 11
258.862602601
 21
720.5845372622
 31
0.0
  0
LINE
  5
17A
330
1F
100
AcDbEntity
  8
0
  6
SLD-Durchgehend
 62
     7
370
    25
100
AcDbLine
 10
258.862602601
 20
722.5288804007
 30
0.0
 11
514.1014281558
 21
722.5288804007
 31
0.0
  0
SPLINE
  5
17B
330
1F
100
AcDbEntity
  8
0
  6
SLD-Durchgehend
 62
     7
370
    25
100
AcDbSpline
210
0.0
220
0.0
230
1.0
 70
     8
 71
     3
 72
    12
 73
     8
 74
     0
 42
0.00000001
 43
0.00000001
 40
0.0
 40
0.0
 40
0.0
 40
0.0
 40
0.2426412438196132
 40
0.4993505795730223
 40
0.6228349314573731
 40
0.7598722069950424
 40
0.9999999999999999
 40
0.9999999999999999
 40
0.9999999999999999
 40
0.9999999999999999
 10
258.8626026010456
 20
722.5288804006752
 30
0.0
 10
258.612698710273
 20
722.5016658703663
 30
0.0
 10
258.0984017559284
 20
722.4456589390276
 30
0.0
 10
257.5461551772525
 20
722.0739024604801
 30
0.0
 10
257.2038121108711
 20
721.6700722738954
 30
0.0
 10
256.9466069582351
 20
721.2181156626658
 30
0.0
 10
256.8956991622819
 20
720.8310001528039
 30
0.0
 10
256.8632879510947
 20
720.5845372622179
 30
0.0
  0
SPLINE
  5
17C
330
1F
100
AcDbEntity
  8
0
  6
SLD-Durchgehend
 62
     7
370
    25
100
AcDbSpline
210
0.0
220
0.0
230
1.0
 70
     8
 71
     3
 72
    11
 73
     7
 74
     0
 42
0.00000001
 43
0.00000001
 40
0.0
 40
0.0
 40
0.0
 40
0.0
 40
0.2506732331984244
 40
0.500389514662205
 40
0.7501201371568429
 40
0.9999999999999999
 40
0.9999999999999999
 40
0.9999999999999999
 40
0.9999999999999999
 10
271.5632879510945
 20
722.9641989342015
 30
0.0
 10
271.5979993560628
 20
722.9578649241623
 30
0.0
 10
271.6672896542878
 20
722.9452210843359
 30
0.0
 10
272.1994217375434
 20
722.9264075537046
 30
0.0
 10
272.959158582882
 20
722.912173242938
 30
0.0
 10
273.5618514842078
 20
722.9102288924373
 30
0.0
 10
273.8632879510945
 20
722.9092564267852
 30
0.0
  0
LINE
  5
17D
330
1F
100
AcDbEntity
  8
0
  6
SLD-Durchgehend
 62
     7
370
    25
100
AcDbLine
 10
273.8632879511
 20
722.9092564268
 30
0.0
 11
509.1007428058
 21
722.9092564268
 31
0.0
  0
SPLINE
  5
17E
330
1F
100
AcDbEntity
  8
0
  6
SLD-Durchgehend
 62
     7
370
    25
100
AcDbSpline
210
0.0
220
0.0
230
1.0
 70
     8
 71
     3
 72
    11
 73
     7
 74
     0
 42
0.00000001
 43
0.00000001
 40
0.0
 40
0.0
 40
0.0
 40
0.0
 40
0.2500025555871593
 40
0.4997851131842048
 40
0.7494500186423133
 40
1.0
 40
1.0
 40
1.0
 40
1.0
 10
510.400742805753
 20
722.9424837310221
 30
0.0
 10
510.3812305349159
 20
722.9384133961792
 30
0.0
 10
510.3422231637075
 20
722.9302763083185
 30
0.0
 10
510.0421786720277
 20
722.9190914592039
 30
0.0
 10
509.6126741295555
 20
722.9109026516473
 30
0.0
 10
509.2715877521171
 20
722.9098058153168
 30
0.0
 10
509.100742805753
 20
722.9092564267852
 30
0.0
  0
LINE
  5
17F
330
1F
100
AcDbEntity
  8
0
  6
SLD-Durchgehend
 62
     7
370
    25
100
AcDbLine
 10
514.1014281558
 20
722.5288804007
 30
0.0
 11
514.0885409699
 21
723.0243251397
 31
0.0
  0
LINE
  5
180
330
1F
100
AcDbEntity
  8
0
  6
SLD-Durchgehend
 62
     7
370
    25
100
AcDbLine
 10
258.8754862722
 20
723.0243251397
 30
0.0
 11
258.862602601
 21
722.5288804007
 31
0.0
  0
LINE
  5
181
330
1F
100
AcDbEntity
  8
0
  6
SLD-Durchgehend
 62
     7
370
    25
100
AcDbLine
 10
256.8632879511
 20
720.5845372622
 30
0.0
 11
256.8761792642
 21
721.0768366478
 31
0.0
  0
ARC
  5
182
330
1F
100
AcDbEntity
  8
0
  6
SLD-Durchgehend
 62
     7
370
    25
100
AcDbCircle
 10
514.0885409699
 20
721.0243251397
 30
0.0
 40
2.0
100
AcDbArc
 50
1.5
 51
89.9999999999
  0
LINE
  5
183
330
1F
100
AcDbEntity
  8
0
  6
SLD-Durchgehend
 62
     7
370
    25
100
AcDbLine
 10
516.0878556199
 20
721.0766790363
 30
0.0
 11
516.1007428058
 21
720.5845372622
 31
0.0
  0
LINE
  5
184
330
1F
100
AcDbEntity
  8
0
  6
SLD-Durchgehend
 62
     7
370
    25
100
AcDbLine
 10
519.2880884569
 20
784.6243251397
 30
0.0
 11
519.2880884569
 21
771.4587750096
 31
0.0
  0
LINE
  5
185
330
1F
100
AcDbEntity
  8
0
  6
SLD-Durchgehend
 62
     7
370
    25
100
AcDbLine
 10
519.2880884569
 20
770.9225063983
 30
0.0
 11
519.2880884569
 21
770.6243251397
 31
0.0
  0
LINE
  5
186
330
1F
100
AcDbEntity
  8
0
  6
SLD-Durchgehend
 62
     7
370
    25
100
AcDbLine
 10
457.7880884568
 20
723.5243251397
 30
0.0
 11
457.7880884568
 21
722.9093714955
 31
0.0
  0
LINE
  5
187
330
1F
100
AcDbEntity
  8
0
  6
SLD-Durchgehend
 62
     7
370
    25
100
AcDbLine
 10
271.5632879511
 20
723.0243251397
 30
0.0
 11
271.5632879511
 21
722.9641989342
 31
0.0
  0
LINE
  5
188
330
1F
100
AcDbEntity
  8
0
  6
SLD-Durchgehend
 62
     7
370
    25
100
AcDbLine
 10
273.8632879511
 20
722.9092564268
 30
0.0
 11
273.8632879511
 21
722.9093714955
 31
0.0
  0
DIMENSION
  5
189
330
1F
100
AcDbEntity
  8
0
  6
SLD-Durchgehend
 62
     7
370
    18
100
AcDbDimension
280
     0
  2
_D_4
 10
106.2880884568
 20
615.7005289668
 30
0.0
 11
307.4943306097
 21
615.7005289668
 31
0.0
 70
   160
  1
BA40vc947 / <>-590mm\PBA40vc948 / 330-510cm
 71
     2
 42
-1.0
 73
     0
 74
     0
 75
     0
  3
SLDDIMSTYLE1
100
AcDbAlignedDimension
 13
516.4820153784
 23
706.0243251397
 33
0.0
 14
106.2880884568
 24
777.6243251397
 34
0.0
100
AcDbRotatedDimension
  0
DIMENSION
  5
196
330
1F
100
AcDbEntity
  8
0
  6
SLD-Durchgehend
 62
     7
370
    18
100
AcDbDimension
280
     0
  2
_D_5
 10
549.8166877865
 20
786.6243251397
 30
0.0
 11
549.8166877865
 21
748.1580653713
 31
0.0
 70
   160
  1
<>
 71
     2
 42
-1.0
 73
     0
 74
     0
 75
     0
  3
SLDDIMSTYLE1
100
AcDbAlignedDimension
 13
514.4827007285
 23
706.0243251397
 33
0.0
 14
508.7880884569
 24
786.6243251397
 34
0.0
 50
90.0
100
AcDbRotatedDimension
  0
DIMENSION
  5
1A0
330
1F
100
AcDbEntity
  8
0
  6
SLD-Durchgehend
 62
     7
370
    18
100
AcDbDimension
280
     0
  2
_D_6
 10
256.4820153784
 20
672.5853236029
 30
0.0
 11
372.0618387501
 21
672.5853236029
 31
0.0
 70
   160
  1
<>
 71
     2
 42
-1.0
 73
     0
 74
     0
 75
     0
  3
SLDDIMSTYLE2
100
AcDbAlignedDimension
 13
516.4820153784
 23
706.0243251397
 33
0.0
 14
256.4820153784
 24
706.0243251397
 34
0.0
100
AcDbRotatedDimension
  0
LINE
  5
1AB
330
1F
100
AcDbEntity
  8
0
  6
SLD-Durchgehend
 62
     7
370
    25
100
AcDbLine
 10
639.9045146953
 20
625.7542800456
 30
0.0
 11
639.9045146953
 21
629.2617800456
 31
0.0
  0
LINE
  5
1AC
330
1F
100
AcDbEntity
  8
0
  6
SLD-Durchgehend
 62
     7
370
    25
100
AcDbLine
 10
625.9045146953
 20
629.2617800456
 30
0.0
 11
625.9045146953
 21
625.7617800456
 31
0.0
  0
ARC
  5
1AD
330
1F
100
AcDbEntity
  8
0
  6
SLD-Durchgehend
 62
     7
370
    25
100
AcDbCircle
 10
639.4045146953
 20
629.2617800456
 30
0.0
 40
0.5000000000001137
100
AcDbArc
 50
0.0
 51
90.0
  0
ARC
  5
1AE
330
1F
100
AcDbEntity
  8
0
  6
SLD-Durchgehend
 62
     7
370
    25
100
AcDbCircle
 10
626.4045146953
 20
629.2617800456
 30
0.0
 40
0.5000000000001137
100
AcDbArc
 50
90.0
 51
180.0
  0
LINE
  5
1AF
330
1F
100
AcDbEntity
  8
0
  6
SLD-Durchgehend
 62
     7
370
    25
100
AcDbLine
 10
625.9045146953
 20
598.7617800457
 30
0.0
 11
625.9045146953
 21
595.2617800456
 31
0.0
  0
LINE
  5
1B0
330
1F
100
AcDbEntity
  8
0
  6
SLD-Durchgehend
 62
     7
370
    25
100
AcDbLine
 10
639.9045146953
 20
595.2617800456
 30
0.0
 11
639.9045146953
 21
598.7617800457
 31
0.0
  0
ARC
  5
1B1
330
1F
100
AcDbEntity
  8
0
  6
SLD-Durchgehend
 62
     7
370
    25
100
AcDbCircle
 10
639.4045146953
 20
595.2617800456
 30
0.0
 40
0.5
100
AcDbArc
 50
270.0
 51
0.0
  0
ARC
  5
1B2
330
1F
100
AcDbEntity
  8
0
  6
SLD-Durchgehend
 62
     7
370
    25
100
AcDbCircle
 10
626.4045146953
 20
595.2617800456
 30
0.0
 40
0.5
100
AcDbArc
 50
180.0
 51
270.0
  0
LINE
  5
1B3
330
1F
100
AcDbEntity
  8
0
  6
SLD-Durchgehend
 62
     7
370
    25
100
AcDbLine
 10
604.8045146953
 20
598.7617800457
 30
0.0
 11
604.8045146953
 21
218.7617800457
 31
0.0
  0
LINE
  5
1B4
330
1F
100
AcDbEntity
  8
0
  6
SLD-Durchgehend
 62
     7
370
    25
100
AcDbLine
 10
618.8045146953
 20
218.7617800457
 30
0.0
 11
618.8045146953
 21
598.7617800457
 31
0.0
  0
LINE
  5
1B5
330
1F
100
AcDbEntity
  8
0
  6
SLD-Durchgehend
 62
     7
370
    25
100
AcDbLine
 10
646.8045146953
 20
598.7617800457
 30
0.0
 11
646.8045146953
 21
218.7617800456
 31
0.0
  0
LINE
  5
1B6
330
1F
100
AcDbEntity
  8
0
  6
SLD-Durchgehend
 62
     7
370
    25
100
AcDbLine
 10
660.8045146953
 20
218.7617800456
 30
0.0
 11
660.8045146953
 21
598.7617800457
 31
0.0
  0
LINE
  5
1B7
330
1F
100
AcDbEntity
  8
0
  6
SLD-Durchgehend
 62
     7
370
    25
100
AcDbLine
 10
660.8045146953
 20
217.5267860504
 30
0.0
 11
660.8045146953
 21
218.7617800456
 31
0.0
  0
LINE
  5
1B8
330
1F
100
AcDbEntity
  8
0
  6
SLD-Durchgehend
 62
     7
370
    25
100
AcDbLine
 10
646.8045146953
 20
218.7617800456
 30
0.0
 11
646.8045146953
 21
217.5267860504
 31
0.0
  0
ARC
  5
1B9
330
1F
100
AcDbEntity
  8
0
  6
SLD-Durchgehend
 62
     7
370
    25
100
AcDbCircle
 10
653.8045146953
 20
236.2617800456
 30
0.0
 40
20.00000000000004
100
AcDbArc
 50
249.5126848853
 51
290.4873151147
  0
ARC
  5
1BA
330
1F
100
AcDbEntity
  8
0
  6
SLD-Durchgehend
 62
     7
370
    25
100
AcDbCircle
 10
611.8045146953
 20
236.2617800457
 30
0.0
 40
20.00000000000004
100
AcDbArc
 50
249.5126848853
 51
290.4873151147
  0
LINE
  5
1BB
330
1F
100
AcDbEntity
  8
0
  6
SLD-Durchgehend
 62
     7
370
    25
100
AcDbLine
 10
618.8045146953
 20
217.5267860505
 30
0.0
 11
618.8045146953
 21
218.7617800457
 31
0.0
  0
LINE
  5
1BC
330
1F
100
AcDbEntity
  8
0
  6
SLD-Durchgehend
 62
     7
370
    25
100
AcDbLine
 10
604.8045146953
 20
218.7617800457
 30
0.0
 11
604.8045146953
 21
217.5267860505
 31
0.0
  0
LINE
  5
1BD
330
1F
100
AcDbEntity
  8
0
  6
SLD-Durchgehend
 62
     7
370
    25
100
AcDbLine
 10
662.8045146953
 20
598.7617800457
 30
0.0
 11
662.8045146953
 21
618.7617800457
 31
0.0
  0
LINE
  5
1BE
330
1F
100
AcDbEntity
  8
0
  6
SLD-Durchgehend
 62
     7
370
    25
100
AcDbLine
 10
602.8045146953
 20
618.7617800457
 30
0.0
 11
602.8045146953
 21
598.7617800457
 31
0.0
  0
LINE
  5
1BF
330
1F
100
AcDbEntity
  8
0
  6
SLD-Durchgehend
 62
     7
370
    25
100
AcDbLine
 10
624.8243459077
 20
619.2854188121
 30
0.0
 11
624.9450041194
 21
619.412058928
 31
0.0
  0
LINE
  5
1C0
330
1F
100
AcDbEntity
  8
0
  6
SLD-Durchgehend
 62
     7
370
    25
100
AcDbLine
 10
625.4620153812
 20
619.9300883869
 30
0.0
 11
625.5825260966
 21
620.0509057803
 31
0.0
  0
LINE
  5
1C1
330
1F
100
AcDbEntity
  8
0
  6
SLD-Durchgehend
 62
     7
370
    25
100
AcDbLine
 10
625.4603524897
 20
619.9291050012
 30
0.0
 11
625.4680986172
 21
619.9361871037
 31
0.0
  0
SPLINE
  5
1C2
330
1F
100
AcDbEntity
  8
0
  6
SLD-Durchgehend
 62
     7
370
    25
100
AcDbSpline
210
0.0
220
0.0
230
1.0
 70
     8
 71
     3
 72
     9
 73
     5
 74
     0
 42
0.00000001
 43
0.00000001
 40
0.0
 40
0.0
 40
0.0
 40
0.0
 40
0.4999797610423755
 40
1.0
 40
1.0
 40
1.0
 40
1.0
 10
624.9489392222786
 20
619.4186925144818
 30
0.0
 10
625.0183726167351
 20
619.519819298937
 30
0.0
 10
625.1572450269135
 20
619.7220810549819
 30
0.0
 10
625.3598696484942
 20
619.8604236965822
 30
0.0
 10
625.4611860601958
 20
619.9295978172931
 30
0.0
  0
LINE
  5
1C3
330
1F
100
AcDbEntity
  8
0
  6
SLD-Durchgehend
 62
     7
370
    25
100
AcDbLine
 10
640.0265032316
 20
620.0509057159
 30
0.0
 11
640.146989777
 21
619.9301027334
 31
0.0
  0
LINE
  5
1C4
330
1F
100
AcDbEntity
  8
0
  6
SLD-Durchgehend
 62
     7
370
    25
100
AcDbLine
 10
640.140749322
 20
619.9363595779
 30
0.0
 11
640.1487015505
 21
619.9290904409
 31
0.0
  0
SPLINE
  5
1C5
330
1F
100
AcDbEntity
  8
0
  6
SLD-Durchgehend
 62
     7
370
    25
100
AcDbSpline
210
0.0
220
0.0
230
1.0
 70
     8
 71
     3
 72
     9
 73
     5
 74
     0
 42
0.00000001
 43
0.00000001
 40
0.0
 40
0.0
 40
0.0
 40
0.0
 40
0.5000202316427277
 40
1.0
 40
1.0
 40
1.0
 40
1.0
 10
640.1478435714756
 20
619.9295976832734
 30
0.0
 10
640.2491599810062
 20
619.8604235589821
 30
0.0
 10
640.4517846012093
 20
619.7220809081975
 30
0.0
 10
640.5906569727541
 20
619.5198191206224
 30
0.0
 10
640.6600903489104
 20
619.418692318923
 30
0.0
  0
LINE
  5
1C6
330
1F
100
AcDbEntity
  8
0
  6
SLD-Durchgehend
 62
     7
370
    25
100
AcDbLine
 10
640.6640410577
 20
619.4120324402
 30
0.0
 11
640.7846834188
 21
619.2854187744
 31
0.0
  0
SPLINE
  5
1C7
330
1F
100
AcDbEntity
  8
0
  6
SLD-Durchgehend
 62
     7
370
    25
100
AcDbSpline
210
0.0
220
0.0
230
1.0
 70
    24
 71
     3
 72
    13
 73
     9
 74
     0
 42
0.00000001
 43
0.00000001
 40
0.0
 40
0.0
 40
0.0
 40
0.0
 40
0.1999602170967695
 40
0.3999204341935388
 40
0.5998806512903073
 40
0.7998408683870759
 40
0.999801085483846
 40
1.0
 40
1.0
 40
1.0
 40
1.0
 10
630.2231716388762
 20
625.7617800456485
 30
0.0
 10
631.1102600313513
 20
625.7617800456485
 30
0.0
 10
632.8844368163013
 20
625.7617800456485
 30
0.0
 10
635.6495486616982
 20
625.7617800456485
 30
0.0
 10
638.0018041718258
 20
625.7617800456485
 30
0.0
 10
639.4570527640329
 20
625.7617800456485
 30
0.0
 10
640.0817613813996
 20
625.7617800456483
 30
0.0
 10
639.9041616404423
 20
625.7617800456485
 30
0.0
 10
639.9039851450397
 20
625.7617800456485
 30
0.0
  0
SPLINE
  5
1C8
330
1F
100
AcDbEntity
  8
0
  6
SLD-Durchgehend
 62
     7
370
    25
100
AcDbSpline
210
0.0
220
0.0
230
1.0
 70
    24
 71
     3
 72
    10
 73
     6
 74
     0
 42
0.00000001
 43
0.00000001
 40
0.0
 40
0.0
 40
0.0
 40
0.0
 40
0.3331121999065448
 40
0.6665560999532719
 40
1.0
 40
1.0
 40
1.0
 40
1.0
 10
625.9050442455981
 20
625.7617800456485
 30
0.0
 10
626.0114531743565
 20
625.7617800456485
 30
0.0
 10
626.2243769897354
 20
625.7617800456485
 30
0.0
 10
627.817458235211
 20
625.7617800456485
 30
0.0
 10
629.4212671709878
 20
625.7617800456485
 30
0.0
 10
630.2231716388762
 20
625.7617800456485
 30
0.0
  0
LINE
  5
1C9
330
1F
100
AcDbEntity
  8
0
  6
SLD-Durchgehend
 62
     7
370
    25
100
AcDbLine
 10
630.8832216545
 20
629.2617800456
 30
0.0
 11
630.8832216545
 21
627.9617800456
 31
0.0
  0
LINE
  5
1CA
330
1F
100
AcDbEntity
  8
0
  6
SLD-Durchgehend
 62
     7
370
    25
100
AcDbLine
 10
629.5900024246
 20
627.9617800456
 30
0.0
 11
629.5900024246
 21
629.2617800456
 31
0.0
  0
LINE
  5
1CB
330
1F
100
AcDbEntity
  8
0
  6
SLD-Durchgehend
 62
     7
370
    25
100
AcDbLine
 10
630.8832216545
 20
627.9617800456
 30
0.0
 11
629.5900024246
 21
627.9617800456
 31
0.0
  0
SPLINE
  5
1CC
330
1F
100
AcDbEntity
  8
0
  6
SLD-Durchgehend
 62
     7
370
    25
100
AcDbSpline
210
0.0
220
0.0
230
1.0
 70
    24
 71
     3
 72
    12
 73
     8
 74
     0
 42
0.00000001
 43
0.00000001
 40
0.0
 40
0.0
 40
0.0
 40
0.0
 40
0.1944905977119623
 40
0.4027547011440172
 40
0.6110188045760717
 40
0.8055094022880351
 40
1.0
 40
1.0
 40
1.0
 40
1.0
 10
631.0757858651059
 20
629.7617800456485
 30
0.0
 10
631.8317355724861
 20
629.7617800456485
 30
0.0
 10
633.3971701079213
 20
629.7617800456485
 30
0.0
 10
635.7836389028043
 20
629.7617800456485
 30
0.0
 10
637.737114871424
 20
629.7617800456485
 30
0.0
 10
639.0713216673786
 20
629.7617800456485
 30
0.0
 10
639.2899807929866
 20
629.7617800456485
 30
0.0
 10
639.3993103557906
 20
629.7617800456485
 30
0.0
  0
SPLINE
  5
1CD
330
1F
100
AcDbEntity
  8
0
  6
SLD-Durchgehend
 62
     7
370
    25
100
AcDbSpline
210
0.0
220
0.0
230
1.0
 70
     8
 71
     3
 72
    12
 73
     8
 74
     0
 42
0.00000001
 43
0.00000001
 40
0.0
 40
0.0
 40
0.0
 40
0.0
 40
0.2161879500552497
 40
0.4323990497071353
 40
0.6479714157427039
 40
0.8624217852506382
 40
1.0
 40
1.0
 40
1.0
 40
1.0
 10
631.0757858651059
 20
629.7617800456485
 30
0.0
 10
631.0540450037865
 20
629.7562127535612
 30
0.0
 10
631.010560953117
 20
629.7450775732361
 30
0.0
 10
630.9526479784478
 20
629.6581472812342
 30
0.0
 10
630.9091193842062
 20
629.5303374635145
 30
0.0
 10
630.8863955228171
 20
629.3899039187762
 30
0.0
 10
630.8841135031176
 20
629.2977825149104
 30
0.0
 10
630.8832216545284
 20
629.2617800456484
 30
0.0
  0
SPLINE
  5
1CE
330
1F
100
AcDbEntity
  8
0
  6
SLD-Durchgehend
 62
     7
370
    25
100
AcDbSpline
210
0.0
220
0.0
230
1.0
 70
     8
 71
     3
 72
    12
 73
     8
 74
     0
 42
0.00000001
 43
0.00000001
 40
0.0
 40
0.0
 40
0.0
 40
0.0
 40
0.2132867459942278
 40
0.4265576686395517
 40
0.6402883409406198
 40
0.8550498528796288
 40
1.0
 40
1.0
 40
1.0
 40
1.0
 10
629.5900024246424
 20
629.2617800456484
 30
0.0
 10
629.5921149024401
 20
629.3177783943058
 30
0.0
 10
629.5963397013147
 20
629.4297709372067
 30
0.0
 10
629.6292675041562
 20
629.5791096214159
 30
0.0
 10
629.6777759464588
 20
629.6921850945004
 30
0.0
 10
629.7319689480637
 20
629.7529537175926
 30
0.0
 10
629.7680338488917
 20
629.7592449270115
 30
0.0
 10
629.7825666352201
 20
629.7617800456485
 30
0.0
  0
LINE
  5
1CF
330
1F
100
AcDbEntity
  8
0
  6
SLD-Durchgehend
 62
     7
370
    25
100
AcDbLine
 10
629.7825666352
 20
629.7617800456
 30
0.0
 11
630.9260664823
 21
629.7617800456
 31
0.0
  0
SPLINE
  5
1D0
330
1F
100
AcDbEntity
  8
0
  6
SLD-Durchgehend
 62
     7
370
    25
100
AcDbSpline
210
0.0
220
0.0
230
1.0
 70
    24
 71
     3
 72
    10
 73
     6
 74
     0
 42
0.00000001
 43
0.00000001
 40
0.0
 40
0.0
 40
0.0
 40
0.0
 40
0.3408472895961826
 40
0.6816945791923666
 40
1.0
 40
1.0
 40
1.0
 40
1.0
 10
626.4097190348472
 20
629.7617800456485
 30
0.0
 10
626.4690773070673
 20
629.7617800456485
 30
0.0
 10
626.5877938515073
 20
629.7617800456485
 30
0.0
 10
627.84895626314
 20
629.7617800456485
 30
0.0
 10
629.1528939735377
 20
629.7617800456485
 30
0.0
 10
629.7825666352201
 20
629.7617800456485
 30
0.0
  0
LINE
  5
1D1
330
1F
100
AcDbEntity
  8
0
  6
SLD-Durchgehend
 62
     7
370
    25
100
AcDbLine
 10
632.2045146953
 20
595.2617800456
 30
0.0
 11
632.2045146953
 21
596.5617800456
 31
0.0
  0
LINE
  5
1D2
330
1F
100
AcDbEntity
  8
0
  6
SLD-Durchgehend
 62
     7
370
    25
100
AcDbLine
 10
633.6045146953
 20
596.5617800456
 30
0.0
 11
633.6045146953
 21
595.2617800456
 31
0.0
  0
LINE
  5
1D3
330
1F
100
AcDbEntity
  8
0
  6
SLD-Durchgehend
 62
     7
370
    25
100
AcDbLine
 10
632.2045146953
 20
596.5617800456
 30
0.0
 11
633.6045146953
 21
596.5617800456
 31
0.0
  0
SPLINE
  5
1D4
330
1F
100
AcDbEntity
  8
0
  6
SLD-Durchgehend
 62
     7
370
    25
100
AcDbSpline
210
0.0
220
0.0
230
1.0
 70
    24
 71
     3
 72
    11
 73
     7
 74
     0
 42
0.00000001
 43
0.00000001
 40
0.0
 40
0.0
 40
0.0
 40
0.0
 40
0.2414504376479241
 40
0.4999999999999991
 40
0.7585495623520762
 40
1.0
 40
1.0
 40
1.0
 40
1.0
 10
639.4045146953188
 20
594.7617800456477
 30
0.0
 10
639.3255306481167
 20
594.7617800456477
 30
0.0
 10
639.161969032798
 20
594.7617800456477
 30
0.0
 10
637.846828316719
 20
594.7617800456477
 30
0.0
 10
635.9158166483119
 20
594.7617800456477
 30
0.0
 10
634.3571811444168
 20
594.7617800456477
 30
0.0
 10
633.6045146953187
 20
594.7617800456477
 30
0.0
  0
SPLINE
  5
1D5
330
1F
100
AcDbEntity
  8
0
  6
SLD-Durchgehend
 62
     7
370
    25
100
AcDbSpline
210
0.0
220
0.0
230
1.0
 70
    24
 71
     3
 72
    12
 73
     8
 74
     0
 42
0.00000001
 43
0.00000001
 40
0.0
 40
0.0
 40
0.0
 40
0.0
 40
0.2132867459942246
 40
0.4265576686395482
 40
0.6402883409406152
 40
0.8550498528796239
 40
1.0
 40
1.0
 40
1.0
 40
1.0
 10
633.6045146953187
 20
595.2617800456477
 30
0.0
 10
633.6045146953187
 20
595.2057816969904
 30
0.0
 10
633.6045146953187
 20
595.0937891540894
 30
0.0
 10
633.6045146953187
 20
594.9444504698803
 30
0.0
 10
633.6045146953188
 20
594.831374996796
 30
0.0
 10
633.6045146953187
 20
594.7706063737035
 30
0.0
 10
633.6045146953187
 20
594.7643151642847
 30
0.0
 10
633.6045146953187
 20
594.7617800456477
 30
0.0
  0
SPLINE
  5
1D6
330
1F
100
AcDbEntity
  8
0
  6
SLD-Durchgehend
 62
     7
370
    25
100
AcDbSpline
210
0.0
220
0.0
230
1.0
 70
    24
 71
     3
 72
    11
 73
     7
 74
     0
 42
0.00000001
 43
0.00000001
 40
0.0
 40
0.0
 40
0.0
 40
0.0
 40
0.2414504376479225
 40
0.4999999999999998
 40
0.7585495623520758
 40
1.0
 40
1.0
 40
1.0
 40
1.0
 10
632.2045146953187
 20
594.7617800456477
 30
0.0
 10
631.4518482462207
 20
594.7617800456477
 30
0.0
 10
629.8932127423255
 20
594.7617800456477
 30
0.0
 10
627.9622010739187
 20
594.7617800456477
 30
0.0
 10
626.6470603578396
 20
594.7617800456477
 30
0.0
 10
626.483498742521
 20
594.7617800456477
 30
0.0
 10
626.4045146953188
 20
594.7617800456477
 30
0.0
  0
SPLINE
  5
1D7
330
1F
100
AcDbEntity
  8
0
  6
SLD-Durchgehend
 62
     7
370
    25
100
AcDbSpline
210
0.0
220
0.0
230
1.0
 70
    24
 71
     3
 72
    12
 73
     8
 74
     0
 42
0.00000001
 43
0.00000001
 40
0.0
 40
0.0
 40
0.0
 40
0.0
 40
0.2161879500552476
 40
0.4323990497071421
 40
0.6479714157427069
 40
0.8624217852506397
 40
1.0
 40
1.0
 40
1.0
 40
1.0
 10
632.2045146953187
 20
594.7617800456477
 30
0.0
 10
632.2045146953192
 20
594.7673473377349
 30
0.0
 10
632.2045146953199
 20
594.7784825180601
 30
0.0
 10
632.2045146953212
 20
594.865412810062
 30
0.0
 10
632.2045146953214
 20
594.9932226277818
 30
0.0
 10
632.2045146953233
 20
595.13365617252
 30
0.0
 10
632.2045146953201
 20
595.2257775763857
 30
0.0
 10
632.2045146953187
 20
595.2617800456477
 30
0.0
  0
LINE
  5
1D8
330
1F
100
AcDbEntity
  8
0
  6
SLD-Durchgehend
 62
     7
370
    25
100
AcDbLine
 10
632.8045147069
 20
578.3805821925
 30
0.0
 11
630.8045146953
 21
577.2258816607
 31
0.0
  0
LINE
  5
1D9
330
1F
100
AcDbEntity
  8
0
  6
SLD-Durchgehend
 62
     7
370
    25
100
AcDbLine
 10
634.8045146953
 20
577.2258816607
 30
0.0
 11
632.8045147069
 21
578.3805821925
 31
0.0
  0
ARC
  5
1DA
330
1F
100
AcDbEntity
  8
0
  6
SLD-Durchgehend
 62
     7
370
    25
100
AcDbCircle
 10
632.8045146953
 20
573.7617800456
 30
0.0
 40
3.999999999981292
100
AcDbArc
 50
60.0
 51
120.0
  0
ARC
  5
1DB
330
1F
100
AcDbEntity
  8
0
  6
SLD-Durchgehend
 62
     7
370
    25
100
AcDbCircle
 10
632.8045146953
 20
573.7617800456
 30
0.0
 40
3.999999999981137
100
AcDbArc
 50
300.0
 51
0.0
  0
ARC
  5
1DC
330
1F
100
AcDbEntity
  8
0
  6
SLD-Durchgehend
 62
     7
370
    25
100
AcDbCircle
 10
632.8045146953
 20
573.7617800456
 30
0.0
 40
3.999999999981194
100
AcDbArc
 50
240.0
 51
300.0
  0
ARC
  5
1DD
330
1F
100
AcDbEntity
  8
0
  6
SLD-Durchgehend
 62
     7
370
    25
100
AcDbCircle
 10
632.8045146953
 20
573.7617800456
 30
0.0
 40
3.999999999981194
100
AcDbArc
 50
180.0
 51
240.0
  0
ARC
  5
1DE
330
1F
100
AcDbEntity
  8
0
  6
SLD-Durchgehend
 62
     7
370
    25
100
AcDbCircle
 10
632.8045146953
 20
573.7617800456
 30
0.0
 40
3.999999999981292
100
AcDbArc
 50
120.0
 51
180.0
  0
ARC
  5
1DF
330
1F
100
AcDbEntity
  8
0
  6
SLD-Durchgehend
 62
     7
370
    25
100
AcDbCircle
 10
632.8045146953
 20
573.7617800456
 30
0.0
 40
3.999999999981235
100
AcDbArc
 50
0.0
 51
60.0
  0
LINE
  5
1E0
330
1F
100
AcDbEntity
  8
0
  6
SLD-Durchgehend
 62
     7
370
    25
100
AcDbLine
 10
628.8045146809
 20
576.0711811141
 30
0.0
 11
628.8045146953
 21
573.7617800456
 31
0.0
  0
LINE
  5
1E1
330
1F
100
AcDbEntity
  8
0
  6
SLD-Durchgehend
 62
     7
370
    25
100
AcDbLine
 10
630.8045146953
 20
577.2258816607
 30
0.0
 11
628.8045146809
 21
576.0711811141
 31
0.0
  0
LINE
  5
1E2
330
1F
100
AcDbEntity
  8
0
  6
SLD-Durchgehend
 62
     7
370
    25
100
AcDbLine
 10
636.8045146953
 20
576.071181139
 30
0.0
 11
634.8045146953
 21
577.2258816607
 31
0.0
  0
LINE
  5
1E3
330
1F
100
AcDbEntity
  8
0
  6
SLD-Durchgehend
 62
     7
370
    25
100
AcDbLine
 10
636.8045146953
 20
573.7617800456
 30
0.0
 11
636.8045146953
 21
576.071181139
 31
0.0
  0
LINE
  5
1E4
330
1F
100
AcDbEntity
  8
0
  6
SLD-Durchgehend
 62
     7
370
    25
100
AcDbLine
 10
628.8045146953
 20
573.7617800456
 30
0.0
 11
628.8045146953
 21
571.4523790122
 31
0.0
  0
LINE
  5
1E5
330
1F
100
AcDbEntity
  8
0
  6
SLD-Durchgehend
 62
     7
370
    25
100
AcDbLine
 10
628.8045146953
 20
571.4523790122
 30
0.0
 11
630.8045146953
 21
570.2976784305
 31
0.0
  0
LINE
  5
1E6
330
1F
100
AcDbEntity
  8
0
  6
SLD-Durchgehend
 62
     7
370
    25
100
AcDbLine
 10
634.8045146953
 20
570.2976784305
 30
0.0
 11
636.8045146578
 21
571.4523789472
 31
0.0
  0
LINE
  5
1E7
330
1F
100
AcDbEntity
  8
0
  6
SLD-Durchgehend
 62
     7
370
    25
100
AcDbLine
 10
636.8045146578
 20
571.4523789472
 30
0.0
 11
636.8045146953
 21
573.7617800456
 31
0.0
  0
LINE
  5
1E8
330
1F
100
AcDbEntity
  8
0
  6
SLD-Durchgehend
 62
     7
370
    25
100
AcDbLine
 10
630.8045146953
 20
570.2976784305
 30
0.0
 11
632.8045146578
 21
569.1429779138
 31
0.0
  0
LINE
  5
1E9
330
1F
100
AcDbEntity
  8
0
  6
SLD-Durchgehend
 62
     7
370
    25
100
AcDbLine
 10
632.8045146578
 20
569.1429779138
 30
0.0
 11
634.8045146953
 21
570.2976784305
 31
0.0
  0
LINE
  5
1EA
330
1F
100
AcDbEntity
  8
0
  6
SLD-Durchgehend
 62
     7
370
    25
100
AcDbLine
 10
618.8042802446
 20
218.7617800457
 30
0.0
 11
604.8045146953
 21
218.7617800457
 31
0.0
  0
LINE
  5
1EB
330
1F
100
AcDbEntity
  8
0
  6
SLD-Durchgehend
 62
     7
370
    25
100
AcDbLine
 10
660.8045146953
 20
218.7617800456
 30
0.0
 11
646.8045146953
 21
218.7617800456
 31
0.0
  0
LINE
  5
1EC
330
1F
100
AcDbEntity
  8
0
  6
SLD-Durchgehend
 62
     7
370
    25
100
AcDbLine
 10
660.8045146953
 20
217.5267860504
 30
0.0
 11
646.8045146953
 21
217.5267860504
 31
0.0
  0
LINE
  5
1ED
330
1F
100
AcDbEntity
  8
0
  6
SLD-Durchgehend
 62
     7
370
    25
100
AcDbLine
 10
618.8042802446
 20
217.5267860505
 30
0.0
 11
604.8045146953
 21
217.5267860505
 31
0.0
  0
LINE
  5
1EE
330
1F
100
AcDbEntity
  8
0
  6
SLD-Durchgehend
 62
     7
370
    25
100
AcDbLine
 10
653.8045146953
 20
598.7617800457
 30
0.0
 11
653.8045146953
 21
618.7617800457
 31
0.0
  0
LINE
  5
1EF
330
1F
100
AcDbEntity
  8
0
  6
SLD-Durchgehend
 62
     7
370
    25
100
AcDbLine
 10
653.8045146953
 20
598.7617800457
 30
0.0
 11
611.8045146953
 21
598.7617800457
 31
0.0
  0
LINE
  5
1F0
330
1F
100
AcDbEntity
  8
0
  6
SLD-Durchgehend
 62
     7
370
    25
100
AcDbLine
 10
611.8045146953
 20
598.7617800457
 30
0.0
 11
611.8045146953
 21
618.7617800457
 31
0.0
  0
LINE
  5
1F1
330
1F
100
AcDbEntity
  8
0
  6
SLD-Durchgehend
 62
     7
370
    25
100
AcDbLine
 10
653.8045146953
 20
618.7617800457
 30
0.0
 11
611.8045146953
 21
618.7617800457
 31
0.0
  0
LINE
  5
1F2
330
1F
100
AcDbEntity
  8
0
  6
SLD-Durchgehend
 62
     7
370
    25
100
AcDbLine
 10
662.8045146953
 20
598.7617800457
 30
0.0
 11
653.8045146953
 21
598.7617800457
 31
0.0
  0
LINE
  5
1F3
330
1F
100
AcDbEntity
  8
0
  6
SLD-Durchgehend
 62
     7
370
    25
100
AcDbLine
 10
662.8045146953
 20
618.7617800457
 30
0.0
 11
653.8045146953
 21
618.7617800457
 31
0.0
  0
LINE
  5
1F4
330
1F
100
AcDbEntity
  8
0
  6
SLD-Durchgehend
 62
     7
370
    25
100
AcDbLine
 10
611.8045146953
 20
598.7617800457
 30
0.0
 11
602.8045146953
 21
598.7617800457
 31
0.0
  0
LINE
  5
1F5
330
1F
100
AcDbEntity
  8
0
  6
SLD-Durchgehend
 62
     7
370
    25
100
AcDbLine
 10
611.8045146953
 20
618.7617800457
 30
0.0
 11
602.8045146953
 21
618.7617800457
 31
0.0
  0
LINE
  5
1F6
330
1F
100
AcDbEntity
  8
0
  6
SLD-Durchgehend
 62
     7
370
    25
100
AcDbLine
 10
639.8045146953
 20
625.7617800456
 30
0.0
 11
639.8045146953
 21
618.7617800456
 31
0.0
  0
LINE
  5
1F7
330
1F
100
AcDbEntity
  8
0
  6
SLD-Durchgehend
 62
     7
370
    25
100
AcDbLine
 10
625.8045146953
 20
625.7617800456
 30
0.0
 11
625.8045146953
 21
618.7617800456
 31
0.0
  0
LINE
  5
1F8
330
1F
100
AcDbEntity
  8
0
  6
SLD-Durchgehend
 62
     7
370
    25
100
AcDbLine
 10
639.8045146953
 20
625.7617800456
 30
0.0
 11
625.8045146953
 21
625.7617800456
 31
0.0
  0
ARC
  5
1F9
330
1F
100
AcDbEntity
  8
0
  6
SLD-Durchgehend
 62
     7
370
    25
100
AcDbCircle
 10
637.8045146953
 20
567.7617800456
 30
0.0
 40
2.000000000000114
100
AcDbArc
 50
270.0
 51
0.0
  0
LINE
  5
1FA
330
1F
100
AcDbEntity
  8
0
  6
SLD-Durchgehend
 62
     7
370
    25
100
AcDbLine
 10
637.8045146953
 20
565.7617800456
 30
0.0
 11
627.8045146953
 21
565.7617800456
 31
0.0
  0
ARC
  5
1FB
330
1F
100
AcDbEntity
  8
0
  6
SLD-Durchgehend
 62
     7
370
    25
100
AcDbCircle
 10
627.8045146953
 20
567.7617800456
 30
0.0
 40
2.000000000000114
100
AcDbArc
 50
180.0
 51
270.0
  0
LINE
  5
1FC
330
1F
100
AcDbEntity
  8
0
  6
SLD-Durchgehend
 62
     7
370
    25
100
AcDbLine
 10
625.8045146953
 20
567.7617800456
 30
0.0
 11
625.8045146953
 21
598.7617800457
 31
0.0
  0
LINE
  5
1FD
330
1F
100
AcDbEntity
  8
0
  6
SLD-Durchgehend
 62
     7
370
    25
100
AcDbLine
 10
639.8045146953
 20
594.9617800456
 30
0.0
 11
639.8045146953
 21
567.7617800456
 31
0.0
  0
SPLINE
  5
1FE
330
1F
100
AcDbEntity
  8
0
  6
SLD-Durchgehend
 62
     7
370
    25
100
AcDbSpline
210
0.0
220
0.0
230
1.0
 70
     8
 71
     3
 72
    13
 73
     9
 74
     0
 42
0.00000001
 43
0.00000001
 40
0.0
 40
0.0
 40
0.0
 40
0.0
 40
0.2394558949103391
 40
0.3683592755451537
 40
0.4999983394376327
 40
0.6316376462015987
 40
0.7605417255585418
 40
1.0
 40
1.0
 40
1.0
 40
1.0
 10
639.8115217023173
 20
620.374434394538
 30
0.0
 10
639.8114473132165
 20
620.3366959940613
 30
0.0
 10
639.8113328791353
 20
620.2786423392744
 30
0.0
 10
639.8104886592545
 20
620.2087981547642
 30
0.0
 10
639.8096056276959
 20
620.1607363303679
 30
0.0
 10
639.8085031457194
 20
620.1220176386964
 30
0.0
 10
639.8068971096445
 20
620.0846077142776
 30
0.0
 10
639.8055639428571
 20
620.0784422864699
 30
0.0
 10
639.8046973021292
 20
620.0744343777116
 30
0.0
  0
SPLINE
  5
1FF
330
1F
100
AcDbEntity
  8
0
  6
SLD-Durchgehend
 62
     7
370
    25
100
AcDbSpline
210
0.0
220
0.0
230
1.0
 70
     8
 71
     3
 72
    13
 73
     9
 74
     0
 42
0.00000001
 43
0.00000001
 40
0.0
 40
0.0
 40
0.0
 40
0.0
 40
0.2394564930403743
 40
0.3683600771589083
 40
0.4999992341454389
 40
0.6316385030970393
 40
0.7605424093666143
 40
1.0
 40
1.0
 40
1.0
 40
1.0
 10
625.7975076883035
 20
620.374434394538
 30
0.0
 10
625.797585715344
 20
620.3366958975008
 30
0.0
 10
625.797705745694
 20
620.2786421128487
 30
0.0
 10
625.7985502927719
 20
620.2087978446895
 30
0.0
 10
625.7994319899685
 20
620.160736042998
 30
0.0
 10
625.8005319281662
 20
620.1220174326437
 30
0.0
 10
625.8021340917621
 20
620.0846076685538
 30
0.0
 10
625.8034661409453
 20
620.0784422773862
 30
0.0
 10
625.8043320547031
 20
620.0744343945681
 30
0.0
  0
SPLINE
  5
200
330
1F
100
AcDbEntity
  8
0
  6
SLD-Durchgehend
 62
     7
370
    25
100
AcDbSpline
210
0.0
220
0.0
230
1.0
 70
     8
 71
     3
 72
    11
 73
     7
 74
     0
 42
0.00000001
 43
0.00000001
 40
0.0
 40
0.0
 40
0.0
 40
0.0
 40
0.2504393574400384
 40
0.5000591084344016
 40
0.7498867653779342
 40
1.0
 40
1.0
 40
1.0
 40
1.0
 10
624.4962063870021
 20
619.074434394538
 30
0.0
 10
624.5158650354174
 20
619.245202880008
 30
0.0
 10
624.5551179958949
 20
619.5861809813165
 30
0.0
 10
624.8564141203849
 20
620.0156794103862
 30
0.0
 10
625.2862391666205
 20
620.3158676849371
 30
0.0
 10
625.6270199604796
 20
620.3549047250541
 30
0.0
 10
625.7975076883033
 20
620.374434394538
 30
0.0
  0
SPLINE
  5
201
330
1F
100
AcDbEntity
  8
0
  6
SLD-Durchgehend
 62
     7
370
    25
100
AcDbSpline
210
0.0
220
0.0
230
1.0
 70
     8
 71
     3
 72
    11
 73
     7
 74
     0
 42
0.00000001
 43
0.00000001
 40
0.0
 40
0.0
 40
0.0
 40
0.0
 40
0.2505626567096746
 40
0.5002337464769514
 40
0.750009418159028
 40
1.0
 40
1.0
 40
1.0
 40
1.0
 10
626.7985086893043
 20
381.5369795398794
 30
0.0
 10
626.4963127061419
 20
381.5716601133391
 30
0.0
 10
625.8929960315318
 20
381.64089785778
 30
0.0
 10
625.1324228552742
 20
382.1727754332044
 30
0.0
 10
624.6001401626785
 20
382.9325232419559
 30
0.0
 10
624.5308609094135
 20
383.5354076895103
 30
0.0
 10
624.496206387002
 20
383.8369795398793
 30
0.0
  0
LINE
  5
202
330
1F
100
AcDbEntity
  8
0
  6
SLD-Durchgehend
 62
     7
370
    25
100
AcDbLine
 10
626.7985086893
 20
381.5369795399
 30
0.0
 11
638.8105207013
 21
381.5369795399
 31
0.0
  0
SPLINE
  5
203
330
1F
100
AcDbEntity
  8
0
  6
SLD-Durchgehend
 62
     7
370
    25
100
AcDbSpline
210
0.0
220
0.0
230
1.0
 70
     8
 71
     3
 72
    11
 73
     7
 74
     0
 42
0.00000001
 43
0.00000001
 40
0.0
 40
0.0
 40
0.0
 40
0.0
 40
0.2506732331984244
 40
0.500389514662205
 40
0.7501201371568429
 40
0.9999999999999999
 40
0.9999999999999999
 40
0.9999999999999999
 40
0.9999999999999999
 10
638.8105207013164
 20
381.5369795398794
 30
0.0
 10
639.1128518650116
 20
381.5716909448477
 30
0.0
 10
639.7163600351441
 20
381.6409812430728
 30
0.0
 10
640.476944773014
 20
382.1731133263283
 30
0.0
 10
641.0089728510175
 20
382.9328501716669
 30
0.0
 10
641.0781993931196
 20
383.5355430729927
 30
0.0
 10
641.1128230036186
 20
383.8369795398795
 30
0.0
  0
SPLINE
  5
204
330
1F
100
AcDbEntity
  8
0
  6
SLD-Durchgehend
 62
     7
370
    25
100
AcDbSpline
210
0.0
220
0.0
230
1.0
 70
     8
 71
     3
 72
    11
 73
     7
 74
     0
 42
0.00000001
 43
0.00000001
 40
0.0
 40
0.0
 40
0.0
 40
0.0
 40
0.2500025555871593
 40
0.4997851131842048
 40
0.7494500186423133
 40
1.0
 40
1.0
 40
1.0
 40
1.0
 10
639.8115217023172
 20
620.374434394538
 30
0.0
 10
639.9819329591745
 20
620.3549221237007
 30
0.0
 10
640.322605513886
 20
620.3159147524924
 30
0.0
 10
640.7524239357606
 20
620.0158702608127
 30
0.0
 10
641.053864065113
 20
619.5863657183404
 30
0.0
 10
641.0931468552402
 20
619.245279340902
 30
0.0
 10
641.1128230036186
 20
619.074434394538
 30
0.0
  0
SPLINE
  5
205
330
1F
100
AcDbEntity
  8
0
  6
SLD-Durchgehend
 62
     7
370
    25
100
AcDbSpline
210
0.0
220
0.0
230
1.0
 70
     8
 71
     3
 72
    12
 73
     8
 74
     0
 42
0.00000001
 43
0.00000001
 40
0.0
 40
0.0
 40
0.0
 40
0.0
 40
0.2426412439878516
 40
0.4993505795731047
 40
0.6228349315924848
 40
0.7598722069951543
 40
1.0
 40
1.0
 40
1.0
 40
1.0
 10
615.5702065301645
 20
624.0751197445868
 30
0.0
 10
615.5722190772202
 20
624.3250236355357
 30
0.0
 10
615.5763608567556
 20
624.8393205898868
 30
0.0
 10
615.5983256278071
 20
625.3915671686088
 30
0.0
 10
615.6221640511228
 20
625.7339102348417
 30
0.0
 10
615.6484987097758
 20
625.9911153874184
 30
0.0
 10
615.6708632183764
 20
626.0420231833518
 30
0.0
 10
615.685101917932
 20
626.0744343945379
 30
0.0
  0
SPLINE
  5
206
330
1F
100
AcDbEntity
  8
0
  6
SLD-Durchgehend
 62
     7
370
    25
100
AcDbSpline
210
0.0
220
0.0
230
1.0
 70
     8
 71
     3
 72
    12
 73
     8
 74
     0
 42
0.00000001
 43
0.00000001
 40
0.0
 40
0.0
 40
0.0
 40
0.0
 40
0.2426478331966022
 40
0.499350578667112
 40
0.6228501361671879
 40
0.7598722142322075
 40
1.0
 40
1.0
 40
1.0
 40
1.0
 10
650.0388228604562
 20
624.0751197445868
 30
0.0
 10
650.0368104446513
 20
624.3250305518291
 30
0.0
 10
650.0326690477
 20
624.8393277724864
 30
0.0
 10
650.0107028862683
 20
625.391584860284
 30
0.0
 10
649.9868645098722
 20
625.733919269733
 30
0.0
 10
649.9605298120705
 20
625.9911177596213
 30
0.0
 10
649.938166184742
 20
626.0420233084195
 30
0.0
 10
649.9239274726885
 20
626.0744343945379
 30
0.0
  0
SPLINE
  5
207
330
1F
100
AcDbEntity
  8
0
  6
SLD-Durchgehend
 62
     7
370
    25
100
AcDbSpline
210
0.0
220
0.0
230
1.0
 70
     8
 71
     3
 72
     9
 73
     5
 74
     0
 42
0.00000001
 43
0.00000001
 40
0.0
 40
0.0
 40
0.0
 40
0.0
 40
0.5000003004866774
 40
0.9999999999999999
 40
0.9999999999999999
 40
0.9999999999999999
 40
0.9999999999999999
 10
632.8045113592981
 20
381.8369795350262
 30
0.0
 10
633.8045877473002
 20
381.8369795364417
 30
0.0
 10
635.8047393212665
 20
381.8369795392728
 30
0.0
 10
637.804589971248
 20
381.8369795396773
 30
0.0
 10
638.8045146953103
 20
381.8369795398794
 30
0.0
  0
ARC
  5
208
330
1F
100
AcDbEntity
  8
0
  6
SLD-Durchgehend
 62
     7
370
    25
100
AcDbCircle
 10
635.0597661969
 20
381.6119494798
 30
0.0
 40
3.751503677784724
100
AcDbArc
 50
358.8549265914
 51
3.4388922921
  0
ARC
  5
209
330
1F
100
AcDbEntity
  8
0
  6
SLD-Durchgehend
 62
     7
370
    25
100
AcDbCircle
 10
630.5492631937
 20
381.6119494798
 30
0.0
 40
3.751503677784724
100
AcDbArc
 50
176.5611077079
 51
181.1450734086
  0
SPLINE
  5
20A
330
1F
100
AcDbEntity
  8
0
  6
SLD-Durchgehend
 62
     7
370
    25
100
AcDbSpline
210
0.0
220
0.0
230
1.0
 70
     8
 71
     3
 72
     9
 73
     5
 74
     0
 42
0.00000001
 43
0.00000001
 40
0.0
 40
0.0
 40
0.0
 40
0.0
 40
0.5000002554732722
 40
1.0
 40
1.0
 40
1.0
 40
1.0
 10
626.8045146953102
 20
381.8369795398794
 30
0.0
 10
627.8044394193582
 20
381.8369795396771
 30
0.0
 10
629.8042878456386
 20
381.8369795392728
 30
0.0
 10
631.8044371954013
 20
381.8369795364417
 30
0.0
 10
632.8045113592981
 20
381.8369795350262
 30
0.0
  0
LINE
  5
20B
330
1F
100
AcDbEntity
  8
0
  6
SLD-Durchgehend
 62
     7
370
    25
100
AcDbLine
 10
624.496206387
 20
383.8369795399
 30
0.0
 11
624.8045146953
 21
383.8369795399
 31
0.0
  0
SPLINE
  5
20C
330
1F
100
AcDbEntity
  8
0
  6
SLD-Durchgehend
 62
     7
370
    25
100
AcDbSpline
210
0.0
220
0.0
230
1.0
 70
     8
 71
     3
 72
    11
 73
     7
 74
     0
 42
0.00000001
 43
0.00000001
 40
0.0
 40
0.0
 40
0.0
 40
0.0
 40
0.2501127328957969
 40
0.5002285343898917
 40
0.7545286358316913
 40
0.9999999999999999
 40
0.9999999999999999
 40
0.9999999999999999
 40
0.9999999999999999
 10
626.8045146953103
 20
381.8369795398794
 30
0.0
 10
626.5423461281466
 20
381.8670755767844
 30
0.0
 10
626.0180057773096
 20
381.9272680198383
 30
0.0
 10
625.3530827658047
 20
382.3925047524793
 30
0.0
 10
624.892590720108
 20
383.0558576887274
 30
0.0
 10
624.8335255641086
 20
383.5796901856954
 30
0.0
 10
624.8045146953103
 20
383.8369795398793
 30
0.0
  0
SPLINE
  5
20D
330
1F
100
AcDbEntity
  8
0
  6
SLD-Durchgehend
 62
     7
370
    25
100
AcDbSpline
210
0.0
220
0.0
230
1.0
 70
     8
 71
     3
 72
    13
 73
     9
 74
     0
 42
0.00000001
 43
0.00000001
 40
0.0
 40
0.0
 40
0.0
 40
0.0
 40
0.2367632186668161
 40
0.3651590480531189
 40
0.4998872884863015
 40
0.7489385656201422
 40
0.9089244679116948
 40
1.0
 40
1.0
 40
1.0
 40
1.0
 10
640.8045146953103
 20
383.8369795398793
 30
0.0
 10
640.7784149599228
 20
383.5882735716995
 30
0.0
 10
640.7381614332887
 20
383.2046952646588
 30
0.0
 10
640.4910145802235
 20
382.7379880316074
 30
0.0
 10
640.1555799284167
 20
382.319052400107
 30
0.0
 10
639.6695321074342
 20
381.9964439187144
 30
0.0
 10
639.1616118485263
 20
381.8523377160615
 30
0.0
 10
638.8995725710263
 20
381.8410678267492
 30
0.0
 10
638.8045146953103
 20
381.8369795398794
 30
0.0
  0
LINE
  5
20E
330
1F
100
AcDbEntity
  8
0
  6
SLD-Durchgehend
 62
     7
370
    25
100
AcDbLine
 10
641.1128230036
 20
383.8369795399
 30
0.0
 11
640.8045146953
 21
383.8369795399
 31
0.0
  0
SPLINE
  5
20F
330
1F
100
AcDbEntity
  8
0
  6
SLD-Durchgehend
 62
     7
370
    25
100
AcDbSpline
210
0.0
220
0.0
230
1.0
 70
     8
 71
     3
 72
    11
 73
     7
 74
     0
 42
0.00000001
 43
0.00000001
 40
0.0
 40
0.0
 40
0.0
 40
0.0
 40
0.2500191186861889
 40
0.4998109711599425
 40
0.7494706229996932
 40
1.0
 40
1.0
 40
1.0
 40
1.0
 10
625.8043320884915
 20
620.0744343777116
 30
0.0
 10
625.6733490676613
 20
620.0593921051969
 30
0.0
 10
625.411502088956
 20
620.0293212335233
 30
0.0
 10
625.0812933938261
 20
619.798423721448
 30
0.0
 10
624.8498348422497
 20
619.4681480784984
 30
0.0
 10
624.8196389276119
 20
619.2059651067995
 30
0.0
 10
624.8045147180712
 20
619.0746456799976
 30
0.0
  0
SPLINE
  5
210
330
1F
100
AcDbEntity
  8
0
  6
SLD-Durchgehend
 62
     7
370
    25
100
AcDbSpline
210
0.0
220
0.0
230
1.0
 70
     8
 71
     3
 72
    11
 73
     7
 74
     0
 42
0.00000001
 43
0.00000001
 40
0.0
 40
0.0
 40
0.0
 40
0.0
 40
0.2499999999999979
 40
0.4999999999999978
 40
0.7499999999999988
 40
1.0
 40
1.0
 40
1.0
 40
1.0
 10
624.8045146953103
 20
619.0746457255926
 30
0.0
 10
624.7998413267676
 20
619.0746281146714
 30
0.0
 10
624.7904945896821
 20
619.074592892829
 30
0.0
 10
624.7187686581972
 20
619.0745400600653
 30
0.0
 10
624.6165628271642
 20
619.0744872273016
 30
0.0
 10
624.5363252003895
 20
619.0744520054592
 30
0.0
 10
624.496206387002
 20
619.074434394538
 30
0.0
  0
SPLINE
  5
211
330
1F
100
AcDbEntity
  8
0
  6
SLD-Durchgehend
 62
     7
370
    25
100
AcDbSpline
210
0.0
220
0.0
230
1.0
 70
     8
 71
     3
 72
    11
 73
     7
 74
     0
 42
0.00000001
 43
0.00000001
 40
0.0
 40
0.0
 40
0.0
 40
0.0
 40
0.2500191186861889
 40
0.4998109711599425
 40
0.7494706229996932
 40
1.0
 40
1.0
 40
1.0
 40
1.0
 10
639.8046973021292
 20
620.0744343777116
 30
0.0
 10
639.9356803229593
 20
620.0593921051969
 30
0.0
 10
640.1975273016646
 20
620.0293212335233
 30
0.0
 10
640.5277359967946
 20
619.798423721448
 30
0.0
 10
640.7591945483708
 20
619.4681480784984
 30
0.0
 10
640.7893904630088
 20
619.2059651067995
 30
0.0
 10
640.8045146725495
 20
619.0746456799976
 30
0.0
  0
SPLINE
  5
212
330
1F
100
AcDbEntity
  8
0
  6
SLD-Durchgehend
 62
     7
370
    25
100
AcDbSpline
210
0.0
220
0.0
230
1.0
 70
     8
 71
     3
 72
    11
 73
     7
 74
     0
 42
0.00000001
 43
0.00000001
 40
0.0
 40
0.0
 40
0.0
 40
0.0
 40
0.2499999999999992
 40
0.4999999999999997
 40
0.7500000000000004
 40
1.0
 40
1.0
 40
1.0
 40
1.0
 10
640.8045146953103
 20
619.0746457255926
 30
0.0
 10
640.8091880616943
 20
619.0746281146714
 30
0.0
 10
640.8185347944622
 20
619.074592892829
 30
0.0
 10
640.8902607250101
 20
619.0745400600653
 30
0.0
 10
640.9924665586611
 20
619.0744872273016
 30
0.0
 10
641.0727041886328
 20
619.0744520054592
 30
0.0
 10
641.1128230036186
 20
619.074434394538
 30
0.0
  0
LINE
  5
213
330
1F
100
AcDbEntity
  8
0
  6
SLD-Durchgehend
 62
     7
370
    25
100
AcDbLine
 10
640.8045146953
 20
383.8369795399
 30
0.0
 11
640.8045146953
 21
598.7617800457
 31
0.0
  0
LINE
  5
214
330
1F
100
AcDbEntity
  8
0
  6
SLD-Durchgehend
 62
     7
370
    25
100
AcDbLine
 10
640.8045146953
 20
618.7617800457
 30
0.0
 11
640.8045146953
 21
619.0746457256
 31
0.0
  0
LINE
  5
215
330
1F
100
AcDbEntity
  8
0
  6
SLD-Durchgehend
 62
     7
370
    25
100
AcDbLine
 10
624.8045146953
 20
619.0746457256
 30
0.0
 11
624.8045146953
 21
618.7617800457
 31
0.0
  0
LINE
  5
216
330
1F
100
AcDbEntity
  8
0
  6
SLD-Durchgehend
 62
     7
370
    25
100
AcDbLine
 10
624.8045146953
 20
598.7617800457
 30
0.0
 11
624.8045146953
 21
383.8369795399
 31
0.0
  0
LINE
  5
217
330
1F
100
AcDbEntity
  8
0
  6
SLD-Durchgehend
 62
     7
370
    25
100
AcDbLine
 10
624.804059051
 20
619.074668001
 30
0.0
 11
624.8494371349
 21
619.2933824498
 31
0.0
  0
ARC
  5
218
330
1F
100
AcDbEntity
  8
0
  6
SLD-Durchgehend
 62
     7
370
    25
100
AcDbCircle
 10
615.6867073161
 20
624.0735143464
 30
0.0
 40
2.000920692189903
100
AcDbArc
 50
90.0459701137
 51
179.9540298863
  0
LINE
  5
219
330
1F
100
AcDbEntity
  8
0
  6
SLD-Durchgehend
 62
     7
370
    25
100
AcDbLine
 10
615.5702065302
 20
624.0751197446
 30
0.0
 11
613.685787268
 21
624.0751197446
 31
0.0
  0
ARC
  5
21A
330
1F
100
AcDbEntity
  8
0
  6
SLD-Durchgehend
 62
     7
370
    25
100
AcDbCircle
 10
649.9223220745
 20
624.0735143464
 30
0.0
 40
2.000920692190018
100
AcDbArc
 50
0.0459701137
 51
89.9540298863
  0
LINE
  5
21B
330
1F
100
AcDbEntity
  8
0
  6
SLD-Durchgehend
 62
     7
370
    25
100
AcDbLine
 10
651.9232421226
 20
624.0751197446
 30
0.0
 11
650.0388228605
 21
624.0751197446
 31
0.0
  0
LINE
  5
21C
330
1F
100
AcDbEntity
  8
0
  6
SLD-Durchgehend
 62
     7
370
    25
100
AcDbLine
 10
618.8045146953
 20
366.4557069672
 30
0.0
 11
646.8045146953
 21
366.4557069672
 31
0.0
  0
LINE
  5
21D
330
1F
100
AcDbEntity
  8
0
  6
SLD-Durchgehend
 62
     7
370
    25
100
AcDbLine
 10
649.9239274727
 20
626.0744343945
 30
0.0
 11
650.3052000454
 21
626.4557069672
 31
0.0
  0
LINE
  5
21E
330
1F
100
AcDbEntity
  8
0
  6
SLD-Durchgehend
 62
     7
370
    25
100
AcDbLine
 10
615.6851019179
 20
626.0744343945
 30
0.0
 11
615.3038293453
 21
626.4557069672
 31
0.0
  0
LINE
  5
21F
330
1F
100
AcDbEntity
  8
0
  6
SLD-Durchgehend
 62
     7
370
    25
100
AcDbLine
 10
650.3052000454
 20
626.4557069672
 30
0.0
 11
639.9045146953
 21
626.4557069672
 31
0.0
  0
LINE
  5
220
330
1F
100
AcDbEntity
  8
0
  6
SLD-Durchgehend
 62
     7
370
    25
100
AcDbLine
 10
625.9045146953
 20
626.4557069672
 30
0.0
 11
615.3038293453
 21
626.4557069672
 31
0.0
  0
LINE
  5
221
330
1F
100
AcDbEntity
  8
0
  6
SLD-Durchgehend
 62
     7
370
    25
100
AcDbLine
 10
613.685787268
 20
624.0751197446
 30
0.0
 11
613.3045146953
 21
624.4563923173
 31
0.0
  0
ELLIPSE
  5
222
330
1F
100
AcDbEntity
  8
0
  6
SLD-Durchgehend
 62
     7
370
    25
100
AcDbEllipse
 10
615.3052002803
 20
624.4550213822
 30
0.0
 11
-1.415182959886693
 21
1.415182959886693
 31
0.0
210
0.0
220
0.0
230
1.0
 40
0.999315002
 41
5.498129760120346
 42
7.068240854238898
  0
ELLIPSE
  5
223
330
1F
100
AcDbEntity
  8
0
  6
SLD-Durchgehend
 62
     7
370
    25
100
AcDbEllipse
 10
650.3038291103
 20
624.4550213822
 30
0.0
 11
1.415182959886693
 21
1.415182959886693
 31
0.0
210
0.0
220
0.0
230
1.0
 40
0.999315002
 41
5.498129760120269
 42
7.068240854238917
  0
LINE
  5
224
330
1F
100
AcDbEntity
  8
0
  6
SLD-Durchgehend
 62
     7
370
    25
100
AcDbLine
 10
651.9232421226
 20
624.0751197446
 30
0.0
 11
652.3045146953
 21
624.4563923173
 31
0.0
  0
LINE
  5
225
330
1F
100
AcDbEntity
  8
0
  6
SLD-Durchgehend
 62
     7
370
    25
100
AcDbLine
 10
652.3045146953
 20
618.7617800457
 30
0.0
 11
652.3045146953
 21
624.4563923173
 31
0.0
  0
LINE
  5
226
330
1F
100
AcDbEntity
  8
0
  6
SLD-Durchgehend
 62
     7
370
    25
100
AcDbLine
 10
613.3045146953
 20
624.4563923173
 30
0.0
 11
613.3045146953
 21
618.7617800457
 31
0.0
  0
LINE
  5
227
330
1F
100
AcDbEntity
  8
0
  6
SLD-Durchgehend
 62
     7
370
    25
100
AcDbLine
 10
624.8045146953
 20
551.7617800456
 30
0.0
 11
640.8045146953
 21
551.7617800456
 31
0.0
  0
LINE
  5
228
330
1F
100
AcDbEntity
  8
0
  6
SLD-Durchgehend
 62
     7
370
    25
100
AcDbLine
 10
626.3045146953
 20
419.2691619804
 30
0.0
 11
626.3045146953
 21
551.7617800456
 31
0.0
  0
LINE
  5
229
330
1F
100
AcDbEntity
  8
0
  6
SLD-Durchgehend
 62
     7
370
    25
100
AcDbLine
 10
627.8045146953
 20
419.2691619804
 30
0.0
 11
626.3045146953
 21
419.2691619804
 31
0.0
  0
LINE
  5
22A
330
1F
100
AcDbEntity
  8
0
  6
SLD-Durchgehend
 62
     7
370
    25
100
AcDbLine
 10
639.3045146953
 20
419.2691619804
 30
0.0
 11
639.3045146953
 21
551.7617800456
 31
0.0
  0
LINE
  5
22B
330
1F
100
AcDbEntity
  8
0
  6
SLD-Durchgehend
 62
     7
370
    25
100
AcDbLine
 10
639.3045146953
 20
419.2691619804
 30
0.0
 11
637.8045146953
 21
419.2691619804
 31
0.0
  0
LINE
  5
22C
330
1F
100
AcDbEntity
  8
0
  6
SLD-Durchgehend
 62
     7
370
    25
100
AcDbLine
 10
637.8045146953
 20
419.2691619804
 30
0.0
 11
627.8045146953
 21
419.2691619804
 31
0.0
  0
LINE
  5
22D
330
1F
100
AcDbEntity
  8
0
  6
SLD-Durchgehend
 62
     7
370
    25
100
AcDbLine
 10
626.3045146953
 20
419.2691619804
 30
0.0
 11
625.8045146953
 21
419.2691619804
 31
0.0
  0
LINE
  5
22E
330
1F
100
AcDbEntity
  8
0
  6
SLD-Durchgehend
 62
     7
370
    25
100
AcDbLine
 10
639.8045146953
 20
419.2691619804
 30
0.0
 11
639.3045146953
 21
419.2691619804
 31
0.0
  0
LINE
  5
22F
330
1F
100
AcDbEntity
  8
0
  6
SLD-Durchgehend
 62
     7
370
    25
100
AcDbLine
 10
640.8045146953
 20
419.2691619804
 30
0.0
 11
639.8045146953
 21
419.2691619804
 31
0.0
  0
LINE
  5
230
330
1F
100
AcDbEntity
  8
0
  6
SLD-Durchgehend
 62
     7
370
    25
100
AcDbLine
 10
625.8045146953
 20
419.2691619804
 30
0.0
 11
624.8045146953
 21
419.2691619804
 31
0.0
  0
CIRCLE
  5
231
330
1F
100
AcDbEntity
  8
0
  6
SLD-Durchgehend
 62
     7
370
    25
100
AcDbCircle
 10
632.8045146953
 20
384.4557069672
 30
0.0
 40
2.5
  0
LINE
  5
232
330
1F
100
AcDbEntity
  8
0
  6
SLD-Durchgehend
 62
     7
370
    25
100
AcDbLine
 10
630.8832216545
 20
629.2617800456
 30
0.0
 11
639.9045146953
 21
629.2617800456
 31
0.0
  0
LINE
  5
233
330
1F
100
AcDbEntity
  8
0
  6
SLD-Durchgehend
 62
     7
370
    25
100
AcDbLine
 10
625.9045146953
 20
629.2617800456
 30
0.0
 11
629.5900024246
 21
629.2617800456
 31
0.0
  0
LINE
  5
234
330
1F
100
AcDbEntity
  8
0
  6
SLD-Durchgehend
 62
     7
370
    25
100
AcDbLine
 10
632.2045146953
 20
595.2617800456
 30
0.0
 11
625.9045146953
 21
595.2617800456
 31
0.0
  0
LINE
  5
235
330
1F
100
AcDbEntity
  8
0
  6
SLD-Durchgehend
 62
     7
370
    25
100
AcDbLine
 10
639.9045146953
 20
595.2617800456
 30
0.0
 11
633.6045146953
 21
595.2617800456
 31
0.0
  0
LINE
  5
236
330
1F
100
AcDbEntity
  8
0
  6
SLD-Durchgehend
 62
     7
370
    25
100
AcDbLine
 10
632.8045146953
 20
366.849870853
 30
0.0
 11
618.8045146953
 21
366.8393285297
 31
0.0
  0
LINE
  5
237
330
1F
100
AcDbEntity
  8
0
  6
SLD-Durchgehend
 62
     7
370
    25
100
AcDbLine
 10
618.8045146953
 20
368.8387120277
 30
0.0
 11
632.8045146953
 21
368.849177861
 31
0.0
  0
LINE
  5
238
330
1F
100
AcDbEntity
  8
0
  6
SLD-Durchgehend
 62
     7
370
    25
100
AcDbLine
 10
632.8045146953
 20
368.849177861
 30
0.0
 11
646.8045146953
 21
368.8387120277
 31
0.0
  0
LINE
  5
239
330
1F
100
AcDbEntity
  8
0
  6
SLD-Durchgehend
 62
     7
370
    25
100
AcDbLine
 10
646.8045146953
 20
366.8393285297
 30
0.0
 11
632.8045146953
 21
366.849870853
 31
0.0
  0
LINE
  5
23A
330
1F
100
AcDbEntity
  8
0
  6
SLD-Durchgehend
 62
     7
370
    25
100
AcDbLine
 10
624.496206387
 20
619.0744343945
 30
0.0
 11
624.496206387
 21
618.7617800457
 31
0.0
  0
LINE
  5
23B
330
1F
100
AcDbEntity
  8
0
  6
SLD-Durchgehend
 62
     7
370
    25
100
AcDbLine
 10
624.496206387
 20
598.7617800457
 30
0.0
 11
624.496206387
 21
383.8369795399
 31
0.0
  0
LINE
  5
23C
330
1F
100
AcDbEntity
  8
0
  6
SLD-Durchgehend
 62
     7
370
    25
100
AcDbLine
 10
641.1128230036
 20
383.8369795399
 30
0.0
 11
641.1128230036
 21
598.7617800457
 31
0.0
  0
LINE
  5
23D
330
1F
100
AcDbEntity
  8
0
  6
SLD-Durchgehend
 62
     7
370
    25
100
AcDbLine
 10
641.1128230036
 20
618.7617800457
 30
0.0
 11
641.1128230036
 21
619.0744343945
 31
0.0
  0
LINE
  5
23E
330
1F
100
AcDbEntity
  8
0
  6
SLD-Durchgehend
 62
     7
370
    25
100
AcDbLine
 10
650.0388228605
 20
624.0751197446
 30
0.0
 11
639.8045146953
 21
624.0674669029
 31
0.0
  0
LINE
  5
23F
330
1F
100
AcDbEntity
  8
0
  6
SLD-Durchgehend
 62
     7
370
    25
100
AcDbLine
 10
650.0388228605
 20
618.7617800457
 30
0.0
 11
650.0388228605
 21
624.0751197446
 31
0.0
  0
LINE
  5
240
330
1F
100
AcDbEntity
  8
0
  6
SLD-Durchgehend
 62
     7
370
    25
100
AcDbLine
 10
615.5702065302
 20
624.0751197446
 30
0.0
 11
615.5702065302
 21
618.7617800457
 31
0.0
  0
LINE
  5
241
330
1F
100
AcDbEntity
  8
0
  6
SLD-Durchgehend
 62
     7
370
    25
100
AcDbLine
 10
625.8045146953
 20
624.0674669029
 30
0.0
 11
615.5702065302
 21
624.0751197446
 31
0.0
  0
LINE
  5
242
330
1F
100
AcDbEntity
  8
0
  6
SLD-Durchgehend
 62
     7
370
    25
100
AcDbLine
 10
615.6851019179
 20
626.0744343945
 30
0.0
 11
625.9045146953
 21
626.0667414045
 31
0.0
  0
LINE
  5
243
330
1F
100
AcDbEntity
  8
0
  6
SLD-Durchgehend
 62
     7
370
    25
100
AcDbLine
 10
639.9045146953
 20
626.0668919609
 30
0.0
 11
649.9239274727
 21
626.0744343945
 31
0.0
  0
LINE
  5
244
330
1F
100
AcDbEntity
  8
0
  6
SLD-Durchgehend
 62
     7
370
    25
100
AcDbLine
 10
613.685787268
 20
618.7617800457
 30
0.0
 11
613.685787268
 21
624.0751197446
 31
0.0
  0
LINE
  5
245
330
1F
100
AcDbEntity
  8
0
  6
SLD-Durchgehend
 62
     7
370
    25
100
AcDbLine
 10
651.9232421226
 20
624.0751197446
 30
0.0
 11
651.9232421226
 21
618.7617800457
 31
0.0
  0
LINE
  5
246
330
1F
100
AcDbEntity
  8
0
  6
SLD-Durchgehend
 62
     7
370
    25
100
AcDbLine
 10
627.8045146953
 20
419.2691619804
 30
0.0
 11
627.8045146953
 21
551.7617800456
 31
0.0
  0
LINE
  5
247
330
1F
100
AcDbEntity
  8
0
  6
SLD-Durchgehend
 62
     7
370
    25
100
AcDbLine
 10
637.8045146953
 20
419.2691619804
 30
0.0
 11
637.8045146953
 21
551.7617800456
 31
0.0
  0
LINE
  5
248
330
1F
100
AcDbEntity
  8
0
  6
SLD-Durchgehend
 62
     7
370
    25
100
AcDbLine
 10
625.8045146953
 20
419.2691619804
 30
0.0
 11
625.8045146953
 21
551.7617800456
 31
0.0
  0
LINE
  5
249
330
1F
100
AcDbEntity
  8
0
  6
SLD-Durchgehend
 62
     7
370
    25
100
AcDbLine
 10
639.8045146953
 20
419.2691619804
 30
0.0
 11
639.8045146953
 21
551.7617800456
 31
0.0
  0
DIMENSION
  5
24A
330
1F
100
AcDbEntity
  8
0
  6
SLD-Durchgehend
 62
     7
370
    18
100
AcDbDimension
280
     0
  2
_D_7
 10
660.8045146953
 20
342.1164624541
 30
0.0
 11
687.6122154574
 21
342.1164624541
 31
0.0
 70
   160
  1
%%c<>
 71
     2
 42
-1.0
 73
     0
 74
     0
 75
     0
  3
SLDDIMSTYLE0
100
AcDbAlignedDimension
 13
646.8045146953
 23
218.7617800456
 33
0.0
 14
660.8045146953
 24
218.7617800456
 34
0.0
100
AcDbRotatedDimension
  0
DIMENSION
  5
255
330
1F
100
AcDbEntity
  8
0
  6
SLD-Durchgehend
 62
     7
370
    18
100
AcDbDimension
280
     0
  2
_D_8
 10
582.4260032763
 20
217.5267860505
 30
0.0
 11
582.4260032763
 21
430.6994548878
 31
0.0
 70
   160
  1
<>
 71
     2
 42
-1.0
 73
     0
 74
     0
 75
     0
  3
SLDDIMSTYLE1
100
AcDbAlignedDimension
 13
602.8045146953
 23
598.7617800457
 33
0.0
 14
604.8045146953
 24
217.5267860505
 34
0.0
 50
90.0
100
AcDbRotatedDimension
  0
SPLINE
  5
25F
330
1F
100
AcDbEntity
  8
0
  6
SLD-Durchgehend
 62
     7
370
    25
100
AcDbSpline
210
0.0
220
0.0
230
1.0
 70
     8
 71
     3
 72
    15
 73
    11
 74
     0
 42
0.00000001
 43
0.00000001
 40
0.0
 40
0.0
 40
0.0
 40
0.0
 40
0.1207252188239613
 40
0.2499999999999995
 40
0.3792747811760388
 40
0.5000000000000001
 40
0.6207252188239621
 40
0.7499999999999994
 40
0.8792747811760381
 40
1.0
 40
1.0
 40
1.0
 40
1.0
 10
812.6825405846649
 20
770.962127371148
 30
0.0
 10
813.4343937077325
 20
771.1231040014584
 30
0.0
 10
814.9913449611486
 20
771.4564573634954
 30
0.0
 10
816.9356753641083
 20
772.9884629097452
 30
0.0
 10
818.2006391768197
 20
775.0732295523636
 30
0.0
 10
818.6186710212606
 20
777.4243251397095
 30
0.0
 10
818.2006391768197
 20
779.7754207270551
 30
0.0
 10
816.9356753641083
 20
781.8601873696737
 30
0.0
 10
814.9913449611487
 20
783.3921929159235
 30
0.0
 10
813.4343937077325
 20
783.7255462779603
 30
0.0
 10
812.6825405846649
 20
783.8865229082709
 30
0.0
  0
LINE
  5
260
330
1F
100
AcDbEntity
  8
0
  6
SLD-Durchgehend
 62
     7
370
    25
100
AcDbLine
 10
812.6825405847
 20
783.8865229083
 30
0.0
 11
812.6825405847
 21
770.9621273711
 31
0.0
  0
SPLINE
  5
261
330
1F
100
AcDbEntity
  8
0
  6
SLD-Durchgehend
 62
     7
370
    25
100
AcDbSpline
210
0.0
220
0.0
230
1.0
 70
     8
 71
     3
 72
    15
 73
    11
 74
     0
 42
0.00000001
 43
0.00000001
 40
0.0
 40
0.0
 40
0.0
 40
0.0
 40
0.1207252188239618
 40
0.2500000000000004
 40
0.3792747811760384
 40
0.5000000000000003
 40
0.6207252188239623
 40
0.7500000000000002
 40
0.8792747811760387
 40
1.0
 40
1.0
 40
1.0
 40
1.0
 10
811.282540584665
 20
783.8865229082709
 30
0.0
 10
810.5306874615974
 20
783.7255462779603
 30
0.0
 10
808.9737362081813
 20
783.3921929159235
 30
0.0
 10
807.0294058052217
 20
781.8601873696737
 30
0.0
 10
805.7644419925102
 20
779.7754207270551
 30
0.0
 10
805.3464101480694
 20
777.4243251397094
 30
0.0
 10
805.7644419925102
 20
775.0732295523636
 30
0.0
 10
807.0294058052217
 20
772.9884629097452
 30
0.0
 10
808.9737362081813
 20
771.4564573634954
 30
0.0
 10
810.5306874615974
 20
771.1231040014584
 30
0.0
 10
811.282540584665
 20
770.962127371148
 30
0.0
  0
LINE
  5
262
330
1F
100
AcDbEntity
  8
0
  6
SLD-Durchgehend
 62
     7
370
    25
100
AcDbLine
 10
811.2825405847
 20
770.9621273711
 30
0.0
 11
811.2825405847
 21
783.8865229083
 31
0.0
  0
ARC
  5
263
330
1F
100
AcDbEntity
  8
0
  6
SLD-Durchgehend
 62
     7
370
    25
100
AcDbCircle
 10
811.9825405847
 20
777.4243251397
 30
0.0
 40
7.000000000007897
100
AcDbArc
 50
275.7391704773
 51
84.2608295227
  0
SPLINE
  5
264
330
1F
100
AcDbEntity
  8
0
  6
SLD-Durchgehend
 62
     7
370
    25
100
AcDbSpline
210
0.0
220
0.0
230
1.0
 70
    24
 71
     3
 72
    12
 73
     8
 74
     0
 42
0.00000001
 43
0.00000001
 40
0.0
 40
0.0
 40
0.0
 40
0.0
 40
0.2161879500552964
 40
0.4323990497072078
 40
0.6479714157428642
 40
0.862421785250886
 40
1.0
 40
1.0
 40
1.0
 40
1.0
 10
812.6825405846649
 20
770.962127371148
 30
0.0
 10
812.6825405846646
 20
770.9053699827683
 30
0.0
 10
812.6825405846638
 20
770.7918491283777
 30
0.0
 10
812.6825405846624
 20
770.6406596631949
 30
0.0
 10
812.6825405846623
 20
770.5270225219265
 30
0.0
 10
812.6825405846604
 20
770.4676988821124
 30
0.0
 10
812.6825405846638
 20
770.4617413684324
 30
0.0
 10
812.6825405846649
 20
770.4594130799551
 30
0.0
  0
SPLINE
  5
265
330
1F
100
AcDbEntity
  8
0
  6
SLD-Durchgehend
 62
     7
370
    25
100
AcDbSpline
210
0.0
220
0.0
230
1.0
 70
    24
 71
     3
 72
    12
 73
     8
 74
     0
 42
0.00000001
 43
0.00000001
 40
0.0
 40
0.0
 40
0.0
 40
0.0
 40
0.2132867459942279
 40
0.4265576686395604
 40
0.6402883409406146
 40
0.8550498528796235
 40
1.0
 40
1.0
 40
1.0
 40
1.0
 10
812.6825405846649
 20
784.3892371994557
 30
0.0
 10
812.6825405846649
 20
784.3837222973068
 30
0.0
 10
812.6825405846649
 20
784.3726929021494
 30
0.0
 10
812.6825405846649
 20
784.2867305261913
 30
0.0
 10
812.6825405846649
 20
784.160092834195
 30
0.0
 10
812.6825405846649
 20
784.018614849749
 30
0.0
 10
812.6825405846649
 20
783.9244626653838
 30
0.0
 10
812.6825405846649
 20
783.8865229082709
 30
0.0
  0
ARC
  5
266
330
1F
100
AcDbEntity
  8
0
  6
SLD-Durchgehend
 62
     7
370
    25
100
AcDbCircle
 10
811.9825405847
 20
777.4243251397
 30
0.0
 40
6.99999999999999
100
AcDbArc
 50
95.7391704773
 51
264.2608295227
  0
SPLINE
  5
267
330
1F
100
AcDbEntity
  8
0
  6
SLD-Durchgehend
 62
     7
370
    25
100
AcDbSpline
210
0.0
220
0.0
230
1.0
 70
    24
 71
     3
 72
    12
 73
     8
 74
     0
 42
0.00000001
 43
0.00000001
 40
0.0
 40
0.0
 40
0.0
 40
0.0
 40
0.2132867459942466
 40
0.4265576686395899
 40
0.6402883409406932
 40
0.8550498528797125
 40
1.0
 40
1.0
 40
1.0
 40
1.0
 10
811.282540584665
 20
770.459413079963
 30
0.0
 10
811.282540584665
 20
770.464927982112
 30
0.0
 10
811.282540584665
 20
770.4759573772694
 30
0.0
 10
811.282540584665
 20
770.5619197532275
 30
0.0
 10
811.282540584665
 20
770.6885574452239
 30
0.0
 10
811.282540584665
 20
770.8300354296699
 30
0.0
 10
811.282540584665
 20
770.9241876140351
 30
0.0
 10
811.282540584665
 20
770.962127371148
 30
0.0
  0
SPLINE
  5
268
330
1F
100
AcDbEntity
  8
0
  6
SLD-Durchgehend
 62
     7
370
    25
100
AcDbSpline
210
0.0
220
0.0
230
1.0
 70
    24
 71
     3
 72
    12
 73
     8
 74
     0
 42
0.00000001
 43
0.00000001
 40
0.0
 40
0.0
 40
0.0
 40
0.0
 40
0.2161879500552487
 40
0.4323990497071288
 40
0.6479714157427182
 40
0.862421785250639
 40
1.0
 40
1.0
 40
1.0
 40
1.0
 10
811.282540584665
 20
783.8865229082709
 30
0.0
 10
811.2825405846654
 20
783.9432802966505
 30
0.0
 10
811.2825405846661
 20
784.0568011510411
 30
0.0
 10
811.2825405846675
 20
784.2079906162243
 30
0.0
 10
811.2825405846676
 20
784.3216277574911
 30
0.0
 10
811.2825405846696
 20
784.38095139731
 30
0.0
 10
811.2825405846662
 20
784.3869089109816
 30
0.0
 10
811.282540584665
 20
784.3892371994557
 30
0.0
  0
LINE
  5
269
330
1F
100
AcDbEntity
  8
0
  6
SLD-Durchgehend
 62
     7
370
    25
100
AcDbLine
 10
812.6825405847
 20
770.45941308
 30
0.0
 11
811.2825405847
 21
770.45941308
 31
0.0
  0
LINE
  5
26A
330
1F
100
AcDbEntity
  8
0
  6
SLD-Durchgehend
 62
     7
370
    25
100
AcDbLine
 10
811.2825405847
 20
784.3892371995
 30
0.0
 11
812.6825405847
 21
784.3892371995
 31
0.0
  0
LINE
  5
26B
330
1F
100
AcDbEntity
  8
0
  6
SLD-Durchgehend
 62
     7
370
    25
100
AcDbLine
 10
811.8825405471
 20
733.1670595623
 30
0.0
 11
813.8825405847
 21
733.5243251397
 31
0.0
  0
LINE
  5
26C
330
1F
100
AcDbEntity
  8
0
  6
SLD-Durchgehend
 62
     7
370
    25
100
AcDbLine
 10
813.8825405847
 20
733.5243251397
 30
0.0
 11
815.8825405471
 21
733.1670595623
 31
0.0
  0
LINE
  5
26D
330
1F
100
AcDbEntity
  8
0
  6
SLD-Durchgehend
 62
     7
370
    25
100
AcDbLine
 10
815.8825405847
 20
723.5243251397
 30
0.0
 11
815.8825405471
 21
733.1670595623
 31
0.0
  0
LINE
  5
26E
330
1F
100
AcDbEntity
  8
0
  6
SLD-Durchgehend
 62
     7
370
    25
100
AcDbLine
 10
811.8825405847
 20
723.5243251397
 30
0.0
 11
811.8825405471
 21
733.1670595623
 31
0.0
  0
LINE
  5
26F
330
1F
100
AcDbEntity
  8
0
  6
SLD-Durchgehend
 62
     7
370
    25
100
AcDbLine
 10
807.8825405847
 20
733.1670595623
 30
0.0
 11
809.8825405847
 21
733.5243251397
 31
0.0
  0
LINE
  5
270
330
1F
100
AcDbEntity
  8
0
  6
SLD-Durchgehend
 62
     7
370
    25
100
AcDbLine
 10
809.8825405847
 20
733.5243251397
 30
0.0
 11
811.8825405471
 21
733.1670595623
 31
0.0
  0
LINE
  5
271
330
1F
100
AcDbEntity
  8
0
  6
SLD-Durchgehend
 62
     7
370
    25
100
AcDbLine
 10
807.8825405847
 20
733.1670595623
 30
0.0
 11
807.8825405847
 21
723.5243251397
 31
0.0
  0
LINE
  5
272
330
1F
100
AcDbEntity
  8
0
  6
SLD-Durchgehend
 62
     7
370
    25
100
AcDbLine
 10
813.8825405847
 20
733.5243251397
 30
0.0
 11
809.8825405847
 21
733.5243251397
 31
0.0
  0
LINE
  5
273
330
1F
100
AcDbEntity
  8
0
  6
SLD-Durchgehend
 62
     7
370
    25
100
AcDbLine
 10
807.8825405847
 20
733.5243251397
 30
0.0
 11
807.8825405847
 21
733.1670595623
 31
0.0
  0
LINE
  5
274
330
1F
100
AcDbEntity
  8
0
  6
SLD-Durchgehend
 62
     7
370
    25
100
AcDbLine
 10
809.8825405847
 20
733.5243251397
 30
0.0
 11
807.8825405847
 21
733.5243251397
 31
0.0
  0
LINE
  5
275
330
1F
100
AcDbEntity
  8
0
  6
SLD-Durchgehend
 62
     7
370
    25
100
AcDbLine
 10
815.8825405471
 20
733.1670595623
 30
0.0
 11
815.8825405846
 21
733.5243251397
 31
0.0
  0
LINE
  5
276
330
1F
100
AcDbEntity
  8
0
  6
SLD-Durchgehend
 62
     7
370
    25
100
AcDbLine
 10
815.8825405846
 20
733.5243251397
 30
0.0
 11
813.8825405847
 21
733.5243251397
 31
0.0
  0
CIRCLE
  5
277
330
1F
100
AcDbEntity
  8
0
  6
SLD-Durchgehend
 62
     7
370
    25
100
AcDbCircle
 10
811.9825405847
 20
804.4243251397
 30
0.0
 40
7.000000000000097
  0
CIRCLE
  5
278
330
1F
100
AcDbEntity
  8
0
  6
SLD-Durchgehend
 62
     7
370
    25
100
AcDbCircle
 10
811.9825405847
 20
762.4243251397
 30
0.0
 40
7.000000000000049
  0
LINE
  5
279
330
1F
100
AcDbEntity
  8
0
  6
SLD-Durchgehend
 62
     7
370
    25
100
AcDbLine
 10
815.4825405847
 20
790.4243251397
 30
0.0
 11
816.9825405847
 21
788.9243251397
 31
0.0
  0
LINE
  5
27A
330
1F
100
AcDbEntity
  8
0
  6
SLD-Durchgehend
 62
     7
370
    25
100
AcDbLine
 10
815.4825405847
 20
792.9243251397
 30
0.0
 11
815.4825405847
 21
790.4243251397
 31
0.0
  0
LINE
  5
27B
330
1F
100
AcDbEntity
  8
0
  6
SLD-Durchgehend
 62
     7
370
    25
100
AcDbLine
 10
813.4825405847
 20
792.9243251397
 30
0.0
 11
815.4825405847
 21
792.9243251397
 31
0.0
  0
LINE
  5
27C
330
1F
100
AcDbEntity
  8
0
  6
SLD-Durchgehend
 62
     7
370
    25
100
AcDbLine
 10
811.9825405847
 20
794.4243251397
 30
0.0
 11
813.4825405847
 21
792.9243251397
 31
0.0
  0
LINE
  5
27D
330
1F
100
AcDbEntity
  8
0
  6
SLD-Durchgehend
 62
     7
370
    25
100
AcDbLine
 10
810.4825405847
 20
792.9243251397
 30
0.0
 11
811.9825405847
 21
794.4243251397
 31
0.0
  0
LINE
  5
27E
330
1F
100
AcDbEntity
  8
0
  6
SLD-Durchgehend
 62
     7
370
    25
100
AcDbLine
 10
808.4825405847
 20
792.9243251397
 30
0.0
 11
810.4825405847
 21
792.9243251397
 31
0.0
  0
LINE
  5
27F
330
1F
100
AcDbEntity
  8
0
  6
SLD-Durchgehend
 62
     7
370
    25
100
AcDbLine
 10
808.4825405847
 20
790.4243251397
 30
0.0
 11
808.4825405847
 21
792.9243251397
 31
0.0
  0
LINE
  5
280
330
1F
100
AcDbEntity
  8
0
  6
SLD-Durchgehend
 62
     7
370
    25
100
AcDbLine
 10
806.9825405847
 20
788.9243251397
 30
0.0
 11
808.4825405847
 21
790.4243251397
 31
0.0
  0
LINE
  5
281
330
1F
100
AcDbEntity
  8
0
  6
SLD-Durchgehend
 62
     7
370
    25
100
AcDbLine
 10
808.4825405847
 20
787.4243251397
 30
0.0
 11
806.9825405847
 21
788.9243251397
 31
0.0
  0
LINE
  5
282
330
1F
100
AcDbEntity
  8
0
  6
SLD-Durchgehend
 62
     7
370
    25
100
AcDbLine
 10
808.4825405847
 20
787.4243251397
 30
0.0
 11
808.4825405847
 21
783.4865029662
 31
0.0
  0
LINE
  5
283
330
1F
100
AcDbEntity
  8
0
  6
SLD-Durchgehend
 62
     7
370
    25
100
AcDbLine
 10
815.4825405847
 20
783.4865029662
 30
0.0
 11
815.4825405847
 21
787.4243251397
 31
0.0
  0
LINE
  5
284
330
1F
100
AcDbEntity
  8
0
  6
SLD-Durchgehend
 62
     7
370
    25
100
AcDbLine
 10
816.9825405847
 20
788.9243251397
 30
0.0
 11
815.4825405847
 21
787.4243251397
 31
0.0
  0
LINE
  5
285
330
1F
100
AcDbEntity
  8
0
  6
SLD-Durchgehend
 62
     7
370
    25
100
AcDbLine
 10
809.9119882238
 20
796.6969185294
 30
0.0
 11
810.1708072689
 21
797.6628443557
 31
0.0
  0
ARC
  5
286
330
1F
100
AcDbEntity
  8
0
  6
SLD-Durchgehend
 62
     7
370
    25
100
AcDbCircle
 10
811.9825405847
 20
804.4243251397
 30
0.0
 40
8.000000000000023
100
AcDbArc
 50
255.0
 51
285.0
  0
LINE
  5
287
330
1F
100
AcDbEntity
  8
0
  6
SLD-Durchgehend
 62
     7
370
    25
100
AcDbLine
 10
813.7942739004
 20
797.6628443557
 30
0.0
 11
814.0530929455
 21
796.6969185294
 31
0.0
  0
LINE
  5
288
330
1F
100
AcDbEntity
  8
0
  6
SLD-Durchgehend
 62
     7
370
    25
100
AcDbLine
 10
815.6698593354
 20
798.4742259447
 30
0.0
 11
816.5194939215
 21
797.4616708743
 31
0.0
  0
ARC
  5
289
330
1F
100
AcDbEntity
  8
0
  6
SLD-Durchgehend
 62
     7
370
    25
100
AcDbCircle
 10
817.2855383646
 20
798.104458484
 30
0.0
 40
1.00000000000003
100
AcDbArc
 50
220.0
 51
40.0
  0
LINE
  5
28A
330
1F
100
AcDbEntity
  8
0
  6
SLD-Durchgehend
 62
     7
370
    25
100
AcDbLine
 10
817.2019482216
 20
799.759801164
 30
0.0
 11
818.0515828077
 21
798.7472460937
 31
0.0
  0
LINE
  5
28B
330
1F
100
AcDbEntity
  8
0
  6
SLD-Durchgehend
 62
     7
370
    25
100
AcDbLine
 10
819.233002881
 20
801.0433790458
 30
0.0
 11
818.3266950939
 21
801.4659973075
 31
0.0
  0
ARC
  5
28C
330
1F
100
AcDbEntity
  8
0
  6
SLD-Durchgehend
 62
     7
370
    25
100
AcDbCircle
 10
811.9825405847
 20
804.4243251397
 30
0.0
 40
7.999999999999987
100
AcDbArc
 50
335.0
 51
5.0
  0
LINE
  5
28D
330
1F
100
AcDbEntity
  8
0
  6
SLD-Durchgehend
 62
     7
370
    25
100
AcDbLine
 10
818.9559034713
 20
805.0344153389
 30
0.0
 11
819.9520981694
 21
805.1215710817
 31
0.0
  0
LINE
  5
28E
330
1F
100
AcDbEntity
  8
0
  6
SLD-Durchgehend
 62
     7
370
    25
100
AcDbLine
 10
819.709947195
 20
806.4948775005
 30
0.0
 11
818.7440213687
 21
806.2360584554
 31
0.0
  0
ARC
  5
28F
330
1F
100
AcDbEntity
  8
0
  6
SLD-Durchgehend
 62
     7
370
    25
100
AcDbCircle
 10
811.9825405847
 20
804.4243251397
 30
0.0
 40
8.000000000000133
100
AcDbArc
 50
15.0
 51
45.0
  0
LINE
  5
290
330
1F
100
AcDbEntity
  8
0
  6
SLD-Durchgehend
 62
     7
370
    25
100
AcDbLine
 10
816.932288053
 20
809.374072608
 30
0.0
 11
817.6393948342
 21
810.0811793892
 31
0.0
  0
LINE
  5
291
330
1F
100
AcDbEntity
  8
0
  6
SLD-Durchgehend
 62
     7
370
    25
100
AcDbLine
 10
816.5711520755
 20
810.977541494
 30
0.0
 11
815.9975756391
 21
810.1583894497
 31
0.0
  0
ARC
  5
292
330
1F
100
AcDbEntity
  8
0
  6
SLD-Durchgehend
 62
     7
370
    25
100
AcDbCircle
 10
811.9825405847
 20
804.4243251397
 30
0.0
 40
8.00000000000008
100
AcDbArc
 50
55.0
 51
85.0
  0
LINE
  5
293
330
1F
100
AcDbEntity
  8
0
  6
SLD-Durchgehend
 62
     7
370
    25
100
AcDbLine
 10
812.5926307839
 20
811.3976880264
 30
0.0
 11
812.6797865266
 21
812.3938827244
 31
0.0
  0
LINE
  5
294
330
1F
100
AcDbEntity
  8
0
  6
SLD-Durchgehend
 62
     7
370
    25
100
AcDbLine
 10
811.2852946427
 20
812.3938827244
 30
0.0
 11
811.3724503854
 21
811.3976880264
 31
0.0
  0
ARC
  5
295
330
1F
100
AcDbEntity
  8
0
  6
SLD-Durchgehend
 62
     7
370
    25
100
AcDbCircle
 10
811.9825405847
 20
804.4243251397
 30
0.0
 40
8.000000000000071
100
AcDbArc
 50
95.0
 51
125.0
  0
LINE
  5
296
330
1F
100
AcDbEntity
  8
0
  6
SLD-Durchgehend
 62
     7
370
    25
100
AcDbLine
 10
807.9675055302
 20
810.1583894497
 30
0.0
 11
807.3939290939
 21
810.977541494
 31
0.0
  0
LINE
  5
297
330
1F
100
AcDbEntity
  8
0
  6
SLD-Durchgehend
 62
     7
370
    25
100
AcDbLine
 10
806.3256863352
 20
810.0811793892
 30
0.0
 11
807.0327931164
 21
809.374072608
 31
0.0
  0
ARC
  5
298
330
1F
100
AcDbEntity
  8
0
  6
SLD-Durchgehend
 62
     7
370
    25
100
AcDbCircle
 10
811.9825405847
 20
804.4243251397
 30
0.0
 40
8.000000000000064
100
AcDbArc
 50
135.0
 51
165.0
  0
LINE
  5
299
330
1F
100
AcDbEntity
  8
0
  6
SLD-Durchgehend
 62
     7
370
    25
100
AcDbLine
 10
805.2210598006
 20
806.2360584554
 30
0.0
 11
804.2551339744
 21
806.4948775005
 31
0.0
  0
LINE
  5
29A
330
1F
100
AcDbEntity
  8
0
  6
SLD-Durchgehend
 62
     7
370
    25
100
AcDbLine
 10
804.0129829999
 20
805.1215710817
 30
0.0
 11
805.009177698
 21
805.0344153389
 31
0.0
  0
ARC
  5
29B
330
1F
100
AcDbEntity
  8
0
  6
SLD-Durchgehend
 62
     7
370
    25
100
AcDbCircle
 10
811.9825405847
 20
804.4243251397
 30
0.0
 40
7.999999999999864
100
AcDbArc
 50
175.0
 51
205.0
  0
LINE
  5
29C
330
1F
100
AcDbEntity
  8
0
  6
SLD-Durchgehend
 62
     7
370
    25
100
AcDbLine
 10
805.6383860754
 20
801.4659973075
 30
0.0
 11
804.7320782884
 21
801.0433790458
 31
0.0
  0
LINE
  5
29D
330
1F
100
AcDbEntity
  8
0
  6
SLD-Durchgehend
 62
     7
370
    25
100
AcDbLine
 10
806.7631329477
 20
799.759801164
 30
0.0
 11
805.9134983616
 21
798.7472460937
 31
0.0
  0
ARC
  5
29E
330
1F
100
AcDbEntity
  8
0
  6
SLD-Durchgehend
 62
     7
370
    25
100
AcDbCircle
 10
806.6795428048
 20
798.104458484
 30
0.0
 40
1.00000000000003
100
AcDbArc
 50
140.0
 51
320.0
  0
LINE
  5
29F
330
1F
100
AcDbEntity
  8
0
  6
SLD-Durchgehend
 62
     7
370
    25
100
AcDbLine
 10
808.295221834
 20
798.4742259447
 30
0.0
 11
807.4455872479
 21
797.4616708743
 31
0.0
  0
LINE
  5
2A0
330
1F
100
AcDbEntity
  8
0
  6
SLD-Durchgehend
 62
     7
370
    25
100
AcDbLine
 10
802.9825405847
 20
804.4243251397
 30
0.0
 11
802.9825405847
 21
762.4243251397
 31
0.0
  0
ARC
  5
2A1
330
1F
100
AcDbEntity
  8
0
  6
SLD-Durchgehend
 62
     7
370
    25
100
AcDbCircle
 10
811.9825405847
 20
804.4243251397
 30
0.0
 40
9.0
100
AcDbArc
 50
0.0
 51
180.0
  0
LINE
  5
2A2
330
1F
100
AcDbEntity
  8
0
  6
SLD-Durchgehend
 62
     7
370
    25
100
AcDbLine
 10
820.9825405847
 20
762.4243251397
 30
0.0
 11
820.9825405847
 21
804.4243251397
 31
0.0
  0
ARC
  5
2A3
330
1F
100
AcDbEntity
  8
0
  6
SLD-Durchgehend
 62
     7
370
    25
100
AcDbCircle
 10
811.9825405847
 20
762.4243251397
 30
0.0
 40
9.0
100
AcDbArc
 50
180.0
 51
0.0
  0
ARC
  5
2A4
330
1F
100
AcDbEntity
  8
0
  6
SLD-Durchgehend
 62
     7
370
    25
100
AcDbCircle
 10
806.6795428048
 20
768.7441917954
 30
0.0
 40
1.00000000000003
100
AcDbArc
 50
40.0
 51
220.0
  0
LINE
  5
2A5
330
1F
100
AcDbEntity
  8
0
  6
SLD-Durchgehend
 62
     7
370
    25
100
AcDbLine
 10
806.7631329477
 20
767.0888491154
 30
0.0
 11
805.9134983616
 21
768.1014041858
 31
0.0
  0
LINE
  5
2A6
330
1F
100
AcDbEntity
  8
0
  6
SLD-Durchgehend
 62
     7
370
    25
100
AcDbLine
 10
805.6383860754
 20
765.3826529719
 30
0.0
 11
804.7320782884
 21
765.8052712336
 31
0.0
  0
ARC
  5
2A7
330
1F
100
AcDbEntity
  8
0
  6
SLD-Durchgehend
 62
     7
370
    25
100
AcDbCircle
 10
811.9825405847
 20
762.4243251397
 30
0.0
 40
8.000000000000052
100
AcDbArc
 50
155.0
 51
185.0
  0
LINE
  5
2A8
330
1F
100
AcDbEntity
  8
0
  6
SLD-Durchgehend
 62
     7
370
    25
100
AcDbLine
 10
804.0129829999
 20
761.7270791977
 30
0.0
 11
805.009177698
 21
761.8142349405
 31
0.0
  0
LINE
  5
2A9
330
1F
100
AcDbEntity
  8
0
  6
SLD-Durchgehend
 62
     7
370
    25
100
AcDbLine
 10
805.2210598006
 20
760.612591824
 30
0.0
 11
804.2551339744
 21
760.3537727789
 31
0.0
  0
LINE
  5
2AA
330
1F
100
AcDbEntity
  8
0
  6
SLD-Durchgehend
 62
     7
370
    25
100
AcDbLine
 10
807.9675055302
 20
756.6902608297
 30
0.0
 11
807.3939290939
 21
755.8711087854
 31
0.0
  0
ARC
  5
2AB
330
1F
100
AcDbEntity
  8
0
  6
SLD-Durchgehend
 62
     7
370
    25
100
AcDbCircle
 10
811.9825405847
 20
762.4243251397
 30
0.0
 40
8.000000000000018
100
AcDbArc
 50
235.0
 51
265.0
  0
LINE
  5
2AC
330
1F
100
AcDbEntity
  8
0
  6
SLD-Durchgehend
 62
     7
370
    25
100
AcDbLine
 10
811.2852946427
 20
754.454767555
 30
0.0
 11
811.3724503854
 21
755.4509622531
 31
0.0
  0
ARC
  5
2AD
330
1F
100
AcDbEntity
  8
0
  6
SLD-Durchgehend
 62
     7
370
    25
100
AcDbCircle
 10
811.9825405847
 20
762.4243251397
 30
0.0
 40
7.99999999999998
100
AcDbArc
 50
275.0
 51
305.0
  0
LINE
  5
2AE
330
1F
100
AcDbEntity
  8
0
  6
SLD-Durchgehend
 62
     7
370
    25
100
AcDbLine
 10
816.932288053
 20
757.4745776714
 30
0.0
 11
817.6393948342
 21
756.7674708902
 31
0.0
  0
ARC
  5
2AF
330
1F
100
AcDbEntity
  8
0
  6
SLD-Durchgehend
 62
     7
370
    25
100
AcDbCircle
 10
811.9825405847
 20
762.4243251397
 30
0.0
 40
7.999999999999965
100
AcDbArc
 50
315.0
 51
345.0
  0
LINE
  5
2B0
330
1F
100
AcDbEntity
  8
0
  6
SLD-Durchgehend
 62
     7
370
    25
100
AcDbLine
 10
819.709947195
 20
760.3537727789
 30
0.0
 11
818.7440213687
 21
760.612591824
 31
0.0
  0
LINE
  5
2B1
330
1F
100
AcDbEntity
  8
0
  6
SLD-Durchgehend
 62
     7
370
    25
100
AcDbLine
 10
818.9559034713
 20
761.8142349405
 30
0.0
 11
819.9520981694
 21
761.7270791977
 31
0.0
  0
ARC
  5
2B2
330
1F
100
AcDbEntity
  8
0
  6
SLD-Durchgehend
 62
     7
370
    25
100
AcDbCircle
 10
811.9825405847
 20
762.4243251397
 30
0.0
 40
7.999999999999901
100
AcDbArc
 50
355.0
 51
25.0
  0
LINE
  5
2B3
330
1F
100
AcDbEntity
  8
0
  6
SLD-Durchgehend
 62
     7
370
    25
100
AcDbLine
 10
819.233002881
 20
765.8052712336
 30
0.0
 11
818.3266950939
 21
765.3826529719
 31
0.0
  0
LINE
  5
2B4
330
1F
100
AcDbEntity
  8
0
  6
SLD-Durchgehend
 62
     7
370
    25
100
AcDbLine
 10
817.2019482216
 20
767.0888491154
 30
0.0
 11
818.0515828077
 21
768.1014041858
 31
0.0
  0
ARC
  5
2B5
330
1F
100
AcDbEntity
  8
0
  6
SLD-Durchgehend
 62
     7
370
    25
100
AcDbCircle
 10
817.2855383646
 20
768.7441917954
 30
0.0
 40
1.00000000000003
100
AcDbArc
 50
320.0
 51
140.0
  0
LINE
  5
2B6
330
1F
100
AcDbEntity
  8
0
  6
SLD-Durchgehend
 62
     7
370
    25
100
AcDbLine
 10
815.6698593354
 20
768.3744243347
 30
0.0
 11
816.5194939215
 21
769.3869794051
 31
0.0
  0
LINE
  5
2B7
330
1F
100
AcDbEntity
  8
0
  6
SLD-Durchgehend
 62
     7
370
    25
100
AcDbLine
 10
813.7942739004
 20
769.1858059237
 30
0.0
 11
814.0530929455
 21
770.15173175
 31
0.0
  0
ARC
  5
2B8
330
1F
100
AcDbEntity
  8
0
  6
SLD-Durchgehend
 62
     7
370
    25
100
AcDbCircle
 10
811.9825405847
 20
762.4243251397
 30
0.0
 40
8.000000000000112
100
AcDbArc
 50
75.0
 51
89.9972864114
  0
ARC
  5
2B9
330
1F
100
AcDbEntity
  8
0
  6
SLD-Durchgehend
 62
     7
370
    25
100
AcDbCircle
 10
811.9825405847
 20
762.4243251397
 30
0.0
 40
8.000000000000146
100
AcDbArc
 50
96.0693935359
 51
105.0
  0
LINE
  5
2BA
330
1F
100
AcDbEntity
  8
0
  6
SLD-Durchgehend
 62
     7
370
    25
100
AcDbLine
 10
809.9119882238
 20
770.15173175
 30
0.0
 11
810.1708072689
 21
769.1858059237
 31
0.0
  0
LINE
  5
2BB
330
1F
100
AcDbEntity
  8
0
  6
SLD-Durchgehend
 62
     7
370
    25
100
AcDbLine
 10
808.295221834
 20
768.3744243347
 30
0.0
 11
807.4455872479
 21
769.3869794051
 31
0.0
  0
LINE
  5
2BC
330
1F
100
AcDbEntity
  8
0
  6
SLD-Durchgehend
 62
     7
370
    25
100
AcDbLine
 10
806.3256863352
 20
756.7674708902
 30
0.0
 11
807.0327931164
 21
757.4745776714
 31
0.0
  0
ARC
  5
2BD
330
1F
100
AcDbEntity
  8
0
  6
SLD-Durchgehend
 62
     7
370
    25
100
AcDbCircle
 10
811.9825405847
 20
762.4243251397
 30
0.0
 40
8.000000000000064
100
AcDbArc
 50
195.0
 51
225.0
  0
LINE
  5
2BE
330
1F
100
AcDbEntity
  8
0
  6
SLD-Durchgehend
 62
     7
370
    25
100
AcDbLine
 10
816.5711520755
 20
755.8711087854
 30
0.0
 11
815.9975756391
 21
756.6902608297
 31
0.0
  0
LINE
  5
2BF
330
1F
100
AcDbEntity
  8
0
  6
SLD-Durchgehend
 62
     7
370
    25
100
AcDbLine
 10
812.5926307839
 20
755.4509622531
 30
0.0
 11
812.6797865266
 21
754.454767555
 31
0.0
  0
LINE
  5
2C0
330
1F
100
AcDbEntity
  8
0
  6
SLD-Durchgehend
 62
     7
370
    25
100
AcDbLine
 10
818.8825405847
 20
723.5243251397
 30
0.0
 11
816.8825405847
 21
723.5243251397
 31
0.0
  0
LINE
  5
2C1
330
1F
100
AcDbEntity
  8
0
  6
SLD-Durchgehend
 62
     7
370
    25
100
AcDbLine
 10
816.8825405847
 20
723.5243251397
 30
0.0
 11
806.8825405847
 21
723.5243251397
 31
0.0
  0
LINE
  5
2C2
330
1F
100
AcDbEntity
  8
0
  6
SLD-Durchgehend
 62
     7
370
    25
100
AcDbLine
 10
804.8825405847
 20
723.5243251397
 30
0.0
 11
804.8825405847
 21
722.8230920447
 31
0.0
  0
LINE
  5
2C3
330
1F
100
AcDbEntity
  8
0
  6
SLD-Durchgehend
 62
     7
370
    25
100
AcDbLine
 10
806.8825405847
 20
723.5243251397
 30
0.0
 11
804.8825405847
 21
723.5243251397
 31
0.0
  0
LINE
  5
2C4
330
1F
100
AcDbEntity
  8
0
  6
SLD-Durchgehend
 62
     7
370
    25
100
AcDbLine
 10
818.8825405847
 20
732.5243251397
 30
0.0
 11
818.8825405847
 21
723.5243251397
 31
0.0
  0
LINE
  5
2C5
330
1F
100
AcDbEntity
  8
0
  6
SLD-Durchgehend
 62
     7
370
    25
100
AcDbLine
 10
804.8825405847
 20
723.5243251397
 30
0.0
 11
804.8825405847
 21
732.5243251397
 31
0.0
  0
ARC
  5
2C6
330
1F
100
AcDbEntity
  8
0
  6
SLD-Durchgehend
 62
     7
370
    25
100
AcDbCircle
 10
811.8825405847
 20
779.5243251397
 30
0.0
 40
7.000000000000163
100
AcDbArc
 50
59.0502769211
 51
119.059281068
  0
LINE
  5
2C7
330
1F
100
AcDbEntity
  8
0
  6
SLD-Durchgehend
 62
     7
370
    25
100
AcDbLine
 10
818.8825405847
 20
765.641847981
 30
0.0
 11
818.8825405847
 21
763.603307752
 31
0.0
  0
LINE
  5
2C8
330
1F
100
AcDbEntity
  8
0
  6
SLD-Durchgehend
 62
     7
370
    25
100
AcDbLine
 10
818.8825405847
 20
760.5754757119
 30
0.0
 11
818.8825405847
 21
758.3758686437
 31
0.0
  0
LINE
  5
2C9
330
1F
100
AcDbEntity
  8
0
  6
SLD-Durchgehend
 62
     7
370
    25
100
AcDbLine
 10
818.8825405847
 20
756.6459170544
 30
0.0
 11
818.8825405847
 21
732.5243251397
 31
0.0
  0
LINE
  5
2CA
330
1F
100
AcDbEntity
  8
0
  6
SLD-Durchgehend
 62
     7
370
    25
100
AcDbLine
 10
804.8825405847
 20
732.5243251397
 30
0.0
 11
804.8825405847
 21
756.8935024161
 31
0.0
  0
LINE
  5
2CB
330
1F
100
AcDbEntity
  8
0
  6
SLD-Durchgehend
 62
     7
370
    25
100
AcDbLine
 10
804.8825405847
 20
758.7378634215
 30
0.0
 11
804.8825405847
 21
760.5218858734
 31
0.0
  0
LINE
  5
2CC
330
1F
100
AcDbEntity
  8
0
  6
SLD-Durchgehend
 62
     7
370
    25
100
AcDbLine
 10
804.8825405847
 20
761.8031556287
 30
0.0
 11
804.8825405847
 21
765.7351095126
 31
0.0
  0
LINE
  5
2CD
330
1F
100
AcDbEntity
  8
0
  6
SLD-Durchgehend
 62
     7
370
    25
100
AcDbLine
 10
829.001953362
 20
720.5845372622
 30
0.0
 11
811.8825405847
 21
721.0768366478
 31
0.0
  0
LINE
  5
2CE
330
1F
100
AcDbEntity
  8
0
  6
SLD-Durchgehend
 62
     7
370
    25
100
AcDbLine
 10
829.001953362
 20
720.5845372622
 30
0.0
 11
829.3832259347
 21
706.0243251397
 31
0.0
  0
LINE
  5
2CF
330
1F
100
AcDbEntity
  8
0
  6
SLD-Durchgehend
 62
     7
370
    25
100
AcDbLine
 10
794.3818552346
 20
706.0243251397
 30
0.0
 11
829.3832259347
 21
706.0243251397
 31
0.0
  0
LINE
  5
2D0
330
1F
100
AcDbEntity
  8
0
  6
SLD-Durchgehend
 62
     7
370
    25
100
AcDbLine
 10
794.7631278073
 20
720.5845372622
 30
0.0
 11
794.3818552346
 21
706.0243251397
 31
0.0
  0
LINE
  5
2D1
330
1F
100
AcDbEntity
  8
0
  6
SLD-Durchgehend
 62
     7
370
    25
100
AcDbLine
 10
811.8825405847
 20
721.0768366478
 30
0.0
 11
794.7631278073
 21
720.5845372622
 31
0.0
  0
LINE
  5
2D2
330
1F
100
AcDbEntity
  8
0
  6
SLD-Durchgehend
 62
     7
370
    25
100
AcDbLine
 10
792.3825405847
 20
706.0243251397
 30
0.0
 11
794.3818552346
 21
706.0243251397
 31
0.0
  0
LINE
  5
2D3
330
1F
100
AcDbEntity
  8
0
  6
SLD-Durchgehend
 62
     7
370
    25
100
AcDbLine
 10
792.7638131573
 20
720.5845372622
 30
0.0
 11
792.3825405847
 21
706.0243251397
 31
0.0
  0
ARC
  5
2D4
330
1F
100
AcDbEntity
  8
0
  6
SLD-Durchgehend
 62
     7
370
    25
100
AcDbCircle
 10
793.7634704823
 20
701.4751506748
 30
0.0
 40
19.13551594585476
100
AcDbArc
 50
87.0054515335
 51
92.9945484665
  0
LINE
  5
2D5
330
1F
100
AcDbEntity
  8
0
  6
SLD-Durchgehend
 62
     7
370
    25
100
AcDbLine
 10
831.3825405847
 20
706.0243251397
 30
0.0
 11
831.001268012
 21
720.5845372622
 31
0.0
  0
LINE
  5
2D6
330
1F
100
AcDbEntity
  8
0
  6
SLD-Durchgehend
 62
     7
370
    25
100
AcDbLine
 10
829.3832259347
 20
706.0243251397
 30
0.0
 11
831.3825405847
 21
706.0243251397
 31
0.0
  0
ARC
  5
2D7
330
1F
100
AcDbEntity
  8
0
  6
SLD-Durchgehend
 62
     7
370
    25
100
AcDbCircle
 10
830.001610687
 20
701.4751506748
 30
0.0
 40
19.13551594585476
100
AcDbArc
 50
87.0054515335
 51
92.9945484665
  0
SPLINE
  5
2D8
330
1F
100
AcDbEntity
  8
0
  6
SLD-Durchgehend
 62
     7
370
    25
100
AcDbSpline
210
0.0
220
0.0
230
1.0
 70
     8
 71
     3
 72
    12
 73
     8
 74
     0
 42
0.00000001
 43
0.00000001
 40
0.0
 40
0.0
 40
0.0
 40
0.0
 40
0.2426412438196132
 40
0.4993505795730223
 40
0.6228349314573731
 40
0.7598722069950424
 40
0.9999999999999999
 40
0.9999999999999999
 40
0.9999999999999999
 40
0.9999999999999999
 10
829.116848749811
 20
722.5288804006758
 30
0.0
 10
829.1148362027523
 20
722.5016658703669
 30
0.0
 10
829.1106944232081
 20
722.4456589390281
 30
0.0
 10
829.088729652177
 20
722.0739024604807
 30
0.0
 10
829.0648912288694
 20
721.6700722738959
 30
0.0
 10
829.0385565702023
 20
721.2181156626664
 30
0.0
 10
829.0161920615968
 20
720.8310001528044
 30
0.0
 10
829.0019533620432
 20
720.5845372622184
 30
0.0
  0
ARC
  5
2D9
330
1F
100
AcDbEntity
  8
0
  6
SLD-Durchgehend
 62
     7
370
    25
100
AcDbCircle
 10
829.001953362
 20
720.5321833656
 30
0.0
 40
1.99999999999997
100
AcDbArc
 50
1.5
 51
86.7066764427
  0
SPLINE
  5
2DA
330
1F
100
AcDbEntity
  8
0
  6
SLD-Durchgehend
 62
     7
370
    25
100
AcDbSpline
210
0.0
220
0.0
230
1.0
 70
     8
 71
     3
 72
    12
 73
     8
 74
     0
 42
0.00000001
 43
0.00000001
 40
0.0
 40
0.0
 40
0.0
 40
0.0
 40
0.2401277857678421
 40
0.3771498640767484
 40
0.5006494213327298
 40
0.7573521667897697
 40
1.0
 40
1.0
 40
1.0
 40
1.0
 10
794.7631278072867
 20
720.5845372622184
 30
0.0
 10
794.7488890952314
 20
720.83100020663
 30
0.0
 10
794.7265254678856
 20
721.2181002071048
 30
0.0
 10
794.7001907701001
 20
721.6700589097397
 30
0.0
 10
794.6763523936936
 20
722.0738884950599
 30
0.0
 10
794.6543862322758
 20
722.4456558824152
 30
0.0
 10
794.6502448353241
 20
722.501664373387
 30
0.0
 10
794.6482324195189
 20
722.5288804006758
 30
0.0
  0
ARC
  5
2DB
330
1F
100
AcDbEntity
  8
0
  6
SLD-Durchgehend
 62
     7
370
    25
100
AcDbCircle
 10
794.7631278073
 20
720.5321833656
 30
0.0
 40
1.99999999999997
100
AcDbArc
 50
93.2933235574
 51
178.5
  0
LINE
  5
2DC
330
1F
100
AcDbEntity
  8
0
  6
SLD-Durchgehend
 62
     7
370
    25
100
AcDbLine
 10
794.6482324195
 20
722.5288804007
 30
0.0
 11
811.8825405847
 21
723.0243251397
 31
0.0
  0
LINE
  5
2DD
330
1F
100
AcDbEntity
  8
0
  6
SLD-Durchgehend
 62
     7
370
    25
100
AcDbLine
 10
811.8825405847
 20
723.0243251397
 30
0.0
 11
829.1168487498
 21
722.5288804007
 31
0.0
  0
LINE
  5
2DE
330
1F
100
AcDbEntity
  8
0
  6
SLD-Durchgehend
 62
     7
370
    25
100
AcDbLine
 10
819.3825405847
 20
720.9432018879
 30
0.0
 11
811.8825405847
 21
721.0374288512
 31
0.0
  0
ARC
  5
2DF
330
1F
100
AcDbEntity
  8
0
  6
SLD-Durchgehend
 62
     7
370
    25
100
AcDbCircle
 10
803.5825405847
 20
722.6093714955
 30
0.0
 40
0.2999999999999545
100
AcDbArc
 50
38.3236723929
 51
91.5869729094
  0
LWPOLYLINE
  5
2E0
330
1F
100
AcDbEntity
  8
0
  6
SLD-Durchgehend
 62
     7
370
    25
100
AcDbPolyline
 90
        3
 70
   128
 43
0.0
 10
820.190848893
 20
722.9092564268
 10
820.1311609725
 20
722.9049389759
 10
820.0781185155
 20
722.8906116624
  0
LINE
  5
2E1
330
1F
100
AcDbEntity
  8
0
  6
SLD-Durchgehend
 62
     7
370
    25
100
AcDbLine
 10
816.8825405847
 20
722.8805872147
 30
0.0
 11
816.8825405847
 21
723.5243251397
 31
0.0
  0
LINE
  5
2E2
330
1F
100
AcDbEntity
  8
0
  6
SLD-Durchgehend
 62
     7
370
    25
100
AcDbLine
 10
806.8825405847
 20
722.8805872147
 30
0.0
 11
806.8825405847
 21
723.5243251397
 31
0.0
  0
LINE
  5
2E3
330
1F
100
AcDbEntity
  8
0
  6
SLD-Durchgehend
 62
     7
370
    25
100
AcDbLine
 10
818.8825405847
 20
732.5243251397
 30
0.0
 11
815.8825405496
 21
732.5243251397
 31
0.0
  0
LINE
  5
2E4
330
1F
100
AcDbEntity
  8
0
  6
SLD-Durchgehend
 62
     7
370
    25
100
AcDbLine
 10
807.8825405847
 20
732.5243251397
 30
0.0
 11
804.8825405847
 21
732.5243251397
 31
0.0
  0
DIMENSION
  5
2E5
330
1F
100
AcDbEntity
  8
0
  6
SLD-Durchgehend
 62
     7
370
    18
100
AcDbDimension
280
     0
  2
_D_9
 10
878.8716475847
 20
813.4243251397
 30
0.0
 11
878.8716475847
 21
763.616980901
 31
0.0
 70
   160
  1
<>
 71
     2
 42
-1.0
 73
     0
 74
     0
 75
     0
  3
SLDDIMSTYLE1
100
AcDbAlignedDimension
 13
829.3832259347
 23
706.0243251397
 33
0.0
 14
811.9825405847
 24
813.4243251397
 34
0.0
 50
90.0
100
AcDbRotatedDimension
  0
LINE
  5
2EF
330
1F
100
AcDbEntity
  8
0
  6
SLD-Durchgehend
 62
     7
370
    25
100
AcDbLine
 10
512.2320153784
 20
477.0363693189
 30
0.0
 11
260.7320153784
 21
477.0363693189
 31
0.0
  0
LINE
  5
2F0
330
1F
100
AcDbEntity
  8
0
  6
SLD-Durchgehend
 62
     7
370
    25
100
AcDbLine
 10
260.7320153784
 20
441.5348611977
 30
0.0
 11
512.2320153784
 21
441.5348611977
 31
0.0
  0
LINE
  5
2F1
330
1F
100
AcDbEntity
  8
0
  6
SLD-Durchgehend
 62
     7
370
    25
100
AcDbLine
 10
512.2320153784
 20
477.0363693189
 30
0.0
 11
260.7320153784
 21
477.0363693189
 31
0.0
  0
LINE
  5
2F2
330
1F
100
AcDbEntity
  8
0
  6
SLD-Durchgehend
 62
     7
370
    25
100
AcDbLine
 10
260.7320153784
 20
441.5348611977
 30
0.0
 11
512.2320153784
 21
441.5348611977
 31
0.0
  0
LINE
  5
2F3
330
1F
100
AcDbEntity
  8
0
  6
SLD-Durchgehend
 62
     7
370
    25
100
AcDbLine
 10
260.7320153784
 20
476.5325202019
 30
0.0
 11
512.2320153784
 21
476.5325202019
 31
0.0
  0
LINE
  5
2F4
330
1F
100
AcDbEntity
  8
0
  6
SLD-Durchgehend
 62
     7
370
    25
100
AcDbLine
 10
260.7320153784
 20
475.5856152583
 30
0.0
 11
512.2320153784
 21
475.5856152583
 31
0.0
  0
LINE
  5
2F5
330
1F
100
AcDbEntity
  8
0
  6
SLD-Durchgehend
 62
     7
370
    25
100
AcDbLine
 10
260.7320153784
 20
476.5325202019
 30
0.0
 11
260.7320153784
 21
475.5856152583
 31
0.0
  0
LINE
  5
2F6
330
1F
100
AcDbEntity
  8
0
  6
SLD-Durchgehend
 62
     7
370
    25
100
AcDbLine
 10
512.2320153784
 20
475.5856152583
 30
0.0
 11
512.2320153784
 21
476.5325202019
 31
0.0
  0
LINE
  5
2F7
330
1F
100
AcDbEntity
  8
0
  6
SLD-Durchgehend
 62
     7
370
    25
100
AcDbLine
 10
260.7320153784
 20
474.3375398168
 30
0.0
 11
512.2320153784
 21
474.3375398168
 31
0.0
  0
LINE
  5
2F8
330
1F
100
AcDbEntity
  8
0
  6
SLD-Durchgehend
 62
     7
370
    25
100
AcDbLine
 10
260.7320153784
 20
474.3375398168
 30
0.0
 11
260.7320153784
 21
475.5856152583
 31
0.0
  0
LINE
  5
2F9
330
1F
100
AcDbEntity
  8
0
  6
SLD-Durchgehend
 62
     7
370
    25
100
AcDbLine
 10
512.2320153784
 20
474.3375398168
 30
0.0
 11
512.2320153784
 21
475.5856152583
 31
0.0
  0
LINE
  5
2FA
330
1F
100
AcDbEntity
  8
0
  6
SLD-Durchgehend
 62
     7
370
    25
100
AcDbLine
 10
512.2320153784
 20
444.2336906998
 30
0.0
 11
260.7320153784
 21
444.2336906998
 31
0.0
  0
LINE
  5
2FB
330
1F
100
AcDbEntity
  8
0
  6
SLD-Durchgehend
 62
     7
370
    25
100
AcDbLine
 10
512.2320153784
 20
442.9856152583
 30
0.0
 11
260.7320153784
 21
442.9856152583
 31
0.0
  0
LINE
  5
2FC
330
1F
100
AcDbEntity
  8
0
  6
SLD-Durchgehend
 62
     7
370
    25
100
AcDbLine
 10
512.2320153784
 20
442.9856152583
 30
0.0
 11
512.2320153784
 21
444.2336906998
 31
0.0
  0
LINE
  5
2FD
330
1F
100
AcDbEntity
  8
0
  6
SLD-Durchgehend
 62
     7
370
    25
100
AcDbLine
 10
260.7320153784
 20
444.2336906998
 30
0.0
 11
260.7320153784
 21
442.9856152583
 31
0.0
  0
LINE
  5
2FE
330
1F
100
AcDbEntity
  8
0
  6
SLD-Durchgehend
 62
     7
370
    25
100
AcDbLine
 10
512.2320153784
 20
442.0387103146
 30
0.0
 11
260.7320153784
 21
442.0387103146
 31
0.0
  0
LINE
  5
2FF
330
1F
100
AcDbEntity
  8
0
  6
SLD-Durchgehend
 62
     7
370
    25
100
AcDbLine
 10
512.2320153784
 20
442.0387103146
 30
0.0
 11
512.2320153784
 21
442.9856152583
 31
0.0
  0
LINE
  5
300
330
1F
100
AcDbEntity
  8
0
  6
SLD-Durchgehend
 62
     7
370
    25
100
AcDbLine
 10
260.7320153784
 20
442.9856152583
 30
0.0
 11
260.7320153784
 21
442.0387103146
 31
0.0
  0
LINE
  5
301
330
1F
100
AcDbEntity
  8
0
  6
SLD-Durchgehend
 62
     7
370
    25
100
AcDbLine
 10
260.7320153784
 20
477.0363693189
 30
0.0
 11
260.7320153784
 21
476.5325202019
 31
0.0
  0
LINE
  5
302
330
1F
100
AcDbEntity
  8
0
  6
SLD-Durchgehend
 62
     7
370
    25
100
AcDbLine
 10
512.2320153784
 20
476.5325202019
 30
0.0
 11
512.2320153784
 21
477.0363693189
 31
0.0
  0
LINE
  5
303
330
1F
100
AcDbEntity
  8
0
  6
SLD-Durchgehend
 62
     7
370
    25
100
AcDbLine
 10
512.2320153784
 20
442.0387103146
 30
0.0
 11
512.2320153784
 21
441.5348611977
 31
0.0
  0
LINE
  5
304
330
1F
100
AcDbEntity
  8
0
  6
SLD-Durchgehend
 62
     7
370
    25
100
AcDbLine
 10
260.7320153784
 20
441.5348611977
 30
0.0
 11
260.7320153784
 21
442.0387103146
 31
0.0
  0
LINE
  5
305
330
1F
100
AcDbEntity
  8
0
  6
SLD-Durchgehend
 62
     7
370
    25
100
AcDbLine
 10
259.2320153784
 20
446.7856152583
 30
0.0
 11
259.2320153784
 21
471.7856152583
 31
0.0
  0
LINE
  5
306
330
1F
100
AcDbEntity
  8
0
  6
SLD-Durchgehend
 62
     7
370
    25
100
AcDbLine
 10
260.7320153784
 20
446.7856152583
 30
0.0
 11
259.2320153784
 21
446.7856152583
 31
0.0
  0
LINE
  5
307
330
1F
100
AcDbEntity
  8
0
  6
SLD-Durchgehend
 62
     7
370
    25
100
AcDbLine
 10
260.7320153784
 20
446.7856152583
 30
0.0
 11
260.7320153784
 21
471.7856152583
 31
0.0
  0
LINE
  5
308
330
1F
100
AcDbEntity
  8
0
  6
SLD-Durchgehend
 62
     7
370
    25
100
AcDbLine
 10
259.2320153784
 20
471.7856152583
 30
0.0
 11
260.7320153784
 21
471.7856152583
 31
0.0
  0
LINE
  5
309
330
1F
100
AcDbEntity
  8
0
  6
SLD-Durchgehend
 62
     7
370
    25
100
AcDbLine
 10
513.7320153784
 20
446.7856152583
 30
0.0
 11
513.7320153784
 21
471.7856152583
 31
0.0
  0
LINE
  5
30A
330
1F
100
AcDbEntity
  8
0
  6
SLD-Durchgehend
 62
     7
370
    25
100
AcDbLine
 10
512.2320153784
 20
446.7856152583
 30
0.0
 11
513.7320153784
 21
446.7856152583
 31
0.0
  0
LINE
  5
30B
330
1F
100
AcDbEntity
  8
0
  6
SLD-Durchgehend
 62
     7
370
    25
100
AcDbLine
 10
512.2320153784
 20
446.7856152583
 30
0.0
 11
512.2320153784
 21
471.7856152583
 31
0.0
  0
LINE
  5
30C
330
1F
100
AcDbEntity
  8
0
  6
SLD-Durchgehend
 62
     7
370
    25
100
AcDbLine
 10
512.2320153784
 20
471.7856152583
 30
0.0
 11
513.7320153784
 21
471.7856152583
 31
0.0
  0
LINE
  5
30D
330
1F
100
AcDbEntity
  8
0
  6
SLD-Durchgehend
 62
     7
370
    25
100
AcDbLine
 10
512.2320153784
 20
473.5819809632
 30
0.0
 11
260.7320153784
 21
473.5819809632
 31
0.0
  0
LINE
  5
30E
330
1F
100
AcDbEntity
  8
0
  6
SLD-Durchgehend
 62
     7
370
    25
100
AcDbLine
 10
260.7320153784
 20
473.5819809632
 30
0.0
 11
260.7320153784
 21
474.3375398168
 31
0.0
  0
LINE
  5
30F
330
1F
100
AcDbEntity
  8
0
  6
SLD-Durchgehend
 62
     7
370
    25
100
AcDbLine
 10
512.2320153784
 20
473.5819809632
 30
0.0
 11
512.2320153784
 21
474.3375398168
 31
0.0
  0
LINE
  5
310
330
1F
100
AcDbEntity
  8
0
  6
SLD-Durchgehend
 62
     7
370
    25
100
AcDbLine
 10
260.7320153784
 20
444.9892495534
 30
0.0
 11
512.2320153784
 21
444.9892495534
 31
0.0
  0
LINE
  5
311
330
1F
100
AcDbEntity
  8
0
  6
SLD-Durchgehend
 62
     7
370
    25
100
AcDbLine
 10
512.2320153784
 20
444.9892495534
 30
0.0
 11
512.2320153784
 21
444.2336906998
 31
0.0
  0
LINE
  5
312
330
1F
100
AcDbEntity
  8
0
  6
SLD-Durchgehend
 62
     7
370
    25
100
AcDbLine
 10
260.7320153784
 20
444.2336906998
 30
0.0
 11
260.7320153784
 21
444.9892495534
 31
0.0
  0
LINE
  5
313
330
1F
100
AcDbEntity
  8
0
  6
SLD-Durchgehend
 62
     7
370
    25
100
AcDbLine
 10
512.2320153784
 20
472.7856152583
 30
0.0
 11
510.7320153784
 21
472.7856152583
 31
0.0
  0
SPLINE
  5
314
330
1F
100
AcDbEntity
  8
0
  6
SLD-Durchgehend
 62
     7
370
    25
100
AcDbSpline
210
0.0
220
0.0
230
1.0
 70
     8
 71
     3
 72
    13
 73
     9
 74
     0
 42
0.00000001
 43
0.00000001
 40
0.0
 40
0.0
 40
0.0
 40
0.0
 40
0.129007431653242
 40
0.2553432438351623
 40
0.3790074478729991
 40
0.5000000558570268
 40
0.7349233340877345
 40
1.0
 40
1.0
 40
1.0
 40
1.0
 10
510.7320153784218
 20
472.872903914152
 30
0.0
 10
500.0459057721312
 20
472.8843182481333
 30
0.0
 10
478.8949855818697
 20
472.9069105362494
 30
0.0
 10
447.5005399263133
 20
472.9321159320578
 30
0.0
 10
416.7699823193623
 20
472.9492172528244
 30
0.0
 10
377.0447564819969
 20
472.9597089147774
 30
0.0
 10
325.6058584295081
 20
472.9505526201021
 30
0.0
 10
284.189198229452
 20
472.9223025435249
 30
0.0
 10
262.2320153784218
 20
472.9073256696301
 30
0.0
  0
SPLINE
  5
315
330
1F
100
AcDbEntity
  8
0
  6
SLD-Durchgehend
 62
     7
370
    25
100
AcDbSpline
210
0.0
220
0.0
230
1.0
 70
    24
 71
     3
 72
    11
 73
     7
 74
     0
 42
0.00000001
 43
0.00000001
 40
0.0
 40
0.0
 40
0.0
 40
0.0
 40
0.2584573764809558
 40
0.5112144334071173
 40
0.7583626805368402
 40
1.0
 40
1.0
 40
1.0
 40
1.0
 10
262.2320153784218
 20
472.7856152582698
 30
0.0
 10
262.1028043302121
 20
472.7856152582698
 30
0.0
 10
261.8472320045161
 20
472.7856152582698
 30
0.0
 10
261.4679359777839
 20
472.7856152582698
 30
0.0
 10
261.0970654147038
 20
472.7856152582698
 30
0.0
 10
260.8527806418343
 20
472.7856152582698
 30
0.0
 10
260.7320153784217
 20
472.7856152582698
 30
0.0
  0
LINE
  5
316
330
1F
100
AcDbEntity
  8
0
  6
SLD-Durchgehend
 62
     7
370
    25
100
AcDbLine
 10
260.7320153784
 20
472.9115659898
 30
0.0
 11
260.7320153784
 21
473.5819809632
 31
0.0
  0
LINE
  5
317
330
1F
100
AcDbEntity
  8
0
  6
SLD-Durchgehend
 62
     7
370
    25
100
AcDbLine
 10
512.2320153784
 20
472.9122713118
 30
0.0
 11
512.2320153784
 21
473.5819809632
 31
0.0
  0
LINE
  5
318
330
1F
100
AcDbEntity
  8
0
  6
SLD-Durchgehend
 62
     7
370
    25
100
AcDbLine
 10
511.7320153784
 20
471.7856152583
 30
0.0
 11
511.7320153784
 21
446.7856152583
 31
0.0
  0
SPLINE
  5
319
330
1F
100
AcDbEntity
  8
0
  6
SLD-Durchgehend
 62
     7
370
    25
100
AcDbSpline
210
0.0
220
0.0
230
1.0
 70
     8
 71
     3
 72
    20
 73
    16
 74
     0
 42
0.00000001
 43
0.00000001
 40
0.0
 40
0.0
 40
0.0
 40
0.0
 40
0.0393489434965216
 40
0.0802691401715185
 40
0.1227893656487591
 40
0.1765995567641855
 40
0.2507332638121341
 40
0.3753134905538971
 40
0.4998937172956611
 40
0.5832447644130506
 40
0.6665958115304411
 40
0.7499468586478303
 40
0.8332979057652202
 40
0.9166489528826103
 40
1.0
 40
1.0
 40
1.0
 40
1.0
 10
510.7320153784218
 20
445.7856152582698
 30
0.0
 10
510.711557202773
 20
445.786342191903
 30
0.0
 10
510.6698239305961
 20
445.7878250865505
 30
0.0
 10
510.6067732626639
 20
445.8001830848336
 30
0.0
 10
510.5385522210398
 20
445.8224529551216
 30
0.0
 10
510.4587709200459
 20
445.8628599126641
 30
0.0
 10
510.3544510490964
 20
445.9452068293012
 30
0.0
 10
510.2579633711279
 20
446.0892699864453
 30
0.0
 10
510.2233812423219
 20
446.2641500161132
 30
0.0
 10
510.2435146695532
 20
446.4164926408792
 30
0.0
 10
510.2940251111948
 20
446.5384649653847
 30
0.0
 10
510.3744009448451
 20
446.6433390472005
 30
0.0
 10
510.4791430363961
 20
446.7231907389913
 30
0.0
 10
510.6011191801013
 20
446.7756657578062
 30
0.0
 10
510.6883833123149
 20
446.7822987581152
 30
0.0
 10
510.7320153784218
 20
446.7856152582697
 30
0.0
  0
SPLINE
  5
31A
330
1F
100
AcDbEntity
  8
0
  6
SLD-Durchgehend
 62
     7
370
    25
100
AcDbSpline
210
0.0
220
0.0
230
1.0
 70
     8
 71
     3
 72
    12
 73
     8
 74
     0
 42
0.00000001
 43
0.00000001
 40
0.0
 40
0.0
 40
0.0
 40
0.0
 40
0.1767097670250969
 40
0.3433764294375113
 40
0.5000000011035615
 40
0.738700323811073
 40
1.0
 40
1.0
 40
1.0
 40
1.0
 10
262.2320153784218
 20
445.6639048469094
 30
0.0
 10
276.8694717912796
 20
445.6535276666762
 30
0.0
 10
305.3124809339519
 20
445.6333630817973
 30
0.0
 10
346.7291496424714
 20
445.6154044568761
 30
0.0
 10
393.2807070287782
 20
445.6077345737477
 30
0.0
 10
447.6710349545377
 20
445.620668005181
 30
0.0
 10
489.0876954027572
 20
445.6490647345162
 30
0.0
 10
510.7320153784218
 20
445.6639048469094
 30
0.0
  0
SPLINE
  5
31B
330
1F
100
AcDbEntity
  8
0
  6
SLD-Durchgehend
 62
     7
370
    25
100
AcDbSpline
210
0.0
220
0.0
230
1.0
 70
     8
 71
     3
 72
    17
 73
    13
 74
     0
 42
0.00000001
 43
0.00000001
 40
0.0
 40
0.0
 40
0.0
 40
0.0
 40
0.083327589240434
 40
0.1666551784808654
 40
0.2499827677213017
 40
0.3333103569617288
 40
0.4166379462021613
 40
0.499965535442605
 40
0.6478385579724556
 40
0.7552337047199432
 40
0.8811502035503103
 40
1.0
 40
1.0
 40
1.0
 40
1.0
 10
262.7320153784218
 20
446.2856152582698
 30
0.0
 10
262.7311897952641
 20
446.2637986693445
 30
0.0
 10
262.7295386289486
 20
446.2201654914939
 30
0.0
 10
262.7162569604363
 20
446.1558357487133
 30
0.0
 10
262.6953032787047
 20
446.0937259279641
 30
0.0
 10
262.6662607928102
 20
446.0349017919538
 30
0.0
 10
262.6298220319389
 20
445.9803584538393
 30
0.0
 10
262.5754443328286
 20
445.9183458270275
 30
0.0
 10
262.5052411772708
 20
445.862752057389
 30
0.0
 10
262.4158849584196
 20
445.8178160940411
 30
0.0
 10
262.3268871985852
 20
445.7907283463185
 30
0.0
 10
262.2630247225396
 20
445.7872864974906
 30
0.0
 10
262.2320153784218
 20
445.7856152582698
 30
0.0
  0
ARC
  5
31C
330
1F
100
AcDbEntity
  8
0
  6
SLD-Durchgehend
 62
     7
370
    25
100
AcDbCircle
 10
262.2320153784
 20
446.2856152583
 30
0.0
 40
0.5
100
AcDbArc
 50
0.0
 51
90.0
  0
LINE
  5
31D
330
1F
100
AcDbEntity
  8
0
  6
SLD-Durchgehend
 62
     7
370
    25
100
AcDbLine
 10
261.2320153784
 20
446.7856152583
 30
0.0
 11
261.2320153784
 21
471.7856152583
 31
0.0
  0
ARC
  5
31E
330
1F
100
AcDbEntity
  8
0
  6
SLD-Durchgehend
 62
     7
370
    25
100
AcDbCircle
 10
262.2320153784
 20
472.2856152583
 30
0.0
 40
0.5000000000000568
100
AcDbArc
 50
270.0
 51
0.0
  0
SPLINE
  5
31F
330
1F
100
AcDbEntity
  8
0
  6
SLD-Durchgehend
 62
     7
370
    25
100
AcDbSpline
210
0.0
220
0.0
230
1.0
 70
     8
 71
     3
 72
    15
 73
    11
 74
     0
 42
0.00000001
 43
0.00000001
 40
0.0
 40
0.0
 40
0.0
 40
0.0
 40
0.0785745533230313
 40
0.1602864291881242
 40
0.2451930891003818
 40
0.3526450636705697
 40
0.5006790556720622
 40
0.6671193704480379
 40
0.8335596852240199
 40
0.9999999999999999
 40
0.9999999999999999
 40
0.9999999999999999
 40
0.9999999999999999
 10
262.2320153784218
 20
472.7856152582698
 30
0.0
 10
262.2524736948797
 20
472.7848882713263
 30
0.0
 10
262.2942071868761
 20
472.7834052703253
 30
0.0
 10
262.3572566360793
 20
472.7710480274486
 30
0.0
 10
262.4254830170129
 20
472.748774734321
 30
0.0
 10
262.5052358741079
 20
472.7083860120302
 30
0.0
 10
262.5926818070896
 20
472.6393819429027
 30
0.0
 10
262.6695911136839
 20
472.5384838719921
 30
0.0
 10
262.722065814323
 20
472.416512388666
 30
0.0
 10
262.7286988570556
 20
472.3292476350686
 30
0.0
 10
262.7320153784218
 20
472.2856152582698
 30
0.0
  0
CIRCLE
  5
320
330
1F
100
AcDbEntity
  8
0
  6
SLD-Durchgehend
 62
     7
370
    25
100
AcDbCircle
 10
274.4820153784
 20
459.2856152583
 30
0.0
 40
2.500000000000057
  0
CIRCLE
  5
321
330
1F
100
AcDbEntity
  8
0
  6
SLD-Durchgehend
 62
     7
370
    25
100
AcDbCircle
 10
498.4820153784
 20
459.2856152583
 30
0.0
 40
2.499999999999943
  0
CIRCLE
  5
322
330
1F
100
AcDbEntity
  8
0
  6
SLD-Durchgehend
 62
     7
370
    25
100
AcDbCircle
 10
438.4820153784
 20
459.2856152583
 30
0.0
 40
2.500000000000057
  0
CIRCLE
  5
323
330
1F
100
AcDbEntity
  8
0
  6
SLD-Durchgehend
 62
     7
370
    25
100
AcDbCircle
 10
334.4820153784
 20
459.2856152583
 30
0.0
 40
2.5
  0
ARC
  5
324
330
1F
100
AcDbEntity
  8
0
  6
SLD-Durchgehend
 62
     7
370
    25
100
AcDbCircle
 10
510.7320153784
 20
472.2856152583
 30
0.0
 40
0.5000000000000568
100
AcDbArc
 50
90.0
 51
270.0
  0
LINE
  5
325
330
1F
100
AcDbEntity
  8
0
  6
SLD-Durchgehend
 62
     7
370
    25
100
AcDbLine
 10
511.7320153784
 20
446.7856152583
 30
0.0
 11
510.7320153784
 21
446.7856152583
 31
0.0
  0
LINE
  5
326
330
1F
100
AcDbEntity
  8
0
  6
SLD-Durchgehend
 62
     7
370
    25
100
AcDbLine
 10
510.7320153784
 20
471.7856152583
 30
0.0
 11
511.7320153784
 21
471.7856152583
 31
0.0
  0
LINE
  5
327
330
1F
100
AcDbEntity
  8
0
  6
SLD-Durchgehend
 62
     7
370
    25
100
AcDbLine
 10
262.2320153784
 20
446.7856152583
 30
0.0
 11
261.2320153784
 21
446.7856152583
 31
0.0
  0
LINE
  5
328
330
1F
100
AcDbEntity
  8
0
  6
SLD-Durchgehend
 62
     7
370
    25
100
AcDbLine
 10
261.2320153784
 20
471.7856152583
 30
0.0
 11
262.2320153784
 21
471.7856152583
 31
0.0
  0
SPLINE
  5
329
330
1F
100
AcDbEntity
  8
0
  6
SLD-Durchgehend
 62
     7
370
    25
100
AcDbSpline
210
0.0
220
0.0
230
1.0
 70
    24
 71
     3
 72
    10
 73
     6
 74
     0
 42
0.00000001
 43
0.00000001
 40
0.0
 40
0.0
 40
0.0
 40
0.0
 40
0.3056723249798378
 40
0.6389860861748807
 40
1.0
 40
1.0
 40
1.0
 40
1.0
 10
510.7320153784218
 20
445.7856152582698
 30
0.0
 10
510.8848265353393
 20
445.7856152582698
 30
0.0
 10
511.2042673060699
 20
445.7856152582698
 30
0.0
 10
511.7043292454292
 20
445.7856152582698
 30
0.0
 10
512.0515031744525
 20
445.7856152582698
 30
0.0
 10
512.2320153784217
 20
445.7856152582698
 30
0.0
  0
SPLINE
  5
32A
330
1F
100
AcDbEntity
  8
0
  6
SLD-Durchgehend
 62
     7
370
    25
100
AcDbSpline
210
0.0
220
0.0
230
1.0
 70
    24
 71
     3
 72
    11
 73
     7
 74
     0
 42
0.00000001
 43
0.00000001
 40
0.0
 40
0.0
 40
0.0
 40
0.0
 40
0.2386846304927258
 40
0.4848407112045021
 40
0.7385788420840866
 40
0.9999999999999999
 40
0.9999999999999999
 40
0.9999999999999999
 40
0.9999999999999999
 10
260.7320153784219
 20
445.7856152582698
 30
0.0
 10
260.8512909893374
 20
445.7856152582698
 30
0.0
 10
261.0935758482585
 20
445.7856152582698
 30
0.0
 10
261.4629735321358
 20
445.7856152582698
 30
0.0
 10
261.8437627603
 20
445.7856152582698
 30
0.0
 10
262.1013174585564
 20
445.7856152582698
 30
0.0
 10
262.2320153784218
 20
445.7856152582698
 30
0.0
  0
LINE
  5
32B
330
1F
100
AcDbEntity
  8
0
  6
SLD-Durchgehend
 62
     7
370
    25
100
AcDbLine
 10
512.2320153784
 20
445.6589592047
 30
0.0
 11
512.2320153784
 21
444.9892495534
 31
0.0
  0
LINE
  5
32C
330
1F
100
AcDbEntity
  8
0
  6
SLD-Durchgehend
 62
     7
370
    25
100
AcDbLine
 10
260.7320153784
 20
444.9892495534
 30
0.0
 11
260.7320153784
 21
445.6589592047
 31
0.0
  0
SPLINE
  5
32D
330
1F
100
AcDbEntity
  8
0
  6
SLD-Durchgehend
 62
     7
370
    25
100
AcDbSpline
210
0.0
220
0.0
230
1.0
 70
    24
 71
     3
 72
    16
 73
    12
 74
     0
 42
0.00000001
 43
0.00000001
 40
0.0
 40
0.0
 40
0.0
 40
0.0
 40
0.079760779910022
 40
0.1612550823201425
 40
0.2457422364078318
 40
0.3692747215935271
 40
0.5007080863152966
 40
0.6265185751618266
 40
0.7553329128600971
 40
0.8774848895732321
 40
1.0
 40
1.0
 40
1.0
 40
1.0
 10
261.2320153784218
 20
446.7856152582697
 30
0.0
 10
261.2111450481057
 20
446.7856152582697
 30
0.0
 10
261.1689507912669
 20
446.7856152582697
 30
0.0
 10
261.1057843100422
 20
446.7856152582697
 30
0.0
 10
261.0335105998598
 20
446.7856152582697
 30
0.0
 10
260.9541874209918
 20
446.7856152582697
 30
0.0
 10
260.8769136012351
 20
446.7856152582697
 30
0.0
 10
260.8118897928531
 20
446.7856152582697
 30
0.0
 10
260.7665164795974
 20
446.7856152582697
 30
0.0
 10
260.7371659404643
 20
446.7856152582697
 30
0.0
 10
260.7337339303603
 20
446.7856152582697
 30
0.0
 10
260.7320153784218
 20
446.7856152582697
 30
0.0
  0
SPLINE
  5
32E
330
1F
100
AcDbEntity
  8
0
  6
SLD-Durchgehend
 62
     7
370
    25
100
AcDbSpline
210
0.0
220
0.0
230
1.0
 70
    24
 71
     3
 72
    16
 73
    12
 74
     0
 42
0.00000001
 43
0.00000001
 40
0.0
 40
0.0
 40
0.0
 40
0.0
 40
0.0913145187960439
 40
0.1826988231254362
 40
0.2760324261746082
 40
0.3839561263079039
 40
0.5000924389026299
 40
0.62528402231136
 40
0.7599847789104452
 40
0.877686072524453
 40
1.0
 40
1.0
 40
1.0
 40
1.0
 10
260.7320153784218
 20
471.7856152582697
 30
0.0
 10
260.7329883684985
 20
471.7856152582697
 30
0.0
 10
260.7349350922424
 20
471.7856152582697
 30
0.0
 10
260.7511845855751
 20
471.7856152582697
 30
0.0
 10
260.7776234685196
 20
471.7856152582697
 30
0.0
 10
260.8193845183028
 20
471.7856152582697
 30
0.0
 10
260.8779983094696
 20
471.7856152582697
 30
0.0
 10
260.9544504936699
 20
471.7856152582697
 30
0.0
 10
261.0427005986044
 20
471.7856152582697
 30
0.0
 10
261.1370251320466
 20
471.7856152582697
 30
0.0
 10
261.1999488716224
 20
471.7856152582697
 30
0.0
 10
261.2320153784217
 20
471.7856152582697
 30
0.0
  0
SPLINE
  5
32F
330
1F
100
AcDbEntity
  8
0
  6
SLD-Durchgehend
 62
     7
370
    25
100
AcDbSpline
210
0.0
220
0.0
230
1.0
 70
    24
 71
     3
 72
    16
 73
    12
 74
     0
 42
0.00000001
 43
0.00000001
 40
0.0
 40
0.0
 40
0.0
 40
0.0
 40
0.091666588563978
 40
0.1828761696099322
 40
0.2755251683019206
 40
0.3840703954545407
 40
0.5001117723128563
 40
0.62533012357234
 40
0.7599958854840144
 40
0.8777277615354702
 40
1.0
 40
1.0
 40
1.0
 40
1.0
 10
512.2320153784218
 20
446.7856152582697
 30
0.0
 10
512.2310522411403
 20
446.7856152582697
 30
0.0
 10
512.2291307683375
 20
446.7856152582697
 30
0.0
 10
512.2130140318445
 20
446.7856152582697
 30
0.0
 10
512.1864736814985
 20
446.7856152582697
 30
0.0
 10
512.1446656399174
 20
446.7856152582697
 30
0.0
 10
512.0860237866161
 20
446.7856152582697
 30
0.0
 10
512.0095763732661
 20
446.7856152582697
 30
0.0
 10
511.9213146497473
 20
446.7856152582697
 30
0.0
 10
511.8269944327506
 20
446.7856152582697
 30
0.0
 10
511.7640718499096
 20
446.7856152582697
 30
0.0
 10
511.7320153784218
 20
446.7856152582697
 30
0.0
  0
SPLINE
  5
330
330
1F
100
AcDbEntity
  8
0
  6
SLD-Durchgehend
 62
     7
370
    25
100
AcDbSpline
210
0.0
220
0.0
230
1.0
 70
    24
 71
     3
 72
    16
 73
    12
 74
     0
 42
0.00000001
 43
0.00000001
 40
0.0
 40
0.0
 40
0.0
 40
0.0
 40
0.0804300679822877
 40
0.1624694292375468
 40
0.2474100199362727
 40
0.3713668805393053
 40
0.5029723678037981
 40
0.6286345521643435
 40
0.7570143875796009
 40
0.8784574991862227
 40
1.0
 40
1.0
 40
1.0
 40
1.0
 10
511.7320153784218
 20
471.7856152582697
 30
0.0
 10
511.7530609985264
 20
471.7856152582697
 30
0.0
 10
511.7955733321861
 20
471.7856152582697
 30
0.0
 10
511.8591570364284
 20
471.7856152582697
 30
0.0
 10
511.9317209740689
 20
471.7856152582697
 30
0.0
 10
512.0111631058049
 20
471.7856152582697
 30
0.0
 10
512.0883208540909
 20
471.7856152582697
 30
0.0
 10
512.1530323893609
 20
471.7856152582697
 30
0.0
 10
512.1979655004835
 20
471.7856152582697
 30
0.0
 10
512.2269110417202
 20
471.7856152582697
 30
0.0
 10
512.2303134689527
 20
471.7856152582697
 30
0.0
 10
512.2320153784218
 20
471.7856152582697
 30
0.0
  0
DIMENSION
  5
331
330
1F
100
AcDbEntity
  8
0
  6
SLD-Durchgehend
 62
     7
370
    18
100
AcDbDimension
280
     0
  2
_D_10
 10
223.8132736474
 20
441.5348611977
 30
0.0
 11
223.8132736474
 21
460.3972810711
 31
0.0
 70
   160
  1
<>
 71
     2
 42
-1.0
 73
     0
 74
     0
 75
     0
  3
SLDDIMSTYLE3
100
AcDbAlignedDimension
 13
260.7320153784
 23
477.0363693189
 33
0.0
 14
260.7320153784
 24
441.5348611977
 34
0.0
 50
90.0
100
AcDbRotatedDimension
  0
DIMENSION
  5
33E
330
1F
100
AcDbEntity
  8
0
  6
SLD-Durchgehend
 62
     7
370
    18
100
AcDbDimension
280
     0
  2
_D_11
 10
513.7320153784
 20
524.3376704541
 30
0.0
 11
374.566127052
 21
524.3376704541
 31
0.0
 70
   160
  1
<>
 71
     2
 42
-1.0
 73
     0
 74
     0
 75
     0
  3
SLDDIMSTYLE4
100
AcDbAlignedDimension
 13
259.2320153784
 23
471.7856152583
 33
0.0
 14
513.7320153784
 24
471.7856152583
 34
0.0
 50
0.0
100
AcDbRotatedDimension
  0
DIMENSION
  5
349
330
1F
100
AcDbEntity
  8
0
  6
SLD-Durchgehend
 62
     7
370
    18
100
AcDbDimension
280
     0
  2
_D_12
 10
274.4820153784
 20
387.0794354331
 30
0.0
 11
374.566127052
 21
387.0794354331
 31
0.0
 70
   160
  1
<>
 71
     2
 42
-1.0
 73
     0
 74
     0
 75
     0
  3
SLDDIMSTYLE2
100
AcDbAlignedDimension
 13
498.4820153784
 23
459.2856152583
 33
0.0
 14
274.4820153784
 24
459.2856152583
 34
0.0
 50
0.0
100
AcDbRotatedDimension
  0
DIMENSION
  5
353
330
1F
100
AcDbEntity
  8
0
  6
SLD-Durchgehend
 62
     7
370
    18
100
AcDbDimension
280
     0
  2
_D_13
 10
438.4820153784
 20
412.3050261906
 30
0.0
 11
374.566127052
 21
412.3050261906
 31
0.0
 70
   160
  1
<>
 71
     2
 42
-1.0
 73
     0
 74
     0
 75
     0
  3
SLDDIMSTYLE2
100
AcDbAlignedDimension
 13
334.4820153784
 23
459.2856152583
 33
0.0
 14
438.4820153784
 24
459.2856152583
 34
0.0
 50
0.0
100
AcDbRotatedDimension
  0
DIMENSION
  5
35D
330
1F
100
AcDbEntity
  8
0
  6
SLD-Durchgehend
 62
     7
370
    18
100
AcDbDimension
280
     0
  2
_D_14
 10
513.7320153784
 20
499.4210862455
 30
0.0
 11
541.2021755327
 21
499.4210862455
 31
0.0
 70
   160
  1
<>
 71
     2
 42
-1.0
 73
     0
 74
     0
 75
     0
  3
SLDDIMSTYLE5
100
AcDbAlignedDimension
 13
498.4820153784
 23
459.2856152583
 33
0.0
 14
513.7320153784
 24
471.7856152583
 34
0.0
 50
0.0
100
AcDbRotatedDimension
  0
DIMENSION
  5
36A
330
1F
100
AcDbEntity
  8
0
  6
SLD-Durchgehend
 62
     7
370
    18
100
AcDbDimension
280
     0
  2
_D_15
 10
276.9820153784
 20
494.9933886267
 30
0.0
 11
295.3886180718
 21
494.9933886267
 31
0.0
 70
   160
  1
%%c<>
 71
     2
 42
-1.0
 73
     0
 74
     0
 75
     0
  3
SLDDIMSTYLE0
100
AcDbAlignedDimension
 13
271.9820153784
 23
459.2856152583
 33
0.0
 14
276.9820153784
 24
459.2856152583
 34
0.0
100
AcDbRotatedDimension
  0
ENDSEC
  0
SECTION
  2
OBJECTS
  0
DICTIONARY
  5
C
330
0
100
AcDbDictionary
281
     1
  3
ACAD_DETAILVIEWSTYLE
350
37E
  3
ACAD_GROUP
350
D
  3
ACAD_LAYOUT
350
1A
  3
ACAD_MATERIAL
350
43
  3
ACAD_MLEADERSTYLE
350
5B
  3
ACAD_MLINESTYLE
350
17
  3
ACAD_PLOTSETTINGS
350
19
  3
ACAD_PLOTSTYLENAME
350
E
  3
ACAD_SCALELIST
350
47
  3
ACAD_SECTIONVIEWSTYLE
350
37F
  3
ACAD_TABLESTYLE
350
59
  3
ACAD_VISUALSTYLE
350
2A
  3
ACDB_RECOMPOSE_DATA
350
37B
  3
AcDbVariableDictionary
350
377
  0
SUN
  5
5D
330
29
100
AcDbSun
 90
        1
290
     0
 63
     7
421
 16777215
 40
1.0
291
     1
 91
  2455826
 92
 54000000
292
     0
 70
     2
 71
   256
280
     1
  0
DICTIONARY
  5
37E
102
{ACAD_REACTORS
330
C
102
}
330
C
100
AcDbDictionary
281
     1
  0
DICTIONARY
  5
D
102
{ACAD_REACTORS
330
C
102
}
330
C
100
AcDbDictionary
281
     1
  0
DICTIONARY
  5
1A
102
{ACAD_REACTORS
330
C
102
}
330
C
100
AcDbDictionary
281
     1
  3
Layout1
350
1E
  3
Layout2
350
26
  3
Model
350
22
  0
DICTIONARY
  5
43
102
{ACAD_REACTORS
330
C
102
}
330
C
100
AcDbDictionary
281
     1
  3
ByBlock
350
45
  3
ByLayer
350
44
  3
Global
350
46
  0
DICTIONARY
  5
5B
102
{ACAD_REACTORS
330
C
102
}
330
C
100
AcDbDictionary
281
     1
  3
Standard
350
5C
  0
DICTIONARY
  5
17
102
{ACAD_REACTORS
330
C
102
}
330
C
100
AcDbDictionary
281
     1
  3
Standard
350
18
  0
DICTIONARY
  5
19
102
{ACAD_REACTORS
330
C
102
}
330
C
100
AcDbDictionary
281
     1
  0
ACDBDICTIONARYWDFLT
  5
E
102
{ACAD_REACTORS
330
C
102
}
330
C
100
AcDbDictionary
281
     1
  3
Normal
350
F
100
AcDbDictionaryWithDefault
340
F
  0
DICTIONARY
  5
47
102
{ACAD_REACTORS
330
C
102
}
330
C
100
AcDbDictionary
281
     1
  3
A0
350
48
  3
A1
350
49
  3
A2
350
4A
  3
A3
350
4B
  3
A4
350
4C
  3
A5
350
4D
  3
A6
350
4E
  3
A7
350
4F
  3
A8
350
50
  3
A9
350
51
  3
B0
350
52
  3
B1
350
53
  3
B2
350
54
  3
B3
350
55
  3
B4
350
56
  3
B5
350
57
  3
B6
350
58
  0
DICTIONARY
  5
37F
102
{ACAD_REACTORS
330
C
102
}
330
C
100
AcDbDictionary
281
     1
  0
DICTIONARY
  5
59
102
{ACAD_REACTORS
330
C
102
}
330
C
100
AcDbDictionary
281
     1
  3
Standard
350
5A
  0
DICTIONARY
  5
2A
102
{ACAD_REACTORS
330
C
102
}
330
C
100
AcDbDictionary
281
     1
  3
2dWireframe
350
2F
  3
Basic
350
32
  3
Brighten
350
36
  3
ColorChange
350
3A
  3
Conceptual
350
34
  3
Dim
350
35
  3
EdgeColorOff
350
3D
  3
Facepattern
350
39
  3
Flat
350
2B
  3
FlatWithEdges
350
2C
  3
Gouraud
350
2D
  3
GouraudWithEdges
350
2E
  3
Hidden
350
31
  3
JitterOff
350
3B
  3
Linepattern
350
38
  3
OverhangOff
350
3C
  3
Realistic
350
33
  3
Shaded
350
42
  3
Shaded with edges
350
41
  3
Shades of Gray
350
3E
  3
Sketchy
350
3F
  3
Thicken
350
37
  3
Wireframe
350
30
  3
X-Ray
350
40
  0
XRECORD
  5
37B
102
{ACAD_REACTORS
330
C
102
}
330
C
100
AcDbXrecord
280
     1
 90
        1
330
5A
  0
DICTIONARY
  5
377
102
{ACAD_REACTORS
330
C
102
}
330
C
100
AcDbDictionary
281
     1
  3
CANNOSCALE
350
378
  3
CENTEREXE
350
380
  3
CENTERLTYPEFILE
350
381
  3
CMLEADERSTYLE
350
37D
  3
CTABLESTYLE
350
37C
  0
LAYOUT
  5
1E
102
{ACAD_REACTORS
330
1A
102
}
330
1A
100
AcDbPlotSettings
  1

  2
none_device
  4

  6

 40
0.0
 41
0.0
 42
0.0
 43
0.0
 44
0.0
 45
0.0
 46
0.0
 47
0.0
 48
0.0
 49
0.0
140
0.0
141
0.0
142
1.0
143
1.0
 70
   688
 72
     1
 73
     0
 74
     5
  7

 75
    16
 76
     0
 77
     2
 78
   300
147
1.0
148
0.0
149
0.0
100
AcDbLayout
  1
Layout1
 70
     1
 71
     1
 10
0.0
 20
0.0
 11
420.0
 21
297.0
 12
0.0
 22
0.0
 32
0.0
 14
1.0000000000E+20
 24
1.0000000000E+20
 34
1.0000000000E+20
 15
-1.0000000000E+20
 25
-1.0000000000E+20
 35
-1.0000000000E+20
146
0.0
 13
0.0
 23
0.0
 33
0.0
 16
1.0
 26
0.0
 36
0.0
 17
0.0
 27
1.0
 37
0.0
 76
     0
330
1B
  0
LAYOUT
  5
26
102
{ACAD_REACTORS
330
1A
102
}
330
1A
100
AcDbPlotSettings
  1

  2
none_device
  4

  6

 40
0.0
 41
0.0
 42
0.0
 43
0.0
 44
0.0
 45
0.0
 46
0.0
 47
0.0
 48
0.0
 49
0.0
140
0.0
141
0.0
142
1.0
143
1.0
 70
   688
 72
     1
 73
     0
 74
     5
  7

 75
    16
 76
     0
 77
     2
 78
   300
147
1.0
148
0.0
149
0.0
100
AcDbLayout
  1
Layout2
 70
     1
 71
     2
 10
0.0
 20
0.0
 11
0.0
 21
0.0
 12
0.0
 22
0.0
 32
0.0
 14
0.0
 24
0.0
 34
0.0
 15
0.0
 25
0.0
 35
0.0
146
0.0
 13
0.0
 23
0.0
 33
0.0
 16
1.0
 26
0.0
 36
0.0
 17
0.0
 27
1.0
 37
0.0
 76
     0
330
23
  0
LAYOUT
  5
22
102
{ACAD_REACTORS
330
1A
102
}
330
1A
100
AcDbPlotSettings
  1

  2
none_device
  4
Letter_(8.50_x_11.00_Inches)
  6

 40
6.35
 41
6.35
 42
6.35000508
 43
6.35000508
 44
215.9
 45
279.4
 46
0.0
 47
0.0
 48
0.0
 49
0.0
140
0.0
141
0.0
142
1.0
143
1.0
 70
  1712
 72
     1
 73
     0
 74
     0
  7

 75
     0
 76
     0
 77
     2
 78
   300
147
1.0
148
0.0
149
0.0
100
AcDbLayout
  1
Model
 70
     1
 71
     0
 10
0.0
 20
0.0
 11
1260.0
 21
891.0
 12
0.0
 22
0.0
 32
0.0
 14
0.0
 24
0.0
 34
0.0
 15
1260.0
 25
891.0
 35
0.0
146
0.0
 13
0.0
 23
0.0
 33
0.0
 16
1.0
 26
0.0
 36
0.0
 17
0.0
 27
1.0
 37
0.0
 76
     0
330
1F
331
29
  0
MATERIAL
  5
45
102
{ACAD_REACTORS
330
43
102
}
330
43
100
AcDbMaterial
  1
ByBlock
 72
     1
 94
      127
  0
MATERIAL
  5
44
102
{ACAD_REACTORS
330
43
102
}
330
43
100
AcDbMaterial
  1
ByLayer
 72
     1
 94
      127
  0
MATERIAL
  5
46
102
{ACAD_REACTORS
330
43
102
}
330
43
100
AcDbMaterial
  1
Global
 72
     1
 94
      127
  0
MLEADERSTYLE
  5
5C
102
{ACAD_REACTORS
330
5B
102
}
330
5B
100
AcDbMLeaderStyle
179
     2
170
     2
171
     1
172
     0
 90
        2
 40
0.0
 41
0.0
173
     1
 91
-1056964608
340
14
 92
       -2
290
     1
 42
2.0
291
     1
 43
8.0
  3
Standard
341
0
 44
4.0
300

342
11
174
     1
178
     6
175
     1
176
     0
 93
-1056964608
 45
4.0
292
     0
297
     0
 46
4.0
343
0
 94
-1056964608
 47
1.0
 49
1.0
140
1.0
293
     1
141
0.0
294
     1
177
     0
142
1.0
295
     0
296
     0
143
3.75
271
     0
272
     9
273
     9
298
     0
  0
MLINESTYLE
  5
18
102
{ACAD_REACTORS
330
17
102
}
330
17
100
AcDbMlineStyle
  2
Standard
 70
     0
  3

 62
   256
 51
90.0
 52
90.0
 71
     2
 49
0.5
 62
   256
  6
BYLAYER
 49
-0.5
 62
   256
  6
BYLAYER
  0
ACDBPLACEHOLDER
  5
F
102
{ACAD_REACTORS
330
E
102
}
330
E
  0
SCALE
  5
48
102
{ACAD_REACTORS
330
47
102
}
330
47
100
AcDbScale
 70
     0
300
1:1
140
1.0
141
1.0
290
     1
  0
SCALE
  5
49
102
{ACAD_REACTORS
330
47
102
}
330
47
100
AcDbScale
 70
     0
300
1:2
140
1.0
141
2.0
290
     0
  0
SCALE
  5
4A
102
{ACAD_REACTORS
330
47
102
}
330
47
100
AcDbScale
 70
     0
300
1:4
140
1.0
141
4.0
290
     0
  0
SCALE
  5
4B
102
{ACAD_REACTORS
330
47
102
}
330
47
100
AcDbScale
 70
     0
300
1:5
140
1.0
141
5.0
290
     0
  0
SCALE
  5
4C
102
{ACAD_REACTORS
330
47
102
}
330
47
100
AcDbScale
 70
     0
300
1:8
140
1.0
141
8.0
290
     0
  0
SCALE
  5
4D
102
{ACAD_REACTORS
330
47
102
}
330
47
100
AcDbScale
 70
     0
300
1:10
140
1.0
141
10.0
290
     0
  0
SCALE
  5
4E
102
{ACAD_REACTORS
330
47
102
}
330
47
100
AcDbScale
 70
     0
300
1:16
140
1.0
141
16.0
290
     0
  0
SCALE
  5
4F
102
{ACAD_REACTORS
330
47
102
}
330
47
100
AcDbScale
 70
     0
300
1:20
140
1.0
141
20.0
290
     0
  0
SCALE
  5
50
102
{ACAD_REACTORS
330
47
102
}
330
47
100
AcDbScale
 70
     0
300
1:30
140
1.0
141
30.0
290
     0
  0
SCALE
  5
51
102
{ACAD_REACTORS
330
47
102
}
330
47
100
AcDbScale
 70
     0
300
1:40
140
1.0
141
40.0
290
     0
  0
SCALE
  5
52
102
{ACAD_REACTORS
330
47
102
}
330
47
100
AcDbScale
 70
     0
300
1:50
140
1.0
141
50.0
290
     0
  0
SCALE
  5
53
102
{ACAD_REACTORS
330
47
102
}
330
47
100
AcDbScale
 70
     0
300
1:100
140
1.0
141
100.0
290
     0
  0
SCALE
  5
54
102
{ACAD_REACTORS
330
47
102
}
330
47
100
AcDbScale
 70
     0
300
2:1
140
2.0
141
1.0
290
     0
  0
SCALE
  5
55
102
{ACAD_REACTORS
330
47
102
}
330
47
100
AcDbScale
 70
     0
300
4:1
140
4.0
141
1.0
290
     0
  0
SCALE
  5
56
102
{ACAD_REACTORS
330
47
102
}
330
47
100
AcDbScale
 70
     0
300
8:1
140
8.0
141
1.0
290
     0
  0
SCALE
  5
57
102
{ACAD_REACTORS
330
47
102
}
330
47
100
AcDbScale
 70
     0
300
10:1
140
10.0
141
1.0
290
     0
  0
SCALE
  5
58
102
{ACAD_REACTORS
330
47
102
}
330
47
100
AcDbScale
 70
     0
300
100:1
140
100.0
141
1.0
290
     0
  0
TABLESTYLE
  5
5A
102
{ACAD_REACTORS
330
59
102
}
102
{ACAD_XDICTIONARY
360
379
102
}
330
59
100
AcDbTableStyle
  3
Standard
 70
     0
 71
     0
 40
0.06
 41
0.06
280
     0
281
     0
  7
STANDARD
140
4.5
170
     2
 62
     0
 63
   257
283
     0
 90
        4
 91
        0
  1

274
    -2
284
     1
 64
     0
275
    -2
285
     1
 65
     0
276
    -2
286
     1
 66
     0
277
    -2
287
     1
 67
     0
278
    -2
288
     1
 68
     0
279
    -2
289
     1
 69
     0
  7
STANDARD
140
6.0
170
     5
 62
     0
 63
   257
283
     0
 90
        4
 91
        0
  1

274
    -2
284
     1
 64
     0
275
    -2
285
     1
 65
     0
276
    -2
286
     1
 66
     0
277
    -2
287
     1
 67
     0
278
    -2
288
     1
 68
     0
279
    -2
289
     1
 69
     0
  7
STANDARD
140
4.5
170
     5
 62
     0
 63
   257
283
     0
 90
        4
 91
        0
  1

274
    -2
284
     1
 64
     0
275
    -2
285
     1
 65
     0
276
    -2
286
     1
 66
     0
277
    -2
287
     1
 67
     0
278
    -2
288
     1
 68
     0
279
    -2
289
     1
 69
     0
  0
VISUALSTYLE
  5
2F
102
{ACAD_REACTORS
330
2A
102
}
330
2A
100
AcDbVisualStyle
  2
2dWireframe
 70
     4
177
     3
291
     0
 70
    58
 90
        0
176
     1
 90
        2
176
     1
 90
        0
176
     1
 90
        0
176
     1
 40
0.6
176
     1
 40
30.0
176
     1
 62
     7
420
 16777215
176
     1
 90
        1
176
     1
 90
        4
176
     1
 62
     7
176
     1
 62
   257
176
     1
 90
        1
176
     1
 90
        1
176
     1
 40
1.0
176
     1
 90
        0
176
     1
 62
   257
176
     1
 40
1.0
176
     1
 90
        1
176
     1
 90
        6
176
     1
 90
        2
176
     1
 62
     7
176
     1
 90
        5
176
     1
 90
        0
176
     1
 90
        0
176
     1
290
     0
176
     1
 90
        1
176
     1
 40
0.0
176
     1
 90
        0
176
     1
290
     1
176
     1
290
     1
176
     1
290
     0
176
     1
290
     0
176
     1
290
     0
176
     1
290
     0
176
     1
290
     0
176
     1
290
     0
176
     1
290
     0
176
     1
 90
       50
176
     1
 40
0.0
176
     1
 40
1.0
176
     1
 90
        0
176
     1
 62
    18
420
        0
176
     1
 90
       50
176
     1
 90
        3
176
     1
 62
     5
420
      255
176
     1
290
     0
176
     1
 90
       50
176
     1
 90
       50
176
     1
 90
       50
176
     1
290
     0
176
     1
 90
       50
176
     1
 62
   256
176
     0
 40
1.0
176
     0
 90
        2
176
     1
  1
strokes_ogs.tif
176
     1
290
     0
176
     1
 40
1.0
176
     1
 40
1.0
176
     1
  0
VISUALSTYLE
  5
32
102
{ACAD_REACTORS
330
2A
102
}
330
2A
100
AcDbVisualStyle
  2
Basic
 70
     7
177
     3
291
     1
 70
    58
 90
        1
176
     1
 90
        0
176
     1
 90
        1
176
     1
 90
        0
176
     1
 40
0.6
176
     1
 40
30.0
176
     1
 62
     7
420
 16777215
176
     1
 90
        0
176
     1
 90
        4
176
     1
 62
     7
176
     1
 62
   257
176
     1
 90
        1
176
     1
 90
        1
176
     1
 40
1.0
176
     1
 90
        8
176
     1
 62
     7
176
     1
 40
1.0
176
     1
 90
        1
176
     1
 90
        6
176
     1
 90
        2
176
     1
 62
     7
176
     1
 90
        5
176
     1
 90
        0
176
     1
 90
        0
176
     1
290
     0
176
     1
 90
        1
176
     1
 40
0.0
176
     1
 90
        0
176
     1
290
     0
176
     1
290
     1
176
     1
290
     1
176
     1
290
     0
176
     1
290
     0
176
     1
290
     0
176
     1
290
     0
176
     1
290
     0
176
     1
290
     0
176
     1
 90
       50
176
     1
 40
0.0
176
     1
 40
1.0
176
     1
 90
        0
176
     1
 62
    18
420
        0
176
     1
 90
       50
176
     1
 90
        3
176
     1
 62
     5
420
      255
176
     1
290
     0
176
     1
 90
       50
176
     1
 90
       50
176
     1
 90
       50
176
     1
290
     0
176
     1
 90
       50
176
     1
 62
   256
176
     0
 40
1.0
176
     0
 90
        2
176
     1
  1
strokes_ogs.tif
176
     1
290
     0
176
     1
 40
1.0
176
     1
 40
1.0
176
     1
  0
VISUALSTYLE
  5
36
102
{ACAD_REACTORS
330
2A
102
}
330
2A
100
AcDbVisualStyle
  2
Brighten
 70
    12
177
     3
291
     1
 70
    58
 90
        2
176
     1
 90
        2
176
     1
 90
        0
176
     1
 90
        0
176
     1
 40
0.6
176
     1
 40
30.0
176
     1
 62
     7
420
 16777215
176
     1
 90
        1
176
     1
 90
        4
176
     1
 62
     7
176
     1
 62
   257
176
     1
 90
        1
176
     1
 90
        1
176
     1
 40
1.0
176
     1
 90
        8
176
     1
 62
     7
176
     1
 40
1.0
176
     1
 90
        1
176
     1
 90
        6
176
     1
 90
        2
176
     1
 62
     7
176
     1
 90
        5
176
     1
 90
        0
176
     1
 90
        0
176
     1
290
     0
176
     1
 90
        1
176
     1
 40
50.0
176
     1
 90
        0
176
     1
290
     0
176
     1
290
     1
176
     1
290
     1
176
     1
290
     0
176
     1
290
     0
176
     1
290
     0
176
     1
290
     0
176
     1
290
     0
176
     1
290
     0
176
     1
 90
       50
176
     1
 40
0.0
176
     1
 40
1.0
176
     1
 90
        0
176
     1
 62
    18
420
        0
176
     1
 90
       50
176
     1
 90
        3
176
     1
 62
     5
420
      255
176
     1
290
     0
176
     1
 90
       50
176
     1
 90
       50
176
     1
 90
       50
176
     1
290
     0
176
     1
 90
       50
176
     1
 62
   256
176
     0
 40
1.0
176
     0
 90
        2
176
     1
  1
strokes_ogs.tif
176
     1
290
     0
176
     1
 40
1.0
176
     1
 40
1.0
176
     1
  0
VISUALSTYLE
  5
3A
102
{ACAD_REACTORS
330
2A
102
}
330
2A
100
AcDbVisualStyle
  2
ColorChange
 70
    16
177
     3
291
     1
 70
    58
 90
        2
176
     1
 90
        2
176
     1
 90
        3
176
     1
 90
        0
176
     1
 40
0.6
176
     1
 40
30.0
176
     1
 62
     8
420
  8421504
176
     1
 90
        1
176
     1
 90
        4
176
     1
 62
     7
176
     1
 62
   257
176
     1
 90
        1
176
     1
 90
        1
176
     1
 40
1.0
176
     1
 90
        8
176
     1
 62
     8
420
  8421504
176
     1
 40
1.0
176
     1
 90
        1
176
     1
 90
        6
176
     1
 90
        2
176
     1
 62
     7
176
     1
 90
        5
176
     1
 90
        0
176
     1
 90
        0
176
     1
290
     0
176
     1
 90
        1
176
     1
 40
0.0
176
     1
 90
        0
176
     1
290
     0
176
     1
290
     1
176
     1
290
     1
176
     1
290
     0
176
     1
290
     0
176
     1
290
     0
176
     1
290
     0
176
     1
290
     0
176
     1
290
     0
176
     1
 90
       50
176
     1
 40
0.0
176
     1
 40
1.0
176
     1
 90
        0
176
     1
 62
    18
420
        0
176
     1
 90
       50
176
     1
 90
        3
176
     1
 62
     5
420
      255
176
     1
290
     0
176
     1
 90
       50
176
     1
 90
       50
176
     1
 90
       50
176
     1
290
     0
176
     1
 90
       50
176
     1
 62
   256
176
     0
 40
1.0
176
     0
 90
        2
176
     1
  1
strokes_ogs.tif
176
     1
290
     0
176
     1
 40
1.0
176
     1
 40
1.0
176
     1
  0
VISUALSTYLE
  5
34
102
{ACAD_REACTORS
330
2A
102
}
330
2A
100
AcDbVisualStyle
  2
Conceptual
 70
     9
177
     3
291
     0
 70
    58
 90
        3
176
     1
 90
        2
176
     1
 90
        0
176
     1
 90
        0
176
     1
 40
0.6
176
     1
 40
30.0
176
     1
 62
     7
420
 16777215
176
     1
 90
        2
176
     1
 90
        2
176
     1
 62
     7
176
     1
 62
   257
176
     1
 90
        1
176
     1
 90
        1
176
     1
 40
179.0
176
     1
 90
        8
176
     1
 62
     7
176
     1
 40
1.0
176
     1
 90
        1
176
     1
 90
        6
176
     1
 90
        2
176
     1
 62
     7
176
     1
 90
        3
176
     1
 90
        0
176
     1
 90
        0
176
     1
290
     0
176
     1
 90
        1
176
     1
 40
0.0
176
     1
 90
        0
176
     1
290
     0
176
     1
290
     1
176
     1
290
     1
176
     1
290
     0
176
     1
290
     0
176
     1
290
     0
176
     1
290
     0
176
     1
290
     0
176
     1
290
     0
176
     1
 90
       50
176
     1
 40
0.0
176
     1
 40
1.0
176
     1
 90
        0
176
     1
 62
    18
420
        0
176
     1
 90
       50
176
     1
 90
        3
176
     1
 62
     5
420
      255
176
     1
290
     0
176
     1
 90
       50
176
     1
 90
       50
176
     1
 90
       50
176
     1
290
     0
176
     1
 90
       50
176
     1
 62
   256
176
     0
 40
1.0
176
     0
 90
        2
176
     1
  1
strokes_ogs.tif
176
     1
290
     0
176
     1
 40
1.0
176
     1
 40
1.0
176
     1
  0
VISUALSTYLE
  5
35
102
{ACAD_REACTORS
330
2A
102
}
330
2A
100
AcDbVisualStyle
  2
Dim
 70
    11
177
     3
291
     1
 70
    58
 90
        2
176
     1
 90
        2
176
     1
 90
        0
176
     1
 90
        0
176
     1
 40
0.6
176
     1
 40
30.0
176
     1
 62
     7
420
 16777215
176
     1
 90
        1
176
     1
 90
        4
176
     1
 62
     7
176
     1
 62
   257
176
     1
 90
        1
176
     1
 90
        1
176
     1
 40
1.0
176
     1
 90
        8
176
     1
 62
     7
176
     1
 40
1.0
176
     1
 90
        1
176
     1
 90
        6
176
     1
 90
        2
176
     1
 62
     7
176
     1
 90
        5
176
     1
 90
        0
176
     1
 90
        0
176
     1
290
     0
176
     1
 90
        1
176
     1
 40
-50.0
176
     1
 90
        0
176
     1
290
     0
176
     1
290
     1
176
     1
290
     1
176
     1
290
     0
176
     1
290
     0
176
     1
290
     0
176
     1
290
     0
176
     1
290
     0
176
     1
290
     0
176
     1
 90
       50
176
     1
 40
0.0
176
     1
 40
1.0
176
     1
 90
        0
176
     1
 62
    18
420
        0
176
     1
 90
       50
176
     1
 90
        3
176
     1
 62
     5
420
      255
176
     1
290
     0
176
     1
 90
       50
176
     1
 90
       50
176
     1
 90
       50
176
     1
290
     0
176
     1
 90
       50
176
     1
 62
   256
176
     0
 40
1.0
176
     0
 90
        2
176
     1
  1
strokes_ogs.tif
176
     1
290
     0
176
     1
 40
1.0
176
     1
 40
1.0
176
     1
  0
VISUALSTYLE
  5
3D
102
{ACAD_REACTORS
330
2A
102
}
330
2A
100
AcDbVisualStyle
  2
EdgeColorOff
 70
    22
177
     3
291
     1
 70
    58
 90
        2
176
     0
 90
        2
176
     0
 90
        0
176
     0
 90
        0
176
     0
 40
0.6
176
     0
 40
30.0
176
     0
 62
     7
420
 16777215
176
     0
 90
        1
176
     0
 90
        4
176
     0
 62
     7
176
     0
 62
   257
176
     0
 90
        1
176
     0
 90
        1
176
     0
 40
1.0
176
     0
 90
        8
176
     2
 62
     7
176
     0
 40
1.0
176
     0
 90
        1
176
     0
 90
        6
176
     0
 90
        2
176
     0
 62
     7
176
     0
 90
        5
176
     0
 90
        0
176
     0
 90
        0
176
     0
290
     0
176
     0
 90
        1
176
     0
 40
0.0
176
     0
 90
        0
176
     0
290
     0
176
     0
290
     1
176
     0
290
     1
176
     0
290
     0
176
     0
290
     0
176
     0
290
     0
176
     0
290
     0
176
     0
290
     0
176
     0
290
     0
176
     0
 90
       50
176
     0
 40
0.0
176
     0
 40
1.0
176
     0
 90
        0
176
     0
 62
    18
420
        0
176
     0
 90
       50
176
     0
 90
        3
176
     0
 62
     5
420
      255
176
     0
290
     0
176
     0
 90
       50
176
     0
 90
       50
176
     0
 90
       50
176
     0
290
     0
176
     0
 90
       50
176
     0
 62
   256
176
     0
 40
1.0
176
     0
 90
        2
176
     0
  1
strokes_ogs.tif
176
     0
290
     0
176
     0
 40
1.0
176
     0
 40
1.0
176
     0
  0
VISUALSTYLE
  5
39
102
{ACAD_REACTORS
330
2A
102
}
330
2A
100
AcDbVisualStyle
  2
Facepattern
 70
    15
177
     3
291
     1
 70
    58
 90
        2
176
     1
 90
        2
176
     1
 90
        0
176
     1
 90
        0
176
     1
 40
0.6
176
     1
 40
30.0
176
     1
 62
     7
420
 16777215
176
     1
 90
        1
176
     1
 90
        4
176
     1
 62
     7
176
     1
 62
   257
176
     1
 90
        1
176
     1
 90
        1
176
     1
 40
1.0
176
     1
 90
        8
176
     1
 62
     7
176
     1
 40
1.0
176
     1
 90
        1
176
     1
 90
        6
176
     1
 90
        2
176
     1
 62
     7
176
     1
 90
        5
176
     1
 90
        0
176
     1
 90
        0
176
     1
290
     0
176
     1
 90
        1
176
     1
 40
0.0
176
     1
 90
        0
176
     1
290
     0
176
     1
290
     1
176
     1
290
     1
176
     1
290
     0
176
     1
290
     0
176
     1
290
     0
176
     1
290
     0
176
     1
290
     0
176
     1
290
     0
176
     1
 90
       50
176
     1
 40
0.0
176
     1
 40
1.0
176
     1
 90
        0
176
     1
 62
    18
420
        0
176
     1
 90
       50
176
     1
 90
        3
176
     1
 62
     5
420
      255
176
     1
290
     0
176
     1
 90
       50
176
     1
 90
       50
176
     1
 90
       50
176
     1
290
     0
176
     1
 90
       50
176
     1
 62
   256
176
     0
 40
1.0
176
     0
 90
        2
176
     1
  1
strokes_ogs.tif
176
     1
290
     0
176
     1
 40
1.0
176
     1
 40
1.0
176
     1
  0
VISUALSTYLE
  5
2B
102
{ACAD_REACTORS
330
2A
102
}
330
2A
100
AcDbVisualStyle
  2
Flat
 70
     0
177
     3
291
     1
 70
    58
 90
        2
176
     1
 90
        1
176
     1
 90
        1
176
     1
 90
        2
176
     1
 40
0.6
176
     1
 40
30.0
176
     1
 62
     7
420
 16777215
176
     1
 90
        0
176
     1
 90
        0
176
     1
 62
     7
176
     1
 62
   257
176
     1
 90
        1
176
     1
 90
        1
176
     1
 40
1.0
176
     1
 90
        8
176
     1
 62
     7
176
     1
 40
1.0
176
     1
 90
        1
176
     1
 90
        6
176
     1
 90
        2
176
     1
 62
     7
176
     1
 90
        5
176
     1
 90
        0
176
     1
 90
        0
176
     1
290
     0
176
     1
 90
       13
176
     1
 40
0.0
176
     1
 90
        0
176
     1
290
     0
176
     1
290
     1
176
     1
290
     1
176
     1
290
     0
176
     1
290
     0
176
     1
290
     0
176
     1
290
     0
176
     1
290
     0
176
     1
290
     0
176
     1
 90
       50
176
     1
 40
0.0
176
     1
 40
1.0
176
     1
 90
        0
176
     1
 62
    18
420
        0
176
     1
 90
       50
176
     1
 90
        3
176
     1
 62
     5
420
      255
176
     1
290
     0
176
     1
 90
       50
176
     1
 90
       50
176
     1
 90
       50
176
     1
290
     0
176
     1
 90
       50
176
     1
 62
   256
176
     0
 40
1.0
176
     0
 90
        2
176
     1
  1
strokes_ogs.tif
176
     1
290
     0
176
     1
 40
1.0
176
     1
 40
1.0
176
     1
  0
VISUALSTYLE
  5
2C
102
{ACAD_REACTORS
330
2A
102
}
330
2A
100
AcDbVisualStyle
  2
FlatWithEdges
 70
     1
177
     3
291
     1
 70
    58
 90
        2
176
     1
 90
        1
176
     1
 90
        1
176
     1
 90
        2
176
     1
 40
0.6
176
     1
 40
30.0
176
     1
 62
     7
420
 16777215
176
     1
 90
        1
176
     1
 90
        0
176
     1
 62
     7
176
     1
 62
   257
176
     1
 90
        1
176
     1
 90
        1
176
     1
 40
1.0
176
     1
 90
        0
176
     1
 62
   257
176
     1
 40
1.0
176
     1
 90
        1
176
     1
 90
        6
176
     1
 90
        2
176
     1
 62
     7
176
     1
 90
        5
176
     1
 90
        0
176
     1
 90
        0
176
     1
290
     0
176
     1
 90
       13
176
     1
 40
0.0
176
     1
 90
        0
176
     1
290
     0
176
     1
290
     1
176
     1
290
     1
176
     1
290
     0
176
     1
290
     0
176
     1
290
     0
176
     1
290
     0
176
     1
290
     0
176
     1
290
     0
176
     1
 90
       50
176
     1
 40
0.0
176
     1
 40
1.0
176
     1
 90
        0
176
     1
 62
    18
420
        0
176
     1
 90
       50
176
     1
 90
        3
176
     1
 62
     5
420
      255
176
     1
290
     0
176
     1
 90
       50
176
     1
 90
       50
176
     1
 90
       50
176
     1
290
     0
176
     1
 90
       50
176
     1
 62
   256
176
     0
 40
1.0
176
     0
 90
        2
176
     1
  1
strokes_ogs.tif
176
     1
290
     0
176
     1
 40
1.0
176
     1
 40
1.0
176
     1
  0
VISUALSTYLE
  5
2D
102
{ACAD_REACTORS
330
2A
102
}
330
2A
100
AcDbVisualStyle
  2
Gouraud
 70
     2
177
     3
291
     1
 70
    58
 90
        2
176
     1
 90
        2
176
     1
 90
        1
176
     1
 90
        2
176
     1
 40
0.6
176
     1
 40
30.0
176
     1
 62
     7
420
 16777215
176
     1
 90
        0
176
     1
 90
        0
176
     1
 62
     7
176
     1
 62
   257
176
     1
 90
        1
176
     1
 90
        1
176
     1
 40
1.0
176
     1
 90
        0
176
     1
 62
     7
176
     1
 40
1.0
176
     1
 90
        1
176
     1
 90
        6
176
     1
 90
        2
176
     1
 62
     7
176
     1
 90
        5
176
     1
 90
        0
176
     1
 90
        0
176
     1
290
     0
176
     1
 90
       13
176
     1
 40
0.0
176
     1
 90
        0
176
     1
290
     0
176
     1
290
     1
176
     1
290
     1
176
     1
290
     0
176
     1
290
     0
176
     1
290
     0
176
     1
290
     0
176
     1
290
     0
176
     1
290
     0
176
     1
 90
       50
176
     1
 40
0.0
176
     1
 40
1.0
176
     1
 90
        0
176
     1
 62
    18
420
        0
176
     1
 90
       50
176
     1
 90
        3
176
     1
 62
     5
420
      255
176
     1
290
     0
176
     1
 90
       50
176
     1
 90
       50
176
     1
 90
       50
176
     1
290
     0
176
     1
 90
       50
176
     1
 62
   256
176
     0
 40
1.0
176
     0
 90
        2
176
     1
  1
strokes_ogs.tif
176
     1
290
     0
176
     1
 40
1.0
176
     1
 40
1.0
176
     1
  0
VISUALSTYLE
  5
2E
102
{ACAD_REACTORS
330
2A
102
}
330
2A
100
AcDbVisualStyle
  2
GouraudWithEdges
 70
     3
177
     3
291
     1
 70
    58
 90
        2
176
     1
 90
        2
176
     1
 90
        1
176
     1
 90
        2
176
     1
 40
0.6
176
     1
 40
30.0
176
     1
 62
     7
420
 16777215
176
     1
 90
        1
176
     1
 90
        0
176
     1
 62
     7
176
     1
 62
   257
176
     1
 90
        1
176
     1
 90
        1
176
     1
 40
1.0
176
     1
 90
        0
176
     1
 62
   257
176
     1
 40
1.0
176
     1
 90
        1
176
     1
 90
        6
176
     1
 90
        2
176
     1
 62
     7
176
     1
 90
        5
176
     1
 90
        0
176
     1
 90
        0
176
     1
290
     0
176
     1
 90
       13
176
     1
 40
0.0
176
     1
 90
        0
176
     1
290
     0
176
     1
290
     1
176
     1
290
     1
176
     1
290
     0
176
     1
290
     0
176
     1
290
     0
176
     1
290
     0
176
     1
290
     0
176
     1
290
     0
176
     1
 90
       50
176
     1
 40
0.0
176
     1
 40
1.0
176
     1
 90
        0
176
     1
 62
    18
420
        0
176
     1
 90
       50
176
     1
 90
        3
176
     1
 62
     5
420
      255
176
     1
290
     0
176
     1
 90
       50
176
     1
 90
       50
176
     1
 90
       50
176
     1
290
     0
176
     1
 90
       50
176
     1
 62
   256
176
     0
 40
1.0
176
     0
 90
        2
176
     1
  1
strokes_ogs.tif
176
     1
290
     0
176
     1
 40
1.0
176
     1
 40
1.0
176
     1
  0
VISUALSTYLE
  5
31
102
{ACAD_REACTORS
330
2A
102
}
330
2A
100
AcDbVisualStyle
  2
Hidden
 70
     6
177
     3
291
     0
 70
    58
 90
        1
176
     1
 90
        2
176
     1
 90
        2
176
     1
 90
        0
176
     1
 40
0.6
176
     1
 40
30.0
176
     1
 62
     7
420
 16777215
176
     1
 90
        2
176
     1
 90
        2
176
     1
 62
     7
176
     1
 62
   257
176
     1
 90
        2
176
     1
 90
        1
176
     1
 40
40.0
176
     1
 90
        0
176
     1
 62
   257
176
     1
 40
1.0
176
     1
 90
        1
176
     1
 90
        6
176
     1
 90
        2
176
     1
 62
     7
176
     1
 90
        3
176
     1
 90
        0
176
     1
 90
        0
176
     1
290
     0
176
     1
 90
        1
176
     1
 40
0.0
176
     1
 90
        0
176
     1
290
     0
176
     1
290
     1
176
     1
290
     1
176
     1
290
     0
176
     1
290
     0
176
     1
290
     0
176
     1
290
     0
176
     1
290
     0
176
     1
290
     0
176
     1
 90
       50
176
     1
 40
0.0
176
     1
 40
1.0
176
     1
 90
        0
176
     1
 62
    18
420
        0
176
     1
 90
       50
176
     1
 90
        3
176
     1
 62
     5
420
      255
176
     1
290
     0
176
     1
 90
       50
176
     1
 90
       50
176
     1
 90
       50
176
     1
290
     0
176
     1
 90
       50
176
     1
 62
   256
176
     0
 40
1.0
176
     0
 90
        2
176
     1
  1
strokes_ogs.tif
176
     1
290
     0
176
     1
 40
1.0
176
     1
 40
1.0
176
     1
  0
VISUALSTYLE
  5
3B
102
{ACAD_REACTORS
330
2A
102
}
330
2A
100
AcDbVisualStyle
  2
JitterOff
 70
    20
177
     3
291
     1
 70
    58
 90
        2
176
     0
 90
        2
176
     0
 90
        0
176
     0
 90
        0
176
     0
 40
0.6
176
     0
 40
30.0
176
     0
 62
     7
420
 16777215
176
     0
 90
        1
176
     0
 90
        4
176
     0
 62
     7
176
     0
 62
   257
176
     0
 90
        1
176
     0
 90
        1
176
     0
 40
1.0
176
     0
 90
       10
176
     2
 62
     7
176
     0
 40
1.0
176
     0
 90
        1
176
     0
 90
        6
176
     0
 90
        2
176
     0
 62
     7
176
     0
 90
        5
176
     0
 90
        0
176
     0
 90
        0
176
     0
290
     0
176
     0
 90
        1
176
     0
 40
0.0
176
     0
 90
        0
176
     0
290
     0
176
     0
290
     1
176
     0
290
     1
176
     0
290
     0
176
     0
290
     0
176
     0
290
     0
176
     0
290
     0
176
     0
290
     0
176
     0
290
     0
176
     0
 90
       50
176
     0
 40
0.0
176
     0
 40
1.0
176
     0
 90
        0
176
     0
 62
    18
420
        0
176
     0
 90
       50
176
     0
 90
        3
176
     0
 62
     5
420
      255
176
     0
290
     0
176
     0
 90
       50
176
     0
 90
       50
176
     0
 90
       50
176
     0
290
     0
176
     0
 90
       50
176
     0
 62
   256
176
     0
 40
1.0
176
     0
 90
        2
176
     0
  1
strokes_ogs.tif
176
     0
290
     0
176
     0
 40
1.0
176
     0
 40
1.0
176
     0
  0
VISUALSTYLE
  5
38
102
{ACAD_REACTORS
330
2A
102
}
330
2A
100
AcDbVisualStyle
  2
Linepattern
 70
    14
177
     3
291
     1
 70
    58
 90
        2
176
     1
 90
        2
176
     1
 90
        0
176
     1
 90
        0
176
     1
 40
0.6
176
     1
 40
30.0
176
     1
 62
     7
420
 16777215
176
     1
 90
        1
176
     1
 90
        4
176
     1
 62
     7
176
     1
 62
   257
176
     1
 90
        7
176
     1
 90
        7
176
     1
 40
1.0
176
     1
 90
        8
176
     1
 62
     7
176
     1
 40
1.0
176
     1
 90
        1
176
     1
 90
        6
176
     1
 90
        2
176
     1
 62
     7
176
     1
 90
        5
176
     1
 90
        0
176
     1
 90
        0
176
     1
290
     0
176
     1
 90
        1
176
     1
 40
0.0
176
     1
 90
        0
176
     1
290
     0
176
     1
290
     1
176
     1
290
     1
176
     1
290
     0
176
     1
290
     0
176
     1
290
     0
176
     1
290
     0
176
     1
290
     0
176
     1
290
     0
176
     1
 90
       50
176
     1
 40
0.0
176
     1
 40
1.0
176
     1
 90
        0
176
     1
 62
    18
420
        0
176
     1
 90
       50
176
     1
 90
        3
176
     1
 62
     5
420
      255
176
     1
290
     0
176
     1
 90
       50
176
     1
 90
       50
176
     1
 90
       50
176
     1
290
     0
176
     1
 90
       50
176
     1
 62
   256
176
     0
 40
1.0
176
     0
 90
        2
176
     1
  1
strokes_ogs.tif
176
     1
290
     0
176
     1
 40
1.0
176
     1
 40
1.0
176
     1
  0
VISUALSTYLE
  5
3C
102
{ACAD_REACTORS
330
2A
102
}
330
2A
100
AcDbVisualStyle
  2
OverhangOff
 70
    21
177
     3
291
     1
 70
    58
 90
        2
176
     0
 90
        2
176
     0
 90
        0
176
     0
 90
        0
176
     0
 40
0.6
176
     0
 40
30.0
176
     0
 62
     7
420
 16777215
176
     0
 90
        1
176
     0
 90
        4
176
     0
 62
     7
176
     0
 62
   257
176
     0
 90
        1
176
     0
 90
        1
176
     0
 40
1.0
176
     0
 90
        9
176
     2
 62
     7
176
     0
 40
1.0
176
     0
 90
        1
176
     0
 90
        6
176
     0
 90
        2
176
     0
 62
     7
176
     0
 90
        5
176
     0
 90
        0
176
     0
 90
        0
176
     0
290
     0
176
     0
 90
        1
176
     0
 40
0.0
176
     0
 90
        0
176
     0
290
     0
176
     0
290
     1
176
     0
290
     1
176
     0
290
     0
176
     0
290
     0
176
     0
290
     0
176
     0
290
     0
176
     0
290
     0
176
     0
290
     0
176
     0
 90
       50
176
     0
 40
0.0
176
     0
 40
1.0
176
     0
 90
        0
176
     0
 62
    18
420
        0
176
     0
 90
       50
176
     0
 90
        3
176
     0
 62
     5
420
      255
176
     0
290
     0
176
     0
 90
       50
176
     0
 90
       50
176
     0
 90
       50
176
     0
290
     0
176
     0
 90
       50
176
     0
 62
   256
176
     0
 40
1.0
176
     0
 90
        2
176
     0
  1
strokes_ogs.tif
176
     0
290
     0
176
     0
 40
1.0
176
     0
 40
1.0
176
     0
  0
VISUALSTYLE
  5
33
102
{ACAD_REACTORS
330
2A
102
}
330
2A
100
AcDbVisualStyle
  2
Realistic
 70
     8
177
     3
291
     0
 70
    58
 90
        2
176
     1
 90
        3
176
     1
 90
        0
176
     1
 90
        2
176
     1
 40
0.6
176
     1
 40
30.0
176
     1
 62
     7
420
 16777215
176
     1
 90
        0
176
     1
 90
        0
176
     1
 62
     7
176
     1
 62
   257
176
     1
 90
        1
176
     1
 90
        1
176
     1
 40
1.0
176
     1
 90
        8
176
     1
 62
   257
176
     1
 40
1.0
176
     1
 90
        1
176
     1
 90
        6
176
     1
 90
        2
176
     1
 62
     7
176
     1
 90
        3
176
     1
 90
        0
176
     1
 90
        0
176
     1
290
     0
176
     1
 90
       13
176
     1
 40
0.0
176
     1
 90
        0
176
     1
290
     0
176
     1
290
     1
176
     1
290
     1
176
     1
290
     0
176
     1
290
     0
176
     1
290
     0
176
     1
290
     0
176
     1
290
     0
176
     1
290
     0
176
     1
 90
       50
176
     1
 40
0.0
176
     1
 40
1.0
176
     1
 90
        0
176
     1
 62
    18
420
        0
176
     1
 90
       50
176
     1
 90
        3
176
     1
 62
     5
420
      255
176
     1
290
     0
176
     1
 90
       50
176
     1
 90
       50
176
     1
 90
       50
176
     1
290
     0
176
     1
 90
       50
176
     1
 62
   256
176
     0
 40
1.0
176
     0
 90
        2
176
     1
  1
strokes_ogs.tif
176
     1
290
     0
176
     1
 40
1.0
176
     1
 40
1.0
176
     1
  0
VISUALSTYLE
  5
42
102
{ACAD_REACTORS
330
2A
102
}
330
2A
100
AcDbVisualStyle
  2
Shaded
 70
    27
177
     3
291
     0
 70
    58
 90
        2
176
     1
 90
        2
176
     1
 90
        1
176
     1
 90
        2
176
     1
 40
0.6
176
     1
 40
30.0
176
     1
 62
     7
420
 16777215
176
     1
 90
        0
176
     1
 90
        4
176
     1
 62
     7
176
     1
 62
   257
176
     1
 90
        1
176
     1
 90
        1
176
     1
 40
1.0
176
     1
 90
        8
176
     1
 62
   257
176
     1
 40
1.0
176
     1
 90
        1
176
     1
 90
        6
176
     1
 90
        2
176
     1
 62
     8
420
  7895160
176
     1
 90
        3
176
     1
 90
        0
176
     1
 90
        0
176
     1
290
     0
176
     1
 90
        5
176
     1
 40
0.0
176
     1
 90
        0
176
     1
290
     0
176
     1
290
     1
176
     1
290
     1
176
     1
290
     0
176
     1
290
     0
176
     1
290
     0
176
     1
290
     0
176
     1
290
     0
176
     1
290
     0
176
     1
 90
       50
176
     1
 40
0.0
176
     1
 40
1.0
176
     1
 90
        0
176
     1
 62
    18
420
        0
176
     1
 90
       50
176
     1
 90
        3
176
     1
 62
     5
420
      255
176
     1
290
     0
176
     1
 90
       50
176
     1
 90
       50
176
     1
 90
       50
176
     1
290
     0
176
     1
 90
       50
176
     1
 62
   256
176
     0
 40
1.0
176
     0
 90
        2
176
     1
  1
strokes_ogs.tif
176
     1
290
     0
176
     1
 40
1.0
176
     1
 40
1.0
176
     1
  0
VISUALSTYLE
  5
41
102
{ACAD_REACTORS
330
2A
102
}
330
2A
100
AcDbVisualStyle
  2
Shaded with edges
 70
    26
177
     3
291
     0
 70
    58
 90
        2
176
     1
 90
        2
176
     1
 90
        1
176
     1
 90
        2
176
     1
 40
0.6
176
     1
 40
30.0
176
     1
 62
     7
420
 16777215
176
     1
 90
        1
176
     1
 90
       10
176
     1
 62
     7
176
     1
 62
   257
176
     1
 90
        2
176
     1
 90
        1
176
     1
 40
1.0
176
     1
 90
        8
176
     1
 62
   257
176
     1
 40
1.0
176
     1
 90
        1
176
     1
 90
        6
176
     1
 90
        2
176
     1
 62
     7
176
     1
 90
        3
176
     1
 90
        0
176
     1
 90
        0
176
     1
290
     0
176
     1
 90
        5
176
     1
 40
0.0
176
     1
 90
        0
176
     1
290
     0
176
     1
290
     1
176
     1
290
     1
176
     1
290
     0
176
     1
290
     0
176
     1
290
     0
176
     1
290
     0
176
     1
290
     0
176
     1
290
     0
176
     1
 90
       50
176
     1
 40
0.0
176
     1
 40
1.0
176
     1
 90
        0
176
     1
 62
    18
420
        0
176
     1
 90
       50
176
     1
 90
        3
176
     1
 62
     5
420
      255
176
     1
290
     0
176
     1
 90
       50
176
     1
 90
       50
176
     1
 90
       50
176
     1
290
     0
176
     1
 90
       50
176
     1
 62
   256
176
     0
 40
1.0
176
     0
 90
        2
176
     1
  1
strokes_ogs.tif
176
     1
290
     0
176
     1
 40
1.0
176
     1
 40
1.0
176
     1
  0
VISUALSTYLE
  5
3E
102
{ACAD_REACTORS
330
2A
102
}
330
2A
100
AcDbVisualStyle
  2
Shades of Gray
 70
    23
177
     3
291
     0
 70
    58
 90
        2
176
     1
 90
        2
176
     1
 90
        3
176
     1
 90
        0
176
     1
 40
0.6
176
     1
 40
30.0
176
     1
 62
     7
420
 16777215
176
     1
 90
        2
176
     1
 90
        2
176
     1
 62
     7
176
     1
 62
     7
176
     1
 90
        1
176
     1
 90
        1
176
     1
 40
40.0
176
     1
 90
        8
176
     1
 62
     7
176
     1
 40
1.0
176
     1
 90
        1
176
     1
 90
        6
176
     1
 90
        2
176
     1
 62
     7
176
     1
 90
        3
176
     1
 90
        0
176
     1
 90
        0
176
     1
290
     0
176
     1
 90
        1
176
     1
 40
0.0
176
     1
 90
        0
176
     1
290
     0
176
     1
290
     1
176
     1
290
     1
176
     1
290
     0
176
     1
290
     0
176
     1
290
     0
176
     1
290
     0
176
     1
290
     0
176
     1
290
     0
176
     1
 90
       50
176
     1
 40
0.0
176
     1
 40
1.0
176
     1
 90
        0
176
     1
 62
    18
420
        0
176
     1
 90
       50
176
     1
 90
        3
176
     1
 62
     5
420
      255
176
     1
290
     0
176
     1
 90
       50
176
     1
 90
       50
176
     1
 90
       50
176
     1
290
     0
176
     1
 90
       50
176
     1
 62
   256
176
     0
 40
1.0
176
     0
 90
        2
176
     1
  1
strokes_ogs.tif
176
     1
290
     0
176
     1
 40
1.0
176
     1
 40
1.0
176
     1
  0
VISUALSTYLE
  5
3F
102
{ACAD_REACTORS
330
2A
102
}
330
2A
100
AcDbVisualStyle
  2
Sketchy
 70
    24
177
     3
291
     0
 70
    58
 90
        1
176
     1
 90
        2
176
     1
 90
        2
176
     1
 90
        0
176
     1
 40
0.6
176
     1
 40
30.0
176
     1
 62
     7
420
 16777215
176
     1
 90
        2
176
     1
 90
        2
176
     1
 62
     7
176
     1
 62
     7
176
     1
 90
        1
176
     1
 90
        1
176
     1
 40
40.0
176
     1
 90
       11
176
     1
 62
     7
176
     1
 40
1.0
176
     1
 90
        1
176
     1
 90
        6
176
     1
 90
        2
176
     1
 62
     7
176
     1
 90
        6
176
     1
 90
        0
176
     1
 90
        0
176
     1
290
     0
176
     1
 90
        1
176
     1
 40
0.0
176
     1
 90
        0
176
     1
290
     0
176
     1
290
     1
176
     1
290
     1
176
     1
290
     0
176
     1
290
     0
176
     1
290
     0
176
     1
290
     0
176
     1
290
     0
176
     1
290
     0
176
     1
 90
       50
176
     1
 40
0.0
176
     1
 40
1.0
176
     1
 90
        0
176
     1
 62
    18
420
        0
176
     1
 90
       50
176
     1
 90
        3
176
     1
 62
     5
420
      255
176
     1
290
     0
176
     1
 90
       50
176
     1
 90
       50
176
     1
 90
       50
176
     1
290
     0
176
     1
 90
       50
176
     1
 62
   256
176
     0
 40
1.0
176
     0
 90
        2
176
     1
  1
strokes_ogs.tif
176
     1
290
     0
176
     1
 40
1.0
176
     1
 40
1.0
176
     1
  0
VISUALSTYLE
  5
37
102
{ACAD_REACTORS
330
2A
102
}
330
2A
100
AcDbVisualStyle
  2
Thicken
 70
    13
177
     3
291
     1
 70
    58
 90
        2
176
     1
 90
        2
176
     1
 90
        0
176
     1
 90
        0
176
     1
 40
0.6
176
     1
 40
30.0
176
     1
 62
     7
420
 16777215
176
     1
 90
        1
176
     1
 90
        4
176
     1
 62
     7
176
     1
 62
   257
176
     1
 90
        1
176
     1
 90
        1
176
     1
 40
1.0
176
     1
 90
       12
176
     1
 62
     7
176
     1
 40
1.0
176
     1
 90
        1
176
     1
 90
        6
176
     1
 90
        2
176
     1
 62
     7
176
     1
 90
        5
176
     1
 90
        0
176
     1
 90
        0
176
     1
290
     0
176
     1
 90
        1
176
     1
 40
0.0
176
     1
 90
        0
176
     1
290
     0
176
     1
290
     1
176
     1
290
     1
176
     1
290
     0
176
     1
290
     0
176
     1
290
     0
176
     1
290
     0
176
     1
290
     0
176
     1
290
     0
176
     1
 90
       50
176
     1
 40
0.0
176
     1
 40
1.0
176
     1
 90
        0
176
     1
 62
    18
420
        0
176
     1
 90
       50
176
     1
 90
        3
176
     1
 62
     5
420
      255
176
     1
290
     0
176
     1
 90
       50
176
     1
 90
       50
176
     1
 90
       50
176
     1
290
     0
176
     1
 90
       50
176
     1
 62
   256
176
     0
 40
1.0
176
     0
 90
        2
176
     1
  1
strokes_ogs.tif
176
     1
290
     0
176
     1
 40
1.0
176
     1
 40
1.0
176
     1
  0
VISUALSTYLE
  5
30
102
{ACAD_REACTORS
330
2A
102
}
330
2A
100
AcDbVisualStyle
  2
Wireframe
 70
     5
177
     3
291
     0
 70
    58
 90
        0
176
     1
 90
        2
176
     1
 90
        0
176
     1
 90
        0
176
     1
 40
0.6
176
     1
 40
30.0
176
     1
 62
     7
420
 16777215
176
     1
 90
        1
176
     1
 90
        4
176
     1
 62
     7
176
     1
 62
   257
176
     1
 90
        1
176
     1
 90
        1
176
     1
 40
1.0
176
     1
 90
        0
176
     1
 62
   257
176
     1
 40
1.0
176
     1
 90
        1
176
     1
 90
        6
176
     1
 90
        2
176
     1
 62
     7
176
     1
 90
        3
176
     1
 90
        0
176
     1
 90
        0
176
     1
290
     0
176
     1
 90
        1
176
     1
 40
0.0
176
     1
 90
        0
176
     1
290
     0
176
     1
290
     1
176
     1
290
     1
176
     1
290
     0
176
     1
290
     0
176
     1
290
     0
176
     1
290
     0
176
     1
290
     0
176
     1
290
     0
176
     1
 90
       50
176
     1
 40
0.0
176
     1
 40
1.0
176
     1
 90
        0
176
     1
 62
    18
420
        0
176
     1
 90
       50
176
     1
 90
        3
176
     1
 62
     5
420
      255
176
     1
290
     0
176
     1
 90
       50
176
     1
 90
       50
176
     1
 90
       50
176
     1
290
     0
176
     1
 90
       50
176
     1
 62
   256
176
     0
 40
1.0
176
     0
 90
        2
176
     1
  1
strokes_ogs.tif
176
     1
290
     0
176
     1
 40
1.0
176
     1
 40
1.0
176
     1
  0
VISUALSTYLE
  5
40
102
{ACAD_REACTORS
330
2A
102
}
330
2A
100
AcDbVisualStyle
  2
X-Ray
 70
    25
177
     3
291
     0
 70
    58
 90
        2
176
     1
 90
        2
176
     1
 90
        1
176
     1
 90
        1
176
     1
 40
0.5
176
     1
 40
30.0
176
     1
 62
     7
420
 16777215
176
     1
 90
        1
176
     1
 90
        0
176
     1
 62
     7
176
     1
 62
   257
176
     1
 90
        1
176
     1
 90
        1
176
     1
 40
1.0
176
     1
 90
        8
176
     1
 62
     7
176
     1
 40
1.0
176
     1
 90
        1
176
     1
 90
        6
176
     1
 90
        2
176
     1
 62
     7
176
     1
 90
        3
176
     1
 90
        0
176
     1
 90
        0
176
     1
290
     0
176
     1
 90
       13
176
     1
 40
0.0
176
     1
 90
        0
176
     1
290
     0
176
     1
290
     1
176
     1
290
     1
176
     1
290
     0
176
     1
290
     0
176
     1
290
     0
176
     1
290
     0
176
     1
290
     0
176
     1
290
     0
176
     1
 90
       50
176
     1
 40
0.0
176
     1
 40
1.0
176
     1
 90
        0
176
     1
 62
    18
420
        0
176
     1
 90
       50
176
     1
 90
        3
176
     1
 62
     5
420
      255
176
     1
290
     0
176
     1
 90
       50
176
     1
 90
       50
176
     1
 90
       50
176
     1
290
     0
176
     1
 90
       50
176
     1
 62
   256
176
     0
 40
1.0
176
     0
 90
        2
176
     1
  1
strokes_ogs.tif
176
     1
290
     0
176
     1
 40
1.0
176
     1
 40
1.0
176
     1
  0
DICTIONARYVAR
  5
378
102
{ACAD_REACTORS
330
377
102
}
330
377
100
DictionaryVariables
280
     0
  1
1:1
  0
DICTIONARYVAR
  5
380
102
{ACAD_REACTORS
330
377
102
}
330
377
100
DictionaryVariables
280
     0
  1
3.500000
  0
DICTIONARYVAR
  5
381
102
{ACAD_REACTORS
330
377
102
}
330
377
100
DictionaryVariables
280
     0
  1
acadiso.lin
  0
DICTIONARYVAR
  5
37D
102
{ACAD_REACTORS
330
377
102
}
330
377
100
DictionaryVariables
280
     0
  1
Standard
  0
DICTIONARYVAR
  5
37C
102
{ACAD_REACTORS
330
377
102
}
330
377
100
DictionaryVariables
280
     0
  1
Standard
  0
DICTIONARY
  5
379
330
5A
100
AcDbDictionary
280
     1
281
     1
  3
ACAD_ROUNDTRIP_2008_TABLESTYLE_CELLSTYLEMAP
360
37A
  0
CELLSTYLEMAP
  5
37A
102
{ACAD_REACTORS
330
379
102
}
330
379
100
AcDbCellStyleMap
 90
        3
300
CELLSTYLE
  1
TABLEFORMAT_BEGIN
 90
        5
170
     1
 91
        0
 92
    32768
 62
   257
 93
        1
300
CONTENTFORMAT
  1
CONTENTFORMAT_BEGIN
 90
        0
 91
        0
 92
        4
 93
        0
300

 40
0.0
140
1.0
 94
        5
 62
     0
340
11
144
6.0
309
CONTENTFORMAT_END
171
     1
301
MARGIN
  1
CELLMARGIN_BEGIN
 40
1.5
 40
1.5
 40
1.5
 40
1.5
 40
1.5
 40
1.5
309
CELLMARGIN_END
 94
        6
 95
        1
302
GRIDFORMAT
  1
GRIDFORMAT_BEGIN
 90
        0
 91
        1
 62
     0
 92
       -2
340
14
 93
        0
 40
0.045
309
GRIDFORMAT_END
 95
        2
302
GRIDFORMAT
  1
GRIDFORMAT_BEGIN
 90
        0
 91
        1
 62
     0
 92
       -2
340
14
 93
        0
 40
0.045
309
GRIDFORMAT_END
 95
        4
302
GRIDFORMAT
  1
GRIDFORMAT_BEGIN
 90
        0
 91
        1
 62
     0
 92
       -2
340
14
 93
        0
 40
0.045
309
GRIDFORMAT_END
 95
        8
302
GRIDFORMAT
  1
GRIDFORMAT_BEGIN
 90
        0
 91
        1
 62
     0
 92
       -2
340
14
 93
        0
 40
0.045
309
GRIDFORMAT_END
 95
       16
302
GRIDFORMAT
  1
GRIDFORMAT_BEGIN
 90
        0
 91
        1
 62
     0
 92
       -2
340
14
 93
        0
 40
0.045
309
GRIDFORMAT_END
 95
       32
302
GRIDFORMAT
  1
GRIDFORMAT_BEGIN
 90
        0
 91
        1
 62
     0
 92
       -2
340
14
 93
        0
 40
0.045
309
GRIDFORMAT_END
309
TABLEFORMAT_END
  1
CELLSTYLE_BEGIN
 90
        1
 91
        1
300
_TITLE
309
CELLSTYLE_END
300
CELLSTYLE
  1
TABLEFORMAT_BEGIN
 90
        5
170
     1
 91
        0
 92
        0
 62
   257
 93
        1
300
CONTENTFORMAT
  1
CONTENTFORMAT_BEGIN
 90
        0
 91
        0
 92
        4
 93
        0
300

 40
0.0
140
1.0
 94
        5
 62
     0
340
11
144
4.5
309
CONTENTFORMAT_END
171
     1
301
MARGIN
  1
CELLMARGIN_BEGIN
 40
1.5
 40
1.5
 40
1.5
 40
1.5
 40
1.5
 40
1.5
309
CELLMARGIN_END
 94
        6
 95
        1
302
GRIDFORMAT
  1
GRIDFORMAT_BEGIN
 90
        0
 91
        1
 62
     0
 92
       -2
340
14
 93
        0
 40
0.045
309
GRIDFORMAT_END
 95
        2
302
GRIDFORMAT
  1
GRIDFORMAT_BEGIN
 90
        0
 91
        1
 62
     0
 92
       -2
340
14
 93
        0
 40
0.045
309
GRIDFORMAT_END
 95
        4
302
GRIDFORMAT
  1
GRIDFORMAT_BEGIN
 90
        0
 91
        1
 62
     0
 92
       -2
340
14
 93
        0
 40
0.045
309
GRIDFORMAT_END
 95
        8
302
GRIDFORMAT
  1
GRIDFORMAT_BEGIN
 90
        0
 91
        1
 62
     0
 92
       -2
340
14
 93
        0
 40
0.045
309
GRIDFORMAT_END
 95
       16
302
GRIDFORMAT
  1
GRIDFORMAT_BEGIN
 90
        0
 91
        1
 62
     0
 92
       -2
340
14
 93
        0
 40
0.045
309
GRIDFORMAT_END
 95
       32
302
GRIDFORMAT
  1
GRIDFORMAT_BEGIN
 90
        0
 91
        1
 62
     0
 92
       -2
340
14
 93
        0
 40
0.045
309
GRIDFORMAT_END
309
TABLEFORMAT_END
  1
CELLSTYLE_BEGIN
 90
        2
 91
        1
300
_HEADER
309
CELLSTYLE_END
300
CELLSTYLE
  1
TABLEFORMAT_BEGIN
 90
        5
170
     1
 91
        0
 92
        0
 62
   257
 93
        1
300
CONTENTFORMAT
  1
CONTENTFORMAT_BEGIN
 90
        0
 91
        0
 92
        4
 93
        0
300

 40
0.0
140
1.0
 94
        2
 62
     0
340
11
144
4.5
309
CONTENTFORMAT_END
171
     1
301
MARGIN
  1
CELLMARGIN_BEGIN
 40
1.5
 40
1.5
 40
1.5
 40
1.5
 40
1.5
 40
1.5
309
CELLMARGIN_END
 94
        6
 95
        1
302
GRIDFORMAT
  1
GRIDFORMAT_BEGIN
 90
        0
 91
        1
 62
     0
 92
       -2
340
14
 93
        0
 40
0.045
309
GRIDFORMAT_END
 95
        2
302
GRIDFORMAT
  1
GRIDFORMAT_BEGIN
 90
        0
 91
        1
 62
     0
 92
       -2
340
14
 93
        0
 40
0.045
309
GRIDFORMAT_END
 95
        4
302
GRIDFORMAT
  1
GRIDFORMAT_BEGIN
 90
        0
 91
        1
 62
     0
 92
       -2
340
14
 93
        0
 40
0.045
309
GRIDFORMAT_END
 95
        8
302
GRIDFORMAT
  1
GRIDFORMAT_BEGIN
 90
        0
 91
        1
 62
     0
 92
       -2
340
14
 93
        0
 40
0.045
309
GRIDFORMAT_END
 95
       16
302
GRIDFORMAT
  1
GRIDFORMAT_BEGIN
 90
        0
 91
        1
 62
     0
 92
       -2
340
14
 93
        0
 40
0.045
309
GRIDFORMAT_END
 95
       32
302
GRIDFORMAT
  1
GRIDFORMAT_BEGIN
 90
        0
 91
        1
 62
     0
 92
       -2
340
14
 93
        0
 40
0.045
309
GRIDFORMAT_END
309
TABLEFORMAT_END
  1
CELLSTYLE_BEGIN
 90
        3
 91
        2
300
_DATA
309
CELLSTYLE_END
  0
ENDSEC
  0
EOF
