  0
SECTION
  2
HEADER
  9
$ACADVER
  1
AC1032
  9
$ACADMAINTVER
 90
       55
  9
$DWGCODEPAGE
  3
ANSI_1252
  9
$LASTSAVEDBY
  1
p.perez
  9
$REQUIREDVERSIONS
160
                 0
  9
$INSBASE
 10
0.0
 20
0.0
 30
0.0
  9
$EXTMIN
 10
0.0
 20
0.0
 30
0.0
  9
$EXTMAX
 10
420.0
 20
297.0
 30
0.0
  9
$LIMMIN
 10
0.0
 20
0.0
  9
$LIMMAX
 10
420.0
 20
297.0
  9
$ORTHOMODE
 70
     0
  9
$REGENMODE
 70
     1
  9
$FILLMODE
 70
     1
  9
$QTEXTMODE
 70
     0
  9
$MIRRTEXT
 70
     1
  9
$LTSCALE
 40
1.0
  9
$ATTMODE
 70
     1
  9
$TEXTSIZE
 40
3.5
  9
$TRACEWID
 40
1.0
  9
$TEXTSTYLE
  7
Standard
  9
$CLAYER
  8
0
  9
$CELTYPE
  6
ByLayer
  9
$CECOLOR
 62
   256
  9
$CELTSCALE
 40
1.0
  9
$DISPSILH
 70
     0
  9
$DIMSCALE
 40
1.0
  9
$DIMASZ
 40
3.302
  9
$DIMEXO
 40
1.0
  9
$DIMDLI
 40
3.75
  9
$DIMRND
 40
0.0
  9
$DIMDLE
 40
0.0
  9
$DIMEXE
 40
1.0
  9
$DIMTP
 40
0.0
  9
$DIMTM
 40
0.0
  9
$DIMTXT
 40
3.5
  9
$DIMCEN
 40
2.5
  9
$DIMTSZ
 40
0.0
  9
$DIMTOL
 70
     0
  9
$DIMLIM
 70
     0
  9
$DIMTIH
 70
     1
  9
$DIMTOH
 70
     1
  9
$DIMSE1
 70
     0
  9
$DIMSE2
 70
     0
  9
$DIMTAD
 70
     1
  9
$DIMZIN
 70
     0
  9
$DIMBLK
  1

  9
$DIMASO
 70
     1
  9
$DIMSHO
 70
     1
  9
$DIMPOST
  1

  9
$DIMAPOST
  1

  9
$DIMALT
 70
     0
  9
$DIMALTD
 70
     3
  9
$DIMALTF
 40
0.0393700787
  9
$DIMLFAC
 40
1.0
  9
$DIMTOFL
 70
     1
  9
$DIMTVP
 40
0.0
  9
$DIMTIX
 70
     0
  9
$DIMSOXD
 70
     0
  9
$DIMSAH
 70
     0
  9
$DIMBLK1
  1

  9
$DIMBLK2
  1

  9
$DIMSTYLE
  2
ISO-25
  9
$DIMCLRD
 70
     0
  9
$DIMCLRE
 70
     0
  9
$DIMCLRT
 70
     0
  9
$DIMTFAC
 40
1.0
  9
$DIMGAP
 40
1.524
  9
$DIMJUST
 70
     0
  9
$DIMSD1
 70
     0
  9
$DIMSD2
 70
     0
  9
$DIMTOLJ
 70
     0
  9
$DIMTZIN
 70
     0
  9
$DIMALTZ
 70
     0
  9
$DIMALTTZ
 70
     0
  9
$DIMUPT
 70
     0
  9
$DIMDEC
 70
     2
  9
$DIMTDEC
 70
     2
  9
$DIMALTU
 70
     2
  9
$DIMALTTD
 70
     3
  9
$DIMTXSTY
  7
Standard
  9
$DIMAUNIT
 70
     0
  9
$DIMADEC
 70
     2
  9
$DIMALTRND
 40
0.0
  9
$DIMAZIN
 70
     0
  9
$DIMDSEP
 70
    44
  9
$DIMATFIT
 70
     3
  9
$DIMFRAC
 70
     0
  9
$DIMLDRBLK
  1

  9
$DIMLUNIT
 70
     2
  9
$DIMLWD
 70
    -2
  9
$DIMLWE
 70
    -2
  9
$DIMTMOVE
 70
     0
  9
$DIMFXL
 40
1.0
  9
$DIMFXLON
 70
     0
  9
$DIMJOGANG
 40
0.7853981634
  9
$DIMTFILL
 70
     0
  9
$DIMTFILLCLR
 70
     0
  9
$DIMARCSYM
 70
     0
  9
$DIMLTYPE
  6

  9
$DIMLTEX1
  6

  9
$DIMLTEX2
  6

  9
$DIMTXTDIRECTION
 70
     0
  9
$LUNITS
 70
     2
  9
$LUPREC
 70
     2
  9
$SKETCHINC
 40
1.0
  9
$FILLETRAD
 40
10.0
  9
$AUNITS
 70
     0
  9
$AUPREC
 70
     2
  9
$MENU
  1
.
  9
$ELEVATION
 40
0.0
  9
$PELEVATION
 40
0.0
  9
$THICKNESS
 40
0.0
  9
$LIMCHECK
 70
     0
  9
$CHAMFERA
 40
0.0
  9
$CHAMFERB
 40
0.0
  9
$CHAMFERC
 40
0.0
  9
$CHAMFERD
 40
0.0
  9
$SKPOLY
 70
     0
  9
$TDCREATE
 40
2459072.478421505
  9
$TDUCREATE
 40
2459072.395088171
  9
$TDUPDATE
 40
2459072.478422581
  9
$TDUUPDATE
 40
2459072.395089248
  9
$TDINDWG
 40
0.0000000116
  9
$TDUSRTIMER
 40
0.0000000116
  9
$USRTIMER
 70
     1
  9
$ANGBASE
 50
0.0
  9
$ANGDIR
 70
     0
  9
$PDMODE
 70
     0
  9
$PDSIZE
 40
-1.0
  9
$PLINEWID
 40
0.0
  9
$SPLFRAME
 70
     0
  9
$SPLINETYPE
 70
     6
  9
$SPLINESEGS
 70
     8
  9
$HANDSEED
  5
223
  9
$SURFTAB1
 70
     6
  9
$SURFTAB2
 70
     6
  9
$SURFTYPE
 70
     6
  9
$SURFU
 70
     6
  9
$SURFV
 70
     6
  9
$UCSBASE
  2

  9
$UCSNAME
  2

  9
$UCSORG
 10
0.0
 20
0.0
 30
0.0
  9
$UCSXDIR
 10
1.0
 20
0.0
 30
0.0
  9
$UCSYDIR
 10
0.0
 20
1.0
 30
0.0
  9
$UCSORTHOREF
  2

  9
$UCSORTHOVIEW
 70
     0
  9
$UCSORGTOP
 10
0.0
 20
0.0
 30
0.0
  9
$UCSORGBOTTOM
 10
0.0
 20
0.0
 30
0.0
  9
$UCSORGLEFT
 10
0.0
 20
0.0
 30
0.0
  9
$UCSORGRIGHT
 10
0.0
 20
0.0
 30
0.0
  9
$UCSORGFRONT
 10
0.0
 20
0.0
 30
0.0
  9
$UCSORGBACK
 10
0.0
 20
0.0
 30
0.0
  9
$PUCSBASE
  2

  9
$PUCSNAME
  2

  9
$PUCSORG
 10
0.0
 20
0.0
 30
0.0
  9
$PUCSXDIR
 10
1.0
 20
0.0
 30
0.0
  9
$PUCSYDIR
 10
0.0
 20
1.0
 30
0.0
  9
$PUCSORTHOREF
  2

  9
$PUCSORTHOVIEW
 70
     0
  9
$PUCSORGTOP
 10
0.0
 20
0.0
 30
0.0
  9
$PUCSORGBOTTOM
 10
0.0
 20
0.0
 30
0.0
  9
$PUCSORGLEFT
 10
0.0
 20
0.0
 30
0.0
  9
$PUCSORGRIGHT
 10
0.0
 20
0.0
 30
0.0
  9
$PUCSORGFRONT
 10
0.0
 20
0.0
 30
0.0
  9
$PUCSORGBACK
 10
0.0
 20
0.0
 30
0.0
  9
$USERI1
 70
     0
  9
$USERI2
 70
     0
  9
$USERI3
 70
     0
  9
$USERI4
 70
     0
  9
$USERI5
 70
     0
  9
$USERR1
 40
0.0
  9
$USERR2
 40
0.0
  9
$USERR3
 40
0.0
  9
$USERR4
 40
0.0
  9
$USERR5
 40
0.0
  9
$WORLDVIEW
 70
     1
  9
$SHADEDGE
 70
     3
  9
$SHADEDIF
 70
    70
  9
$TILEMODE
 70
     1
  9
$MAXACTVP
 70
    64
  9
$PINSBASE
 10
0.0
 20
0.0
 30
0.0
  9
$PLIMCHECK
 70
     0
  9
$PEXTMIN
 10
1.0000000000E+20
 20
1.0000000000E+20
 30
1.0000000000E+20
  9
$PEXTMAX
 10
-1.0000000000E+20
 20
-1.0000000000E+20
 30
-1.0000000000E+20
  9
$PLIMMIN
 10
0.0
 20
0.0
  9
$PLIMMAX
 10
420.0
 20
297.0
  9
$UNITMODE
 70
     0
  9
$VISRETAIN
 70
     1
  9
$PLINEGEN
 70
     0
  9
$PSLTSCALE
 70
     1
  9
$TREEDEPTH
 70
  3020
  9
$CMLSTYLE
  2
Standard
  9
$CMLJUST
 70
     0
  9
$CMLSCALE
 40
20.0
  9
$PROXYGRAPHICS
 70
     1
  9
$MEASUREMENT
 70
     1
  9
$CELWEIGHT
370
    -1
  9
$ENDCAPS
280
     0
  9
$JOINSTYLE
280
     0
  9
$LWDISPLAY
290
     1
  9
$INSUNITS
 70
     4
  9
$HYPERLINKBASE
  1

  9
$STYLESHEET
  1

  9
$XEDIT
290
     1
  9
$CEPSNTYPE
380
     0
  9
$PSTYLEMODE
290
     1
  9
$FINGERPRINTGUID
  2
{9634dc3a-5f15-4c2b-9956-4ce5adfa1ad4}
  9
$VERSIONGUID
  2
{FAEB1C32-E019-11D5-929B-00C0DF256EC4}
  9
$EXTNAMES
290
     1
  9
$PSVPSCALE
 40
0.0
  9
$OLESTARTUP
290
     0
  9
$SORTENTS
280
   127
  9
$INDEXCTL
280
     0
  9
$HIDETEXT
280
     1
  9
$XCLIPFRAME
280
     2
  9
$HALOGAP
280
     0
  9
$OBSCOLOR
 70
   257
  9
$OBSLTYPE
280
     0
  9
$INTERSECTIONDISPLAY
280
     0
  9
$INTERSECTIONCOLOR
 70
   257
  9
$DIMASSOC
280
     2
  9
$PROJECTNAME
  1

  9
$CAMERADISPLAY
290
     0
  9
$LENSLENGTH
 40
50.0
  9
$CAMERAHEIGHT
 40
0.0
  9
$STEPSPERSEC
 40
2.0
  9
$STEPSIZE
 40
6.0
  9
$3DDWFPREC
 40
2.0
  9
$PSOLWIDTH
 40
5.0
  9
$PSOLHEIGHT
 40
80.0
  9
$LOFTANG1
 40
1.5707963268
  9
$LOFTANG2
 40
1.5707963268
  9
$LOFTMAG1
 40
0.0
  9
$LOFTMAG2
 40
0.0
  9
$LOFTPARAM
 70
     7
  9
$LOFTNORMALS
280
     1
  9
$LATITUDE
 40
37.795
  9
$LONGITUDE
 40
-122.394
  9
$NORTHDIRECTION
 40
0.0
  9
$TIMEZONE
 70
 -8000
  9
$LIGHTGLYPHDISPLAY
280
     1
  9
$TILEMODELIGHTSYNCH
280
     1
  9
$CMATERIAL
347
44
  9
$SOLIDHIST
280
     0
  9
$SHOWHIST
280
     1
  9
$DWFFRAME
280
     2
  9
$DGNFRAME
280
     2
  9
$REALWORLDSCALE
290
     1
  9
$INTERFERECOLOR
 62
   256
  9
$CSHADOW
280
     0
  9
$SHADOWPLANELOCATION
 40
0.0
  0
ENDSEC
  0
SECTION
  2
CLASSES
  0
CLASS
  1
ACDBDICTIONARYWDFLT
  2
AcDbDictionaryWithDefault
  3
ObjectDBX Classes
 90
        0
 91
        3
280
     0
281
     0
  0
CLASS
  1
VISUALSTYLE
  2
AcDbVisualStyle
  3
ObjectDBX Classes
 90
     4095
 91
        3
280
     0
281
     0
  0
CLASS
  1
MATERIAL
  2
AcDbMaterial
  3
ObjectDBX Classes
 90
     1153
 91
        3
280
     0
281
     0
  0
CLASS
  1
SCALE
  2
AcDbScale
  3
ObjectDBX Classes
 90
     1153
 91
        3
280
     0
281
     0
  0
CLASS
  1
TABLESTYLE
  2
AcDbTableStyle
  3
ObjectDBX Classes
 90
     4095
 91
        3
280
     0
281
     0
  0
CLASS
  1
MLEADERSTYLE
  2
AcDbMLeaderStyle
  3
ACDB_MLEADERSTYLE_CLASS
 90
     4095
 91
        3
280
     0
281
     0
  0
CLASS
  1
SUN
  2
AcDbSun
  3
SCENEOE
 90
     1153
 91
        3
280
     0
281
     0
  0
CLASS
  1
DICTIONARYVAR
  2
AcDbDictionaryVar
  3
ObjectDBX Classes
 90
        0
 91
        3
280
     0
281
     0
  0
CLASS
  1
CELLSTYLEMAP
  2
AcDbCellStyleMap
  3
ObjectDBX Classes
 90
     1152
 91
        3
280
     0
281
     0
  0
ENDSEC
  0
SECTION
  2
TABLES
  0
TABLE
  2
VPORT
  5
8
330
0
100
AcDbSymbolTable
 70
     1
  0
VPORT
  5
29
330
8
100
AcDbSymbolTableRecord
100
AcDbViewportTableRecord
  2
*Active
 70
     0
 10
0.0
 20
0.0
 11
1.0
 21
1.0
 12
210.0
 22
148.5
 13
0.0
 23
0.0
 14
10.0
 24
10.0
 15
10.0
 25
10.0
 16
0.0
 26
0.0
 36
1.0
 17
0.0
 27
0.0
 37
0.0
 40
297.0
 41
1.4141414141
 42
50.0
 43
0.0
 44
0.0
 50
0.0
 51
0.0
 71
     0
 72
  2000
 73
     1
 74
     3
 75
     0
 76
     0
 77
     0
 78
     0
281
     0
 65
     1
110
0.0
120
0.0
130
0.0
111
1.0
121
0.0
131
0.0
112
0.0
122
1.0
132
0.0
 79
     0
146
0.0
348
2F
 60
     3
 61
     5
292
     1
282
     1
141
0.0
142
0.0
 63
   250
361
6D
  0
ENDTAB
  0
TABLE
  2
LTYPE
  5
5
330
0
100
AcDbSymbolTable
 70
     6
  0
LTYPE
  5
14
330
5
100
AcDbSymbolTableRecord
100
AcDbLinetypeTableRecord
  2
ByBlock
 70
     0
  3

 72
    65
 73
     0
 40
0.0
  0
LTYPE
  5
15
330
5
100
AcDbSymbolTableRecord
100
AcDbLinetypeTableRecord
  2
ByLayer
 70
     0
  3

 72
    65
 73
     0
 40
0.0
  0
LTYPE
  5
16
330
5
100
AcDbSymbolTableRecord
100
AcDbLinetypeTableRecord
  2
Continuous
 70
     0
  3
Solid line
 72
    65
 73
     0
 40
0.0
  0
LTYPE
  5
6E
330
5
100
AcDbSymbolTableRecord
100
AcDbLinetypeTableRecord
  2
HIDDEN
 70
     0
  3
Hidden __ __ __ __ __ __ __ __ __ __ __ __ __ __
 72
    65
 73
     2
 40
1.905
 49
1.27
 74
     0
 49
-0.635
 74
     0
  0
LTYPE
  5
6F
330
5
100
AcDbSymbolTableRecord
100
AcDbLinetypeTableRecord
  2
PHANTOM
 70
     0
  3
Phantom ______  __  __  ______  __  __  ______
 72
    65
 73
     6
 40
12.7
 49
6.35
 74
     0
 49
-1.27
 74
     0
 49
1.27
 74
     0
 49
-1.27
 74
     0
 49
1.27
 74
     0
 49
-1.27
 74
     0
  0
LTYPE
  5
70
330
5
100
AcDbSymbolTableRecord
100
AcDbLinetypeTableRecord
  2
CENTER
 70
     0
  3
Center ____ _ ____ _ ____ _ ____ _ ____ _ ____
 72
    65
 73
     4
 40
10.16
 49
6.35
 74
     0
 49
-1.27
 74
     0
 49
1.27
 74
     0
 49
-1.27
 74
     0
  0
LTYPE
  5
71
330
5
100
AcDbSymbolTableRecord
100
AcDbLinetypeTableRecord
  2
CENTERX2
 70
     0
  3
Center (2x) ________  __  ________  __  _____
 72
    65
 73
     4
 40
20.32
 49
12.7
 74
     0
 49
-2.54
 74
     0
 49
2.54
 74
     0
 49
-2.54
 74
     0
  0
LTYPE
  5
72
330
5
100
AcDbSymbolTableRecord
100
AcDbLinetypeTableRecord
  2
DOT2
 70
     0
  3
Dot (.5x) ........................................
 72
    65
 73
     2
 40
0.635
 49
0.0
 74
     0
 49
-0.635
 74
     0
  0
ENDTAB
  0
TABLE
  2
LAYER
  5
2
330
0
100
AcDbSymbolTable
 70
     4
  0
LAYER
  5
10
330
2
100
AcDbSymbolTableRecord
100
AcDbLayerTableRecord
  2
0
 70
     0
 62
     7
  6
Continuous
370
    -3
390
F
347
46
348
0
  0
LAYER
  5
73
330
2
100
AcDbSymbolTableRecord
100
AcDbLayerTableRecord
  2
RAHMEN
 70
     0
 62
   179
  6
Continuous
370
    -3
390
F
347
46
348
0
  0
LAYER
  5
74
330
2
100
AcDbSymbolTableRecord
100
AcDbLayerTableRecord
  2
KOPF
 70
     0
 62
     7
  6
Continuous
370
    -3
390
F
347
46
348
0
  0
LAYER
  5
75
330
2
100
AcDbSymbolTableRecord
100
AcDbLayerTableRecord
  2
ZEICHNUNG
 70
     0
 62
     7
  6
Continuous
370
    -3
390
F
347
46
348
0
  0
ENDTAB
  0
TABLE
  2
STYLE
  5
3
330
0
100
AcDbSymbolTable
 70
     2
  0
STYLE
  5
11
330
3
100
AcDbSymbolTableRecord
100
AcDbTextStyleTableRecord
  2
Standard
 70
     0
 40
0.0
 41
1.0
 50
0.0
 71
     0
 42
3.5
  3
txt
  4

  0
STYLE
  5
158
330
3
100
AcDbSymbolTableRecord
100
AcDbTextStyleTableRecord
  2
SLDTEXTSTYLE0
 70
     0
 40
0.0
 41
0.75
 50
0.0
 71
     0
 42
3.5
  3
TXT
  4

  0
ENDTAB
  0
TABLE
  2
VIEW
  5
6
330
0
100
AcDbSymbolTable
 70
     0
  0
ENDTAB
  0
TABLE
  2
UCS
  5
7
330
0
100
AcDbSymbolTable
 70
     0
  0
ENDTAB
  0
TABLE
  2
APPID
  5
9
330
0
100
AcDbSymbolTable
 70
     1
  0
APPID
  5
12
330
9
100
AcDbSymbolTableRecord
100
AcDbRegAppTableRecord
  2
ACAD
 70
     0
  0
ENDTAB
  0
TABLE
  2
DIMSTYLE
  5
A
330
0
100
AcDbSymbolTable
 70
     3
100
AcDbDimStyleTable
  0
DIMSTYLE
105
27
330
A
100
AcDbSymbolTableRecord
100
AcDbDimStyleTableRecord
  2
ISO-25
 70
     0
 41
2.5
 42
0.625
 43
3.75
 44
1.25
 73
     0
 74
     0
 77
     1
 78
     8
140
2.5
141
2.5
143
0.0393700787
147
0.625
171
     3
172
     1
178
     0
271
     2
272
     2
274
     3
278
    44
283
     0
284
     8
340
11
  0
DIMSTYLE
105
159
102
{ACAD_REACTORS
330
157
330
1EF
330
204
102
}
330
A
100
AcDbSymbolTableRecord
100
AcDbDimStyleTableRecord
  2
SLDDIMSTYLE0
 70
     0
 41
3.302
 44
0.0
 45
0.000000001
 73
     0
 74
     0
 77
     1
 78
    12
 79
     3
140
3.5
147
0.875
173
     1
178
     0
271
     2
272
     2
276
     2
284
    12
340
158
  0
DIMSTYLE
105
1FA
102
{ACAD_REACTORS
330
1F9
330
20E
102
}
330
A
100
AcDbSymbolTableRecord
100
AcDbDimStyleTableRecord
  2
SLDDIMSTYLE1
 70
     0
 41
3.302
 44
0.0
 45
0.000000001
 73
     0
 74
     0
 77
     1
 78
     4
 79
     1
140
3.5
147
0.875
173
     1
178
     0
271
     2
272
     2
276
     2
284
    12
340
158
  0
ENDTAB
  0
TABLE
  2
BLOCK_RECORD
  5
1
330
0
100
AcDbSymbolTable
 70
     7
  0
BLOCK_RECORD
  5
1F
330
1
100
AcDbSymbolTableRecord
100
AcDbBlockTableRecord
  2
*Model_Space
340
22
 70
     0
280
     1
281
     0
  0
BLOCK_RECORD
  5
1B
330
1
100
AcDbSymbolTableRecord
100
AcDbBlockTableRecord
  2
*Paper_Space
340
1E
 70
     0
280
     1
281
     0
  0
BLOCK_RECORD
  5
23
330
1
100
AcDbSymbolTableRecord
100
AcDbBlockTableRecord
  2
*Paper_Space0
340
26
 70
     0
280
     1
281
     0
  0
BLOCK_RECORD
  5
76
330
1
100
AcDbSymbolTableRecord
100
AcDbBlockTableRecord
  2
Logo_Boag
340
0
 70
     0
280
     1
281
     0
  0
BLOCK_RECORD
  5
15A
330
1
100
AcDbSymbolTableRecord
100
AcDbBlockTableRecord
  2
_D
340
0
 70
     0
280
     1
281
     0
  0
BLOCK_RECORD
  5
1F0
330
1
100
AcDbSymbolTableRecord
100
AcDbBlockTableRecord
  2
_D_1
340
0
 70
     0
280
     1
281
     0
  0
BLOCK_RECORD
  5
1FB
330
1
100
AcDbSymbolTableRecord
100
AcDbBlockTableRecord
  2
_D_2
340
0
 70
     0
280
     1
281
     0
  0
BLOCK_RECORD
  5
205
330
1
100
AcDbSymbolTableRecord
100
AcDbBlockTableRecord
  2
_D_3
340
0
 70
     0
280
     1
281
     0
  0
BLOCK_RECORD
  5
20F
330
1
100
AcDbSymbolTableRecord
100
AcDbBlockTableRecord
  2
_D_4
340
0
 70
     0
280
     1
281
     0
  0
ENDTAB
  0
ENDSEC
  0
SECTION
  2
BLOCKS
  0
BLOCK
  5
20
330
1F
100
AcDbEntity
  8
0
100
AcDbBlockBegin
  2
*Model_Space
 70
     0
 10
0.0
 20
0.0
 30
0.0
  3
*Model_Space
  1

  0
ENDBLK
  5
21
330
1F
100
AcDbEntity
  8
0
100
AcDbBlockEnd
  0
BLOCK
  5
1C
330
1B
100
AcDbEntity
 67
     1
  8
0
100
AcDbBlockBegin
  2
*Paper_Space
 70
     0
 10
0.0
 20
0.0
 30
0.0
  3
*Paper_Space
  1

  0
ENDBLK
  5
1D
330
1B
100
AcDbEntity
 67
     1
  8
0
100
AcDbBlockEnd
  0
BLOCK
  5
24
330
23
100
AcDbEntity
  8
0
100
AcDbBlockBegin
  2
*Paper_Space0
 70
     0
 10
0.0
 20
0.0
 30
0.0
  3
*Paper_Space0
  1

  0
ENDBLK
  5
25
330
23
100
AcDbEntity
  8
0
100
AcDbBlockEnd
  0
BLOCK
  5
77
330
76
100
AcDbEntity
  8
0
100
AcDbBlockBegin
  2
Logo_Boag
 70
     0
 10
0.0
 20
0.0
 30
0.0
  3
Logo_Boag
  1

  0
LINE
  5
79
330
76
100
AcDbEntity
  8
0
  6
Continuous
 62
     7
370
    18
100
AcDbLine
 10
0.0
 20
2.3429474284
 30
0.0
 11
0.0006046143
 21
2.3429474284
 31
0.0
  0
LINE
  5
7A
330
76
100
AcDbEntity
  8
0
  6
Continuous
 62
     7
370
    18
100
AcDbLine
 10
38.4424493815
 20
0.0213630371
 30
0.0
 11
38.4435242513
 21
0.0213630371
 31
0.0
  0
LINE
  5
7B
330
76
100
AcDbEntity
  8
0
  6
Continuous
 62
     7
370
    18
100
AcDbLine
 10
20.5614529622
 20
0.1305966797
 30
0.0
 11
20.5614529622
 21
2.7389025879
 31
0.0
  0
LINE
  5
7C
330
76
100
AcDbEntity
  8
0
  6
Continuous
 62
     7
370
    18
100
AcDbLine
 10
32.2645008952
 20
5.8065809733
 30
0.0
 11
32.2645008952
 21
0.1305966797
 31
0.0
  0
LINE
  5
7D
330
76
100
AcDbEntity
  8
0
  6
Continuous
 62
     7
370
    18
100
AcDbLine
 10
19.8989300944
 20
0.1305966797
 30
0.0
 11
20.5614529622
 21
0.1305966797
 31
0.0
  0
LINE
  5
7E
330
76
100
AcDbEntity
  8
0
  6
Continuous
 62
     7
370
    18
100
AcDbLine
 10
17.1837418213
 20
0.0213630371
 30
0.0
 11
17.1885787354
 21
0.0213630371
 31
0.0
  0
LINE
  5
7F
330
76
100
AcDbEntity
  8
0
  6
Continuous
 62
     7
370
    18
100
AcDbLine
 10
27.2947060547
 20
3.6284916992
 30
0.0
 11
27.2586979167
 21
3.7098459066
 31
0.0
  0
LINE
  5
80
330
76
100
AcDbEntity
  8
0
  6
Continuous
 62
     7
370
    18
100
AcDbLine
 10
35.1241919759
 20
0.1305966797
 30
0.0
 11
35.7875209961
 21
0.1305966797
 31
0.0
  0
LINE
  5
81
330
76
100
AcDbEntity
  8
0
  6
Continuous
 62
     7
370
    18
100
AcDbLine
 10
39.800681722
 20
4.6189842122
 30
0.0
 11
39.800681722
 21
4.2021362712
 31
0.0
  0
LINE
  5
82
330
76
100
AcDbEntity
  8
0
  6
Continuous
 62
     7
370
    18
100
AcDbLine
 10
32.9268894043
 20
0.1305966797
 30
0.0
 11
32.9268894043
 21
2.7394400228
 31
0.0
  0
LINE
  5
83
330
76
100
AcDbEntity
  8
0
  6
Continuous
 62
     7
370
    18
100
AcDbLine
 10
19.0864628906
 20
1.4555080566
 30
0.0
 11
19.1096397705
 21
1.5300771484
 31
0.0
  0
LINE
  5
84
330
76
100
AcDbEntity
  8
0
  6
Continuous
 62
     7
370
    18
100
AcDbLine
 10
26.6360795898
 20
3.6284916992
 30
0.0
 11
27.2947060547
 21
3.6284916992
 31
0.0
  0
LINE
  5
85
330
76
100
AcDbEntity
  8
0
  6
Continuous
 62
     7
370
    18
100
AcDbLine
 10
43.4954122721
 20
0.5801609701
 30
0.0
 11
43.4954122721
 21
0.1305966797
 31
0.0
  0
LINE
  5
86
330
76
100
AcDbEntity
  8
0
  6
Continuous
 62
     7
370
    18
100
AcDbLine
 10
37.0703780924
 20
2.3749248047
 30
0.0
 11
37.070109375
 21
2.3749248047
 31
0.0
  0
LINE
  5
87
330
76
100
AcDbEntity
  8
0
  6
Continuous
 62
     7
370
    18
100
AcDbLine
 10
41.7684995931
 20
4.0474222005
 30
0.0
 11
41.7684995931
 21
0.8538496908
 31
0.0
  0
LINE
  5
88
330
76
100
AcDbEntity
  8
0
  6
Continuous
 62
     7
370
    18
100
AcDbLine
 10
35.1241919759
 20
2.9854508464
 30
0.0
 11
35.1241919759
 21
0.1305966797
 31
0.0
  0
LINE
  5
89
330
76
100
AcDbEntity
  8
0
  6
Continuous
 62
     7
370
    18
100
AcDbLine
 10
0.7260745443
 20
5.8257270915
 30
0.0
 11
0.0
 21
5.8257270915
 31
0.0
  0
LINE
  5
8A
330
76
100
AcDbEntity
  8
0
  6
Continuous
 62
     7
370
    18
100
AcDbLine
 10
22.7592257894
 20
0.1305966797
 30
0.0
 11
23.4218158366
 21
0.1305966797
 31
0.0
  0
LINE
  5
8B
330
76
100
AcDbEntity
  8
0
  6
Continuous
 62
     7
370
    18
100
AcDbLine
 10
7.5973140462
 20
0.0213630371
 30
0.0
 11
7.5991950684
 21
0.0213630371
 31
0.0
  0
LINE
  5
8C
330
76
100
AcDbEntity
  8
0
  6
Continuous
 62
     7
370
    18
100
AcDbLine
 10
14.3718824463
 20
2.3015649414
 30
0.0
 11
14.3730916748
 21
2.3015649414
 31
0.0
  0
LINE
  5
8D
330
76
100
AcDbEntity
  8
0
  6
Continuous
 62
     7
370
    18
100
AcDbLine
 10
20.5614529622
 20
4.6189842122
 30
0.0
 11
19.8989300944
 21
4.6189842122
 31
0.0
  0
LINE
  5
8E
330
76
100
AcDbEntity
  8
0
  6
Continuous
 62
     7
370
    18
100
AcDbLine
 10
25.7210966797
 20
4.7150506999
 30
0.0
 11
25.6641285807
 21
4.714513265
 31
0.0
  0
LINE
  5
8F
330
76
100
AcDbEntity
  8
0
  6
Continuous
 62
     7
370
    18
100
AcDbLine
 10
46.7638225911
 20
4.2426454264
 30
0.0
 11
46.7638225911
 21
4.6189842122
 31
0.0
  0
LINE
  5
90
330
76
100
AcDbEntity
  8
0
  6
Continuous
 62
     7
370
    18
100
AcDbLine
 10
31.0650805664
 20
3.5541241455
 30
0.0
 11
31.7829592285
 21
3.5494215902
 31
0.0
  0
LINE
  5
91
330
76
100
AcDbEntity
  8
0
  6
Continuous
 62
     7
370
    18
100
AcDbLine
 10
39.9248291829
 20
0.1305966797
 30
0.0
 11
40.4770435384
 21
0.1305966797
 31
0.0
  0
LINE
  5
92
330
76
100
AcDbEntity
  8
0
  6
Continuous
 62
     7
370
    18
100
AcDbLine
 10
12.3384303385
 20
0.0213630371
 30
0.0
 11
12.3455513509
 21
0.0213630371
 31
0.0
  0
LINE
  5
93
330
76
100
AcDbEntity
  8
0
  6
Continuous
 62
     7
370
    18
100
AcDbLine
 10
42.4311568197
 20
5.8068496908
 30
0.0
 11
41.7684995931
 21
5.8068496908
 31
0.0
  0
LINE
  5
94
330
76
100
AcDbEntity
  8
0
  6
Continuous
 62
     7
370
    18
100
AcDbLine
 10
45.8313730469
 20
4.047690918
 30
0.0
 11
43.4954122721
 21
0.5801609701
 31
0.0
  0
LINE
  5
95
330
76
100
AcDbEntity
  8
0
  6
Continuous
 62
     7
370
    18
100
AcDbLine
 10
31.7829592285
 20
3.5494215902
 30
0.0
 11
31.7470854492
 21
3.6313132324
 31
0.0
  0
LINE
  5
96
330
76
100
AcDbEntity
  8
0
  6
Continuous
 62
     7
370
    18
100
AcDbLine
 10
46.7999650879
 20
0.7024274089
 30
0.0
 11
44.382314209
 21
0.7024274089
 31
0.0
  0
LINE
  5
97
330
76
100
AcDbEntity
  8
0
  6
Continuous
 62
     7
370
    18
100
AcDbLine
 10
42.4311568197
 20
4.0474222005
 30
0.0
 11
45.8313730469
 21
4.047690918
 31
0.0
  0
LINE
  5
98
330
76
100
AcDbEntity
  8
0
  6
Continuous
 62
     7
370
    18
100
AcDbLine
 10
20.5614529622
 20
4.1084210612
 30
0.0
 11
20.5614529622
 21
4.6189842122
 31
0.0
  0
LINE
  5
99
330
76
100
AcDbEntity
  8
0
  6
Continuous
 62
     7
370
    18
100
AcDbLine
 10
42.4311568197
 20
1.2182305501
 30
0.0
 11
42.4311568197
 21
4.0474222005
 31
0.0
  0
LINE
  5
9A
330
76
100
AcDbEntity
  8
0
  6
Continuous
 62
     7
370
    18
100
AcDbLine
 10
32.2645008952
 20
0.1305966797
 30
0.0
 11
32.9268894043
 21
0.1305966797
 31
0.0
  0
LINE
  5
9B
330
76
100
AcDbEntity
  8
0
  6
Continuous
 62
     7
370
    18
100
AcDbLine
 10
31.8158771159
 20
1.2786919759
 30
0.0
 11
31.8470483398
 21
1.3576949056
 31
0.0
  0
LINE
  5
9C
330
76
100
AcDbEntity
  8
0
  6
Continuous
 62
     7
370
    18
100
AcDbLine
 10
43.158171875
 20
0.1096367188
 30
0.0
 11
43.158171875
 21
0.6738090007
 31
0.0
  0
LINE
  5
9D
330
76
100
AcDbEntity
  8
0
  6
Continuous
 62
     7
370
    18
100
AcDbLine
 10
26.6192847493
 20
3.6569757487
 30
0.0
 11
26.6360795898
 21
3.6284916992
 31
0.0
  0
LINE
  5
9E
330
76
100
AcDbEntity
  8
0
  6
Continuous
 62
     7
370
    18
100
AcDbLine
 10
19.1506863607
 20
2.3348859049
 30
0.0
 11
19.1486038005
 21
2.3953473307
 31
0.0
  0
LINE
  5
9F
330
76
100
AcDbEntity
  8
0
  6
Continuous
 62
     7
370
    18
100
AcDbLine
 10
23.4218158366
 20
0.1305966797
 30
0.0
 11
23.4218158366
 21
3.1490325928
 31
0.0
  0
LINE
  5
A0
330
76
100
AcDbEntity
  8
0
  6
Continuous
 62
     7
370
    18
100
AcDbLine
 10
46.7638225911
 20
4.6189842122
 30
0.0
 11
42.4311568197
 21
4.6189842122
 31
0.0
  0
LINE
  5
A1
330
76
100
AcDbEntity
  8
0
  6
Continuous
 62
     7
370
    18
100
AcDbLine
 10
41.7684995931
 20
5.8068496908
 30
0.0
 11
41.7684995931
 21
4.6189842122
 31
0.0
  0
LINE
  5
A2
330
76
100
AcDbEntity
  8
0
  6
Continuous
 62
     7
370
    18
100
AcDbLine
 10
46.7999650879
 20
0.1305966797
 30
0.0
 11
46.7999650879
 21
0.7024274089
 31
0.0
  0
LINE
  5
A3
330
76
100
AcDbEntity
  8
0
  6
Continuous
 62
     7
370
    18
100
AcDbLine
 10
17.161236735
 20
0.6476090495
 30
0.0
 11
17.1482711182
 21
0.6478777669
 31
0.0
  0
LINE
  5
A4
330
76
100
AcDbEntity
  8
0
  6
Continuous
 62
     7
370
    18
100
AcDbLine
 10
24.0082916667
 20
1.3783861491
 30
0.0
 11
24.0318044434
 21
1.3032796224
 31
0.0
  0
LINE
  5
A5
330
76
100
AcDbEntity
  8
0
  6
Continuous
 62
     7
370
    18
100
AcDbLine
 10
14.3730916748
 20
2.3015649414
 30
0.0
 11
14.3730916748
 21
5.8065809733
 31
0.0
  0
LINE
  5
A6
330
76
100
AcDbEntity
  8
0
  6
Continuous
 62
     7
370
    18
100
AcDbLine
 10
22.7592257894
 20
2.9849134115
 30
0.0
 11
22.7592257894
 21
0.1305966797
 31
0.0
  0
LINE
  5
A7
330
76
100
AcDbEntity
  8
0
  6
Continuous
 62
     7
370
    18
100
AcDbLine
 10
31.1213768717
 20
1.357963623
 30
0.0
 11
31.1061943359
 21
1.324911377
 31
0.0
  0
LINE
  5
A8
330
76
100
AcDbEntity
  8
0
  6
Continuous
 62
     7
370
    18
100
AcDbLine
 10
32.9268894043
 20
4.1010985107
 30
0.0
 11
32.9268894043
 21
5.8065809733
 31
0.0
  0
LINE
  5
A9
330
76
100
AcDbEntity
  8
0
  6
Continuous
 62
     7
370
    18
100
AcDbLine
 10
39.8376303711
 20
0.5832512207
 30
0.0
 11
39.9248291829
 21
0.1305966797
 31
0.0
  0
LINE
  5
AA
330
76
100
AcDbEntity
  8
0
  6
Continuous
 62
     7
370
    18
100
AcDbLine
 10
18.4000241699
 20
2.9064479167
 30
0.0
 11
15.823695638
 21
2.9064479167
 31
0.0
  0
LINE
  5
AB
330
76
100
AcDbEntity
  8
0
  6
Continuous
 62
     7
370
    18
100
AcDbLine
 10
32.9268894043
 20
5.8065809733
 30
0.0
 11
32.2645008952
 21
5.8065809733
 31
0.0
  0
LINE
  5
AC
330
76
100
AcDbEntity
  8
0
  6
Continuous
 62
     7
370
    18
100
AcDbLine
 10
31.8470483398
 20
1.3576949056
 30
0.0
 11
31.1213768717
 21
1.357963623
 31
0.0
  0
LINE
  5
AD
330
76
100
AcDbEntity
  8
0
  6
Continuous
 62
     7
370
    18
100
AcDbLine
 10
44.382314209
 20
0.7024274089
 30
0.0
 11
46.7638225911
 21
4.2426454264
 31
0.0
  0
LINE
  5
AE
330
76
100
AcDbEntity
  8
0
  6
Continuous
 62
     7
370
    18
100
AcDbLine
 10
41.7684995931
 20
4.6189842122
 30
0.0
 11
39.800681722
 21
4.6189842122
 31
0.0
  0
LINE
  5
AF
330
76
100
AcDbEntity
  8
0
  6
Continuous
 62
     7
370
    18
100
AcDbLine
 10
0.7272837728
 20
2.2849044596
 30
0.0
 11
0.7260745443
 21
2.2849044596
 31
0.0
  0
LINE
  5
B0
330
76
100
AcDbEntity
  8
0
  6
Continuous
 62
     7
370
    18
100
AcDbLine
 10
0.7260745443
 20
2.2849044596
 30
0.0
 11
0.7260745443
 21
5.8257270915
 31
0.0
  0
LINE
  5
B1
330
76
100
AcDbEntity
  8
0
  6
Continuous
 62
     7
370
    18
100
AcDbLine
 10
13.7147339274
 20
5.8065809733
 30
0.0
 11
13.7147339274
 21
4.1168184814
 31
0.0
  0
LINE
  5
B2
330
76
100
AcDbEntity
  8
0
  6
Continuous
 62
     7
370
    18
100
AcDbLine
 10
15.8146936035
 20
2.3348859049
 30
0.0
 11
19.1506863607
 21
2.3348859049
 31
0.0
  0
LINE
  5
B3
330
76
100
AcDbEntity
  8
0
  6
Continuous
 62
     7
370
    18
100
AcDbLine
 10
40.4770435384
 20
0.1305966797
 30
0.0
 11
40.4770435384
 21
4.0474222005
 31
0.0
  0
LINE
  5
B4
330
76
100
AcDbEntity
  8
0
  6
Continuous
 62
     7
370
    18
100
AcDbLine
 10
42.4311568197
 20
4.6189842122
 30
0.0
 11
42.4311568197
 21
5.8068496908
 31
0.0
  0
LINE
  5
B5
330
76
100
AcDbEntity
  8
0
  6
Continuous
 62
     7
370
    18
100
AcDbLine
 10
18.3769816488
 20
1.5300771484
 30
0.0
 11
18.3634114176
 21
1.4916505534
 31
0.0
  0
LINE
  5
B6
330
76
100
AcDbEntity
  8
0
  6
Continuous
 62
     7
370
    18
100
AcDbLine
 10
40.4770435384
 20
4.0474222005
 30
0.0
 11
41.7684995931
 21
4.0474222005
 31
0.0
  0
LINE
  5
B7
330
76
100
AcDbEntity
  8
0
  6
Continuous
 62
     7
370
    18
100
AcDbLine
 10
19.8989300944
 20
4.6189842122
 30
0.0
 11
19.8989300944
 21
0.1305966797
 31
0.0
  0
LINE
  5
B8
330
76
100
AcDbEntity
  8
0
  6
Continuous
 62
     7
370
    18
100
AcDbLine
 10
35.7875209961
 20
0.1305966797
 30
0.0
 11
35.7875209961
 21
3.1490325928
 31
0.0
  0
LINE
  5
B9
330
76
100
AcDbEntity
  8
0
  6
Continuous
 62
     7
370
    18
100
AcDbLine
 10
43.4954122721
 20
0.1305966797
 30
0.0
 11
46.7999650879
 21
0.1305966797
 31
0.0
  0
LINE
  5
BA
330
76
100
AcDbEntity
  8
0
  6
Continuous
 62
     7
370
    18
100
AcDbLine
 10
31.0498980306
 20
3.5879153646
 30
0.0
 11
31.0650805664
 21
3.5541241455
 31
0.0
  0
LINE
  5
BB
330
76
100
AcDbEntity
  8
0
  6
Continuous
 62
     7
370
    18
100
AcDbLine
 10
25.6641285807
 20
4.714513265
 30
0.0
 11
25.6641285807
 21
4.7132368571
 31
0.0
  0
LINE
  5
BC
330
76
100
AcDbEntity
  8
0
  6
Continuous
 62
     7
370
    18
100
AcDbLine
 10
24.6819663086
 20
1.3783861491
 30
0.0
 11
24.0082916667
 21
1.3783861491
 31
0.0
  0
LINE
  5
BD
330
76
100
AcDbEntity
  8
0
  6
Continuous
 62
     7
370
    18
100
AcDbLine
 10
24.6936555176
 20
1.3361975098
 30
0.0
 11
24.6819663086
 21
1.3783861491
 31
0.0
  0
LINE
  5
BE
330
76
100
AcDbEntity
  8
0
  6
Continuous
 62
     7
370
    18
100
AcDbLine
 10
0.0
 20
5.8257270915
 30
0.0
 11
0.0
 21
2.3429474284
 31
0.0
  0
LINE
  5
BF
330
76
100
AcDbEntity
  8
0
  6
Continuous
 62
     7
370
    18
100
AcDbLine
 10
29.9199411621
 20
0.0213630371
 30
0.0
 11
29.9324365234
 21
0.0213630371
 31
0.0
  0
LINE
  5
C0
330
76
100
AcDbEntity
  8
0
  6
Continuous
 62
     7
370
    18
100
AcDbLine
 10
14.3730916748
 20
5.8065809733
 30
0.0
 11
13.7147339274
 21
5.8065809733
 31
0.0
  0
LINE
  5
C1
330
76
100
AcDbEntity
  8
0
  6
Continuous
 62
     7
370
    18
100
AcDbLine
 10
25.7447438151
 20
0.0114204915
 30
0.0
 11
25.7947252604
 21
0.0119579264
 31
0.0
  0
LINE
  5
C2
330
76
100
AcDbEntity
  8
0
  6
Continuous
 62
     7
370
    18
100
AcDbLine
 10
15.8148279622
 20
2.2746931966
 30
0.0
 11
15.8146936035
 21
2.3348859049
 31
0.0
  0
LINE
  5
C3
330
76
100
AcDbEntity
  8
0
  6
Continuous
 62
     7
370
    18
100
AcDbLine
 10
19.1096397705
 20
1.5300771484
 30
0.0
 11
18.3769816488
 21
1.5300771484
 31
0.0
  0
SPLINE
  5
C4
330
76
100
AcDbEntity
  8
0
  6
Continuous
 62
     8
420
  8421504
370
     0
100
AcDbSpline
210
0.0
220
0.0
230
1.0
 70
     8
 71
     3
 72
     8
 73
     4
 74
     0
 42
0.00000001
 43
0.00000001
 40
23.0
 40
23.0
 40
23.0
 40
23.0
 40
24.0
 40
24.0
 40
24.0
 40
24.0
 10
27.44102270507814
 20
1.396121500651049
 30
0.0
 10
27.44317244466149
 20
2.313925944010434
 30
0.0
 10
26.74786604817714
 20
2.564639322916659
 30
0.0
 10
26.10213802083333
 20
2.708537516276047
 30
0.0
  0
SPLINE
  5
C5
330
76
100
AcDbEntity
  8
0
  6
Continuous
 62
     8
420
  8421504
370
     0
100
AcDbSpline
210
0.0
220
0.0
230
1.0
 70
     8
 71
     3
 72
     8
 73
     4
 74
     0
 42
0.00000001
 43
0.00000001
 40
3.0
 40
3.0
 40
3.0
 40
3.0
 40
4.0
 40
4.0
 40
4.0
 40
4.0
 10
13.71030008951826
 20
2.374924804687511
 30
0.0
 10
13.71721956380212
 20
1.167711669921884
 30
0.0
 10
13.11347863769535
 20
0.6497587890624962
 30
0.0
 10
12.33843033854171
 20
0.6476090494791781
 30
0.0
  0
SPLINE
  5
C6
330
76
100
AcDbEntity
  8
0
  6
Continuous
 62
     8
420
  8421504
370
     0
100
AcDbSpline
210
0.0
220
0.0
230
1.0
 70
     8
 71
     3
 72
     8
 73
     4
 74
     0
 42
0.00000001
 43
0.00000001
 40
1.0
 40
1.0
 40
1.0
 40
1.0
 40
2.0
 40
2.0
 40
2.0
 40
2.0
 10
17.11360656738284
 20
4.728620930989594
 30
0.0
 10
16.55319632975266
 20
4.728620930989594
 30
0.0
 10
16.04196138509117
 20
4.522178751627623
 30
0.0
 10
15.67294514973963
 20
4.121991292317703
 30
0.0
  0
SPLINE
  5
C7
330
76
100
AcDbEntity
  8
0
  6
Continuous
 62
     8
420
  8421504
370
     0
100
AcDbSpline
210
0.0
220
0.0
230
1.0
 70
     8
 71
     3
 72
     8
 73
     4
 74
     0
 42
0.00000001
 43
0.00000001
 40
12.0
 40
12.0
 40
12.0
 40
12.0
 40
13.0
 40
13.0
 40
13.0
 40
13.0
 10
37.00131770833337
 20
0.6274552408854217
 30
0.0
 10
37.37026676432292
 20
0.2281411132812466
 30
0.0
 10
37.88190478515624
 20
0.0210943196614632
 30
0.0
 10
38.44244938151048
 20
0.0213630371093815
 30
0.0
  0
SPLINE
  5
C8
330
76
100
AcDbEntity
  8
0
  6
Continuous
 62
     8
420
  8421504
370
     0
100
AcDbSpline
210
0.0
220
0.0
230
1.0
 70
     8
 71
     3
 72
     8
 73
     4
 74
     0
 42
0.00000001
 43
0.00000001
 40
12.0
 40
12.0
 40
12.0
 40
12.0
 40
13.0
 40
13.0
 40
13.0
 40
13.0
 10
35.40486735026044
 20
4.287386881510424
 30
0.0
 10
35.14138989257815
 20
4.569271484375012
 30
0.0
 10
34.73737320963544
 20
4.728620930989594
 30
0.0
 10
34.18986140950525
 20
4.728620930989594
 30
0.0
  0
SPLINE
  5
C9
330
76
100
AcDbEntity
  8
0
  6
Continuous
 62
     8
420
  8421504
370
     0
100
AcDbSpline
210
0.0
220
0.0
230
1.0
 70
     8
 71
     3
 72
     8
 73
     4
 74
     0
 42
0.00000001
 43
0.00000001
 40
9.0
 40
9.0
 40
9.0
 40
9.0
 40
10.0
 40
10.0
 40
10.0
 40
10.0
 10
27.88521264648442
 20
2.375462239583334
 30
0.0
 10
27.90093261718751
 20
0.9750412597656355
 30
0.0
 10
28.79092480468753
 20
0.0204225260416607
 30
0.0
 10
29.91994116210939
 20
0.0213630371093815
 30
0.0
  0
SPLINE
  5
CA
330
76
100
AcDbEntity
  8
0
  6
Continuous
 62
     8
420
  8421504
370
     0
100
AcDbSpline
210
0.0
220
0.0
230
1.0
 70
     8
 71
     3
 72
     8
 73
     4
 74
     0
 42
0.00000001
 43
0.00000001
 40
3.0
 40
3.0
 40
3.0
 40
3.0
 40
4.0
 40
4.0
 40
4.0
 40
4.0
 10
10.30343310546877
 20
2.374924804687511
 30
0.0
 10
10.30343310546877
 20
1.616738525390626
 30
0.0
 10
10.5281480712891
 20
1.027172444661453
 30
0.0
 10
10.89743302408858
 20
0.6274552408854217
 30
0.0
  0
SPLINE
  5
CB
330
76
100
AcDbEntity
  8
0
  6
Continuous
 62
     8
420
  8421504
370
     0
100
AcDbSpline
210
0.0
220
0.0
230
1.0
 70
     8
 71
     3
 72
     8
 73
     4
 74
     0
 42
0.00000001
 43
0.00000001
 40
0.0
 40
0.0
 40
0.0
 40
0.0
 40
1.0
 40
1.0
 40
1.0
 40
1.0
 10
13.71473392740888
 20
4.116818481445322
 30
0.0
 10
13.39401965332035
 20
4.506996215820333
 30
0.0
 10
12.86787089029953
 20
4.728620930989594
 30
0.0
 10
12.33843033854171
 20
4.728620930989594
 30
0.0
  0
SPLINE
  5
CC
330
76
100
AcDbEntity
  8
0
  6
Continuous
 62
     8
420
  8421504
370
     0
100
AcDbSpline
210
0.0
220
0.0
230
1.0
 70
     8
 71
     3
 72
     8
 73
     4
 74
     0
 42
0.00000001
 43
0.00000001
 40
2.0
 40
2.0
 40
2.0
 40
2.0
 40
3.0
 40
3.0
 40
3.0
 40
3.0
 10
37.07010937499999
 20
2.374924804687511
 30
0.0
 10
37.0740057779948
 20
3.47538993326825
 30
0.0
 10
37.66787133789068
 20
4.100292358398469
 30
0.0
 10
38.44244938151048
 20
4.102106201171893
 30
0.0
  0
SPLINE
  5
CD
330
76
100
AcDbEntity
  8
0
  6
Continuous
 62
     8
420
  8421504
370
     0
100
AcDbSpline
210
0.0
220
0.0
230
1.0
 70
     8
 71
     3
 72
     8
 73
     4
 74
     0
 42
0.00000001
 43
0.00000001
 40
1.0
 40
1.0
 40
1.0
 40
1.0
 40
2.0
 40
2.0
 40
2.0
 40
2.0
 10
17.11360656738284
 20
4.102106201171893
 30
0.0
 10
17.95684191894536
 20
4.100292358398469
 30
0.0
 10
18.26996492513022
 20
3.512808837890624
 30
0.0
 10
18.40002416992192
 20
2.906447916666679
 30
0.0
  0
SPLINE
  5
CE
330
76
100
AcDbEntity
  8
0
  6
Continuous
 62
     8
420
  8421504
370
     0
100
AcDbSpline
210
0.0
220
0.0
230
1.0
 70
     8
 71
     3
 72
     8
 73
     4
 74
     0
 42
0.00000001
 43
0.00000001
 40
5.0
 40
5.0
 40
5.0
 40
5.0
 40
6.0
 40
6.0
 40
6.0
 40
6.0
 10
0.0006046142578264
 20
2.342947428385422
 30
0.0
 10
0.0069194742838841
 20
0.8182446289062562
 30
0.0
 10
0.9118926595052257
 20
0.0
 30
0.0
 10
2.031168009440143
 20
0.0
 30
0.0
  0
SPLINE
  5
CF
330
76
100
AcDbEntity
  8
0
  6
Continuous
 62
     8
420
  8421504
370
     0
100
AcDbSpline
210
0.0
220
0.0
230
1.0
 70
     8
 71
     3
 72
     8
 73
     4
 74
     0
 42
0.00000001
 43
0.00000001
 40
6.0
 40
6.0
 40
6.0
 40
6.0
 40
7.0
 40
7.0
 40
7.0
 40
7.0
 10
9.038378540039083
 20
0.6274552408854217
 30
0.0
 10
9.407529134114606
 20
1.027172444661453
 30
0.0
 10
9.632311279296896
 20
1.616738525390626
 30
0.0
 10
9.632311279296896
 20
2.374924804687511
 30
0.0
  0
SPLINE
  5
D0
330
76
100
AcDbEntity
  8
0
  6
Continuous
 62
     8
420
  8421504
370
     0
100
AcDbSpline
210
0.0
220
0.0
230
1.0
 70
     8
 71
     3
 72
    11
 73
     7
 74
     0
 42
0.00000001
 43
0.00000001
 40
1.0
 40
1.0
 40
1.0
 40
1.0
 40
2.0
 40
2.0
 40
2.0
 40
3.0
 40
3.0
 40
3.0
 40
3.0
 10
2.78068815104171
 20
4.104255940755225
 30
0.0
 10
3.359438354492206
 20
3.885721476237003
 30
0.0
 10
3.758416585286501
 20
3.269686726888044
 30
0.0
 10
3.758416585286501
 20
2.358936116536495
 30
0.0
 10
3.758416585286501
 20
1.441400390625014
 30
0.0
 10
3.360110148111994
 20
0.8297994791666707
 30
0.0
 10
2.782031738281288
 20
0.61254142252605
 30
0.0
  0
SPLINE
  5
D1
330
76
100
AcDbEntity
  8
0
  6
Continuous
 62
     8
420
  8421504
370
     0
100
AcDbSpline
210
0.0
220
0.0
230
1.0
 70
     8
 71
     3
 72
     8
 73
     4
 74
     0
 42
0.00000001
 43
0.00000001
 40
0.0
 40
0.0
 40
0.0
 40
0.0
 40
1.0
 40
1.0
 40
1.0
 40
1.0
 10
38.44244938151048
 20
0.6476090494791781
 30
0.0
 10
37.66733390299481
 20
0.6497587890624962
 30
0.0
 10
37.0740057779948
 20
1.265524820963537
 30
0.0
 10
37.0703780924479
 20
2.374924804687511
 30
0.0
  0
SPLINE
  5
D2
330
76
100
AcDbEntity
  8
0
  6
Continuous
 62
     8
420
  8421504
370
     0
100
AcDbSpline
210
0.0
220
0.0
230
1.0
 70
     8
 71
     3
 72
     8
 73
     4
 74
     0
 42
0.00000001
 43
0.00000001
 40
3.0
 40
3.0
 40
3.0
 40
3.0
 40
4.0
 40
4.0
 40
4.0
 40
4.0
 10
25.73292024739587
 20
4.140331258138022
 30
0.0
 10
26.15762817382816
 20
4.136972290039065
 30
0.0
 10
26.43978149414067
 20
3.958208007812505
 30
0.0
 10
26.61928474934899
 20
3.656975748697916
 30
0.0
  0
SPLINE
  5
D3
330
76
100
AcDbEntity
  8
0
  6
Continuous
 62
     8
420
  8421504
370
     0
100
AcDbSpline
210
0.0
220
0.0
230
1.0
 70
     8
 71
     3
 72
     8
 73
     4
 74
     0
 42
0.00000001
 43
0.00000001
 40
0.0
 40
0.0
 40
0.0
 40
0.0
 40
1.0
 40
1.0
 40
1.0
 40
1.0
 10
21.82442496744796
 20
4.728150675455733
 30
0.0
 10
21.35228841145836
 20
4.729427083333348
 30
0.0
 10
20.8621477864584
 20
4.559060221354175
 30
0.0
 10
20.5614529622396
 20
4.108421061197909
 30
0.0
  0
SPLINE
  5
D4
330
76
100
AcDbEntity
  8
0
  6
Continuous
 62
     8
420
  8421504
370
     0
100
AcDbSpline
210
0.0
220
0.0
230
1.0
 70
     8
 71
     3
 72
     8
 73
     4
 74
     0
 42
0.00000001
 43
0.00000001
 40
21.0
 40
21.0
 40
21.0
 40
21.0
 40
22.0
 40
22.0
 40
22.0
 40
22.0
 10
42.01921297200523
 20
0.2488323567708256
 30
0.0
 10
42.17385986328126
 20
0.1375833333333298
 30
0.0
 10
42.37244205729168
 20
0.1101741536458228
 30
0.0
 10
42.57371142578126
 20
0.1099054361979185
 30
0.0
  0
SPLINE
  5
D5
330
76
100
AcDbEntity
  8
0
  6
Continuous
 62
     8
420
  8421504
370
     0
100
AcDbSpline
210
0.0
220
0.0
230
1.0
 70
     8
 71
     3
 72
     8
 73
     4
 74
     0
 42
0.00000001
 43
0.00000001
 40
13.0
 40
13.0
 40
13.0
 40
13.0
 40
14.0
 40
14.0
 40
14.0
 40
14.0
 10
25.53138216145839
 20
2.21396305338542
 30
0.0
 10
25.85585847981775
 20
2.148799072265631
 30
0.0
 10
26.17657275390628
 20
2.096667887369785
 30
0.0
 10
26.40686360677086
 20
1.985687581380208
 30
0.0
  0
SPLINE
  5
D6
330
76
100
AcDbEntity
  8
0
  6
Continuous
 62
     8
420
  8421504
370
     0
100
AcDbSpline
210
0.0
220
0.0
230
1.0
 70
     8
 71
     3
 72
     8
 73
     4
 74
     0
 42
0.00000001
 43
0.00000001
 40
11.0
 40
11.0
 40
11.0
 40
11.0
 40
12.0
 40
12.0
 40
12.0
 40
12.0
 10
23.42181583658853
 20
3.149032592773438
 30
0.0
 10
23.42181583658853
 20
3.60934558105469
 30
0.0
 10
23.30304272460942
 20
4.006106892903649
 30
0.0
 10
23.03949808756511
 20
4.287386881510424
 30
0.0
  0
SPLINE
  5
D7
330
76
100
AcDbEntity
  8
0
  6
Continuous
 62
     8
420
  8421504
370
     0
100
AcDbSpline
210
0.0
220
0.0
230
1.0
 70
     8
 71
     3
 72
     8
 73
     4
 74
     0
 42
0.00000001
 43
0.00000001
 40
0.0
 40
0.0
 40
0.0
 40
0.0
 40
1.0
 40
1.0
 40
1.0
 40
1.0
 10
15.82369563802086
 20
2.906447916666679
 30
0.0
 10
15.93440722656253
 20
3.583212809244785
 30
0.0
 10
16.39525764973962
 20
4.101098510742196
 30
0.0
 10
17.11360656738284
 20
4.102106201171893
 30
0.0
  0
SPLINE
  5
D8
330
76
100
AcDbEntity
  8
0
  6
Continuous
 62
     8
420
  8421504
370
     0
100
AcDbSpline
210
0.0
220
0.0
230
1.0
 70
     8
 71
     3
 72
     8
 73
     4
 74
     0
 42
0.00000001
 43
0.00000001
 40
14.0
 40
14.0
 40
14.0
 40
14.0
 40
15.0
 40
15.0
 40
15.0
 40
15.0
 10
26.40686360677086
 20
1.985687581380208
 30
0.0
 10
26.63715445963544
 20
1.871885742187496
 30
0.0
 10
26.7752752278646
 20
1.71911987304689
 30
0.0
 10
26.77796240234376
 20
1.414394287109377
 30
0.0
  0
SPLINE
  5
D9
330
76
100
AcDbEntity
  8
0
  6
Continuous
 62
     8
420
  8421504
370
     0
100
AcDbSpline
210
0.0
220
0.0
230
1.0
 70
     8
 71
     3
 72
     8
 73
     4
 74
     0
 42
0.00000001
 43
0.00000001
 40
10.0
 40
10.0
 40
10.0
 40
10.0
 40
11.0
 40
11.0
 40
11.0
 40
11.0
 10
37.00131770833337
 20
4.121991292317703
 30
0.0
 10
36.63277172851564
 20
3.722677164713556
 30
0.0
 10
36.40745214843749
 20
3.132775187174488
 30
0.0
 10
36.40745214843749
 20
2.374924804687511
 30
0.0
  0
SPLINE
  5
DA
330
76
100
AcDbEntity
  8
0
  6
Continuous
 62
     8
420
  8421504
370
     0
100
AcDbSpline
210
0.0
220
0.0
230
1.0
 70
     8
 71
     3
 72
     8
 73
     4
 74
     0
 42
0.00000001
 43
0.00000001
 40
7.0
 40
7.0
 40
7.0
 40
7.0
 40
8.0
 40
8.0
 40
8.0
 40
8.0
 10
9.632311279296896
 20
2.374924804687511
 30
0.0
 10
9.632311279296896
 20
3.132775187174488
 30
0.0
 10
9.407529134114606
 20
3.722677164713556
 30
0.0
 10
9.038378540039083
 20
4.121991292317703
 30
0.0
  0
SPLINE
  5
DB
330
76
100
AcDbEntity
  8
0
  6
Continuous
 62
     8
420
  8421504
370
     0
100
AcDbSpline
210
0.0
220
0.0
230
1.0
 70
     8
 71
     3
 72
     8
 73
     4
 74
     0
 42
0.00000001
 43
0.00000001
 40
6.0
 40
6.0
 40
6.0
 40
6.0
 40
7.0
 40
7.0
 40
7.0
 40
7.0
 10
2.031168009440143
 20
0.0
 30
0.0
 10
2.114134521484401
 20
0.0
 30
0.0
 10
2.197101033528659
 20
0.0030902506510527
 30
0.0
 10
2.280067545572972
 20
0.0088676757812461
 30
0.0
  0
SPLINE
  5
DC
330
76
100
AcDbEntity
  8
0
  6
Continuous
 62
     8
420
  8421504
370
     0
100
AcDbSpline
210
0.0
220
0.0
230
1.0
 70
     8
 71
     3
 72
     8
 73
     4
 74
     0
 42
0.00000001
 43
0.00000001
 40
12.0
 40
12.0
 40
12.0
 40
12.0
 40
13.0
 40
13.0
 40
13.0
 40
13.0
 10
18.36341141764325
 20
1.491650553385432
 30
0.0
 10
18.18061637369794
 20
0.9786689453124969
 30
0.0
 10
17.80501656087241
 20
0.658357747395838
 30
0.0
 10
17.16123673502607
 20
0.6476090494791781
 30
0.0
  0
SPLINE
  5
DD
330
76
100
AcDbEntity
  8
0
  6
Continuous
 62
     8
420
  8421504
370
     0
100
AcDbSpline
210
0.0
220
0.0
230
1.0
 70
     8
 71
     3
 72
     8
 73
     4
 74
     0
 42
0.00000001
 43
0.00000001
 40
5.0
 40
5.0
 40
5.0
 40
5.0
 40
6.0
 40
6.0
 40
6.0
 40
6.0
 10
4.484222412109412
 20
2.358936116536467
 30
0.0
 10
4.480460367838557
 20
3.490303751627608
 30
0.0
 10
3.870068684895867
 20
4.133546142578118
 30
0.0
 10
3.072918375651073
 20
4.135091267903651
 30
0.0
  0
SPLINE
  5
DE
330
76
100
AcDbEntity
  8
0
  6
Continuous
 62
     8
420
  8421504
370
     0
100
AcDbSpline
210
0.0
220
0.0
230
1.0
 70
     8
 71
     3
 72
     8
 73
     4
 74
     0
 42
0.00000001
 43
0.00000001
 40
6.0
 40
6.0
 40
6.0
 40
6.0
 40
7.0
 40
7.0
 40
7.0
 40
7.0
 10
12.34555135091148
 20
0.0213630371093815
 30
0.0
 10
13.29291471354169
 20
0.0213630371093815
 30
0.0
 10
14.10538191731775
 20
0.5887599283854184
 30
0.0
 10
14.31592203776044
 20
1.709446044921861
 30
0.0
  0
SPLINE
  5
DF
330
76
100
AcDbEntity
  8
0
  6
Continuous
 62
     8
420
  8421504
370
     0
100
AcDbSpline
210
0.0
220
0.0
230
1.0
 70
     8
 71
     3
 72
     8
 73
     4
 74
     0
 42
0.00000001
 43
0.00000001
 40
7.0
 40
7.0
 40
7.0
 40
7.0
 40
8.0
 40
8.0
 40
8.0
 40
8.0
 10
31.74708544921878
 20
3.631313232421871
 30
0.0
 10
31.34669645182292
 20
4.552275105794271
 30
0.0
 10
30.60342399088545
 20
4.731308105468749
 30
0.0
 10
30.04704451497398
 20
4.728150675455733
 30
0.0
  0
SPLINE
  5
E0
330
76
100
AcDbEntity
  8
0
  6
Continuous
 62
     8
420
  8421504
370
     0
100
AcDbSpline
210
0.0
220
0.0
230
1.0
 70
     8
 71
     3
 72
     8
 73
     4
 74
     0
 42
0.00000001
 43
0.00000001
 40
3.0
 40
3.0
 40
3.0
 40
3.0
 40
4.0
 40
4.0
 40
4.0
 40
4.0
 10
29.97462516276045
 20
4.102106201171893
 30
0.0
 10
30.48680061848963
 20
4.100292358398469
 30
0.0
 10
30.87697835286463
 20
3.949541870117188
 30
0.0
 10
31.04989803059899
 20
3.587915364583347
 30
0.0
  0
SPLINE
  5
E1
330
76
100
AcDbEntity
  8
0
  6
Continuous
 62
     8
420
  8421504
370
     0
100
AcDbSpline
210
0.0
220
0.0
230
1.0
 70
     8
 71
     3
 72
     8
 73
     4
 74
     0
 42
0.00000001
 43
0.00000001
 40
20.0
 40
20.0
 40
20.0
 40
20.0
 40
21.0
 40
21.0
 40
21.0
 40
21.0
 10
24.03180444335939
 20
1.303279622395834
 30
0.0
 10
24.2849362792969
 20
0.4874534505208278
 30
0.0
 10
25.03210514322923
 20
0.0353363444010463
 30
0.0
 10
25.74474381510422
 20
0.0114204915364485
 30
0.0
  0
SPLINE
  5
E2
330
76
100
AcDbEntity
  8
0
  6
Continuous
 62
     8
420
  8421504
370
     0
100
AcDbSpline
210
0.0
220
0.0
230
1.0
 70
     8
 71
     3
 72
     8
 73
     4
 74
     0
 42
0.00000001
 43
0.00000001
 40
0.0
 40
0.0
 40
0.0
 40
0.0
 40
1.0
 40
1.0
 40
1.0
 40
1.0
 10
19.14860380045574
 20
2.395347330729172
 30
0.0
 10
19.10755721028651
 20
3.703060791015622
 30
0.0
 10
18.44348921712247
 20
4.731039388020831
 30
0.0
 10
17.11360656738284
 20
4.728620930989594
 30
0.0
  0
SPLINE
  5
E3
330
76
100
AcDbEntity
  8
0
  6
Continuous
 62
     8
420
  8421504
370
     0
100
AcDbSpline
210
0.0
220
0.0
230
1.0
 70
     8
 71
     3
 72
     8
 73
     4
 74
     0
 42
0.00000001
 43
0.00000001
 40
12.0
 40
12.0
 40
12.0
 40
12.0
 40
13.0
 40
13.0
 40
13.0
 40
13.0
 10
24.19128824869793
 20
3.454698689778657
 30
0.0
 10
24.18886979166673
 20
2.544216796875012
 30
0.0
 10
24.88820694986982
 20
2.337170003255201
 30
0.0
 10
25.53138216145839
 20
2.21396305338542
 30
0.0
  0
SPLINE
  5
E4
330
76
100
AcDbEntity
  8
0
  6
Continuous
 62
     8
420
  8421504
370
     0
100
AcDbSpline
210
0.0
220
0.0
230
1.0
 70
     8
 71
     3
 72
     8
 73
     4
 74
     0
 42
0.00000001
 43
0.00000001
 40
15.0
 40
15.0
 40
15.0
 40
15.0
 40
16.0
 40
16.0
 40
16.0
 40
16.0
 10
26.77796240234376
 20
1.414394287109377
 30
0.0
 10
26.77769368489585
 20
0.7505278320312503
 30
0.0
 10
26.24093058268234
 20
0.5987024739583374
 30
0.0
 10
25.79203808593755
 20
0.5801609700520766
 30
0.0
  0
SPLINE
  5
E5
330
76
100
AcDbEntity
  8
0
  6
Continuous
 62
     8
420
  8421504
370
     0
100
AcDbSpline
210
0.0
220
0.0
230
1.0
 70
     8
 71
     3
 72
     8
 73
     4
 74
     0
 42
0.00000001
 43
0.00000001
 40
6.0
 40
6.0
 40
6.0
 40
6.0
 40
7.0
 40
7.0
 40
7.0
 40
7.0
 10
17.14806958007817
 20
0.0221691894531223
 30
0.0
 10
17.15707161458338
 20
0.0221691894531223
 30
0.0
 10
17.16936543782555
 20
0.0213630371093815
 30
0.0
 10
17.18374182128909
 20
0.0213630371093815
 30
0.0
  0
SPLINE
  5
E6
330
76
100
AcDbEntity
  8
0
  6
Continuous
 62
     8
420
  8421504
370
     0
100
AcDbSpline
210
0.0
220
0.0
230
1.0
 70
     8
 71
     3
 72
     8
 73
     4
 74
     0
 42
0.00000001
 43
0.00000001
 40
2.0
 40
2.0
 40
2.0
 40
2.0
 40
3.0
 40
3.0
 40
3.0
 40
3.0
 10
28.54786987304692
 20
2.374924804687511
 30
0.0
 10
28.55096012369795
 20
3.552310302734369
 30
0.0
 10
29.25862752278652
 20
4.099284667968758
 30
0.0
 10
29.97462516276045
 20
4.102106201171893
 30
0.0
  0
SPLINE
  5
E7
330
76
100
AcDbEntity
  8
0
  6
Continuous
 62
     8
420
  8421504
370
     0
100
AcDbSpline
210
0.0
220
0.0
230
1.0
 70
     8
 71
     3
 72
     8
 73
     4
 74
     0
 42
0.00000001
 43
0.00000001
 40
1.0
 40
1.0
 40
1.0
 40
1.0
 40
2.0
 40
2.0
 40
2.0
 40
2.0
 10
25.22343196614585
 20
2.941784261067698
 30
0.0
 10
24.99045393880212
 20
3.047457397460942
 30
0.0
 10
24.8559608561198
 20
3.179397664388031
 30
0.0
 10
24.85381111653651
 20
3.43662744140627
 30
0.0
  0
SPLINE
  5
E8
330
76
100
AcDbEntity
  8
0
  6
Continuous
 62
     8
420
  8421504
370
     0
100
AcDbSpline
210
0.0
220
0.0
230
1.0
 70
     8
 71
     3
 72
     8
 73
     4
 74
     0
 42
0.00000001
 43
0.00000001
 40
7.0
 40
7.0
 40
7.0
 40
7.0
 40
8.0
 40
8.0
 40
8.0
 40
8.0
 10
21.75140100097656
 20
4.102106201171893
 30
0.0
 10
22.42581461588544
 20
4.091155965169277
 30
0.0
 10
22.74793965657551
 20
3.851930257161462
 30
0.0
 10
22.75922578938805
 20
2.984913411458332
 30
0.0
  0
SPLINE
  5
E9
330
76
100
AcDbEntity
  8
0
  6
Continuous
 62
     8
420
  8421504
370
     0
100
AcDbSpline
210
0.0
220
0.0
230
1.0
 70
     8
 71
     3
 72
     8
 73
     4
 74
     0
 42
0.00000001
 43
0.00000001
 40
1.0
 40
1.0
 40
1.0
 40
1.0
 40
2.0
 40
2.0
 40
2.0
 40
2.0
 10
6.225242757161492
 20
2.374924804687511
 30
0.0
 10
6.229004801432319
 20
3.47538993326825
 30
0.0
 10
6.82280318196618
 20
4.100292358398455
 30
0.0
 10
7.597314046223991
 20
4.102106201171865
 30
0.0
  0
SPLINE
  5
EA
330
76
100
AcDbEntity
  8
0
  6
Continuous
 62
     8
420
  8421504
370
     0
100
AcDbSpline
210
0.0
220
0.0
230
1.0
 70
     8
 71
     3
 72
     8
 73
     4
 74
     0
 42
0.00000001
 43
0.00000001
 40
8.0
 40
8.0
 40
8.0
 40
8.0
 40
9.0
 40
9.0
 40
9.0
 40
9.0
 10
17.18857873535159
 20
0.0213630371093815
 30
0.0
 10
18.05525968424482
 20
0.0213630371093815
 30
0.0
 10
18.79960701497402
 20
0.5244020996093696
 30
0.0
 10
19.08646289062504
 20
1.455508056640617
 30
0.0
  0
SPLINE
  5
EB
330
76
100
AcDbEntity
  8
0
  6
Continuous
 62
     8
420
  8421504
370
     0
100
AcDbSpline
210
0.0
220
0.0
230
1.0
 70
     8
 71
     3
 72
     8
 73
     4
 74
     0
 42
0.00000001
 43
0.00000001
 40
8.0
 40
8.0
 40
8.0
 40
8.0
 40
9.0
 40
9.0
 40
9.0
 40
9.0
 10
25.76274788411459
 20
4.716125569661458
 30
0.0
 10
25.74649047851568
 20
4.716125569661458
 30
0.0
 10
25.73292024739587
 20
4.715050699869799
 30
0.0
 10
25.72109667968753
 20
4.715050699869799
 30
0.0
  0
SPLINE
  5
EC
330
76
100
AcDbEntity
  8
0
  6
Continuous
 62
     8
420
  8421504
370
     0
100
AcDbSpline
210
0.0
220
0.0
230
1.0
 70
     8
 71
     3
 72
     8
 73
     4
 74
     0
 42
0.00000001
 43
0.00000001
 40
20.0
 40
20.0
 40
20.0
 40
20.0
 40
21.0
 40
21.0
 40
21.0
 40
21.0
 10
41.76849959309897
 20
0.8538496907552207
 30
0.0
 10
41.7674247233073
 20
0.5558420410156223
 30
0.0
 10
41.86375992838548
 20
0.3600813802083214
 30
0.0
 10
42.01921297200523
 20
0.2488323567708256
 30
0.0
  0
SPLINE
  5
ED
330
76
100
AcDbEntity
  8
0
  6
Continuous
 62
     8
420
  8421504
370
     0
100
AcDbSpline
210
0.0
220
0.0
230
1.0
 70
     8
 71
     3
 72
     8
 73
     4
 74
     0
 42
0.00000001
 43
0.00000001
 40
2.0
 40
2.0
 40
2.0
 40
2.0
 40
3.0
 40
3.0
 40
3.0
 40
3.0
 10
5.562719889322942
 20
2.374924804687511
 30
0.0
 10
5.56258553059899
 20
1.616738525390626
 30
0.0
 10
5.78736767578128
 20
1.027172444661453
 30
0.0
 10
6.156383911132823
 20
0.6274552408854217
 30
0.0
  0
SPLINE
  5
EE
330
76
100
AcDbEntity
  8
0
  6
Continuous
 62
     8
420
  8421504
370
     0
100
AcDbSpline
210
0.0
220
0.0
230
1.0
 70
     8
 71
     3
 72
     8
 73
     4
 74
     0
 42
0.00000001
 43
0.00000001
 40
8.0
 40
8.0
 40
8.0
 40
8.0
 40
9.0
 40
9.0
 40
9.0
 40
9.0
 10
30.04704451497398
 20
4.728150675455733
 30
0.0
 10
28.75840999348961
 20
4.731308105468749
 30
0.0
 10
27.89932031250003
 20
3.773464762369796
 30
0.0
 10
27.88521264648442
 20
2.375462239583334
 30
0.0
  0
SPLINE
  5
EF
330
76
100
AcDbEntity
  8
0
  6
Continuous
 62
     8
420
  8421504
370
     0
100
AcDbSpline
210
0.0
220
0.0
230
1.0
 70
     8
 71
     3
 72
     8
 73
     4
 74
     0
 42
0.00000001
 43
0.00000001
 40
14.0
 40
14.0
 40
14.0
 40
14.0
 40
15.0
 40
15.0
 40
15.0
 40
15.0
 10
17.14827111816408
 20
0.6478777669270824
 30
0.0
 10
16.2179713134766
 20
0.657282877604165
 30
0.0
 10
15.82094128417971
 20
1.317387288411478
 30
0.0
 10
15.81482796223962
 20
2.27469319661458
 30
0.0
  0
SPLINE
  5
F0
330
76
100
AcDbEntity
  8
0
  6
Continuous
 62
     8
420
  8421504
370
     0
100
AcDbSpline
210
0.0
220
0.0
230
1.0
 70
     8
 71
     3
 72
     8
 73
     4
 74
     0
 42
0.00000001
 43
0.00000001
 40
2.0
 40
2.0
 40
2.0
 40
2.0
 40
3.0
 40
3.0
 40
3.0
 40
3.0
 10
15.67294514973963
 20
4.121991292317703
 30
0.0
 10
15.30392891438806
 20
3.722677164713556
 30
0.0
 10
15.07874369303389
 20
3.132775187174488
 30
0.0
 10
15.07914676920577
 20
2.374387369791661
 30
0.0
  0
SPLINE
  5
F1
330
76
100
AcDbEntity
  8
0
  6
Continuous
 62
     8
420
  8421504
370
     0
100
AcDbSpline
210
0.0
220
0.0
230
1.0
 70
     8
 71
     3
 72
     8
 73
     4
 74
     0
 42
0.00000001
 43
0.00000001
 40
3.0
 40
3.0
 40
3.0
 40
3.0
 40
4.0
 40
4.0
 40
4.0
 40
4.0
 10
2.782031738281288
 20
0.61254142252605
 30
0.0
 10
2.875411051432325
 20
0.592656331380198
 30
0.0
 10
2.97268676757817
 20
0.5827137858072928
 30
0.0
 10
3.072918375651073
 20
0.5823107096354085
 30
0.0
  0
SPLINE
  5
F2
330
76
100
AcDbEntity
  8
0
  6
Continuous
 62
     8
420
  8421504
370
     0
100
AcDbSpline
210
0.0
220
0.0
230
1.0
 70
     8
 71
     3
 72
     8
 73
     4
 74
     0
 42
0.00000001
 43
0.00000001
 40
2.0
 40
2.0
 40
2.0
 40
2.0
 40
3.0
 40
3.0
 40
3.0
 40
3.0
 10
24.85381111653651
 20
3.43662744140627
 30
0.0
 10
24.86281315104172
 20
3.834396443684898
 30
0.0
 10
25.00859236653647
 20
4.105532348632812
 30
0.0
 10
25.73292024739587
 20
4.140331258138022
 30
0.0
  0
SPLINE
  5
F3
330
76
100
AcDbEntity
  8
0
  6
Continuous
 62
     8
420
  8421504
370
     0
100
AcDbSpline
210
0.0
220
0.0
230
1.0
 70
     8
 71
     3
 72
     8
 73
     4
 74
     0
 42
0.00000001
 43
0.00000001
 40
3.0
 40
3.0
 40
3.0
 40
3.0
 40
4.0
 40
4.0
 40
4.0
 40
4.0
 10
8.9693181559245
 20
2.374924804687511
 30
0.0
 10
8.965757649739615
 20
1.265524820963537
 30
0.0
 10
8.372631062825542
 20
0.6497587890624962
 30
0.0
 10
7.597314046223991
 20
0.6473403320312598
 30
0.0
  0
SPLINE
  5
F4
330
76
100
AcDbEntity
  8
0
  6
Continuous
 62
     8
420
  8421504
370
     0
100
AcDbSpline
210
0.0
220
0.0
230
1.0
 70
     8
 71
     3
 72
     8
 73
     4
 74
     0
 42
0.00000001
 43
0.00000001
 40
0.0
 40
0.0
 40
0.0
 40
0.0
 40
1.0
 40
1.0
 40
1.0
 40
1.0
 10
31.10619433593753
 20
1.32491137695312
 30
0.0
 10
30.92010750325525
 20
0.9410485026041526
 30
0.0
 10
30.58179223632818
 20
0.6500275065104283
 30
0.0
 10
29.91994116210939
 20
0.6473403320312598
 30
0.0
  0
SPLINE
  5
F5
330
76
100
AcDbEntity
  8
0
  6
Continuous
 62
     8
420
  8421504
370
     0
100
AcDbSpline
210
0.0
220
0.0
230
1.0
 70
     8
 71
     3
 72
     8
 73
     4
 74
     0
 42
0.00000001
 43
0.00000001
 40
0.0
 40
0.0
 40
0.0
 40
0.0
 40
1.0
 40
1.0
 40
1.0
 40
1.0
 10
7.597314046223991
 20
0.6473403320312598
 30
0.0
 10
6.822332926432306
 20
0.6497587890624962
 30
0.0
 10
6.229273518880252
 20
1.265524820963537
 30
0.0
 10
6.225242757161492
 20
2.374924804687511
 30
0.0
  0
SPLINE
  5
F6
330
76
100
AcDbEntity
  8
0
  6
Continuous
 62
     8
420
  8421504
370
     0
100
AcDbSpline
210
0.0
220
0.0
230
1.0
 70
     8
 71
     3
 72
     8
 73
     4
 74
     0
 42
0.00000001
 43
0.00000001
 40
7.0
 40
7.0
 40
7.0
 40
7.0
 40
8.0
 40
8.0
 40
8.0
 40
8.0
 10
14.31592203776044
 20
1.709446044921861
 30
0.0
 10
14.35723734537764
 20
1.929256917317712
 30
0.0
 10
14.37188244628909
 20
2.175805175781267
 30
0.0
 10
14.37188244628909
 20
2.301564941406236
 30
0.0
  0
SPLINE
  5
F7
330
76
100
AcDbEntity
  8
0
  6
Continuous
 62
     8
420
  8421504
370
     0
100
AcDbSpline
210
0.0
220
0.0
230
1.0
 70
     8
 71
     3
 72
     8
 73
     4
 74
     0
 42
0.00000001
 43
0.00000001
 40
7.0
 40
7.0
 40
7.0
 40
7.0
 40
8.0
 40
8.0
 40
8.0
 40
8.0
 10
27.25869791666668
 20
3.709845906575512
 30
0.0
 10
26.96969230143231
 20
4.365382120768244
 30
0.0
 10
26.40552001953128
 20
4.717133260091141
 30
0.0
 10
25.76274788411459
 20
4.716125569661458
 30
0.0
  0
SPLINE
  5
F8
330
76
100
AcDbEntity
  8
0
  6
Continuous
 62
     8
420
  8421504
370
     0
100
AcDbSpline
210
0.0
220
0.0
230
1.0
 70
     8
 71
     3
 72
     8
 73
     4
 74
     0
 42
0.00000001
 43
0.00000001
 40
1.0
 40
1.0
 40
1.0
 40
1.0
 40
2.0
 40
2.0
 40
2.0
 40
2.0
 10
6.156383911132823
 20
4.121991292317703
 30
0.0
 10
5.78736767578128
 20
3.722677164713556
 30
0.0
 10
5.56258553059899
 20
3.132775187174488
 30
0.0
 10
5.562719889322942
 20
2.374924804687511
 30
0.0
  0
SPLINE
  5
F9
330
76
100
AcDbEntity
  8
0
  6
Continuous
 62
     8
420
  8421504
370
     0
100
AcDbSpline
210
0.0
220
0.0
230
1.0
 70
     8
 71
     3
 72
     8
 73
     4
 74
     0
 42
0.00000001
 43
0.00000001
 40
0.0
 40
0.0
 40
0.0
 40
0.0
 40
1.0
 40
1.0
 40
1.0
 40
1.0
 10
26.10213802083333
 20
2.708537516276047
 30
0.0
 10
25.77739298502607
 20
2.783375325520837
 30
0.0
 10
25.45546948242189
 20
2.838596761067707
 30
0.0
 10
25.22343196614585
 20
2.941784261067698
 30
0.0
  0
SPLINE
  5
FA
330
76
100
AcDbEntity
  8
0
  6
Continuous
 62
     8
420
  8421504
370
     0
100
AcDbSpline
210
0.0
220
0.0
230
1.0
 70
     8
 71
     3
 72
     8
 73
     4
 74
     0
 42
0.00000001
 43
0.00000001
 40
7.0
 40
7.0
 40
7.0
 40
7.0
 40
8.0
 40
8.0
 40
8.0
 40
8.0
 10
34.11703898111984
 20
4.102106201171893
 30
0.0
 10
34.79098234049482
 20
4.090887247721373
 30
0.0
 10
35.11317456054691
 20
3.851930257161462
 30
0.0
 10
35.12419197591149
 20
2.985450846354182
 30
0.0
  0
SPLINE
  5
FB
330
76
100
AcDbEntity
  8
0
  6
Continuous
 62
     8
420
  8421504
370
     0
100
AcDbSpline
210
0.0
220
0.0
230
1.0
 70
     8
 71
     3
 72
     8
 73
     4
 74
     0
 42
0.00000001
 43
0.00000001
 40
4.0
 40
4.0
 40
4.0
 40
4.0
 40
5.0
 40
5.0
 40
5.0
 40
5.0
 10
3.072918375651073
 20
0.5823107096354085
 30
0.0
 10
3.870538940429741
 20
0.5843260904947883
 30
0.0
 10
4.4800572916667
 20
1.218499267578124
 30
0.0
 10
4.484222412109412
 20
2.358936116536467
 30
0.0
  0
SPLINE
  5
FC
330
76
100
AcDbEntity
  8
0
  6
Continuous
 62
     8
420
  8421504
370
     0
100
AcDbSpline
210
0.0
220
0.0
230
1.0
 70
     8
 71
     3
 72
     8
 73
     4
 74
     0
 42
0.00000001
 43
0.00000001
 40
4.0
 40
4.0
 40
4.0
 40
4.0
 40
5.0
 40
5.0
 40
5.0
 40
5.0
 10
15.67294514973963
 20
0.6274552408854217
 30
0.0
 10
16.04169266764327
 20
0.2281411132812466
 30
0.0
 10
16.55319632975266
 20
0.0210943196614632
 30
0.0
 10
17.11360656738284
 20
0.0213630371093815
 30
0.0
  0
SPLINE
  5
FD
330
76
100
AcDbEntity
  8
0
  6
Continuous
 62
     8
420
  8421504
370
     0
100
AcDbSpline
210
0.0
220
0.0
230
1.0
 70
     8
 71
     3
 72
     8
 73
     4
 74
     0
 42
0.00000001
 43
0.00000001
 40
1.0
 40
1.0
 40
1.0
 40
1.0
 40
2.0
 40
2.0
 40
2.0
 40
2.0
 10
12.33843033854171
 20
4.728620930989594
 30
0.0
 10
11.77761702473962
 20
4.728620930989594
 30
0.0
 10
11.2662477213542
 20
4.522178751627623
 30
0.0
 10
10.89743302408858
 20
4.121991292317703
 30
0.0
  0
SPLINE
  5
FE
330
76
100
AcDbEntity
  8
0
  6
Continuous
 62
     8
420
  8421504
370
     0
100
AcDbSpline
210
0.0
220
0.0
230
1.0
 70
     8
 71
     3
 72
     8
 73
     4
 74
     0
 42
0.00000001
 43
0.00000001
 40
1.0
 40
1.0
 40
1.0
 40
1.0
 40
2.0
 40
2.0
 40
2.0
 40
2.0
 10
29.91994116210939
 20
0.6473403320312598
 30
0.0
 10
29.26091162109379
 20
0.6494900716145918
 30
0.0
 10
28.55015397135418
 20
1.197270589192695
 30
0.0
 10
28.54786987304692
 20
2.374924804687511
 30
0.0
  0
SPLINE
  5
FF
330
76
100
AcDbEntity
  8
0
  6
Continuous
 62
     8
420
  8421504
370
     0
100
AcDbSpline
210
0.0
220
0.0
230
1.0
 70
    24
 71
     2
 72
     6
 73
     3
 74
     0
 42
0.00000001
 43
0.00000001
 40
24.0
 40
24.0
 40
24.0
 40
25.0
 40
25.0
 40
25.0
 10
43.15817187500004
 20
0.67380900065106
 30
0.0
 10
42.94333227539065
 20
0.67380900065106
 30
0.0
 10
42.6923501790365
 20
0.67380900065106
 30
0.0
  0
SPLINE
  5
100
330
76
100
AcDbEntity
  8
0
  6
Continuous
 62
     8
420
  8421504
370
     0
100
AcDbSpline
210
0.0
220
0.0
230
1.0
 70
     8
 71
     3
 72
     8
 73
     4
 74
     0
 42
0.00000001
 43
0.00000001
 40
7.0
 40
7.0
 40
7.0
 40
7.0
 40
8.0
 40
8.0
 40
8.0
 40
8.0
 10
2.280067545572972
 20
0.0088676757812461
 30
0.0
 10
1.401764567057318
 20
0.2313657226562377
 30
0.0
 10
0.7479078369140857
 20
1.020320149739601
 30
0.0
 10
0.7272837727864967
 20
2.284904459635417
 30
0.0
  0
SPLINE
  5
101
330
76
100
AcDbEntity
  8
0
  6
Continuous
 62
     8
420
  8421504
370
     0
100
AcDbSpline
210
0.0
220
0.0
230
1.0
 70
     8
 71
     3
 72
     8
 73
     4
 74
     0
 42
0.00000001
 43
0.00000001
 40
12.0
 40
12.0
 40
12.0
 40
12.0
 40
13.0
 40
13.0
 40
13.0
 40
13.0
 10
23.03949808756511
 20
4.287386881510424
 30
0.0
 10
22.77622216796876
 20
4.569540201822917
 30
0.0
 10
22.37213830566409
 20
4.728889648437498
 30
0.0
 10
21.82442496744796
 20
4.728150675455733
 30
0.0
  0
SPLINE
  5
102
330
76
100
AcDbEntity
  8
0
  6
Continuous
 62
     8
420
  8421504
370
     0
100
AcDbSpline
210
0.0
220
0.0
230
1.0
 70
     8
 71
     3
 72
     8
 73
     4
 74
     0
 42
0.00000001
 43
0.00000001
 40
3.0
 40
3.0
 40
3.0
 40
3.0
 40
4.0
 40
4.0
 40
4.0
 40
4.0
 10
15.07914676920577
 20
2.374387369791661
 30
0.0
 10
15.07874369303389
 20
1.616738525390626
 30
0.0
 10
15.30392891438806
 20
1.027172444661453
 30
0.0
 10
15.67294514973963
 20
0.6274552408854217
 30
0.0
  0
SPLINE
  5
103
330
76
100
AcDbEntity
  8
0
  6
Continuous
 62
     8
420
  8421504
370
     0
100
AcDbSpline
210
0.0
220
0.0
230
1.0
 70
     8
 71
     3
 72
     8
 73
     4
 74
     0
 42
0.00000001
 43
0.00000001
 40
0.0
 40
0.0
 40
0.0
 40
0.0
 40
1.0
 40
1.0
 40
1.0
 40
1.0
 10
12.33843033854168
 20
0.6476090494791851
 30
0.0
 10
11.56291178385418
 20
0.6497587890625032
 30
0.0
 10
10.97012109375003
 20
1.265524820963551
 30
0.0
 10
10.96635904947918
 20
2.374924804687511
 30
0.0
  0
SPLINE
  5
104
330
76
100
AcDbEntity
  8
0
  6
Continuous
 62
     8
420
  8421504
370
     0
100
AcDbSpline
210
0.0
220
0.0
230
1.0
 70
     8
 71
     3
 72
     8
 73
     4
 74
     0
 42
0.00000001
 43
0.00000001
 40
1.0
 40
1.0
 40
1.0
 40
1.0
 40
2.0
 40
2.0
 40
2.0
 40
2.0
 10
10.96635904947921
 20
2.374924804687505
 30
0.0
 10
10.96991955566412
 20
3.475389933268257
 30
0.0
 10
11.56331486002607
 20
4.100292358398463
 30
0.0
 10
12.33843033854171
 20
4.102106201171893
 30
0.0
  0
SPLINE
  5
105
330
76
100
AcDbEntity
  8
0
  6
Continuous
 62
     8
420
  8421504
370
     0
100
AcDbSpline
210
0.0
220
0.0
230
1.0
 70
     8
 71
     3
 72
     8
 73
     4
 74
     0
 42
0.00000001
 43
0.00000001
 40
0.0
 40
0.0
 40
0.0
 40
0.0
 40
1.0
 40
1.0
 40
1.0
 40
1.0
 10
7.597314046223991
 20
4.728150675455733
 30
0.0
 10
7.036769449869834
 20
4.728620930989594
 30
0.0
 10
6.52513142903649
 20
4.522178751627623
 30
0.0
 10
6.156383911132823
 20
4.121991292317703
 30
0.0
  0
SPLINE
  5
106
330
76
100
AcDbEntity
  8
0
  6
Continuous
 62
     8
420
  8421504
370
     0
100
AcDbSpline
210
0.0
220
0.0
230
1.0
 70
     8
 71
     3
 72
     8
 73
     4
 74
     0
 42
0.00000001
 43
0.00000001
 40
8.0
 40
8.0
 40
8.0
 40
8.0
 40
9.0
 40
9.0
 40
9.0
 40
9.0
 10
39.80068172200524
 20
4.202136271158855
 30
0.0
 10
39.43979418945315
 20
4.548042805989583
 30
0.0
 10
38.96308943684895
 20
4.728620930989594
 30
0.0
 10
38.44244938151048
 20
4.728150675455733
 30
0.0
  0
SPLINE
  5
107
330
76
100
AcDbEntity
  8
0
  6
Continuous
 62
     8
420
  8421504
370
     0
100
AcDbSpline
210
0.0
220
0.0
230
1.0
 70
     8
 71
     3
 72
     8
 73
     4
 74
     0
 42
0.00000001
 43
0.00000001
 40
9.0
 40
9.0
 40
9.0
 40
9.0
 40
10.0
 40
10.0
 40
10.0
 40
10.0
 10
38.44244938151048
 20
4.728150675455733
 30
0.0
 10
37.88190478515624
 20
4.728620930989594
 30
0.0
 10
37.37026676432292
 20
4.522178751627623
 30
0.0
 10
37.00131770833337
 20
4.121991292317703
 30
0.0
  0
SPLINE
  5
108
330
76
100
AcDbEntity
  8
0
  6
Continuous
 62
     8
420
  8421504
370
     0
100
AcDbSpline
210
0.0
220
0.0
230
1.0
 70
     8
 71
     3
 72
     8
 73
     4
 74
     0
 42
0.00000001
 43
0.00000001
 40
0.0
 40
0.0
 40
0.0
 40
0.0
 40
1.0
 40
1.0
 40
1.0
 40
1.0
 10
3.072918375651073
 20
4.135091267903651
 30
0.0
 10
2.972149332682333
 20
4.134822550455733
 30
0.0
 10
2.874537719726566
 20
4.124409749348967
 30
0.0
 10
2.78068815104171
 20
4.104255940755225
 30
0.0
  0
SPLINE
  5
109
330
76
100
AcDbEntity
  8
0
  6
Continuous
 62
     8
420
  8421504
370
     0
100
AcDbSpline
210
0.0
220
0.0
230
1.0
 70
     8
 71
     3
 72
     8
 73
     4
 74
     0
 42
0.00000001
 43
0.00000001
 40
8.0
 40
8.0
 40
8.0
 40
8.0
 40
9.0
 40
9.0
 40
9.0
 40
9.0
 10
9.038378540039083
 20
4.121991292317703
 30
0.0
 10
8.669295125325549
 20
4.522178751627623
 30
0.0
 10
8.157925821940138
 20
4.728620930989594
 30
0.0
 10
7.597314046223991
 20
4.728150675455733
 30
0.0
  0
SPLINE
  5
10A
330
76
100
AcDbEntity
  8
0
  6
Continuous
 62
     8
420
  8421504
370
     0
100
AcDbSpline
210
0.0
220
0.0
230
1.0
 70
     8
 71
     3
 72
     8
 73
     4
 74
     0
 42
0.00000001
 43
0.00000001
 40
3.0
 40
3.0
 40
3.0
 40
3.0
 40
4.0
 40
4.0
 40
4.0
 40
4.0
 10
38.44244938151048
 20
4.102106201171893
 30
0.0
 10
39.2168930664063
 20
4.100292358398469
 30
0.0
 10
39.81062426757814
 20
3.47538993326825
 30
0.0
 10
39.81465502929687
 20
2.374924804687511
 30
0.0
  0
SPLINE
  5
10B
330
76
100
AcDbEntity
  8
0
  6
Continuous
 62
     8
420
  8421504
370
     0
100
AcDbSpline
210
0.0
220
0.0
230
1.0
 70
     8
 71
     3
 72
     8
 73
     4
 74
     0
 42
0.00000001
 43
0.00000001
 40
2.0
 40
2.0
 40
2.0
 40
2.0
 40
3.0
 40
3.0
 40
3.0
 40
3.0
 10
10.89743302408858
 20
4.121991292317703
 30
0.0
 10
10.5281480712891
 20
3.722677164713556
 30
0.0
 10
10.30343310546877
 20
3.132775187174488
 30
0.0
 10
10.30343310546877
 20
2.374924804687511
 30
0.0
  0
SPLINE
  5
10C
330
76
100
AcDbEntity
  8
0
  6
Continuous
 62
     8
420
  8421504
370
     0
100
AcDbSpline
210
0.0
220
0.0
230
1.0
 70
     8
 71
     3
 72
     8
 73
     4
 74
     0
 42
0.00000001
 43
0.00000001
 40
4.0
 40
4.0
 40
4.0
 40
4.0
 40
5.0
 40
5.0
 40
5.0
 40
5.0
 10
39.81465502929687
 20
2.374924804687511
 30
0.0
 10
39.81062426757814
 20
1.265524820963537
 30
0.0
 10
39.21743050130211
 20
0.6497587890624962
 30
0.0
 10
38.44244938151048
 20
0.6476090494791781
 30
0.0
  0
SPLINE
  5
10D
330
76
100
AcDbEntity
  8
0
  6
Continuous
 62
     8
420
  8421504
370
     0
100
AcDbSpline
210
0.0
220
0.0
230
1.0
 70
     8
 71
     3
 72
     8
 73
     4
 74
     0
 42
0.00000001
 43
0.00000001
 40
5.0
 40
5.0
 40
5.0
 40
5.0
 40
6.0
 40
6.0
 40
6.0
 40
6.0
 10
7.599195068359377
 20
0.0213630371093815
 30
0.0
 10
8.159067871093772
 20
0.0213630371093815
 30
0.0
 10
8.669496663411492
 20
0.2281411132812466
 30
0.0
 10
9.038378540039083
 20
0.6274552408854217
 30
0.0
  0
SPLINE
  5
10E
330
76
100
AcDbEntity
  8
0
  6
Continuous
 62
     8
420
  8421504
370
     0
100
AcDbSpline
210
0.0
220
0.0
230
1.0
 70
     8
 71
     3
 72
     8
 73
     4
 74
     0
 42
0.00000001
 43
0.00000001
 40
0.0
 40
0.0
 40
0.0
 40
0.0
 40
1.0
 40
1.0
 40
1.0
 40
1.0
 10
34.18986140950525
 20
4.728620930989594
 30
0.0
 10
33.71799357096356
 20
4.729427083333348
 30
0.0
 10
33.22677807617191
 20
4.558791503906257
 30
0.0
 10
32.92688940429689
 20
4.101098510742196
 30
0.0
  0
SPLINE
  5
10F
330
76
100
AcDbEntity
  8
0
  6
Continuous
 62
     8
420
  8421504
370
     0
100
AcDbSpline
210
0.0
220
0.0
230
1.0
 70
     8
 71
     3
 72
     8
 73
     4
 74
     0
 42
0.00000001
 43
0.00000001
 40
5.0
 40
5.0
 40
5.0
 40
5.0
 40
6.0
 40
6.0
 40
6.0
 40
6.0
 10
17.11360656738284
 20
0.0213630371093815
 30
0.0
 10
17.12838602701827
 20
0.0213630371093815
 30
0.0
 10
17.13926908365887
 20
0.0221691894531223
 30
0.0
 10
17.14806958007817
 20
0.0221691894531223
 30
0.0
  0
SPLINE
  5
110
330
76
100
AcDbEntity
  8
0
  6
Continuous
 62
     8
420
  8421504
370
     0
100
AcDbSpline
210
0.0
220
0.0
230
1.0
 70
     8
 71
     3
 72
     8
 73
     4
 74
     0
 42
0.00000001
 43
0.00000001
 40
3.0
 40
3.0
 40
3.0
 40
3.0
 40
4.0
 40
4.0
 40
4.0
 40
4.0
 10
6.156383911132823
 20
0.6274552408854217
 30
0.0
 10
6.52513142903649
 20
0.2281411132812466
 30
0.0
 10
7.036769449869834
 20
0.0210943196614632
 30
0.0
 10
7.597314046223991
 20
0.0213630371093815
 30
0.0
  0
SPLINE
  5
111
330
76
100
AcDbEntity
  8
0
  6
Continuous
 62
     8
420
  8421504
370
     0
100
AcDbSpline
210
0.0
220
0.0
230
1.0
 70
     8
 71
     3
 72
     8
 73
     4
 74
     0
 42
0.00000001
 43
0.00000001
 40
16.0
 40
16.0
 40
16.0
 40
16.0
 40
17.0
 40
17.0
 40
17.0
 40
17.0
 10
25.79203808593755
 20
0.5801609700520766
 30
0.0
 10
25.41449007161462
 20
0.5882224934895819
 30
0.0
 10
24.87396492513022
 20
0.7154602050781361
 30
0.0
 10
24.69365551757813
 20
1.33619750976563
 30
0.0
  0
SPLINE
  5
112
330
76
100
AcDbEntity
  8
0
  6
Continuous
 62
     8
420
  8421504
370
     0
100
AcDbSpline
210
0.0
220
0.0
230
1.0
 70
     8
 71
     3
 72
     8
 73
     4
 74
     0
 42
0.00000001
 43
0.00000001
 40
2.0
 40
2.0
 40
2.0
 40
2.0
 40
3.0
 40
3.0
 40
3.0
 40
3.0
 10
12.33843033854171
 20
4.102106201171893
 30
0.0
 10
13.11300838216148
 20
4.100292358398469
 30
0.0
 10
13.71030008951826
 20
3.54364416503905
 30
0.0
 10
13.71030008951826
 20
2.374924804687511
 30
0.0
  0
SPLINE
  5
113
330
76
100
AcDbEntity
  8
0
  6
Continuous
 62
     8
420
  8421504
370
     0
100
AcDbSpline
210
0.0
220
0.0
230
1.0
 70
     8
 71
     3
 72
     8
 73
     4
 74
     0
 42
0.00000001
 43
0.00000001
 40
6.0
 40
6.0
 40
6.0
 40
6.0
 40
7.0
 40
7.0
 40
7.0
 40
7.0
 10
20.5614529622396
 20
2.738902587890613
 30
0.0
 10
20.56615551757818
 20
3.697552083333347
 30
0.0
 10
21.12240063476567
 20
4.097403645833345
 30
0.0
 10
21.75140100097656
 20
4.102106201171893
 30
0.0
  0
SPLINE
  5
114
330
76
100
AcDbEntity
  8
0
  6
Continuous
 62
     8
420
  8421504
370
     0
100
AcDbSpline
210
0.0
220
0.0
230
1.0
 70
     8
 71
     3
 72
     8
 73
     4
 74
     0
 42
0.00000001
 43
0.00000001
 40
14.0
 40
14.0
 40
14.0
 40
14.0
 40
15.0
 40
15.0
 40
15.0
 40
15.0
 10
38.44352425130209
 20
0.0213630371093815
 30
0.0
 10
38.98163094075524
 20
0.0213630371093815
 30
0.0
 10
39.47284643554688
 20
0.214302164713534
 30
0.0
 10
39.83763037109378
 20
0.5832512207031293
 30
0.0
  0
SPLINE
  5
115
330
76
100
AcDbEntity
  8
0
  6
Continuous
 62
     8
420
  8421504
370
     0
100
AcDbSpline
210
0.0
220
0.0
230
1.0
 70
     8
 71
     3
 72
     8
 73
     4
 74
     0
 42
0.00000001
 43
0.00000001
 40
25.0
 40
25.0
 40
25.0
 40
25.0
 40
26.0
 40
26.0
 40
26.0
 40
26.0
 10
42.6923501790365
 20
0.67380900065106
 30
0.0
 10
42.55463248697916
 20
0.6774366861979492
 30
0.0
 10
42.50935359700525
 20
0.7223125000000302
 30
0.0
 10
42.47119571940105
 20
0.814616943359367
 30
0.0
  0
SPLINE
  5
116
330
76
100
AcDbEntity
  8
0
  6
Continuous
 62
     8
420
  8421504
370
     0
100
AcDbSpline
210
0.0
220
0.0
230
1.0
 70
     8
 71
     3
 72
     8
 73
     4
 74
     0
 42
0.00000001
 43
0.00000001
 40
11.0
 40
11.0
 40
11.0
 40
11.0
 40
12.0
 40
12.0
 40
12.0
 40
12.0
 10
36.40745214843749
 20
2.374924804687511
 30
0.0
 10
36.40745214843749
 20
1.616738525390626
 30
0.0
 10
36.63277172851564
 20
1.027172444661453
 30
0.0
 10
37.00131770833337
 20
0.6274552408854217
 30
0.0
  0
SPLINE
  5
117
330
76
100
AcDbEntity
  8
0
  6
Continuous
 62
     8
420
  8421504
370
     0
100
AcDbSpline
210
0.0
220
0.0
230
1.0
 70
     8
 71
     3
 72
     8
 73
     4
 74
     0
 42
0.00000001
 43
0.00000001
 40
11.0
 40
11.0
 40
11.0
 40
11.0
 40
12.0
 40
12.0
 40
12.0
 40
12.0
 10
29.93243652343752
 20
0.0213630371093815
 30
0.0
 10
30.88692089843753
 20
0.0213630371093815
 30
0.0
 10
31.49301310221358
 20
0.4468771158854246
 30
0.0
 10
31.81587711588546
 20
1.278691975911461
 30
0.0
  0
SPLINE
  5
118
330
76
100
AcDbEntity
  8
0
  6
Continuous
 62
     8
420
  8421504
370
     0
100
AcDbSpline
210
0.0
220
0.0
230
1.0
 70
     8
 71
     2
 72
     6
 73
     3
 74
     0
 42
0.00000001
 43
0.00000001
 40
22.0
 40
22.0
 40
22.0
 40
23.0
 40
23.0
 40
23.0
 10
42.57371142578126
 20
0.1099054361979185
 30
0.0
 10
42.6103913574219
 20
0.1099054361979185
 30
0.0
 10
43.15817187500004
 20
0.1096367187500003
 30
0.0
  0
SPLINE
  5
119
330
76
100
AcDbEntity
  8
0
  6
Continuous
 62
     8
420
  8421504
370
     0
100
AcDbSpline
210
0.0
220
0.0
230
1.0
 70
     8
 71
     3
 72
     8
 73
     4
 74
     0
 42
0.00000001
 43
0.00000001
 40
22.0
 40
22.0
 40
22.0
 40
22.0
 40
23.0
 40
23.0
 40
23.0
 40
23.0
 10
25.7947252604167
 20
0.0119579264322989
 30
0.0
 10
26.84205151367192
 20
0.0481004231770721
 30
0.0
 10
27.44263500976568
 20
0.6660161946614729
 30
0.0
 10
27.44102270507814
 20
1.396121500651049
 30
0.0
  0
SPLINE
  5
11A
330
76
100
AcDbEntity
  8
0
  6
Continuous
 62
     8
420
  8421504
370
     0
100
AcDbSpline
210
0.0
220
0.0
230
1.0
 70
     8
 71
     3
 72
     8
 73
     4
 74
     0
 42
0.00000001
 43
0.00000001
 40
2.0
 40
2.0
 40
2.0
 40
2.0
 40
3.0
 40
3.0
 40
3.0
 40
3.0
 10
7.597314046223991
 20
4.102106201171865
 30
0.0
 10
8.372227986653686
 20
4.100292358398469
 30
0.0
 10
8.965757649739615
 20
3.47538993326825
 30
0.0
 10
8.9693181559245
 20
2.374924804687511
 30
0.0
  0
SPLINE
  5
11B
330
76
100
AcDbEntity
  8
0
  6
Continuous
 62
     8
420
  8421504
370
     0
100
AcDbSpline
210
0.0
220
0.0
230
1.0
 70
     8
 71
     3
 72
     8
 73
     4
 74
     0
 42
0.00000001
 43
0.00000001
 40
6.0
 40
6.0
 40
6.0
 40
6.0
 40
7.0
 40
7.0
 40
7.0
 40
7.0
 10
32.92688940429689
 20
2.739440022786463
 30
0.0
 10
32.93159195963541
 20
3.697552083333347
 30
0.0
 10
33.48770271809898
 20
4.097403645833345
 30
0.0
 10
34.11703898111984
 20
4.102106201171893
 30
0.0
  0
SPLINE
  5
11C
330
76
100
AcDbEntity
  8
0
  6
Continuous
 62
     8
420
  8421504
370
     0
100
AcDbSpline
210
0.0
220
0.0
230
1.0
 70
     8
 71
     3
 72
     8
 73
     4
 74
     0
 42
0.00000001
 43
0.00000001
 40
11.0
 40
11.0
 40
11.0
 40
11.0
 40
12.0
 40
12.0
 40
12.0
 40
12.0
 10
25.66412858072919
 20
4.713236857096362
 30
0.0
 10
24.71649650065105
 20
4.68549178059896
 30
0.0
 10
24.18913850911464
 20
4.100023640950523
 30
0.0
 10
24.19128824869793
 20
3.454698689778657
 30
0.0
  0
SPLINE
  5
11D
330
76
100
AcDbEntity
  8
0
  6
Continuous
 62
     8
420
  8421504
370
     0
100
AcDbSpline
210
0.0
220
0.0
230
1.0
 70
     8
 71
     3
 72
     8
 73
     4
 74
     0
 42
0.00000001
 43
0.00000001
 40
4.0
 40
4.0
 40
4.0
 40
4.0
 40
5.0
 40
5.0
 40
5.0
 40
5.0
 10
10.89743302408858
 20
0.6274552408854217
 30
0.0
 10
11.2662477213542
 20
0.2281411132812466
 30
0.0
 10
11.77761702473962
 20
0.0210943196614632
 30
0.0
 10
12.33843033854171
 20
0.0213630371093815
 30
0.0
  0
SPLINE
  5
11E
330
76
100
AcDbEntity
  8
0
  6
Continuous
 62
     8
420
  8421504
370
     0
100
AcDbSpline
210
0.0
220
0.0
230
1.0
 70
     8
 71
     3
 72
     8
 73
     4
 74
     0
 42
0.00000001
 43
0.00000001
 40
26.0
 40
26.0
 40
26.0
 40
26.0
 40
27.0
 40
27.0
 40
27.0
 40
27.0
 10
42.47119571940105
 20
0.814616943359367
 30
0.0
 10
42.43505322265628
 20
0.9082649739583365
 30
0.0
 10
42.43088810221357
 20
1.055119059244797
 30
0.0
 10
42.43115681966147
 20
1.21823055013022
 30
0.0
  0
SPLINE
  5
11F
330
76
100
AcDbEntity
  8
0
  6
Continuous
 62
     8
420
  8421504
370
     0
100
AcDbSpline
210
0.0
220
0.0
230
1.0
 70
     8
 71
     3
 72
     8
 73
     4
 74
     0
 42
0.00000001
 43
0.00000001
 40
11.0
 40
11.0
 40
11.0
 40
11.0
 40
12.0
 40
12.0
 40
12.0
 40
12.0
 10
35.78752099609378
 20
3.149032592773438
 30
0.0
 10
35.78752099609378
 20
3.60934558105469
 30
0.0
 10
35.66874788411462
 20
4.006106892903649
 30
0.0
 10
35.40486735026044
 20
4.287386881510424
 30
0.0
  0
HATCH
  5
120
330
76
100
AcDbEntity
  8
0
  6
Continuous
 62
     7
100
AcDbHatch
 10
0.0
 20
0.0
 30
0.0
210
0.0
220
0.0
230
1.0
  2
SOLID
 70
     1
 71
     0
 91
        2
 92
        0
 93
       12
 72
     4
 94
        3
 73
     1
 74
     0
 95
        8
 96
        4
 40
4.0
 40
4.0
 40
4.0
 40
4.0
 40
5.0
 40
5.0
 40
5.0
 40
5.0
 10
10.89743302408858
 20
0.6274552408854217
 42
1.0
 10
11.2662477213542
 20
0.2281411132812466
 42
1.0
 10
11.77761702473962
 20
0.0210943196614632
 42
1.0
 10
12.33843033854171
 20
0.0213630371093815
 42
1.0
 97
        0
 72
     1
 10
12.33843033854171
 20
0.0213630371093815
 11
12.34555135091148
 21
0.0213630371093815
 72
     4
 94
        3
 73
     1
 74
     0
 95
        8
 96
        4
 40
6.0
 40
6.0
 40
6.0
 40
6.0
 40
7.0
 40
7.0
 40
7.0
 40
7.0
 10
12.34555135091148
 20
0.0213630371093815
 42
1.0
 10
13.29291471354169
 20
0.0213630371093815
 42
1.0
 10
14.10538191731775
 20
0.5887599283854184
 42
1.0
 10
14.31592203776044
 20
1.709446044921861
 42
1.0
 97
        0
 72
     4
 94
        3
 73
     1
 74
     0
 95
        8
 96
        4
 40
7.0
 40
7.0
 40
7.0
 40
7.0
 40
8.0
 40
8.0
 40
8.0
 40
8.0
 10
14.31592203776044
 20
1.709446044921861
 42
1.0
 10
14.35723734537764
 20
1.929256917317712
 42
1.0
 10
14.37188244628909
 20
2.175805175781267
 42
1.0
 10
14.37188244628909
 20
2.301564941406236
 42
1.0
 97
        0
 72
     1
 10
14.37188244628909
 20
2.301564941406236
 11
14.37309167480472
 21
2.301564941406236
 72
     1
 10
14.37309167480472
 20
2.301564941406236
 11
14.37309167480472
 21
5.806580973307315
 72
     1
 10
14.37309167480472
 20
5.806580973307315
 11
13.71473392740888
 21
5.806580973307315
 72
     1
 10
13.71473392740888
 20
5.806580973307315
 11
13.71473392740888
 21
4.116818481445322
 72
     4
 94
        3
 73
     1
 74
     0
 95
        8
 96
        4
 40
0.0
 40
0.0
 40
0.0
 40
0.0
 40
1.0
 40
1.0
 40
1.0
 40
1.0
 10
13.71473392740888
 20
4.116818481445322
 42
1.0
 10
13.39401965332035
 20
4.506996215820333
 42
1.0
 10
12.86787089029953
 20
4.728620930989594
 42
1.0
 10
12.33843033854171
 20
4.728620930989594
 42
1.0
 97
        0
 72
     4
 94
        3
 73
     1
 74
     0
 95
        8
 96
        4
 40
1.0
 40
1.0
 40
1.0
 40
1.0
 40
2.0
 40
2.0
 40
2.0
 40
2.0
 10
12.33843033854171
 20
4.728620930989594
 42
1.0
 10
11.77761702473962
 20
4.728620930989594
 42
1.0
 10
11.2662477213542
 20
4.522178751627623
 42
1.0
 10
10.89743302408858
 20
4.121991292317703
 42
1.0
 97
        0
 72
     4
 94
        3
 73
     1
 74
     0
 95
        8
 96
        4
 40
2.0
 40
2.0
 40
2.0
 40
2.0
 40
3.0
 40
3.0
 40
3.0
 40
3.0
 10
10.89743302408858
 20
4.121991292317703
 42
1.0
 10
10.5281480712891
 20
3.722677164713556
 42
1.0
 10
10.30343310546877
 20
3.132775187174488
 42
1.0
 10
10.30343310546877
 20
2.374924804687511
 42
1.0
 97
        0
 72
     4
 94
        3
 73
     1
 74
     0
 95
        8
 96
        4
 40
3.0
 40
3.0
 40
3.0
 40
3.0
 40
4.0
 40
4.0
 40
4.0
 40
4.0
 10
10.30343310546877
 20
2.374924804687511
 42
1.0
 10
10.30343310546877
 20
1.616738525390626
 42
1.0
 10
10.5281480712891
 20
1.027172444661453
 42
1.0
 10
10.89743302408858
 20
0.6274552408854217
 42
1.0
 97
        0
 97
        0
 92
        0
 93
        4
 72
     4
 94
        3
 73
     1
 74
     0
 95
        8
 96
        4
 40
1.0
 40
1.0
 40
1.0
 40
1.0
 40
2.0
 40
2.0
 40
2.0
 40
2.0
 10
10.96635904947921
 20
2.374924804687505
 42
1.0
 10
10.96991955566412
 20
3.475389933268257
 42
1.0
 10
11.56331486002607
 20
4.100292358398463
 42
1.0
 10
12.33843033854171
 20
4.102106201171893
 42
1.0
 97
        0
 72
     4
 94
        3
 73
     1
 74
     0
 95
        8
 96
        4
 40
2.0
 40
2.0
 40
2.0
 40
2.0
 40
3.0
 40
3.0
 40
3.0
 40
3.0
 10
12.33843033854171
 20
4.102106201171893
 42
1.0
 10
13.11300838216148
 20
4.100292358398469
 42
1.0
 10
13.71030008951826
 20
3.54364416503905
 42
1.0
 10
13.71030008951826
 20
2.374924804687511
 42
1.0
 97
        0
 72
     4
 94
        3
 73
     1
 74
     0
 95
        8
 96
        4
 40
3.0
 40
3.0
 40
3.0
 40
3.0
 40
4.0
 40
4.0
 40
4.0
 40
4.0
 10
13.71030008951826
 20
2.374924804687511
 42
1.0
 10
13.71721956380212
 20
1.167711669921884
 42
1.0
 10
13.11347863769535
 20
0.6497587890624962
 42
1.0
 10
12.33843033854171
 20
0.6476090494791781
 42
1.0
 97
        0
 72
     4
 94
        3
 73
     1
 74
     0
 95
        8
 96
        4
 40
0.0
 40
0.0
 40
0.0
 40
0.0
 40
1.0
 40
1.0
 40
1.0
 40
1.0
 10
12.33843033854168
 20
0.6476090494791851
 42
1.0
 10
11.56291178385418
 20
0.6497587890625032
 42
1.0
 10
10.97012109375003
 20
1.265524820963551
 42
1.0
 10
10.96635904947918
 20
2.374924804687511
 42
1.0
 97
        0
 97
        0
 75
     0
 76
     1
 98
        1
 10
0.0
 20
0.0
  0
HATCH
  5
121
330
76
100
AcDbEntity
  8
0
  6
Continuous
 62
     7
100
AcDbHatch
 10
0.0
 20
0.0
 30
0.0
210
0.0
220
0.0
230
1.0
  2
SOLID
 70
     1
 71
     0
 91
        1
 92
        0
 93
        8
 72
     4
 94
        3
 73
     1
 74
     0
 95
        8
 96
        4
 40
7.0
 40
7.0
 40
7.0
 40
7.0
 40
8.0
 40
8.0
 40
8.0
 40
8.0
 10
2.280067545572972
 20
0.0088676757812461
 42
1.0
 10
1.401764567057318
 20
0.2313657226562377
 42
1.0
 10
0.7479078369140857
 20
1.020320149739601
 42
1.0
 10
0.7272837727864967
 20
2.284904459635417
 42
1.0
 97
        0
 72
     1
 10
0.7272837727864967
 20
2.284904459635417
 11
0.7260745442708716
 21
2.284904459635417
 72
     1
 10
0.7260745442708716
 20
2.284904459635417
 11
0.7260745442708716
 21
5.825727091471361
 72
     1
 10
0.7260745442708716
 20
5.825727091471361
 11
0.0000000000000278
 21
5.825727091471361
 72
     1
 10
0.0000000000000278
 20
5.825727091471361
 11
0.0000000000000278
 21
2.342947428385422
 72
     1
 10
0.0000000000000278
 20
2.342947428385422
 11
0.0006046142578264
 21
2.342947428385422
 72
     4
 94
        3
 73
     1
 74
     0
 95
        8
 96
        4
 40
5.0
 40
5.0
 40
5.0
 40
5.0
 40
6.0
 40
6.0
 40
6.0
 40
6.0
 10
0.0006046142578264
 20
2.342947428385422
 42
1.0
 10
0.0069194742838841
 20
0.8182446289062562
 42
1.0
 10
0.9118926595052257
 20
0.0
 42
1.0
 10
2.031168009440143
 20
0.0
 42
1.0
 97
        0
 72
     4
 94
        3
 73
     1
 74
     0
 95
        8
 96
        4
 40
6.0
 40
6.0
 40
6.0
 40
6.0
 40
7.0
 40
7.0
 40
7.0
 40
7.0
 10
2.031168009440143
 20
0.0
 42
1.0
 10
2.114134521484401
 20
0.0
 42
1.0
 10
2.197101033528659
 20
0.0030902506510527
 42
1.0
 10
2.280067545572972
 20
0.0088676757812461
 42
1.0
 97
        0
 97
        0
 75
     0
 76
     1
 98
        1
 10
0.0
 20
0.0
  0
HATCH
  5
122
330
76
100
AcDbEntity
  8
0
  6
Continuous
 62
     7
100
AcDbHatch
 10
0.0
 20
0.0
 30
0.0
210
0.0
220
0.0
230
1.0
  2
SOLID
 70
     1
 71
     0
 91
        2
 92
        0
 93
        9
 72
     4
 94
        3
 73
     1
 74
     0
 95
        8
 96
        4
 40
3.0
 40
3.0
 40
3.0
 40
3.0
 40
4.0
 40
4.0
 40
4.0
 40
4.0
 10
6.156383911132823
 20
0.6274552408854217
 42
1.0
 10
6.52513142903649
 20
0.2281411132812466
 42
1.0
 10
7.036769449869834
 20
0.0210943196614632
 42
1.0
 10
7.597314046223991
 20
0.0213630371093815
 42
1.0
 97
        0
 72
     1
 10
7.597314046223991
 20
0.0213630371093815
 11
7.599195068359377
 21
0.0213630371093815
 72
     4
 94
        3
 73
     1
 74
     0
 95
        8
 96
        4
 40
5.0
 40
5.0
 40
5.0
 40
5.0
 40
6.0
 40
6.0
 40
6.0
 40
6.0
 10
7.599195068359377
 20
0.0213630371093815
 42
1.0
 10
8.159067871093772
 20
0.0213630371093815
 42
1.0
 10
8.669496663411492
 20
0.2281411132812466
 42
1.0
 10
9.038378540039083
 20
0.6274552408854217
 42
1.0
 97
        0
 72
     4
 94
        3
 73
     1
 74
     0
 95
        8
 96
        4
 40
6.0
 40
6.0
 40
6.0
 40
6.0
 40
7.0
 40
7.0
 40
7.0
 40
7.0
 10
9.038378540039083
 20
0.6274552408854217
 42
1.0
 10
9.407529134114606
 20
1.027172444661453
 42
1.0
 10
9.632311279296896
 20
1.616738525390626
 42
1.0
 10
9.632311279296896
 20
2.374924804687511
 42
1.0
 97
        0
 72
     4
 94
        3
 73
     1
 74
     0
 95
        8
 96
        4
 40
7.0
 40
7.0
 40
7.0
 40
7.0
 40
8.0
 40
8.0
 40
8.0
 40
8.0
 10
9.632311279296896
 20
2.374924804687511
 42
1.0
 10
9.632311279296896
 20
3.132775187174488
 42
1.0
 10
9.407529134114606
 20
3.722677164713556
 42
1.0
 10
9.038378540039083
 20
4.121991292317703
 42
1.0
 97
        0
 72
     4
 94
        3
 73
     1
 74
     0
 95
        8
 96
        4
 40
8.0
 40
8.0
 40
8.0
 40
8.0
 40
9.0
 40
9.0
 40
9.0
 40
9.0
 10
9.038378540039083
 20
4.121991292317703
 42
1.0
 10
8.669295125325549
 20
4.522178751627623
 42
1.0
 10
8.157925821940138
 20
4.728620930989594
 42
1.0
 10
7.597314046223991
 20
4.728150675455733
 42
1.0
 97
        0
 72
     4
 94
        3
 73
     1
 74
     0
 95
        8
 96
        4
 40
0.0
 40
0.0
 40
0.0
 40
0.0
 40
1.0
 40
1.0
 40
1.0
 40
1.0
 10
7.597314046223991
 20
4.728150675455733
 42
1.0
 10
7.036769449869834
 20
4.728620930989594
 42
1.0
 10
6.52513142903649
 20
4.522178751627623
 42
1.0
 10
6.156383911132823
 20
4.121991292317703
 42
1.0
 97
        0
 72
     4
 94
        3
 73
     1
 74
     0
 95
        8
 96
        4
 40
1.0
 40
1.0
 40
1.0
 40
1.0
 40
2.0
 40
2.0
 40
2.0
 40
2.0
 10
6.156383911132823
 20
4.121991292317703
 42
1.0
 10
5.78736767578128
 20
3.722677164713556
 42
1.0
 10
5.56258553059899
 20
3.132775187174488
 42
1.0
 10
5.562719889322942
 20
2.374924804687511
 42
1.0
 97
        0
 72
     4
 94
        3
 73
     1
 74
     0
 95
        8
 96
        4
 40
2.0
 40
2.0
 40
2.0
 40
2.0
 40
3.0
 40
3.0
 40
3.0
 40
3.0
 10
5.562719889322942
 20
2.374924804687511
 42
1.0
 10
5.56258553059899
 20
1.616738525390626
 42
1.0
 10
5.78736767578128
 20
1.027172444661453
 42
1.0
 10
6.156383911132823
 20
0.6274552408854217
 42
1.0
 97
        0
 97
        0
 92
        0
 93
        4
 72
     4
 94
        3
 73
     1
 74
     0
 95
        8
 96
        4
 40
1.0
 40
1.0
 40
1.0
 40
1.0
 40
2.0
 40
2.0
 40
2.0
 40
2.0
 10
6.225242757161492
 20
2.374924804687511
 42
1.0
 10
6.229004801432319
 20
3.47538993326825
 42
1.0
 10
6.82280318196618
 20
4.100292358398455
 42
1.0
 10
7.597314046223991
 20
4.102106201171865
 42
1.0
 97
        0
 72
     4
 94
        3
 73
     1
 74
     0
 95
        8
 96
        4
 40
2.0
 40
2.0
 40
2.0
 40
2.0
 40
3.0
 40
3.0
 40
3.0
 40
3.0
 10
7.597314046223991
 20
4.102106201171865
 42
1.0
 10
8.372227986653686
 20
4.100292358398469
 42
1.0
 10
8.965757649739615
 20
3.47538993326825
 42
1.0
 10
8.9693181559245
 20
2.374924804687511
 42
1.0
 97
        0
 72
     4
 94
        3
 73
     1
 74
     0
 95
        8
 96
        4
 40
3.0
 40
3.0
 40
3.0
 40
3.0
 40
4.0
 40
4.0
 40
4.0
 40
4.0
 10
8.9693181559245
 20
2.374924804687511
 42
1.0
 10
8.965757649739615
 20
1.265524820963537
 42
1.0
 10
8.372631062825542
 20
0.6497587890624962
 42
1.0
 10
7.597314046223991
 20
0.6473403320312598
 42
1.0
 97
        0
 72
     4
 94
        3
 73
     1
 74
     0
 95
        8
 96
        4
 40
0.0
 40
0.0
 40
0.0
 40
0.0
 40
1.0
 40
1.0
 40
1.0
 40
1.0
 10
7.597314046223991
 20
0.6473403320312598
 42
1.0
 10
6.822332926432306
 20
0.6497587890624962
 42
1.0
 10
6.229273518880252
 20
1.265524820963537
 42
1.0
 10
6.225242757161492
 20
2.374924804687511
 42
1.0
 97
        0
 97
        0
 75
     0
 76
     1
 98
        1
 10
0.0
 20
0.0
  0
HATCH
  5
123
330
76
100
AcDbEntity
  8
0
  6
Continuous
 62
     7
100
AcDbHatch
 10
0.0
 20
0.0
 30
0.0
210
0.0
220
0.0
230
1.0
  2
SOLID
 70
     1
 71
     0
 91
        1
 92
        0
 93
        5
 72
     4
 94
        3
 73
     1
 74
     0
 95
        8
 96
        4
 40
0.0
 40
0.0
 40
0.0
 40
0.0
 40
1.0
 40
1.0
 40
1.0
 40
1.0
 10
3.072918375651073
 20
4.135091267903651
 42
1.0
 10
2.972149332682333
 20
4.134822550455733
 42
1.0
 10
2.874537719726566
 20
4.124409749348967
 42
1.0
 10
2.78068815104171
 20
4.104255940755225
 42
1.0
 97
        0
 72
     4
 94
        3
 73
     1
 74
     0
 95
       11
 96
        7
 40
1.0
 40
1.0
 40
1.0
 40
1.0
 40
2.0
 40
2.0
 40
2.0
 40
3.0
 40
3.0
 40
3.0
 40
3.0
 10
2.78068815104171
 20
4.104255940755225
 42
1.0
 10
3.359438354492206
 20
3.885721476237003
 42
1.0
 10
3.758416585286501
 20
3.269686726888044
 42
1.0
 10
3.758416585286501
 20
2.358936116536495
 42
1.0
 10
3.758416585286501
 20
1.441400390625014
 42
1.0
 10
3.360110148111994
 20
0.8297994791666707
 42
1.0
 10
2.782031738281288
 20
0.61254142252605
 42
1.0
 97
        0
 72
     4
 94
        3
 73
     1
 74
     0
 95
        8
 96
        4
 40
3.0
 40
3.0
 40
3.0
 40
3.0
 40
4.0
 40
4.0
 40
4.0
 40
4.0
 10
2.782031738281288
 20
0.61254142252605
 42
1.0
 10
2.875411051432325
 20
0.592656331380198
 42
1.0
 10
2.97268676757817
 20
0.5827137858072928
 42
1.0
 10
3.072918375651073
 20
0.5823107096354085
 42
1.0
 97
        0
 72
     4
 94
        3
 73
     1
 74
     0
 95
        8
 96
        4
 40
4.0
 40
4.0
 40
4.0
 40
4.0
 40
5.0
 40
5.0
 40
5.0
 40
5.0
 10
3.072918375651073
 20
0.5823107096354085
 42
1.0
 10
3.870538940429741
 20
0.5843260904947883
 42
1.0
 10
4.4800572916667
 20
1.218499267578124
 42
1.0
 10
4.484222412109412
 20
2.358936116536467
 42
1.0
 97
        0
 72
     4
 94
        3
 73
     1
 74
     0
 95
        8
 96
        4
 40
5.0
 40
5.0
 40
5.0
 40
5.0
 40
6.0
 40
6.0
 40
6.0
 40
6.0
 10
4.484222412109412
 20
2.358936116536467
 42
1.0
 10
4.480460367838557
 20
3.490303751627608
 42
1.0
 10
3.870068684895867
 20
4.133546142578118
 42
1.0
 10
3.072918375651073
 20
4.135091267903651
 42
1.0
 97
        0
 97
        0
 75
     0
 76
     1
 98
        1
 10
0.0
 20
0.0
  0
HATCH
  5
124
330
76
100
AcDbEntity
  8
0
  6
Continuous
 62
     7
100
AcDbHatch
 10
0.0
 20
0.0
 30
0.0
210
0.0
220
0.0
230
1.0
  2
SOLID
 70
     1
 71
     0
 91
        2
 92
        0
 93
       18
 72
     4
 94
        3
 73
     1
 74
     0
 95
        8
 96
        4
 40
5.0
 40
5.0
 40
5.0
 40
5.0
 40
6.0
 40
6.0
 40
6.0
 40
6.0
 10
17.11360656738284
 20
0.0213630371093815
 42
1.0
 10
17.12838602701827
 20
0.0213630371093815
 42
1.0
 10
17.13926908365887
 20
0.0221691894531223
 42
1.0
 10
17.14806958007817
 20
0.0221691894531223
 42
1.0
 97
        0
 72
     4
 94
        3
 73
     1
 74
     0
 95
        8
 96
        4
 40
6.0
 40
6.0
 40
6.0
 40
6.0
 40
7.0
 40
7.0
 40
7.0
 40
7.0
 10
17.14806958007817
 20
0.0221691894531223
 42
1.0
 10
17.15707161458338
 20
0.0221691894531223
 42
1.0
 10
17.16936543782555
 20
0.0213630371093815
 42
1.0
 10
17.18374182128909
 20
0.0213630371093815
 42
1.0
 97
        0
 72
     1
 10
17.18374182128909
 20
0.0213630371093815
 11
17.18857873535159
 21
0.0213630371093815
 72
     4
 94
        3
 73
     1
 74
     0
 95
        8
 96
        4
 40
8.0
 40
8.0
 40
8.0
 40
8.0
 40
9.0
 40
9.0
 40
9.0
 40
9.0
 10
17.18857873535159
 20
0.0213630371093815
 42
1.0
 10
18.05525968424482
 20
0.0213630371093815
 42
1.0
 10
18.79960701497402
 20
0.5244020996093696
 42
1.0
 10
19.08646289062504
 20
1.455508056640617
 42
1.0
 97
        0
 72
     1
 10
19.08646289062504
 20
1.455508056640617
 11
19.10963977050784
 21
1.530077148437503
 72
     1
 10
19.10963977050784
 20
1.530077148437503
 11
18.37698164876306
 21
1.530077148437503
 72
     1
 10
18.37698164876306
 20
1.530077148437503
 11
18.36341141764325
 21
1.491650553385432
 72
     4
 94
        3
 73
     1
 74
     0
 95
        8
 96
        4
 40
12.0
 40
12.0
 40
12.0
 40
12.0
 40
13.0
 40
13.0
 40
13.0
 40
13.0
 10
18.36341141764325
 20
1.491650553385432
 42
1.0
 10
18.18061637369794
 20
0.9786689453124969
 42
1.0
 10
17.80501656087241
 20
0.658357747395838
 42
1.0
 10
17.16123673502607
 20
0.6476090494791781
 42
1.0
 97
        0
 72
     1
 10
17.16123673502607
 20
0.6476090494791781
 11
17.14827111816408
 21
0.6478777669270824
 72
     4
 94
        3
 73
     1
 74
     0
 95
        8
 96
        4
 40
14.0
 40
14.0
 40
14.0
 40
14.0
 40
15.0
 40
15.0
 40
15.0
 40
15.0
 10
17.14827111816408
 20
0.6478777669270824
 42
1.0
 10
16.2179713134766
 20
0.657282877604165
 42
1.0
 10
15.82094128417971
 20
1.317387288411478
 42
1.0
 10
15.81482796223962
 20
2.27469319661458
 42
1.0
 97
        0
 72
     1
 10
15.81482796223962
 20
2.27469319661458
 11
15.81469360351567
 21
2.334885904947903
 72
     1
 10
15.81469360351567
 20
2.334885904947903
 11
19.15068636067713
 21
2.334885904947903
 72
     1
 10
19.15068636067713
 20
2.334885904947903
 11
19.14860380045574
 21
2.395347330729172
 72
     4
 94
        3
 73
     1
 74
     0
 95
        8
 96
        4
 40
0.0
 40
0.0
 40
0.0
 40
0.0
 40
1.0
 40
1.0
 40
1.0
 40
1.0
 10
19.14860380045574
 20
2.395347330729172
 42
1.0
 10
19.10755721028651
 20
3.703060791015622
 42
1.0
 10
18.44348921712247
 20
4.731039388020831
 42
1.0
 10
17.11360656738284
 20
4.728620930989594
 42
1.0
 97
        0
 72
     4
 94
        3
 73
     1
 74
     0
 95
        8
 96
        4
 40
1.0
 40
1.0
 40
1.0
 40
1.0
 40
2.0
 40
2.0
 40
2.0
 40
2.0
 10
17.11360656738284
 20
4.728620930989594
 42
1.0
 10
16.55319632975266
 20
4.728620930989594
 42
1.0
 10
16.04196138509117
 20
4.522178751627623
 42
1.0
 10
15.67294514973963
 20
4.121991292317703
 42
1.0
 97
        0
 72
     4
 94
        3
 73
     1
 74
     0
 95
        8
 96
        4
 40
2.0
 40
2.0
 40
2.0
 40
2.0
 40
3.0
 40
3.0
 40
3.0
 40
3.0
 10
15.67294514973963
 20
4.121991292317703
 42
1.0
 10
15.30392891438806
 20
3.722677164713556
 42
1.0
 10
15.07874369303389
 20
3.132775187174488
 42
1.0
 10
15.07914676920577
 20
2.374387369791661
 42
1.0
 97
        0
 72
     4
 94
        3
 73
     1
 74
     0
 95
        8
 96
        4
 40
3.0
 40
3.0
 40
3.0
 40
3.0
 40
4.0
 40
4.0
 40
4.0
 40
4.0
 10
15.07914676920577
 20
2.374387369791661
 42
1.0
 10
15.07874369303389
 20
1.616738525390626
 42
1.0
 10
15.30392891438806
 20
1.027172444661453
 42
1.0
 10
15.67294514973963
 20
0.6274552408854217
 42
1.0
 97
        0
 72
     4
 94
        3
 73
     1
 74
     0
 95
        8
 96
        4
 40
4.0
 40
4.0
 40
4.0
 40
4.0
 40
5.0
 40
5.0
 40
5.0
 40
5.0
 10
15.67294514973963
 20
0.6274552408854217
 42
1.0
 10
16.04169266764327
 20
0.2281411132812466
 42
1.0
 10
16.55319632975266
 20
0.0210943196614632
 42
1.0
 10
17.11360656738284
 20
0.0213630371093815
 42
1.0
 97
        0
 97
        0
 92
        0
 93
        3
 72
     1
 10
18.40002416992192
 20
2.906447916666679
 11
15.82369563802086
 21
2.906447916666679
 72
     4
 94
        3
 73
     1
 74
     0
 95
        8
 96
        4
 40
0.0
 40
0.0
 40
0.0
 40
0.0
 40
1.0
 40
1.0
 40
1.0
 40
1.0
 10
15.82369563802086
 20
2.906447916666679
 42
1.0
 10
15.93440722656253
 20
3.583212809244785
 42
1.0
 10
16.39525764973962
 20
4.101098510742196
 42
1.0
 10
17.11360656738284
 20
4.102106201171893
 42
1.0
 97
        0
 72
     4
 94
        3
 73
     1
 74
     0
 95
        8
 96
        4
 40
1.0
 40
1.0
 40
1.0
 40
1.0
 40
2.0
 40
2.0
 40
2.0
 40
2.0
 10
17.11360656738284
 20
4.102106201171893
 42
1.0
 10
17.95684191894536
 20
4.100292358398469
 42
1.0
 10
18.26996492513022
 20
3.512808837890624
 42
1.0
 10
18.40002416992192
 20
2.906447916666679
 42
1.0
 97
        0
 97
        0
 75
     0
 76
     1
 98
        1
 10
0.0
 20
0.0
  0
HATCH
  5
125
330
76
100
AcDbEntity
  8
0
  6
Continuous
 62
     7
100
AcDbHatch
 10
0.0
 20
0.0
 30
0.0
210
0.0
220
0.0
230
1.0
  2
SOLID
 70
     1
 71
     0
 91
        1
 92
        0
 93
       13
 72
     4
 94
        3
 73
     1
 74
     0
 95
        8
 96
        4
 40
6.0
 40
6.0
 40
6.0
 40
6.0
 40
7.0
 40
7.0
 40
7.0
 40
7.0
 10
20.5614529622396
 20
2.738902587890613
 42
1.0
 10
20.56615551757818
 20
3.697552083333347
 42
1.0
 10
21.12240063476567
 20
4.097403645833345
 42
1.0
 10
21.75140100097656
 20
4.102106201171893
 42
1.0
 97
        0
 72
     4
 94
        3
 73
     1
 74
     0
 95
        8
 96
        4
 40
7.0
 40
7.0
 40
7.0
 40
7.0
 40
8.0
 40
8.0
 40
8.0
 40
8.0
 10
21.75140100097656
 20
4.102106201171893
 42
1.0
 10
22.42581461588544
 20
4.091155965169277
 42
1.0
 10
22.74793965657551
 20
3.851930257161462
 42
1.0
 10
22.75922578938805
 20
2.984913411458332
 42
1.0
 97
        0
 72
     1
 10
22.75922578938805
 20
2.984913411458332
 11
22.75922578938805
 21
0.1305966796874976
 72
     1
 10
22.75922578938805
 20
0.1305966796874974
 11
23.42181583658853
 21
0.1305966796874974
 72
     1
 10
23.42181583658853
 20
0.1305966796874974
 11
23.42181583658853
 21
3.149032592773438
 72
     4
 94
        3
 73
     1
 74
     0
 95
        8
 96
        4
 40
11.0
 40
11.0
 40
11.0
 40
11.0
 40
12.0
 40
12.0
 40
12.0
 40
12.0
 10
23.42181583658853
 20
3.149032592773438
 42
1.0
 10
23.42181583658853
 20
3.60934558105469
 42
1.0
 10
23.30304272460942
 20
4.006106892903649
 42
1.0
 10
23.03949808756511
 20
4.287386881510424
 42
1.0
 97
        0
 72
     4
 94
        3
 73
     1
 74
     0
 95
        8
 96
        4
 40
12.0
 40
12.0
 40
12.0
 40
12.0
 40
13.0
 40
13.0
 40
13.0
 40
13.0
 10
23.03949808756511
 20
4.287386881510424
 42
1.0
 10
22.77622216796876
 20
4.569540201822917
 42
1.0
 10
22.37213830566409
 20
4.728889648437498
 42
1.0
 10
21.82442496744796
 20
4.728150675455733
 42
1.0
 97
        0
 72
     4
 94
        3
 73
     1
 74
     0
 95
        8
 96
        4
 40
0.0
 40
0.0
 40
0.0
 40
0.0
 40
1.0
 40
1.0
 40
1.0
 40
1.0
 10
21.82442496744796
 20
4.728150675455733
 42
1.0
 10
21.35228841145836
 20
4.729427083333348
 42
1.0
 10
20.8621477864584
 20
4.559060221354175
 42
1.0
 10
20.5614529622396
 20
4.108421061197909
 42
1.0
 97
        0
 72
     1
 10
20.5614529622396
 20
4.108421061197909
 11
20.5614529622396
 21
4.618984212239593
 72
     1
 10
20.5614529622396
 20
4.618984212239593
 11
19.89893009440108
 21
4.618984212239593
 72
     1
 10
19.89893009440108
 20
4.618984212239593
 11
19.89893009440108
 21
0.1305966796874971
 72
     1
 10
19.89893009440108
 20
0.1305966796874974
 11
20.5614529622396
 21
0.1305966796874974
 72
     1
 10
20.5614529622396
 20
0.1305966796874974
 11
20.5614529622396
 21
2.738902587890613
 97
        0
 75
     0
 76
     1
 98
        1
 10
0.0
 20
0.0
  0
HATCH
  5
126
330
76
100
AcDbEntity
  8
0
  6
Continuous
 62
     7
100
AcDbHatch
 10
0.0
 20
0.0
 30
0.0
210
0.0
220
0.0
230
1.0
  2
SOLID
 70
     1
 71
     0
 91
        1
 92
        0
 93
       24
 72
     4
 94
        3
 73
     1
 74
     0
 95
        8
 96
        4
 40
11.0
 40
11.0
 40
11.0
 40
11.0
 40
12.0
 40
12.0
 40
12.0
 40
12.0
 10
25.66412858072919
 20
4.713236857096362
 42
1.0
 10
24.71649650065105
 20
4.68549178059896
 42
1.0
 10
24.18913850911464
 20
4.100023640950523
 42
1.0
 10
24.19128824869793
 20
3.454698689778657
 42
1.0
 97
        0
 72
     4
 94
        3
 73
     1
 74
     0
 95
        8
 96
        4
 40
12.0
 40
12.0
 40
12.0
 40
12.0
 40
13.0
 40
13.0
 40
13.0
 40
13.0
 10
24.19128824869793
 20
3.454698689778657
 42
1.0
 10
24.18886979166673
 20
2.544216796875012
 42
1.0
 10
24.88820694986982
 20
2.337170003255201
 42
1.0
 10
25.53138216145839
 20
2.21396305338542
 42
1.0
 97
        0
 72
     4
 94
        3
 73
     1
 74
     0
 95
        8
 96
        4
 40
13.0
 40
13.0
 40
13.0
 40
13.0
 40
14.0
 40
14.0
 40
14.0
 40
14.0
 10
25.53138216145839
 20
2.21396305338542
 42
1.0
 10
25.85585847981775
 20
2.148799072265631
 42
1.0
 10
26.17657275390628
 20
2.096667887369785
 42
1.0
 10
26.40686360677086
 20
1.985687581380208
 42
1.0
 97
        0
 72
     4
 94
        3
 73
     1
 74
     0
 95
        8
 96
        4
 40
14.0
 40
14.0
 40
14.0
 40
14.0
 40
15.0
 40
15.0
 40
15.0
 40
15.0
 10
26.40686360677086
 20
1.985687581380208
 42
1.0
 10
26.63715445963544
 20
1.871885742187496
 42
1.0
 10
26.7752752278646
 20
1.71911987304689
 42
1.0
 10
26.77796240234376
 20
1.414394287109377
 42
1.0
 97
        0
 72
     4
 94
        3
 73
     1
 74
     0
 95
        8
 96
        4
 40
15.0
 40
15.0
 40
15.0
 40
15.0
 40
16.0
 40
16.0
 40
16.0
 40
16.0
 10
26.77796240234376
 20
1.414394287109377
 42
1.0
 10
26.77769368489585
 20
0.7505278320312503
 42
1.0
 10
26.24093058268234
 20
0.5987024739583374
 42
1.0
 10
25.79203808593755
 20
0.5801609700520766
 42
1.0
 97
        0
 72
     4
 94
        3
 73
     1
 74
     0
 95
        8
 96
        4
 40
16.0
 40
16.0
 40
16.0
 40
16.0
 40
17.0
 40
17.0
 40
17.0
 40
17.0
 10
25.79203808593755
 20
0.5801609700520766
 42
1.0
 10
25.41449007161462
 20
0.5882224934895819
 42
1.0
 10
24.87396492513022
 20
0.7154602050781361
 42
1.0
 10
24.69365551757813
 20
1.33619750976563
 42
1.0
 97
        0
 72
     1
 10
24.69365551757813
 20
1.33619750976563
 11
24.68196630859382
 21
1.378386149088556
 72
     1
 10
24.68196630859382
 20
1.378386149088556
 11
24.00829166666668
 21
1.378386149088556
 72
     1
 10
24.00829166666668
 20
1.378386149088556
 11
24.03180444335939
 21
1.303279622395834
 72
     4
 94
        3
 73
     1
 74
     0
 95
        8
 96
        4
 40
20.0
 40
20.0
 40
20.0
 40
20.0
 40
21.0
 40
21.0
 40
21.0
 40
21.0
 10
24.03180444335939
 20
1.303279622395834
 42
1.0
 10
24.2849362792969
 20
0.4874534505208278
 42
1.0
 10
25.03210514322923
 20
0.0353363444010463
 42
1.0
 10
25.74474381510422
 20
0.0114204915364485
 42
1.0
 97
        0
 72
     1
 10
25.74474381510422
 20
0.0114204915364485
 11
25.7947252604167
 21
0.0119579264322989
 72
     4
 94
        3
 73
     1
 74
     0
 95
        8
 96
        4
 40
22.0
 40
22.0
 40
22.0
 40
22.0
 40
23.0
 40
23.0
 40
23.0
 40
23.0
 10
25.7947252604167
 20
0.0119579264322989
 42
1.0
 10
26.84205151367192
 20
0.0481004231770721
 42
1.0
 10
27.44263500976568
 20
0.6660161946614729
 42
1.0
 10
27.44102270507814
 20
1.396121500651049
 42
1.0
 97
        0
 72
     4
 94
        3
 73
     1
 74
     0
 95
        8
 96
        4
 40
23.0
 40
23.0
 40
23.0
 40
23.0
 40
24.0
 40
24.0
 40
24.0
 40
24.0
 10
27.44102270507814
 20
1.396121500651049
 42
1.0
 10
27.44317244466149
 20
2.313925944010434
 42
1.0
 10
26.74786604817714
 20
2.564639322916659
 42
1.0
 10
26.10213802083333
 20
2.708537516276047
 42
1.0
 97
        0
 72
     4
 94
        3
 73
     1
 74
     0
 95
        8
 96
        4
 40
0.0
 40
0.0
 40
0.0
 40
0.0
 40
1.0
 40
1.0
 40
1.0
 40
1.0
 10
26.10213802083333
 20
2.708537516276047
 42
1.0
 10
25.77739298502607
 20
2.783375325520837
 42
1.0
 10
25.45546948242189
 20
2.838596761067707
 42
1.0
 10
25.22343196614585
 20
2.941784261067698
 42
1.0
 97
        0
 72
     4
 94
        3
 73
     1
 74
     0
 95
        8
 96
        4
 40
1.0
 40
1.0
 40
1.0
 40
1.0
 40
2.0
 40
2.0
 40
2.0
 40
2.0
 10
25.22343196614585
 20
2.941784261067698
 42
1.0
 10
24.99045393880212
 20
3.047457397460942
 42
1.0
 10
24.8559608561198
 20
3.179397664388031
 42
1.0
 10
24.85381111653651
 20
3.43662744140627
 42
1.0
 97
        0
 72
     4
 94
        3
 73
     1
 74
     0
 95
        8
 96
        4
 40
2.0
 40
2.0
 40
2.0
 40
2.0
 40
3.0
 40
3.0
 40
3.0
 40
3.0
 10
24.85381111653651
 20
3.43662744140627
 42
1.0
 10
24.86281315104172
 20
3.834396443684898
 42
1.0
 10
25.00859236653647
 20
4.105532348632812
 42
1.0
 10
25.73292024739587
 20
4.140331258138022
 42
1.0
 97
        0
 72
     4
 94
        3
 73
     1
 74
     0
 95
        8
 96
        4
 40
3.0
 40
3.0
 40
3.0
 40
3.0
 40
4.0
 40
4.0
 40
4.0
 40
4.0
 10
25.73292024739587
 20
4.140331258138022
 42
1.0
 10
26.15762817382816
 20
4.136972290039065
 42
1.0
 10
26.43978149414067
 20
3.958208007812505
 42
1.0
 10
26.61928474934899
 20
3.656975748697916
 42
1.0
 97
        0
 72
     1
 10
26.61928474934899
 20
3.656975748697916
 11
26.63607958984376
 21
3.628491699218777
 72
     1
 10
26.63607958984376
 20
3.628491699218777
 11
27.29470605468753
 21
3.628491699218777
 72
     1
 10
27.29470605468753
 20
3.628491699218777
 11
27.25869791666668
 21
3.709845906575512
 72
     4
 94
        3
 73
     1
 74
     0
 95
        8
 96
        4
 40
7.0
 40
7.0
 40
7.0
 40
7.0
 40
8.0
 40
8.0
 40
8.0
 40
8.0
 10
27.25869791666668
 20
3.709845906575512
 42
1.0
 10
26.96969230143231
 20
4.365382120768244
 42
1.0
 10
26.40552001953128
 20
4.717133260091141
 42
1.0
 10
25.76274788411459
 20
4.716125569661458
 42
1.0
 97
        0
 72
     4
 94
        3
 73
     1
 74
     0
 95
        8
 96
        4
 40
8.0
 40
8.0
 40
8.0
 40
8.0
 40
9.0
 40
9.0
 40
9.0
 40
9.0
 10
25.76274788411459
 20
4.716125569661458
 42
1.0
 10
25.74649047851568
 20
4.716125569661458
 42
1.0
 10
25.73292024739587
 20
4.715050699869799
 42
1.0
 10
25.72109667968753
 20
4.715050699869799
 42
1.0
 97
        0
 72
     1
 10
25.72109667968753
 20
4.715050699869799
 11
25.66412858072919
 21
4.714513264973949
 72
     1
 10
25.66412858072919
 20
4.714513264973949
 11
25.66412858072919
 21
4.713236857096362
 97
        0
 75
     0
 76
     1
 98
        1
 10
0.0
 20
0.0
  0
HATCH
  5
127
330
76
100
AcDbEntity
  8
0
  6
Continuous
 62
     7
100
AcDbHatch
 10
0.0
 20
0.0
 30
0.0
210
0.0
220
0.0
230
1.0
  2
SOLID
 70
     1
 71
     0
 91
        1
 92
        0
 93
       15
 72
     4
 94
        3
 73
     1
 74
     0
 95
        8
 96
        4
 40
11.0
 40
11.0
 40
11.0
 40
11.0
 40
12.0
 40
12.0
 40
12.0
 40
12.0
 10
29.93243652343752
 20
0.0213630371093815
 42
1.0
 10
30.88692089843753
 20
0.0213630371093815
 42
1.0
 10
31.49301310221358
 20
0.4468771158854246
 42
1.0
 10
31.81587711588546
 20
1.278691975911461
 42
1.0
 97
        0
 72
     1
 10
31.81587711588546
 20
1.278691975911461
 11
31.84704833984381
 21
1.357694905598963
 72
     1
 10
31.84704833984381
 20
1.357694905598963
 11
31.12137687174482
 21
1.357963623046868
 72
     1
 10
31.12137687174482
 20
1.357963623046868
 11
31.10619433593753
 21
1.32491137695312
 72
     4
 94
        3
 73
     1
 74
     0
 95
        8
 96
        4
 40
0.0
 40
0.0
 40
0.0
 40
0.0
 40
1.0
 40
1.0
 40
1.0
 40
1.0
 10
31.10619433593753
 20
1.32491137695312
 42
1.0
 10
30.92010750325525
 20
0.9410485026041526
 42
1.0
 10
30.58179223632818
 20
0.6500275065104283
 42
1.0
 10
29.91994116210939
 20
0.6473403320312598
 42
1.0
 97
        0
 72
     4
 94
        3
 73
     1
 74
     0
 95
        8
 96
        4
 40
1.0
 40
1.0
 40
1.0
 40
1.0
 40
2.0
 40
2.0
 40
2.0
 40
2.0
 10
29.91994116210939
 20
0.6473403320312598
 42
1.0
 10
29.26091162109379
 20
0.6494900716145918
 42
1.0
 10
28.55015397135418
 20
1.197270589192695
 42
1.0
 10
28.54786987304692
 20
2.374924804687511
 42
1.0
 97
        0
 72
     4
 94
        3
 73
     1
 74
     0
 95
        8
 96
        4
 40
2.0
 40
2.0
 40
2.0
 40
2.0
 40
3.0
 40
3.0
 40
3.0
 40
3.0
 10
28.54786987304692
 20
2.374924804687511
 42
1.0
 10
28.55096012369795
 20
3.552310302734369
 42
1.0
 10
29.25862752278652
 20
4.099284667968758
 42
1.0
 10
29.97462516276045
 20
4.102106201171893
 42
1.0
 97
        0
 72
     4
 94
        3
 73
     1
 74
     0
 95
        8
 96
        4
 40
3.0
 40
3.0
 40
3.0
 40
3.0
 40
4.0
 40
4.0
 40
4.0
 40
4.0
 10
29.97462516276045
 20
4.102106201171893
 42
1.0
 10
30.48680061848963
 20
4.100292358398469
 42
1.0
 10
30.87697835286463
 20
3.949541870117188
 42
1.0
 10
31.04989803059899
 20
3.587915364583347
 42
1.0
 97
        0
 72
     1
 10
31.04989803059899
 20
3.587915364583347
 11
31.06508056640628
 21
3.554124145507806
 72
     1
 10
31.06508056640628
 20
3.554124145507806
 11
31.78295922851565
 21
3.549421590169271
 72
     1
 10
31.78295922851565
 20
3.549421590169271
 11
31.74708544921878
 21
3.631313232421871
 72
     4
 94
        3
 73
     1
 74
     0
 95
        8
 96
        4
 40
7.0
 40
7.0
 40
7.0
 40
7.0
 40
8.0
 40
8.0
 40
8.0
 40
8.0
 10
31.74708544921878
 20
3.631313232421871
 42
1.0
 10
31.34669645182292
 20
4.552275105794271
 42
1.0
 10
30.60342399088545
 20
4.731308105468749
 42
1.0
 10
30.04704451497398
 20
4.728150675455733
 42
1.0
 97
        0
 72
     4
 94
        3
 73
     1
 74
     0
 95
        8
 96
        4
 40
8.0
 40
8.0
 40
8.0
 40
8.0
 40
9.0
 40
9.0
 40
9.0
 40
9.0
 10
30.04704451497398
 20
4.728150675455733
 42
1.0
 10
28.75840999348961
 20
4.731308105468749
 42
1.0
 10
27.89932031250003
 20
3.773464762369796
 42
1.0
 10
27.88521264648442
 20
2.375462239583334
 42
1.0
 97
        0
 72
     4
 94
        3
 73
     1
 74
     0
 95
        8
 96
        4
 40
9.0
 40
9.0
 40
9.0
 40
9.0
 40
10.0
 40
10.0
 40
10.0
 40
10.0
 10
27.88521264648442
 20
2.375462239583334
 42
1.0
 10
27.90093261718751
 20
0.9750412597656355
 42
1.0
 10
28.79092480468753
 20
0.0204225260416607
 42
1.0
 10
29.91994116210939
 20
0.0213630371093815
 42
1.0
 97
        0
 72
     1
 10
29.91994116210939
 20
0.0213630371093815
 11
29.93243652343752
 21
0.0213630371093815
 97
        0
 75
     0
 76
     1
 98
        1
 10
0.0
 20
0.0
  0
HATCH
  5
128
330
76
100
AcDbEntity
  8
0
  6
Continuous
 62
     7
100
AcDbHatch
 10
0.0
 20
0.0
 30
0.0
210
0.0
220
0.0
230
1.0
  2
SOLID
 70
     1
 71
     0
 91
        1
 92
        0
 93
       13
 72
     4
 94
        3
 73
     1
 74
     0
 95
        8
 96
        4
 40
11.0
 40
11.0
 40
11.0
 40
11.0
 40
12.0
 40
12.0
 40
12.0
 40
12.0
 10
35.78752099609378
 20
3.149032592773438
 42
1.0
 10
35.78752099609378
 20
3.60934558105469
 42
1.0
 10
35.66874788411462
 20
4.006106892903649
 42
1.0
 10
35.40486735026044
 20
4.287386881510424
 42
1.0
 97
        0
 72
     4
 94
        3
 73
     1
 74
     0
 95
        8
 96
        4
 40
12.0
 40
12.0
 40
12.0
 40
12.0
 40
13.0
 40
13.0
 40
13.0
 40
13.0
 10
35.40486735026044
 20
4.287386881510424
 42
1.0
 10
35.14138989257815
 20
4.569271484375012
 42
1.0
 10
34.73737320963544
 20
4.728620930989594
 42
1.0
 10
34.18986140950525
 20
4.728620930989594
 42
1.0
 97
        0
 72
     4
 94
        3
 73
     1
 74
     0
 95
        8
 96
        4
 40
0.0
 40
0.0
 40
0.0
 40
0.0
 40
1.0
 40
1.0
 40
1.0
 40
1.0
 10
34.18986140950525
 20
4.728620930989594
 42
1.0
 10
33.71799357096356
 20
4.729427083333348
 42
1.0
 10
33.22677807617191
 20
4.558791503906257
 42
1.0
 10
32.92688940429689
 20
4.101098510742196
 42
1.0
 97
        0
 72
     1
 10
32.92688940429689
 20
4.101098510742196
 11
32.92688940429689
 21
5.806580973307315
 72
     1
 10
32.92688940429689
 20
5.806580973307315
 11
32.26450089518234
 21
5.806580973307315
 72
     1
 10
32.26450089518234
 20
5.806580973307315
 11
32.26450089518234
 21
0.1305966796874971
 72
     1
 10
32.26450089518234
 20
0.1305966796874974
 11
32.92688940429689
 21
0.1305966796874974
 72
     1
 10
32.92688940429689
 20
0.1305966796874974
 11
32.92688940429689
 21
2.739440022786463
 72
     4
 94
        3
 73
     1
 74
     0
 95
        8
 96
        4
 40
6.0
 40
6.0
 40
6.0
 40
6.0
 40
7.0
 40
7.0
 40
7.0
 40
7.0
 10
32.92688940429689
 20
2.739440022786463
 42
1.0
 10
32.93159195963541
 20
3.697552083333347
 42
1.0
 10
33.48770271809898
 20
4.097403645833345
 42
1.0
 10
34.11703898111984
 20
4.102106201171893
 42
1.0
 97
        0
 72
     4
 94
        3
 73
     1
 74
     0
 95
        8
 96
        4
 40
7.0
 40
7.0
 40
7.0
 40
7.0
 40
8.0
 40
8.0
 40
8.0
 40
8.0
 10
34.11703898111984
 20
4.102106201171893
 42
1.0
 10
34.79098234049482
 20
4.090887247721373
 42
1.0
 10
35.11317456054691
 20
3.851930257161462
 42
1.0
 10
35.12419197591149
 20
2.985450846354182
 42
1.0
 97
        0
 72
     1
 10
35.12419197591149
 20
2.985450846354182
 11
35.12419197591149
 21
0.1305966796874976
 72
     1
 10
35.12419197591149
 20
0.1305966796874974
 11
35.78752099609378
 21
0.1305966796874974
 72
     1
 10
35.78752099609378
 20
0.1305966796874974
 11
35.78752099609378
 21
3.149032592773438
 97
        0
 75
     0
 76
     1
 98
        1
 10
0.0
 20
0.0
  0
HATCH
  5
129
330
76
100
AcDbEntity
  8
0
  6
Continuous
 62
     7
100
AcDbHatch
 10
0.0
 20
0.0
 30
0.0
210
0.0
220
0.0
230
1.0
  2
SOLID
 70
     1
 71
     0
 91
        2
 92
        0
 93
       34
 72
     4
 94
        3
 73
     1
 74
     0
 95
        8
 96
        4
 40
26.0
 40
26.0
 40
26.0
 40
26.0
 40
27.0
 40
27.0
 40
27.0
 40
27.0
 10
42.47119571940105
 20
0.814616943359367
 42
1.0
 10
42.43505322265628
 20
0.9082649739583365
 42
1.0
 10
42.43088810221357
 20
1.055119059244797
 42
1.0
 10
42.43115681966147
 20
1.21823055013022
 42
1.0
 97
        0
 72
     1
 10
42.43115681966147
 20
1.21823055013022
 11
42.43115681966147
 21
4.047422200520845
 72
     1
 10
42.43115681966147
 20
4.047422200520845
 11
45.83137304687506
 21
4.047690917968763
 72
     1
 10
45.83137304687506
 20
4.047690917968763
 11
43.49541227213544
 21
0.5801609700520767
 72
     1
 10
43.49541227213544
 20
0.5801609700520766
 11
43.49541227213544
 21
0.1305966796875113
 72
     1
 10
43.49541227213544
 20
0.1305966796875113
 11
46.79996508789064
 21
0.1305966796875113
 72
     1
 10
46.79996508789064
 20
0.1305966796875113
 11
46.79996508789064
 21
0.7024274088541643
 72
     1
 10
46.79996508789064
 20
0.7024274088541643
 11
44.38231420898442
 21
0.7024274088541643
 72
     1
 10
44.38231420898442
 20
0.7024274088541643
 11
46.76382259114587
 21
4.242645426432295
 72
     1
 10
46.76382259114587
 20
4.242645426432295
 11
46.76382259114587
 21
4.618984212239593
 72
     1
 10
46.76382259114587
 20
4.618984212239593
 11
42.43115681966147
 21
4.618984212239593
 72
     1
 10
42.43115681966147
 20
4.618984212239593
 11
42.43115681966147
 21
5.806849690755206
 72
     1
 10
42.43115681966147
 20
5.806849690755206
 11
41.76849959309897
 21
5.806849690755206
 72
     1
 10
41.76849959309897
 20
5.806849690755206
 11
41.76849959309897
 21
4.618984212239593
 72
     1
 10
41.76849959309897
 20
4.618984212239593
 11
39.80068172200524
 21
4.618984212239593
 72
     1
 10
39.80068172200524
 20
4.618984212239593
 11
39.80068172200524
 21
4.202136271158855
 72
     4
 94
        3
 73
     1
 74
     0
 95
        8
 96
        4
 40
8.0
 40
8.0
 40
8.0
 40
8.0
 40
9.0
 40
9.0
 40
9.0
 40
9.0
 10
39.80068172200524
 20
4.202136271158855
 42
1.0
 10
39.43979418945315
 20
4.548042805989583
 42
1.0
 10
38.96308943684895
 20
4.728620930989594
 42
1.0
 10
38.44244938151048
 20
4.728150675455733
 42
1.0
 97
        0
 72
     4
 94
        3
 73
     1
 74
     0
 95
        8
 96
        4
 40
9.0
 40
9.0
 40
9.0
 40
9.0
 40
10.0
 40
10.0
 40
10.0
 40
10.0
 10
38.44244938151048
 20
4.728150675455733
 42
1.0
 10
37.88190478515624
 20
4.728620930989594
 42
1.0
 10
37.37026676432292
 20
4.522178751627623
 42
1.0
 10
37.00131770833337
 20
4.121991292317703
 42
1.0
 97
        0
 72
     4
 94
        3
 73
     1
 74
     0
 95
        8
 96
        4
 40
10.0
 40
10.0
 40
10.0
 40
10.0
 40
11.0
 40
11.0
 40
11.0
 40
11.0
 10
37.00131770833337
 20
4.121991292317703
 42
1.0
 10
36.63277172851564
 20
3.722677164713556
 42
1.0
 10
36.40745214843749
 20
3.132775187174488
 42
1.0
 10
36.40745214843749
 20
2.374924804687511
 42
1.0
 97
        0
 72
     4
 94
        3
 73
     1
 74
     0
 95
        8
 96
        4
 40
11.0
 40
11.0
 40
11.0
 40
11.0
 40
12.0
 40
12.0
 40
12.0
 40
12.0
 10
36.40745214843749
 20
2.374924804687511
 42
1.0
 10
36.40745214843749
 20
1.616738525390626
 42
1.0
 10
36.63277172851564
 20
1.027172444661453
 42
1.0
 10
37.00131770833337
 20
0.6274552408854217
 42
1.0
 97
        0
 72
     4
 94
        3
 73
     1
 74
     0
 95
        8
 96
        4
 40
12.0
 40
12.0
 40
12.0
 40
12.0
 40
13.0
 40
13.0
 40
13.0
 40
13.0
 10
37.00131770833337
 20
0.6274552408854217
 42
1.0
 10
37.37026676432292
 20
0.2281411132812466
 42
1.0
 10
37.88190478515624
 20
0.0210943196614632
 42
1.0
 10
38.44244938151048
 20
0.0213630371093815
 42
1.0
 97
        0
 72
     1
 10
38.44244938151048
 20
0.0213630371093815
 11
38.44352425130209
 21
0.0213630371093815
 72
     4
 94
        3
 73
     1
 74
     0
 95
        8
 96
        4
 40
14.0
 40
14.0
 40
14.0
 40
14.0
 40
15.0
 40
15.0
 40
15.0
 40
15.0
 10
38.44352425130209
 20
0.0213630371093815
 42
1.0
 10
38.98163094075524
 20
0.0213630371093815
 42
1.0
 10
39.47284643554688
 20
0.214302164713534
 42
1.0
 10
39.83763037109378
 20
0.5832512207031293
 42
1.0
 97
        0
 72
     1
 10
39.83763037109378
 20
0.5832512207031293
 11
39.92482918294277
 21
0.1305966796875113
 72
     1
 10
39.92482918294277
 20
0.1305966796875113
 11
40.47704353841147
 21
0.1305966796875113
 72
     1
 10
40.47704353841147
 20
0.1305966796875113
 11
40.47704353841147
 21
4.047422200520845
 72
     1
 10
40.47704353841147
 20
4.047422200520845
 11
41.76849959309897
 21
4.047422200520845
 72
     1
 10
41.76849959309897
 20
4.047422200520845
 11
41.76849959309897
 21
0.8538496907552204
 72
     4
 94
        3
 73
     1
 74
     0
 95
        8
 96
        4
 40
20.0
 40
20.0
 40
20.0
 40
20.0
 40
21.0
 40
21.0
 40
21.0
 40
21.0
 10
41.76849959309897
 20
0.8538496907552207
 42
1.0
 10
41.7674247233073
 20
0.5558420410156223
 42
1.0
 10
41.86375992838548
 20
0.3600813802083214
 42
1.0
 10
42.01921297200523
 20
0.2488323567708256
 42
1.0
 97
        0
 72
     4
 94
        3
 73
     1
 74
     0
 95
        8
 96
        4
 40
21.0
 40
21.0
 40
21.0
 40
21.0
 40
22.0
 40
22.0
 40
22.0
 40
22.0
 10
42.01921297200523
 20
0.2488323567708256
 42
1.0
 10
42.17385986328126
 20
0.1375833333333298
 42
1.0
 10
42.37244205729168
 20
0.1101741536458228
 42
1.0
 10
42.57371142578126
 20
0.1099054361979185
 42
1.0
 97
        0
 72
     4
 94
        2
 73
     1
 74
     0
 95
        6
 96
        3
 40
22.0
 40
22.0
 40
22.0
 40
23.0
 40
23.0
 40
23.0
 10
42.57371142578126
 20
0.1099054361979185
 42
1.0
 10
42.6103913574219
 20
0.1099054361979185
 42
1.0
 10
43.15817187500004
 20
0.1096367187500003
 42
1.0
 97
        0
 72
     1
 10
43.15817187500004
 20
0.1096367187500003
 11
43.15817187500004
 21
0.67380900065106
 72
     4
 94
        2
 73
     1
 74
     0
 95
        6
 96
        3
 40
24.0
 40
24.0
 40
24.0
 40
25.0
 40
25.0
 40
25.0
 10
43.15817187500004
 20
0.67380900065106
 42
1.0
 10
42.94333227539065
 20
0.67380900065106
 42
1.0
 10
42.6923501790365
 20
0.67380900065106
 42
1.0
 97
        0
 72
     4
 94
        3
 73
     1
 74
     0
 95
        8
 96
        4
 40
25.0
 40
25.0
 40
25.0
 40
25.0
 40
26.0
 40
26.0
 40
26.0
 40
26.0
 10
42.6923501790365
 20
0.67380900065106
 42
1.0
 10
42.55463248697916
 20
0.6774366861979492
 42
1.0
 10
42.50935359700525
 20
0.7223125000000302
 42
1.0
 10
42.47119571940105
 20
0.814616943359367
 42
1.0
 97
        0
 97
        0
 92
        0
 93
        5
 72
     4
 94
        3
 73
     1
 74
     0
 95
        8
 96
        4
 40
3.0
 40
3.0
 40
3.0
 40
3.0
 40
4.0
 40
4.0
 40
4.0
 40
4.0
 10
38.44244938151048
 20
4.102106201171893
 42
1.0
 10
39.2168930664063
 20
4.100292358398469
 42
1.0
 10
39.81062426757814
 20
3.47538993326825
 42
1.0
 10
39.81465502929687
 20
2.374924804687511
 42
1.0
 97
        0
 72
     4
 94
        3
 73
     1
 74
     0
 95
        8
 96
        4
 40
4.0
 40
4.0
 40
4.0
 40
4.0
 40
5.0
 40
5.0
 40
5.0
 40
5.0
 10
39.81465502929687
 20
2.374924804687511
 42
1.0
 10
39.81062426757814
 20
1.265524820963537
 42
1.0
 10
39.21743050130211
 20
0.6497587890624962
 42
1.0
 10
38.44244938151048
 20
0.6476090494791781
 42
1.0
 97
        0
 72
     4
 94
        3
 73
     1
 74
     0
 95
        8
 96
        4
 40
0.0
 40
0.0
 40
0.0
 40
0.0
 40
1.0
 40
1.0
 40
1.0
 40
1.0
 10
38.44244938151048
 20
0.6476090494791781
 42
1.0
 10
37.66733390299481
 20
0.6497587890624962
 42
1.0
 10
37.0740057779948
 20
1.265524820963537
 42
1.0
 10
37.0703780924479
 20
2.374924804687511
 42
1.0
 97
        0
 72
     1
 10
37.0703780924479
 20
2.374924804687511
 11
37.07010937499999
 21
2.374924804687511
 72
     4
 94
        3
 73
     1
 74
     0
 95
        8
 96
        4
 40
2.0
 40
2.0
 40
2.0
 40
2.0
 40
3.0
 40
3.0
 40
3.0
 40
3.0
 10
37.07010937499999
 20
2.374924804687511
 42
1.0
 10
37.0740057779948
 20
3.47538993326825
 42
1.0
 10
37.66787133789068
 20
4.100292358398469
 42
1.0
 10
38.44244938151048
 20
4.102106201171893
 42
1.0
 97
        0
 97
        0
 75
     0
 76
     1
 98
        1
 10
0.0
 20
0.0
  0
ENDBLK
  5
78
330
76
100
AcDbEntity
  8
0
100
AcDbBlockEnd
  0
BLOCK
  5
15B
330
15A
100
AcDbEntity
  8
0
100
AcDbBlockBegin
  2
_D
 70
     0
 10
0.0
 20
0.0
 30
0.0
  3
_D
  1

  0
SOLID
  5
15D
330
15A
100
AcDbEntity
  8
0
  6
Continuous
 62
     7
370
    18
100
AcDbTrace
 10
295.5847229418
 20
187.1758324559
 30
0.0
 11
298.8867229418
 21
186.6678324559
 31
0.0
 12
298.8867229418
 22
187.6838324559
 32
0.0
 13
298.8867229418
 23
187.6838324559
 33
0.0
  0
SOLID
  5
15E
330
15A
100
AcDbEntity
  8
0
  6
Continuous
 62
     7
370
    18
100
AcDbTrace
 10
313.5847229418
 20
187.1758324559
 30
0.0
 11
310.2827229418
 21
187.6838324559
 31
0.0
 12
310.2827229418
 22
186.6678324559
 32
0.0
 13
310.2827229418
 23
186.6678324559
 33
0.0
  0
LINE
  5
15F
330
15A
100
AcDbEntity
  8
0
  6
Continuous
 62
     7
370
     0
100
AcDbLine
 10
295.5847229418
 20
170.4310816675
 30
0.0
 11
295.5847229418
 21
188.1758324559
 31
0.0
  0
LINE
  5
160
330
15A
100
AcDbEntity
  8
0
  6
Continuous
 62
     7
370
     0
100
AcDbLine
 10
313.5847229418
 20
170.4310816675
 30
0.0
 11
313.5847229418
 21
188.1758324559
 31
0.0
  0
LINE
  5
161
330
15A
100
AcDbEntity
  8
0
  6
Continuous
 62
     7
370
     0
100
AcDbLine
 10
295.5847229418
 20
187.1758324559
 30
0.0
 11
313.5847229418
 21
187.1758324559
 31
0.0
  0
MTEXT
  5
162
330
15A
100
AcDbEntity
  8
0
  6
Continuous
 62
     7
370
    18
100
AcDbMText
 10
301.6660354945
 20
191.6875693704
 30
0.0
 40
3.5
 41
0.0
 46
0.0
 71
     1
 72
     1
  1
18
  7
SLDTEXTSTYLE0
 73
     1
 44
1.0
  0
ENDBLK
  5
15C
330
15A
100
AcDbEntity
  8
0
100
AcDbBlockEnd
  0
BLOCK
  5
1F1
330
1F0
100
AcDbEntity
  8
0
100
AcDbBlockBegin
  2
_D_1
 70
     0
 10
0.0
 20
0.0
 30
0.0
  3
_D_1
  1

  0
SOLID
  5
1F3
330
1F0
100
AcDbEntity
  8
0
  6
Continuous
 62
     7
370
    18
100
AcDbTrace
 10
180.8627176075
 20
164.9310816675
 30
0.0
 11
180.3547176075
 21
161.6290816675
 31
0.0
 12
181.3707176075
 22
161.6290816675
 32
0.0
 13
181.3707176075
 23
161.6290816675
 33
0.0
  0
SOLID
  5
1F4
330
1F0
100
AcDbEntity
  8
0
  6
Continuous
 62
     7
370
    18
100
AcDbTrace
 10
180.8627176075
 20
146.9310816675
 30
0.0
 11
181.3707176075
 21
150.2330816675
 31
0.0
 12
180.3547176075
 22
150.2330816675
 32
0.0
 13
180.3547176075
 23
150.2330816675
 33
0.0
  0
LINE
  5
1F5
330
1F0
100
AcDbEntity
  8
0
  6
Continuous
 62
     7
370
     0
100
AcDbLine
 10
180.8627176075
 20
164.9310816675
 30
0.0
 11
180.8627176075
 21
181.5355979347
 31
0.0
  0
LINE
  5
1F6
330
1F0
100
AcDbEntity
  8
0
  6
Continuous
 62
     7
370
     0
100
AcDbLine
 10
180.8627176075
 20
164.9310816675
 30
0.0
 11
180.8627176075
 21
146.9310816675
 31
0.0
  0
MTEXT
  5
1F7
330
1F0
100
AcDbEntity
  8
0
  6
Continuous
 62
     7
370
    18
100
AcDbMText
 10
176.3509805183
 20
171.0849376836
 30
0.0
 40
3.5
 41
0.0
 46
0.0
 71
     1
 72
     1
  1
%%c
  7
SLDTEXTSTYLE0
 11
-7.044195017643634E-15
 21
1.0
 31
0.0
 73
     1
 44
1.0
  0
MTEXT
  5
1F8
330
1F0
100
AcDbEntity
  8
0
  6
Continuous
 62
     7
370
    18
100
AcDbMText
 10
176.2975083416
 20
176.363375082
 30
0.0
 40
3.5
 41
0.0
 46
0.0
 71
     1
 72
     1
  1
18
  7
SLDTEXTSTYLE0
 11
-7.044195017643634E-15
 21
1.0
 31
0.0
 73
     1
 44
1.0
  0
ENDBLK
  5
1F2
330
1F0
100
AcDbEntity
  8
0
100
AcDbBlockEnd
  0
BLOCK
  5
1FC
330
1FB
100
AcDbEntity
  8
0
100
AcDbBlockBegin
  2
_D_2
 70
     0
 10
0.0
 20
0.0
 30
0.0
  3
_D_2
  1

  0
SOLID
  5
1FE
330
1FB
100
AcDbEntity
  8
0
  6
Continuous
 62
     7
370
    18
100
AcDbTrace
 10
85.9237478615
 20
178.4310816675
 30
0.0
 11
85.4157478615
 21
175.1290816675
 31
0.0
 12
86.4317478615
 22
175.1290816675
 32
0.0
 13
86.4317478615
 23
175.1290816675
 33
0.0
  0
SOLID
  5
1FF
330
1FB
100
AcDbEntity
  8
0
  6
Continuous
 62
     7
370
    18
100
AcDbTrace
 10
85.9237478615
 20
146.9310816675
 30
0.0
 11
86.4317478615
 21
150.2330816675
 31
0.0
 12
85.4157478615
 22
150.2330816675
 32
0.0
 13
85.4157478615
 23
150.2330816675
 33
0.0
  0
LINE
  5
200
330
1FB
100
AcDbEntity
  8
0
  6
Continuous
 62
     7
370
     0
100
AcDbLine
 10
95.1182843626
 20
178.4310816675
 30
0.0
 11
84.9237478615
 21
178.4310816675
 31
0.0
  0
LINE
  5
201
330
1FB
100
AcDbEntity
  8
0
  6
Continuous
 62
     7
370
     0
100
AcDbLine
 10
95.1182843626
 20
146.9310816675
 30
0.0
 11
84.9237478615
 21
146.9310816675
 31
0.0
  0
LINE
  5
202
330
1FB
100
AcDbEntity
  8
0
  6
Continuous
 62
     7
370
     0
100
AcDbLine
 10
85.9237478615
 20
178.4310816675
 30
0.0
 11
85.9237478615
 21
146.9310816675
 31
0.0
  0
MTEXT
  5
203
330
1FB
100
AcDbEntity
  8
0
  6
Continuous
 62
     7
370
    18
100
AcDbMText
 10
81.412010947
 20
155.597187351
 30
0.0
 40
3.5
 41
0.0
 46
0.0
 71
     1
 72
     1
  1
31.50
  7
SLDTEXTSTYLE0
 11
-7.044195017643634E-15
 21
1.0
 31
0.0
 73
     1
 44
1.0
  0
ENDBLK
  5
1FD
330
1FB
100
AcDbEntity
  8
0
100
AcDbBlockEnd
  0
BLOCK
  5
206
330
205
100
AcDbEntity
  8
0
100
AcDbBlockBegin
  2
_D_3
 70
     0
 10
0.0
 20
0.0
 30
0.0
  3
_D_3
  1

  0
SOLID
  5
208
330
205
100
AcDbEntity
  8
0
  6
Continuous
 62
     7
370
    18
100
AcDbTrace
 10
102.3682843626
 20
185.8457336119
 30
0.0
 11
105.6702843626
 21
185.3377336119
 31
0.0
 12
105.6702843626
 22
186.3537336119
 32
0.0
 13
105.6702843626
 23
186.3537336119
 33
0.0
  0
SOLID
  5
209
330
205
100
AcDbEntity
  8
0
  6
Continuous
 62
     7
370
    18
100
AcDbTrace
 10
217.3682843626
 20
185.8457336119
 30
0.0
 11
214.0662843626
 21
186.3537336119
 31
0.0
 12
214.0662843626
 22
185.3377336119
 32
0.0
 13
214.0662843626
 23
185.3377336119
 33
0.0
  0
LINE
  5
20A
330
205
100
AcDbEntity
  8
0
  6
Continuous
 62
     7
370
     0
100
AcDbLine
 10
102.3682843626
 20
174.4310816675
 30
0.0
 11
102.3682843626
 21
186.8457336119
 31
0.0
  0
LINE
  5
20B
330
205
100
AcDbEntity
  8
0
  6
Continuous
 62
     7
370
     0
100
AcDbLine
 10
217.3682843626
 20
165.9310816675
 30
0.0
 11
217.3682843626
 21
186.8457336119
 31
0.0
  0
LINE
  5
20C
330
205
100
AcDbEntity
  8
0
  6
Continuous
 62
     7
370
     0
100
AcDbLine
 10
102.3682843626
 20
185.8457336119
 30
0.0
 11
217.3682843626
 21
185.8457336119
 31
0.0
  0
MTEXT
  5
20D
330
205
100
AcDbEntity
  8
0
  6
Continuous
 62
     7
370
    18
100
AcDbMText
 10
152.7646407298
 20
190.3574705265
 30
0.0
 40
3.5
 41
0.0
 46
0.0
 71
     1
 72
     1
  1
115
  7
SLDTEXTSTYLE0
 73
     1
 44
1.0
  0
ENDBLK
  5
207
330
205
100
AcDbEntity
  8
0
100
AcDbBlockEnd
  0
BLOCK
  5
210
330
20F
100
AcDbEntity
  8
0
100
AcDbBlockBegin
  2
_D_4
 70
     0
 10
0.0
 20
0.0
 30
0.0
  3
_D_4
  1

  0
SOLID
  5
212
330
20F
100
AcDbEntity
  8
0
  6
Continuous
 62
     7
370
    18
100
AcDbTrace
 10
222.3682843626
 20
194.9310816675
 30
0.0
 11
219.0662843626
 21
195.4390816675
 31
0.0
 12
219.0662843626
 22
194.4230816675
 32
0.0
 13
219.0662843626
 23
194.4230816675
 33
0.0
  0
SOLID
  5
213
330
20F
100
AcDbEntity
  8
0
  6
Continuous
 62
     7
370
    18
100
AcDbTrace
 10
95.8682843626
 20
194.9310816675
 30
0.0
 11
99.1702843626
 21
194.4230816675
 31
0.0
 12
99.1702843626
 22
195.4390816675
 32
0.0
 13
99.1702843626
 23
195.4390816675
 33
0.0
  0
LINE
  5
214
330
20F
100
AcDbEntity
  8
0
  6
Continuous
 62
     7
370
     0
100
AcDbLine
 10
222.3682843626
 20
176.9310816675
 30
0.0
 11
222.3682843626
 21
195.9310816675
 31
0.0
  0
LINE
  5
215
330
20F
100
AcDbEntity
  8
0
  6
Continuous
 62
     7
370
     0
100
AcDbLine
 10
95.8682843626
 20
179.1810816675
 30
0.0
 11
95.8682843626
 21
195.9310816675
 31
0.0
  0
LINE
  5
216
330
20F
100
AcDbEntity
  8
0
  6
Continuous
 62
     7
370
     0
100
AcDbLine
 10
222.3682843626
 20
194.9310816675
 30
0.0
 11
95.8682843626
 21
194.9310816675
 31
0.0
  0
MTEXT
  5
217
330
20F
100
AcDbEntity
  8
0
  6
Continuous
 62
     7
370
    18
100
AcDbMText
 10
149.0775014489
 20
199.4428185821
 30
0.0
 40
3.5
 41
0.0
 46
0.0
 71
     1
 72
     1
  1
126.50
  7
SLDTEXTSTYLE0
 73
     1
 44
1.0
  0
ENDBLK
  5
211
330
20F
100
AcDbEntity
  8
0
100
AcDbBlockEnd
  0
ENDSEC
  0
SECTION
  2
ENTITIES
  0
LINE
  5
12A
330
1F
100
AcDbEntity
  8
0
  6
Continuous
 62
     7
370
    25
100
AcDbLine
 10
302.1135931379
 20
147.1540070534
 30
0.0
 11
302.553454243
 21
146.9039410175
 31
0.0
  0
LINE
  5
12B
330
1F
100
AcDbEntity
  8
0
  6
Continuous
 62
     7
370
    25
100
AcDbLine
 10
306.6159916407
 20
146.9039410175
 30
0.0
 11
307.0558527458
 21
147.1540070534
 31
0.0
  0
LINE
  5
12C
330
1F
100
AcDbEntity
  8
0
  6
Continuous
 62
     7
370
    25
100
AcDbLine
 10
307.0847229418
 20
147.1870248758
 30
0.0
 11
307.0847229418
 21
147.2852734346
 31
0.0
  0
LINE
  5
12D
330
1F
100
AcDbEntity
  8
0
  6
Continuous
 62
     7
370
    25
100
AcDbLine
 10
302.0847229418
 20
147.2852734346
 30
0.0
 11
302.0847229418
 21
147.1870248758
 31
0.0
  0
LWPOLYLINE
  5
12E
330
1F
100
AcDbEntity
  8
0
  6
Continuous
 62
     7
370
    25
100
AcDbPolyline
 90
       12
 70
   128
 43
0.0
 10
304.5847229418
 20
146.7519766161
 10
305.0264871965
 20
146.7561639927
 10
305.4475950456
 20
146.7685303253
 10
305.8283559541
 20
146.7884973781
 10
306.1509659651
 20
146.8151315137
 10
306.4003401932
 20
146.8471873497
 10
306.5648181765
 20
146.8831659907
 10
306.6367091073
 20
146.9213851155
 10
306.6126514457
 20
146.9600576403
 10
306.4937701011
 20
146.9973752808
 10
306.2856238331
 20
147.0315931056
 10
306.0714483201
 20
147.0547283819
  0
LWPOLYLINE
  5
12F
330
1F
100
AcDbEntity
  8
0
  6
Continuous
 62
     7
370
    25
100
AcDbPolyline
 90
       12
 70
   128
 43
0.0
 10
303.0979975636
 20
147.0547283819
 10
302.8838220506
 20
147.0315931056
 10
302.6756757826
 20
146.9973752808
 10
302.556794438
 20
146.9600576403
 10
302.5327367764
 20
146.9213851155
 10
302.6046277072
 20
146.8831659907
 10
302.7691056905
 20
146.8471873497
 10
303.0184799186
 20
146.8151315137
 10
303.3410899296
 20
146.7884973781
 10
303.7218508381
 20
146.7685303253
 10
304.1429586872
 20
146.7561639927
 10
304.5847229418
 20
146.7519766161
  0
LWPOLYLINE
  5
130
330
1F
100
AcDbEntity
  8
0
  6
Continuous
 62
     7
370
    25
100
AcDbPolyline
 90
        4
 70
   128
 43
0.0
 10
307.0558527458
 20
147.1540070534
 10
307.0847229418
 20
147.1870248758
 10
307.0366861429
 20
147.2295329806
 10
306.9688228614
 20
147.2525986449
  0
LWPOLYLINE
  5
131
330
1F
100
AcDbEntity
  8
0
  6
Continuous
 62
     7
370
    25
100
AcDbPolyline
 90
        4
 70
   128
 43
0.0
 10
302.2006230223
 20
147.2525986449
 10
302.1327597408
 20
147.2295329806
 10
302.0847229418
 20
147.1870248758
 10
302.1135931379
 20
147.1540070534
  0
LINE
  5
132
330
1F
100
AcDbEntity
  8
0
  6
Continuous
 62
     7
370
    25
100
AcDbLine
 10
305.8347229418
 20
146.9939809069
 30
0.0
 11
305.7017609035
 21
147.0006714758
 31
0.0
  0
LINE
  5
133
330
1F
100
AcDbEntity
  8
0
  6
Continuous
 62
     7
370
    25
100
AcDbLine
 10
303.3347229418
 20
146.9939809069
 30
0.0
 11
303.4676849802
 21
147.0006714758
 31
0.0
  0
LINE
  5
134
330
1F
100
AcDbEntity
  8
0
  6
Continuous
 62
     7
370
    25
100
AcDbLine
 10
303.3347229418
 20
146.8681824281
 30
0.0
 11
303.3347229418
 21
146.9939809069
 31
0.0
  0
LINE
  5
135
330
1F
100
AcDbEntity
  8
0
  6
Continuous
 62
     7
370
    25
100
AcDbLine
 10
303.3347229418
 20
146.8681824281
 30
0.0
 11
304.5847229418
 21
146.8052831886
 31
0.0
  0
LINE
  5
136
330
1F
100
AcDbEntity
  8
0
  6
Continuous
 62
     7
370
    25
100
AcDbLine
 10
305.8347229418
 20
146.8681824281
 30
0.0
 11
304.5847229418
 21
146.8052831886
 31
0.0
  0
LINE
  5
137
330
1F
100
AcDbEntity
  8
0
  6
Continuous
 62
     7
370
    25
100
AcDbLine
 10
305.8347229418
 20
146.8681824281
 30
0.0
 11
305.8347229418
 21
146.9939809069
 31
0.0
  0
LINE
  5
138
330
1F
100
AcDbEntity
  8
0
  6
Continuous
 62
     7
370
    25
100
AcDbLine
 10
304.5847229418
 20
146.9310816675
 30
0.0
 11
304.5847229418
 21
146.8052831886
 31
0.0
  0
ARC
  5
139
330
1F
100
AcDbEntity
  8
0
  6
Continuous
 62
     7
370
    25
100
AcDbCircle
 10
304.5847229418
 20
155.9310816675
 30
0.0
 40
8.750000000000057
100
AcDbArc
 50
180.0
 51
0.0
  0
LINE
  5
13A
330
1F
100
AcDbEntity
  8
0
  6
Continuous
 62
     7
370
    25
100
AcDbLine
 10
295.8347229418
 20
169.4310816675
 30
0.0
 11
295.8347229418
 21
155.9310816675
 31
0.0
  0
ARC
  5
13B
330
1F
100
AcDbEntity
  8
0
  6
Continuous
 62
     7
370
    25
100
AcDbCircle
 10
304.5847229418
 20
169.4310816675
 30
0.0
 40
8.750000000000057
100
AcDbArc
 50
0.0
 51
180.0
  0
LINE
  5
13C
330
1F
100
AcDbEntity
  8
0
  6
Continuous
 62
     7
370
    25
100
AcDbLine
 10
313.3347229418
 20
155.9310816675
 30
0.0
 11
313.3347229418
 21
169.4310816675
 31
0.0
  0
LINE
  5
13D
330
1F
100
AcDbEntity
  8
0
  6
Continuous
 62
     7
370
    25
100
AcDbLine
 10
303.4368734965
 20
156.1665163049
 30
0.0
 11
303.4368734965
 21
158.9310816675
 31
0.0
  0
LINE
  5
13E
330
1F
100
AcDbEntity
  8
0
  6
Continuous
 62
     7
370
    25
100
AcDbLine
 10
303.4368734965
 20
158.9310816675
 30
0.0
 11
302.8699768331
 21
158.9310816675
 31
0.0
  0
LINE
  5
13F
330
1F
100
AcDbEntity
  8
0
  6
Continuous
 62
     7
370
    25
100
AcDbLine
 10
302.8699768331
 20
158.9310816675
 30
0.0
 11
302.8699768331
 21
156.211834469
 31
0.0
  0
LINE
  5
140
330
1F
100
AcDbEntity
  8
0
  6
Continuous
 62
     7
370
    25
100
AcDbLine
 10
302.8699768331
 20
156.211834469
 30
0.0
 11
302.8704488973
 21
156.211834469
 31
0.0
  0
SPLINE
  5
141
330
1F
100
AcDbEntity
  8
0
  6
Continuous
 62
     7
370
    25
100
AcDbSpline
210
0.0
220
0.0
230
1.0
 70
     8
 71
     3
 72
    12
 73
     8
 74
     0
 42
0.00000001
 43
0.00000001
 40
0.0
 40
0.0
 40
0.0
 40
0.0
 40
0.2261028859888474
 40
0.4210793185043557
 40
0.5969627768149822
 40
0.7954083851499542
 40
1.0
 40
1.0
 40
1.0
 40
1.0
 10
302.8704488972841
 20
156.211834468989
 30
0.0
 10
302.8830576994686
 20
156.0069479903966
 30
0.0
 10
302.9065395131031
 20
155.6253807299913
 30
0.0
 10
303.1109628742918
 20
155.1151098110691
 30
0.0
 10
303.4394721374572
 20
154.7113804274322
 30
0.0
 10
303.9034808478512
 20
154.4323050747627
 30
0.0
 10
304.2698648033699
 20
154.399291639784
 30
0.0
 10
304.4558503173687
 20
154.3825332075959
 30
0.0
  0
SPLINE
  5
142
330
1F
100
AcDbEntity
  8
0
  6
Continuous
 62
     7
370
    25
100
AcDbSpline
210
0.0
220
0.0
230
1.0
 70
     8
 71
     3
 72
     9
 73
     5
 74
     0
 42
0.00000001
 43
0.00000001
 40
0.0
 40
0.0
 40
0.0
 40
0.0
 40
0.5596779077274697
 40
1.0
 40
1.0
 40
1.0
 40
1.0
 10
304.4558503173687
 20
154.3825332075959
 30
0.0
 10
304.4921390892501
 20
154.3829197009037
 30
0.0
 10
304.5569777605294
 20
154.3836102647128
 30
0.0
 10
304.6216894362751
 20
154.3876694618277
 30
0.0
 10
304.6501834167339
 20
154.3894568159943
 30
0.0
  0
SPLINE
  5
143
330
1F
100
AcDbEntity
  8
0
  6
Continuous
 62
     7
370
    25
100
AcDbSpline
210
0.0
220
0.0
230
1.0
 70
     8
 71
     3
 72
    11
 73
     7
 74
     0
 42
0.00000001
 43
0.00000001
 40
0.0
 40
0.0
 40
0.0
 40
0.0
 40
0.2522255056123935
 40
0.5125826745196699
 40
0.7396258608848426
 40
1.0
 40
1.0
 40
1.0
 40
1.0
 10
304.6501834167339
 20
154.3894568159943
 30
0.0
 10
304.4654214132593
 20
154.4583252547181
 30
0.0
 10
304.0899407430523
 20
154.5982824268737
 30
0.0
 10
303.7059324003276
 20
155.0492416986085
 30
0.0
 10
303.4811541689278
 20
155.5879043039695
 30
0.0
 10
303.4529070126235
 20
155.965048905573
 30
0.0
 10
303.4378176249045
 20
156.1665163049266
 30
0.0
  0
LINE
  5
144
330
1F
100
AcDbEntity
  8
0
  6
Continuous
 62
     7
370
    25
100
AcDbLine
 10
303.4378176249
 20
156.1665163049
 30
0.0
 11
303.4368734965
 21
156.1665163049
 31
0.0
  0
SPLINE
  5
145
330
1F
100
AcDbEntity
  8
0
  6
Continuous
 62
     7
370
    25
100
AcDbSpline
210
0.0
220
0.0
230
1.0
 70
     8
 71
     3
 72
     9
 73
     5
 74
     0
 42
0.00000001
 43
0.00000001
 40
0.0
 40
0.0
 40
0.0
 40
0.0
 40
0.5658848427237648
 40
0.9999999999999999
 40
0.9999999999999999
 40
0.9999999999999999
 40
0.9999999999999999
 10
305.2692169494487
 20
157.6110852359975
 30
0.0
 10
305.2258147374795
 20
157.6097788433352
 30
0.0
 10
305.1491167793573
 20
157.6074702593906
 30
0.0
 10
305.0737642548155
 20
157.5932034148157
 30
0.0
 10
305.0410525817729
 20
157.5870099613393
 30
0.0
  0
SPLINE
  5
146
330
1F
100
AcDbEntity
  8
0
  6
Continuous
 62
     7
370
    25
100
AcDbSpline
210
0.0
220
0.0
230
1.0
 70
     8
 71
     3
 72
    15
 73
    11
 74
     0
 42
0.00000001
 43
0.00000001
 40
0.0
 40
0.0
 40
0.0
 40
0.0
 40
0.1087980823429076
 40
0.2233961519019271
 40
0.3515158813626665
 40
0.4998683433527916
 40
0.6489684747550811
 40
0.7771385775430661
 40
0.8914612087924823
 40
1.0
 40
1.0
 40
1.0
 40
1.0
 10
305.0410525817729
 20
157.5870099613393
 30
0.0
 10
305.1496827687325
 20
157.5324109207729
 30
0.0
 10
305.3727341794243
 20
157.4203021841352
 30
0.0
 10
305.6176983629811
 20
157.1038571361346
 30
0.0
 10
305.7739959555953
 20
156.6962019921643
 30
0.0
 10
305.8207183525779
 20
156.2234876612783
 30
0.0
 10
305.7742369447715
 20
155.7507161823465
 30
0.0
 10
305.6183464884334
 20
155.342256016293
 30
0.0
 10
305.3733528540921
 20
155.0264030630697
 30
0.0
 10
305.1505916135774
 20
154.9150286701361
 30
0.0
 10
305.0421016133485
 20
154.8607867028758
 30
0.0
  0
SPLINE
  5
147
330
1F
100
AcDbEntity
  8
0
  6
Continuous
 62
     7
370
    25
100
AcDbSpline
210
0.0
220
0.0
230
1.0
 70
     8
 71
     3
 72
     9
 73
     5
 74
     0
 42
0.00000001
 43
0.00000001
 40
0.0
 40
0.0
 40
0.0
 40
0.0
 40
0.5538366634735714
 40
0.9999999999999999
 40
0.9999999999999999
 40
0.9999999999999999
 40
0.9999999999999999
 10
305.0421016133485
 20
154.8607867028758
 30
0.0
 10
305.083723715653
 20
154.853316075163
 30
0.0
 10
305.1588760214672
 20
154.8398272106556
 30
0.0
 10
305.2351750986147
 20
154.8379991196217
 30
0.0
 10
305.2692169494488
 20
154.8371834924266
 30
0.0
  0
SPLINE
  5
148
330
1F
100
AcDbEntity
  8
0
  6
Continuous
 62
     7
370
    25
100
AcDbSpline
210
0.0
220
0.0
230
1.0
 70
     8
 71
     3
 72
    12
 73
     8
 74
     0
 42
0.00000001
 43
0.00000001
 40
0.0
 40
0.0
 40
0.0
 40
0.0
 40
0.2308748548148983
 40
0.429884428733795
 40
0.6066920957212348
 40
0.801413694120745
 40
1.0
 40
1.0
 40
1.0
 40
1.0
 10
306.3711197163758
 20
156.2243179447378
 30
0.0
 10
306.3626358476045
 20
156.3769192509513
 30
0.0
 10
306.3468390511836
 20
156.6610598750927
 30
0.0
 10
306.2092098370682
 20
157.0436965697396
 30
0.0
 10
305.9859635362792
 20
157.3513465899387
 30
0.0
 10
305.6624971648152
 20
157.5708799724624
 30
0.0
 10
305.4011663143938
 20
157.5975959762188
 30
0.0
 10
305.2692169494487
 20
157.6110852359975
 30
0.0
  0
SPLINE
  5
149
330
1F
100
AcDbEntity
  8
0
  6
Continuous
 62
     7
370
    25
100
AcDbSpline
210
0.0
220
0.0
230
1.0
 70
     8
 71
     3
 72
    11
 73
     7
 74
     0
 42
0.00000001
 43
0.00000001
 40
0.0
 40
0.0
 40
0.0
 40
0.0
 40
0.2507100046015371
 40
0.5031044952279448
 40
0.7298054536070858
 40
1.0
 40
1.0
 40
1.0
 40
1.0
 10
305.2692169494488
 20
154.8371834924266
 30
0.0
 10
305.4366382486826
 20
154.8589621484881
 30
0.0
 10
305.7726057278236
 20
154.9026657884046
 30
0.0
 10
306.1382167004905
 20
155.2576426455868
 30
0.0
 10
306.3387818078772
 20
155.7166284250516
 30
0.0
 10
306.3597292329445
 20
156.0454928651116
 30
0.0
 10
306.3711197163758
 20
156.2243179447378
 30
0.0
  0
LINE
  5
14A
330
1F
100
AcDbEntity
  8
0
  6
Continuous
 62
     7
370
    25
100
AcDbLine
 10
313.3347229418
 20
169.4310816675
 30
0.0
 11
313.5847229418
 21
169.4310816675
 31
0.0
  0
LINE
  5
14B
330
1F
100
AcDbEntity
  8
0
  6
Continuous
 62
     7
370
    25
100
AcDbLine
 10
313.5847229418
 20
169.4310816675
 30
0.0
 11
313.5847229418
 21
155.9310816675
 31
0.0
  0
LINE
  5
14C
330
1F
100
AcDbEntity
  8
0
  6
Continuous
 62
     7
370
    25
100
AcDbLine
 10
313.3347229418
 20
155.9310816675
 30
0.0
 11
313.5847229418
 21
155.9310816675
 31
0.0
  0
LINE
  5
14D
330
1F
100
AcDbEntity
  8
0
  6
Continuous
 62
     7
370
    25
100
AcDbLine
 10
295.5847229418
 20
155.9310816675
 30
0.0
 11
295.5847229418
 21
169.4310816675
 31
0.0
  0
LINE
  5
14E
330
1F
100
AcDbEntity
  8
0
  6
Continuous
 62
     7
370
    25
100
AcDbLine
 10
295.5847229418
 20
169.4310816675
 30
0.0
 11
295.8347229418
 21
169.4310816675
 31
0.0
  0
LINE
  5
14F
330
1F
100
AcDbEntity
  8
0
  6
Continuous
 62
     7
370
    25
100
AcDbLine
 10
295.5847229418
 20
155.9310816675
 30
0.0
 11
295.8347229418
 21
155.9310816675
 31
0.0
  0
ARC
  5
150
330
1F
100
AcDbEntity
  8
0
  6
Continuous
 62
     7
370
    25
100
AcDbCircle
 10
304.5847229418
 20
169.4310816675
 30
0.0
 40
9.0
100
AcDbArc
 50
0.0
 51
180.0
  0
ARC
  5
151
330
1F
100
AcDbEntity
  8
0
  6
Continuous
 62
     7
370
    25
100
AcDbCircle
 10
304.5847229418
 20
155.9310816675
 30
0.0
 40
9.0
100
AcDbArc
 50
180.0
 51
0.0
  0
ARC
  5
152
330
1F
100
AcDbEntity
  8
0
  6
Continuous
 62
     7
370
    25
100
AcDbCircle
 10
304.5847229418
 20
174.9310816675
 30
0.0
 40
4.000000000000027
100
AcDbArc
 50
52.1642775767
 51
127.8357224233
  0
ARC
  5
153
330
1F
100
AcDbEntity
  8
0
  6
Continuous
 62
     7
370
    25
100
AcDbCircle
 10
304.5847229418
 20
155.9310816675
 30
0.0
 40
20.00000000000001
100
AcDbArc
 50
111.8377815071
 51
180.0
  0
ARC
  5
154
330
1F
100
AcDbEntity
  8
0
  6
Continuous
 62
     7
370
    25
100
AcDbCircle
 10
304.5847229418
 20
155.9310816675
 30
0.0
 40
20.00000000000001
100
AcDbArc
 50
180.0
 51
68.1622184929
  0
ARC
  5
155
330
1F
100
AcDbEntity
  8
0
  6
Continuous
 62
     8
370
    25
100
AcDbCircle
 10
304.5847229418
 20
155.9310816675
 30
0.0
 40
19.75000000000006
100
AcDbArc
 50
180.0
 51
67.1249696336
  0
ARC
  5
156
330
1F
100
AcDbEntity
  8
0
  6
Continuous
 62
     8
370
    25
100
AcDbCircle
 10
304.5847229418
 20
155.9310816675
 30
0.0
 40
19.75000000000006
100
AcDbArc
 50
112.8750303664
 51
180.0
  0
DIMENSION
  5
157
330
1F
100
AcDbEntity
  8
0
  6
Continuous
 62
     7
370
    18
100
AcDbDimension
280
     0
  2
_D
 10
313.5847229418
 20
187.1758324559
 30
0.0
 11
304.2521466881
 21
187.1758324559
 31
0.0
 70
   160
  1
<>
 71
     2
 42
-1.0
 73
     0
 74
     0
 75
     0
  3
SLDDIMSTYLE0
100
AcDbAlignedDimension
 13
295.5847229418
 23
169.4310816675
 33
0.0
 14
313.5847229418
 24
169.4310816675
 34
0.0
100
AcDbRotatedDimension
  0
LINE
  5
163
330
1F
100
AcDbEntity
  8
0
  6
Continuous
 62
     7
370
    25
100
AcDbLine
 10
214.1108772265
 20
146.7519766161
 30
0.0
 11
214.4949692486
 21
146.9310816675
 31
0.0
  0
SPLINE
  5
164
330
1F
100
AcDbEntity
  8
0
  6
Continuous
 62
     7
370
    25
100
AcDbSpline
210
0.0
220
0.0
230
1.0
 70
     8
 71
     3
 72
    18
 73
    14
 74
     0
 42
0.00000001
 43
0.00000001
 40
0.0
 40
0.0
 40
0.0
 40
0.0
 40
0.1149785444278417
 40
0.2093089500279765
 40
0.2800356713521247
 40
0.3457761226440652
 40
0.4628413669063525
 40
0.5895997774387535
 40
0.7136525138213867
 40
0.7798721815735498
 40
0.8498565006362775
 40
0.9241882988643093
 40
1.0
 40
1.0
 40
1.0
 40
1.0
 10
108.3684822946429
 20
164.933020727208
 30
0.0
 10
108.0604738849586
 20
164.94045430717
 30
0.0
 10
107.4997699975365
 20
164.9539865259377
 30
0.0
 10
106.7551115851846
 20
165.0514616095252
 30
0.0
 10
106.1481075135686
 20
165.1696995700509
 30
0.0
 10
105.4906740982409
 20
165.341120200249
 30
0.0
 10
104.7077556657674
 20
165.6211547485836
 30
0.0
 10
103.8387486384546
 20
166.0974000160438
 30
0.0
 10
103.1954243654592
 20
166.6676854441884
 30
0.0
 10
102.7898286898816
 20
167.2384810785468
 30
0.0
 10
102.5485084393475
 20
167.7510728307669
 30
0.0
 10
102.3941949427498
 20
168.325189635347
 30
0.0
 10
102.3781995585582
 20
168.7278894319968
 30
0.0
 10
102.3701230364908
 20
168.931223953707
 30
0.0
  0
LINE
  5
165
330
1F
100
AcDbEntity
  8
0
  6
Continuous
 62
     7
370
    25
100
AcDbLine
 10
217.3682843626
 20
164.9310816675
 30
0.0
 11
108.3682843626
 21
164.9310816675
 31
0.0
  0
LINE
  5
166
330
1F
100
AcDbEntity
  8
0
  6
Continuous
 62
     7
370
    25
100
AcDbLine
 10
214.4949692486
 20
146.9310816675
 30
0.0
 11
217.3682843626
 21
146.9310816675
 31
0.0
  0
LINE
  5
167
330
1F
100
AcDbEntity
  8
0
  6
Continuous
 62
     7
370
    25
100
AcDbLine
 10
96.1182843626
 20
146.9310816675
 30
0.0
 11
209.9825980609
 21
146.9310816675
 31
0.0
  0
ARC
  5
168
330
1F
100
AcDbEntity
  8
0
  6
Continuous
 62
     7
370
    25
100
AcDbCircle
 10
97.3682843626
 20
173.4310816675
 30
0.0
 40
5.000000000000028
100
AcDbArc
 50
0.0
 51
90.0
  0
ARC
  5
169
330
1F
100
AcDbEntity
  8
0
  6
Continuous
 62
     7
370
    25
100
AcDbCircle
 10
96.1182843626
 20
178.1810816675
 30
0.0
 40
0.2500000000000284
100
AcDbArc
 50
90.0
 51
180.0
  0
LINE
  5
16A
330
1F
100
AcDbEntity
  8
0
  6
Continuous
 62
     7
370
    25
100
AcDbLine
 10
97.3682843626
 20
178.4310816675
 30
0.0
 11
96.1182843626
 21
178.4310816675
 31
0.0
  0
ARC
  5
16B
330
1F
100
AcDbEntity
  8
0
  6
Continuous
 62
     7
370
    25
100
AcDbCircle
 10
96.1182843626
 20
147.1810816675
 30
0.0
 40
0.2500000000000284
100
AcDbArc
 50
180.0
 51
270.0
  0
LINE
  5
16C
330
1F
100
AcDbEntity
  8
0
  6
Continuous
 62
     7
370
    25
100
AcDbLine
 10
222.3682843626
 20
137.4310816675
 30
0.0
 11
222.9182843626
 21
137.4310816675
 31
0.0
  0
LINE
  5
16D
330
1F
100
AcDbEntity
  8
0
  6
Continuous
 62
     7
370
    25
100
AcDbLine
 10
222.8682843626
 20
174.4310816675
 30
0.0
 11
222.3682843626
 21
174.4310816675
 31
0.0
  0
LINE
  5
16E
330
1F
100
AcDbEntity
  8
0
  6
Continuous
 62
     7
370
    25
100
AcDbLine
 10
222.9182843626
 20
178.9310816675
 30
0.0
 11
222.8682843626
 21
178.9310816675
 31
0.0
  0
LINE
  5
16F
330
1F
100
AcDbEntity
  8
0
  6
Continuous
 62
     7
370
    25
100
AcDbLine
 10
222.3682843626
 20
175.9310816675
 30
0.0
 11
217.6182843626
 21
175.9310816675
 31
0.0
  0
LINE
  5
170
330
1F
100
AcDbEntity
  8
0
  6
Continuous
 62
     7
370
    25
100
AcDbLine
 10
217.6182843626
 20
135.9310816675
 30
0.0
 11
222.3682843626
 21
135.9310816675
 31
0.0
  0
ARC
  5
171
330
1F
100
AcDbEntity
  8
0
  6
Continuous
 62
     7
370
    25
100
AcDbCircle
 10
217.6182843626
 20
175.6810816675
 30
0.0
 40
0.25
100
AcDbArc
 50
90.0
 51
180.0
  0
ARC
  5
172
330
1F
100
AcDbEntity
  8
0
  6
Continuous
 62
     7
370
    25
100
AcDbCircle
 10
217.6182843626
 20
136.1810816675
 30
0.0
 40
0.25
100
AcDbArc
 50
180.0
 51
270.0
  0
LINE
  5
173
330
1F
100
AcDbEntity
  8
0
  6
Continuous
 62
     7
370
    25
100
AcDbLine
 10
214.3656125466
 20
146.9875924292
 30
0.0
 11
211.3365776407
 21
147.2525986449
 31
0.0
  0
LINE
  5
174
330
1F
100
AcDbEntity
  8
0
  6
Continuous
 62
     7
370
    25
100
AcDbLine
 10
214.1108772265
 20
146.7519766161
 30
0.0
 11
210.604722158
 21
147.0587254372
 31
0.0
  0
LINE
  5
175
330
1F
100
AcDbEntity
  8
0
  6
Continuous
 62
     7
370
    25
100
AcDbLine
 10
108.3682843626
 20
164.9310816675
 30
0.0
 11
108.3682843626
 21
164.9283568095
 31
0.0
  0
SPLINE
  5
176
330
1F
100
AcDbEntity
  8
0
  6
Continuous
 62
     7
370
    25
100
AcDbSpline
210
0.0
220
0.0
230
1.0
 70
     8
 71
     3
 72
    15
 73
    11
 74
     0
 42
0.00000001
 43
0.00000001
 40
0.0
 40
0.0
 40
0.0
 40
0.0
 40
0.1302737441563179
 40
0.250071091076657
 40
0.3759434958630157
 40
0.4994831992625349
 40
0.6247088417114907
 40
0.749565006822317
 40
0.8746440882296118
 40
1.0
 40
1.0
 40
1.0
 40
1.0
 10
108.3682843626151
 20
161.9310816674754
 30
0.0
 10
108.3529822473119
 20
161.5963916506213
 30
0.0
 10
108.3236085872975
 20
160.9539268298762
 30
0.0
 10
108.043500959948
 20
159.8828665954746
 30
0.0
 10
107.5551469344621
 20
158.8339442858385
 30
0.0
 10
106.8239082971004
 20
157.8508999489235
 30
0.0
 10
105.8965658048128
 20
157.023929700643
 30
0.0
 10
104.8094076033517
 20
156.4059460242634
 30
0.0
 10
103.6165812790381
 20
156.0063665911448
 30
0.0
 10
102.7846898584851
 20
155.9561951285115
 30
0.0
 10
102.3682843626151
 20
155.9310816674754
 30
0.0
  0
SPLINE
  5
177
330
1F
100
AcDbEntity
  8
0
  6
Continuous
 62
     7
370
    25
100
AcDbSpline
210
0.0
220
0.0
230
1.0
 70
     8
 71
     3
 72
    21
 73
    17
 74
     0
 42
0.00000001
 43
0.00000001
 40
0.0
 40
0.0
 40
0.0
 40
0.0
 40
0.1427610469014169
 40
0.2718238578211528
 40
0.3889768468043181
 40
0.4958845893848841
 40
0.5889688791526502
 40
0.6459487056768501
 40
0.6981144453713312
 40
0.7460189174694759
 40
0.7903745572249418
 40
0.817152007807531
 40
0.8431681087355812
 40
0.8940256113053747
 40
0.9455027521815345
 40
1.0
 40
1.0
 40
1.0
 40
1.0
 10
97.36835964165064
 20
168.9311373814891
 30
0.0
 10
97.36605512282665
 20
168.1985439721562
 30
0.0
 10
97.361667208821
 20
166.8036511000358
 30
0.0
 10
97.40596584215685
 20
164.8076669325811
 30
0.0
 10
97.53081392372
 20
162.9989323880322
 30
0.0
 10
97.74841631652083
 20
161.3846982179777
 30
0.0
 10
98.03574100560697
 20
160.0952428331369
 30
0.0
 10
98.36049318449635
 20
159.1083072316356
 30
0.0
 10
98.68327417831541
 20
158.3683163627203
 30
0.0
 10
99.05421636194866
 20
157.7246820559432
 30
0.0
 10
99.42752779279122
 20
157.238338139747
 30
0.0
 10
99.77903705553551
 20
156.8836974386515
 30
0.0
 10
100.1910908895005
 20
156.5458446850649
 30
0.0
 10
100.7669246086138
 20
156.2157875648644
 30
0.0
 10
101.5431342152769
 20
155.9719727720955
 30
0.0
 10
102.088101825937
 20
155.9450328614863
 30
0.0
 10
102.3683510002613
 20
155.931179033191
 30
0.0
  0
SPLINE
  5
178
330
1F
100
AcDbEntity
  8
0
  6
Continuous
 62
     7
370
    25
100
AcDbSpline
210
0.0
220
0.0
230
1.0
 70
    24
 71
     3
 72
    15
 73
    11
 74
     0
 42
0.00000001
 43
0.00000001
 40
0.0
 40
0.0
 40
0.0
 40
0.0
 40
0.1249999999999999
 40
0.2499999999999999
 40
0.3749999999999998
 40
0.5000000000000001
 40
0.6249999999999997
 40
0.7500000000000009
 40
0.8750000000000001
 40
1.0
 40
1.0
 40
1.0
 40
1.0
 10
102.3682843626151
 20
168.9310816674754
 30
0.0
 10
102.3496758039574
 20
168.9310816674754
 30
0.0
 10
102.3124586866421
 20
168.9310816674754
 30
0.0
 10
102.0151454786042
 20
168.9310816674754
 30
0.0
 10
101.5530515499707
 20
168.9310816674754
 30
0.0
 10
100.9264428662801
 20
168.9310816674754
 30
0.0
 10
100.1640865961958
 20
168.9310816674754
 30
0.0
 10
99.2940239152154
 20
168.9310816674754
 30
0.0
 10
98.35002688958598
 20
168.9310816674754
 30
0.0
 10
97.6955318716054
 20
168.9310816674754
 30
0.0
 10
97.36828436261509
 20
168.9310816674754
 30
0.0
  0
LINE
  5
179
330
1F
100
AcDbEntity
  8
0
  6
Continuous
 62
     7
370
    25
100
AcDbLine
 10
97.3682843626
 20
168.9310816675
 30
0.0
 11
97.3682843626
 21
169.4310816675
 31
0.0
  0
LINE
  5
17A
330
1F
100
AcDbEntity
  8
0
  6
Continuous
 62
     7
370
    25
100
AcDbLine
 10
97.3682843626
 20
169.4310816675
 30
0.0
 11
102.3682843626
 21
169.4310816675
 31
0.0
  0
LINE
  5
17B
330
1F
100
AcDbEntity
  8
0
  6
Continuous
 62
     7
370
    25
100
AcDbLine
 10
102.3682843626
 20
169.4310816675
 30
0.0
 11
102.3682843626
 21
168.9310816675
 31
0.0
  0
LINE
  5
17C
330
1F
100
AcDbEntity
  8
0
  6
Continuous
 62
     7
370
    25
100
AcDbLine
 10
102.3682843626
 20
155.9310816675
 30
0.0
 11
96.1182843626
 21
155.9310816675
 31
0.0
  0
LINE
  5
17D
330
1F
100
AcDbEntity
  8
0
  6
Continuous
 62
     7
370
    25
100
AcDbLine
 10
96.1182843626
 20
169.4310816675
 30
0.0
 11
96.1182843626
 21
155.9310816675
 31
0.0
  0
LINE
  5
17E
330
1F
100
AcDbEntity
  8
0
  6
Continuous
 62
     7
370
    25
100
AcDbLine
 10
97.3682843626
 20
169.4310816675
 30
0.0
 11
96.1182843626
 21
169.4310816675
 31
0.0
  0
SPLINE
  5
17F
330
1F
100
AcDbEntity
  8
0
  6
Continuous
 62
     7
370
    25
100
AcDbSpline
210
0.0
220
0.0
230
1.0
 70
     8
 71
     3
 72
    11
 73
     7
 74
     0
 42
0.00000001
 43
0.00000001
 40
0.0
 40
0.0
 40
0.0
 40
0.0
 40
0.2360285313019268
 40
0.6034960273383929
 40
0.9810013081877764
 40
1.0
 40
1.0
 40
1.0
 40
1.0
 10
209.9825980609497
 20
146.9371689552172
 30
0.0
 10
209.9805446632668
 20
146.9368728790037
 30
0.0
 10
209.9752943770521
 20
146.9361158484122
 30
0.0
 10
210.2337988153263
 20
146.9896346342646
 30
0.0
 10
210.5011711140486
 20
147.0486851874734
 30
0.0
 10
210.7083689342199
 20
147.0734510094649
 30
0.0
 10
210.7182969243563
 20
147.0746376765652
 30
0.0
  0
LINE
  5
180
330
1F
100
AcDbEntity
  8
0
  6
Continuous
 62
     7
370
    25
100
AcDbLine
 10
102.3682843626
 20
169.4310816675
 30
0.0
 11
102.3682843626
 21
173.4310816675
 31
0.0
  0
LINE
  5
181
330
1F
100
AcDbEntity
  8
0
  6
Continuous
 62
     7
370
    25
100
AcDbLine
 10
95.8682843626
 20
155.9310816675
 30
0.0
 11
95.8682843626
 21
169.4310816675
 31
0.0
  0
LINE
  5
182
330
1F
100
AcDbEntity
  8
0
  6
Continuous
 62
     7
370
    25
100
AcDbLine
 10
95.8682843626
 20
169.4310816675
 30
0.0
 11
96.1182843626
 21
169.4310816675
 31
0.0
  0
LINE
  5
183
330
1F
100
AcDbEntity
  8
0
  6
Continuous
 62
     7
370
    25
100
AcDbLine
 10
95.8682843626
 20
155.9310816675
 30
0.0
 11
96.1182843626
 21
155.9310816675
 31
0.0
  0
LINE
  5
184
330
1F
100
AcDbEntity
  8
0
  6
Continuous
 62
     7
370
    25
100
AcDbLine
 10
95.8682843626
 20
169.4310816675
 30
0.0
 11
95.8682843626
 21
178.1810816675
 31
0.0
  0
LINE
  5
185
330
1F
100
AcDbEntity
  8
0
  6
Continuous
 62
     7
370
    25
100
AcDbLine
 10
95.8682843626
 20
147.1810816675
 30
0.0
 11
95.8682843626
 21
155.9310816675
 31
0.0
  0
LINE
  5
186
330
1F
100
AcDbEntity
  8
0
  6
Continuous
 62
     7
370
    25
100
AcDbLine
 10
222.9182843626
 20
173.9934735357
 30
0.0
 11
222.8682843626
 21
173.9934735357
 31
0.0
  0
LINE
  5
187
330
1F
100
AcDbEntity
  8
0
  6
Continuous
 62
     7
370
    25
100
AcDbLine
 10
222.9182843626
 20
173.9934735357
 30
0.0
 11
222.9182843626
 21
172.7179315901
 31
0.0
  0
LINE
  5
188
330
1F
100
AcDbEntity
  8
0
  6
Continuous
 62
     7
370
    25
100
AcDbLine
 10
222.9182843626
 20
172.7179315901
 30
0.0
 11
222.9082843626
 21
172.7179315901
 31
0.0
  0
LINE
  5
189
330
1F
100
AcDbEntity
  8
0
  6
Continuous
 62
     7
370
    25
100
AcDbLine
 10
222.9082843626
 20
172.6689778716
 30
0.0
 11
222.9082843626
 21
172.7179315901
 31
0.0
  0
LINE
  5
18A
330
1F
100
AcDbEntity
  8
0
  6
Continuous
 62
     7
370
    25
100
AcDbLine
 10
222.9082843626
 20
172.6689778716
 30
0.0
 11
222.9182843626
 21
172.6689778716
 31
0.0
  0
LINE
  5
18B
330
1F
100
AcDbEntity
  8
0
  6
Continuous
 62
     7
370
    25
100
AcDbLine
 10
222.9182843626
 20
172.6689778716
 30
0.0
 11
222.9182843626
 21
172.6602789001
 31
0.0
  0
LINE
  5
18C
330
1F
100
AcDbEntity
  8
0
  6
Continuous
 62
     7
370
    25
100
AcDbLine
 10
222.9182843626
 20
172.6602789001
 30
0.0
 11
222.9082843626
 21
172.6602789001
 31
0.0
  0
LINE
  5
18D
330
1F
100
AcDbEntity
  8
0
  6
Continuous
 62
     7
370
    25
100
AcDbLine
 10
222.9082843626
 20
172.5929666625
 30
0.0
 11
222.9082843626
 21
172.6602789001
 31
0.0
  0
LINE
  5
18E
330
1F
100
AcDbEntity
  8
0
  6
Continuous
 62
     7
370
    25
100
AcDbLine
 10
222.9082843626
 20
172.5929666625
 30
0.0
 11
222.9182843626
 21
172.5929666625
 31
0.0
  0
LINE
  5
18F
330
1F
100
AcDbEntity
  8
0
  6
Continuous
 62
     7
370
    25
100
AcDbLine
 10
222.9182843626
 20
172.5929666625
 30
0.0
 11
222.9182843626
 21
172.3689111455
 31
0.0
  0
LINE
  5
190
330
1F
100
AcDbEntity
  8
0
  6
Continuous
 62
     7
370
    25
100
AcDbLine
 10
222.9182843626
 20
172.3689111455
 30
0.0
 11
222.9082843626
 21
172.3689111455
 31
0.0
  0
LINE
  5
191
330
1F
100
AcDbEntity
  8
0
  6
Continuous
 62
     7
370
    25
100
AcDbLine
 10
222.9082843626
 20
172.2953192468
 30
0.0
 11
222.9082843626
 21
172.3689111455
 31
0.0
  0
LINE
  5
192
330
1F
100
AcDbEntity
  8
0
  6
Continuous
 62
     7
370
    25
100
AcDbLine
 10
222.9082843626
 20
172.2953192468
 30
0.0
 11
222.9182843626
 21
172.2953192468
 31
0.0
  0
LINE
  5
193
330
1F
100
AcDbEntity
  8
0
  6
Continuous
 62
     7
370
    25
100
AcDbLine
 10
222.9182843626
 20
172.2953192468
 30
0.0
 11
222.9182843626
 21
171.7842689764
 31
0.0
  0
LINE
  5
194
330
1F
100
AcDbEntity
  8
0
  6
Continuous
 62
     7
370
    25
100
AcDbLine
 10
222.9182843626
 20
171.7842689764
 30
0.0
 11
222.9082843626
 21
171.7842689764
 31
0.0
  0
LINE
  5
195
330
1F
100
AcDbEntity
  8
0
  6
Continuous
 62
     7
370
    25
100
AcDbLine
 10
222.9082843626
 20
171.7842689764
 30
0.0
 11
222.9082843626
 21
171.6762398356
 31
0.0
  0
LINE
  5
196
330
1F
100
AcDbEntity
  8
0
  6
Continuous
 62
     7
370
    25
100
AcDbLine
 10
222.9082843626
 20
171.6762398356
 30
0.0
 11
222.9182843626
 21
171.6762398356
 31
0.0
  0
LINE
  5
197
330
1F
100
AcDbEntity
  8
0
  6
Continuous
 62
     7
370
    25
100
AcDbLine
 10
222.9182843626
 20
171.6762398356
 30
0.0
 11
222.9182843626
 21
171.3509837886
 31
0.0
  0
LINE
  5
198
330
1F
100
AcDbEntity
  8
0
  6
Continuous
 62
     7
370
    25
100
AcDbLine
 10
222.9182843626
 20
171.3509837886
 30
0.0
 11
222.9082843626
 21
171.3509837886
 31
0.0
  0
LINE
  5
199
330
1F
100
AcDbEntity
  8
0
  6
Continuous
 62
     7
370
    25
100
AcDbLine
 10
222.9082843626
 20
171.3509837886
 30
0.0
 11
222.9082843626
 21
171.1335644327
 31
0.0
  0
LINE
  5
19A
330
1F
100
AcDbEntity
  8
0
  6
Continuous
 62
     7
370
    25
100
AcDbLine
 10
222.9082843626
 20
171.1335644327
 30
0.0
 11
222.9182843626
 21
171.1335644327
 31
0.0
  0
LINE
  5
19B
330
1F
100
AcDbEntity
  8
0
  6
Continuous
 62
     7
370
    25
100
AcDbLine
 10
222.9182843626
 20
171.1335644327
 30
0.0
 11
222.9182843626
 21
170.8875962112
 31
0.0
  0
LINE
  5
19C
330
1F
100
AcDbEntity
  8
0
  6
Continuous
 62
     7
370
    25
100
AcDbLine
 10
222.9182843626
 20
170.8875962112
 30
0.0
 11
222.9082843626
 21
170.8875962112
 31
0.0
  0
LINE
  5
19D
330
1F
100
AcDbEntity
  8
0
  6
Continuous
 62
     7
370
    25
100
AcDbLine
 10
222.9082843626
 20
170.7312856196
 30
0.0
 11
222.9082843626
 21
170.8875962112
 31
0.0
  0
LINE
  5
19E
330
1F
100
AcDbEntity
  8
0
  6
Continuous
 62
     7
370
    25
100
AcDbLine
 10
222.9082843626
 20
170.7312856196
 30
0.0
 11
222.9182843626
 21
170.7312856196
 31
0.0
  0
LINE
  5
19F
330
1F
100
AcDbEntity
  8
0
  6
Continuous
 62
     7
370
    25
100
AcDbLine
 10
222.9182843626
 20
170.7312856196
 30
0.0
 11
222.9182843626
 21
165.9855991732
 31
0.0
  0
LINE
  5
1A0
330
1F
100
AcDbEntity
  8
0
  6
Continuous
 62
     7
370
    25
100
AcDbLine
 10
222.9182843626
 20
165.9855991732
 30
0.0
 11
222.9082843626
 21
165.9855991732
 31
0.0
  0
LINE
  5
1A1
330
1F
100
AcDbEntity
  8
0
  6
Continuous
 62
     7
370
    25
100
AcDbLine
 10
222.9082843626
 20
165.6303032616
 30
0.0
 11
222.9082843626
 21
165.9855991732
 31
0.0
  0
LINE
  5
1A2
330
1F
100
AcDbEntity
  8
0
  6
Continuous
 62
     7
370
    25
100
AcDbLine
 10
222.9082843626
 20
165.6303032616
 30
0.0
 11
222.9182843626
 21
165.6303032616
 31
0.0
  0
LINE
  5
1A3
330
1F
100
AcDbEntity
  8
0
  6
Continuous
 62
     7
370
    25
100
AcDbLine
 10
222.9182843626
 20
165.6303032616
 30
0.0
 11
222.9182843626
 21
165.150205152
 31
0.0
  0
LINE
  5
1A4
330
1F
100
AcDbEntity
  8
0
  6
Continuous
 62
     7
370
    25
100
AcDbLine
 10
222.9182843626
 20
165.150205152
 30
0.0
 11
222.9082843626
 21
165.150205152
 31
0.0
  0
LINE
  5
1A5
330
1F
100
AcDbEntity
  8
0
  6
Continuous
 62
     7
370
    25
100
AcDbLine
 10
222.9082843626
 20
165.150205152
 30
0.0
 11
222.9082843626
 21
164.9043387297
 31
0.0
  0
LINE
  5
1A6
330
1F
100
AcDbEntity
  8
0
  6
Continuous
 62
     7
370
    25
100
AcDbLine
 10
222.9082843626
 20
164.9043387297
 30
0.0
 11
222.9182843626
 21
164.9043387297
 31
0.0
  0
LINE
  5
1A7
330
1F
100
AcDbEntity
  8
0
  6
Continuous
 62
     7
370
    25
100
AcDbLine
 10
222.9182843626
 20
164.9043387297
 30
0.0
 11
222.9182843626
 21
164.6935953709
 31
0.0
  0
LINE
  5
1A8
330
1F
100
AcDbEntity
  8
0
  6
Continuous
 62
     7
370
    25
100
AcDbLine
 10
222.9182843626
 20
164.6935953709
 30
0.0
 11
222.9082843626
 21
164.6935953709
 31
0.0
  0
LINE
  5
1A9
330
1F
100
AcDbEntity
  8
0
  6
Continuous
 62
     7
370
    25
100
AcDbLine
 10
222.9082843626
 20
164.6935953709
 30
0.0
 11
222.9082843626
 21
164.469835126
 31
0.0
  0
LINE
  5
1AA
330
1F
100
AcDbEntity
  8
0
  6
Continuous
 62
     7
370
    25
100
AcDbLine
 10
222.9082843626
 20
164.469835126
 30
0.0
 11
222.9182843626
 21
164.469835126
 31
0.0
  0
LINE
  5
1AB
330
1F
100
AcDbEntity
  8
0
  6
Continuous
 62
     7
370
    25
100
AcDbLine
 10
222.9182843626
 20
164.469835126
 30
0.0
 11
222.9182843626
 21
147.9440705946
 31
0.0
  0
LINE
  5
1AC
330
1F
100
AcDbEntity
  8
0
  6
Continuous
 62
     7
370
    25
100
AcDbLine
 10
222.9182843626
 20
147.9440705946
 30
0.0
 11
222.9082843626
 21
147.9440705946
 31
0.0
  0
LINE
  5
1AD
330
1F
100
AcDbEntity
  8
0
  6
Continuous
 62
     7
370
    25
100
AcDbLine
 10
222.9082843626
 20
147.9440705946
 30
0.0
 11
222.9082843626
 21
147.7825663576
 31
0.0
  0
LINE
  5
1AE
330
1F
100
AcDbEntity
  8
0
  6
Continuous
 62
     7
370
    25
100
AcDbLine
 10
222.9082843626
 20
147.7825663576
 30
0.0
 11
222.9182843626
 21
147.7825663576
 31
0.0
  0
LINE
  5
1AF
330
1F
100
AcDbEntity
  8
0
  6
Continuous
 62
     7
370
    25
100
AcDbLine
 10
222.9182843626
 20
147.7825663576
 30
0.0
 11
222.9182843626
 21
147.3893443398
 31
0.0
  0
LINE
  5
1B0
330
1F
100
AcDbEntity
  8
0
  6
Continuous
 62
     7
370
    25
100
AcDbLine
 10
222.9182843626
 20
147.3893443398
 30
0.0
 11
222.9082843626
 21
147.3893443398
 31
0.0
  0
LINE
  5
1B1
330
1F
100
AcDbEntity
  8
0
  6
Continuous
 62
     7
370
    25
100
AcDbLine
 10
222.9082843626
 20
147.3893443398
 30
0.0
 11
222.9082843626
 21
147.1703021809
 31
0.0
  0
LINE
  5
1B2
330
1F
100
AcDbEntity
  8
0
  6
Continuous
 62
     7
370
    25
100
AcDbLine
 10
222.9082843626
 20
147.1703021809
 30
0.0
 11
222.9182843626
 21
147.1703021809
 31
0.0
  0
LINE
  5
1B3
330
1F
100
AcDbEntity
  8
0
  6
Continuous
 62
     7
370
    25
100
AcDbLine
 10
222.9182843626
 20
147.1703021809
 30
0.0
 11
222.9182843626
 21
146.9561534463
 31
0.0
  0
LINE
  5
1B4
330
1F
100
AcDbEntity
  8
0
  6
Continuous
 62
     7
370
    25
100
AcDbLine
 10
222.9182843626
 20
146.9561534463
 30
0.0
 11
222.9082843626
 21
146.9561534463
 31
0.0
  0
LINE
  5
1B5
330
1F
100
AcDbEntity
  8
0
  6
Continuous
 62
     7
370
    25
100
AcDbLine
 10
222.9082843626
 20
146.9561534463
 30
0.0
 11
222.9082843626
 21
146.712885938
 31
0.0
  0
LINE
  5
1B6
330
1F
100
AcDbEntity
  8
0
  6
Continuous
 62
     7
370
    25
100
AcDbLine
 10
222.9082843626
 20
146.712885938
 30
0.0
 11
222.9182843626
 21
146.712885938
 31
0.0
  0
LINE
  5
1B7
330
1F
100
AcDbEntity
  8
0
  6
Continuous
 62
     7
370
    25
100
AcDbLine
 10
222.9182843626
 20
146.712885938
 30
0.0
 11
222.9182843626
 21
141.8868880283
 31
0.0
  0
LINE
  5
1B8
330
1F
100
AcDbEntity
  8
0
  6
Continuous
 62
     7
370
    25
100
AcDbLine
 10
222.9182843626
 20
141.8868880283
 30
0.0
 11
222.9082843626
 21
141.8868880283
 31
0.0
  0
LINE
  5
1B9
330
1F
100
AcDbEntity
  8
0
  6
Continuous
 62
     7
370
    25
100
AcDbLine
 10
222.9082843626
 20
141.7082361756
 30
0.0
 11
222.9082843626
 21
141.8868880283
 31
0.0
  0
LINE
  5
1BA
330
1F
100
AcDbEntity
  8
0
  6
Continuous
 62
     7
370
    25
100
AcDbLine
 10
222.9082843626
 20
141.7082361756
 30
0.0
 11
222.9182843626
 21
141.7082361756
 31
0.0
  0
LINE
  5
1BB
330
1F
100
AcDbEntity
  8
0
  6
Continuous
 62
     7
370
    25
100
AcDbLine
 10
222.9182843626
 20
141.7082361756
 30
0.0
 11
222.9182843626
 21
141.3702145578
 31
0.0
  0
LINE
  5
1BC
330
1F
100
AcDbEntity
  8
0
  6
Continuous
 62
     7
370
    25
100
AcDbLine
 10
222.9182843626
 20
141.3702145578
 30
0.0
 11
222.9082843626
 21
141.3702145578
 31
0.0
  0
LINE
  5
1BD
330
1F
100
AcDbEntity
  8
0
  6
Continuous
 62
     7
370
    25
100
AcDbLine
 10
222.9082843626
 20
141.1971376348
 30
0.0
 11
222.9082843626
 21
141.3702145578
 31
0.0
  0
LINE
  5
1BE
330
1F
100
AcDbEntity
  8
0
  6
Continuous
 62
     7
370
    25
100
AcDbLine
 10
222.9082843626
 20
141.1971376348
 30
0.0
 11
222.9182843626
 21
141.1971376348
 31
0.0
  0
LINE
  5
1BF
330
1F
100
AcDbEntity
  8
0
  6
Continuous
 62
     7
370
    25
100
AcDbLine
 10
222.9182843626
 20
141.1971376348
 30
0.0
 11
222.9182843626
 21
141.1308777153
 31
0.0
  0
LINE
  5
1C0
330
1F
100
AcDbEntity
  8
0
  6
Continuous
 62
     7
370
    25
100
AcDbLine
 10
222.9182843626
 20
141.1308777153
 30
0.0
 11
222.9082843626
 21
141.1308777153
 31
0.0
  0
LINE
  5
1C1
330
1F
100
AcDbEntity
  8
0
  6
Continuous
 62
     7
370
    25
100
AcDbLine
 10
222.9082843626
 20
140.9745671237
 30
0.0
 11
222.9082843626
 21
141.1308777153
 31
0.0
  0
LINE
  5
1C2
330
1F
100
AcDbEntity
  8
0
  6
Continuous
 62
     7
370
    25
100
AcDbLine
 10
222.9082843626
 20
140.9745671237
 30
0.0
 11
222.9182843626
 21
140.9745671237
 31
0.0
  0
LINE
  5
1C3
330
1F
100
AcDbEntity
  8
0
  6
Continuous
 62
     7
370
    25
100
AcDbLine
 10
222.9182843626
 20
140.9745671237
 30
0.0
 11
222.9182843626
 21
140.7285989023
 31
0.0
  0
LINE
  5
1C4
330
1F
100
AcDbEntity
  8
0
  6
Continuous
 62
     7
370
    25
100
AcDbLine
 10
222.9182843626
 20
140.7285989023
 30
0.0
 11
222.9082843626
 21
140.7285989023
 31
0.0
  0
LINE
  5
1C5
330
1F
100
AcDbEntity
  8
0
  6
Continuous
 62
     7
370
    25
100
AcDbLine
 10
222.9082843626
 20
140.7285989023
 30
0.0
 11
222.9082843626
 21
140.4855991732
 31
0.0
  0
LINE
  5
1C6
330
1F
100
AcDbEntity
  8
0
  6
Continuous
 62
     7
370
    25
100
AcDbLine
 10
222.9082843626
 20
140.4855991732
 30
0.0
 11
222.9182843626
 21
140.4855991732
 31
0.0
  0
LINE
  5
1C7
330
1F
100
AcDbEntity
  8
0
  6
Continuous
 62
     7
370
    25
100
AcDbLine
 10
222.9182843626
 20
140.4855991732
 30
0.0
 11
222.9182843626
 21
137.4310816675
 31
0.0
  0
LINE
  5
1C8
330
1F
100
AcDbEntity
  8
0
  6
Continuous
 62
     7
370
    25
100
AcDbLine
 10
222.9082843626
 20
147.8125222502
 30
0.0
 11
222.9182843626
 21
147.8125222502
 31
0.0
  0
SPLINE
  5
1C9
330
1F
100
AcDbEntity
  8
0
  6
Continuous
 62
     7
370
    25
100
AcDbSpline
210
0.0
220
0.0
230
1.0
 70
    24
 71
     3
 72
     9
 73
     5
 74
     0
 42
0.00000001
 43
0.00000001
 40
0.0
 40
0.0
 40
0.0
 40
0.0
 40
0.5597348028052169
 40
1.0
 40
1.0
 40
1.0
 40
1.0
 10
222.9182843626151
 20
147.8125222501562
 30
0.0
 10
222.9182843626151
 20
147.8113152465013
 30
0.0
 10
222.9182843626151
 20
147.8091588616403
 30
0.0
 10
222.9182843626151
 20
147.7906952452761
 30
0.0
 10
222.9182843626151
 20
147.7825663575766
 30
0.0
  0
LINE
  5
1CA
330
1F
100
AcDbEntity
  8
0
  6
Continuous
 62
     7
370
    25
100
AcDbLine
 10
222.9182843626
 20
147.7251676516
 30
0.0
 11
222.9182843626
 21
147.6042890771
 31
0.0
  0
LINE
  5
1CB
330
1F
100
AcDbEntity
  8
0
  6
Continuous
 62
     7
370
    25
100
AcDbLine
 10
222.9082843626
 20
164.9369212886
 30
0.0
 11
222.9182843626
 21
164.9369212886
 31
0.0
  0
SPLINE
  5
1CC
330
1F
100
AcDbEntity
  8
0
  6
Continuous
 62
     7
370
    25
100
AcDbSpline
210
0.0
220
0.0
230
1.0
 70
    24
 71
     3
 72
    10
 73
     6
 74
     0
 42
0.00000001
 43
0.00000001
 40
0.0
 40
0.0
 40
0.0
 40
0.0
 40
0.0727985482861904
 40
0.5362159530457243
 40
1.0
 40
1.0
 40
1.0
 40
1.0
 10
222.9182843626151
 20
164.6109024289823
 30
0.0
 10
222.9182843626151
 20
164.6043544789403
 30
0.0
 10
222.9182843626151
 20
164.5561239117806
 30
0.0
 10
222.9182843626151
 20
164.5007801203136
 30
0.0
 10
222.9182843626151
 20
164.4801528429805
 30
0.0
 10
222.9182843626151
 20
164.4698351260038
 30
0.0
  0
LINE
  5
1CD
330
1F
100
AcDbEntity
  8
0
  6
Continuous
 62
     7
370
    25
100
AcDbLine
 10
222.9082843626
 20
146.9369212886
 30
0.0
 11
222.9182843626
 21
146.9369212886
 31
0.0
  0
LINE
  5
1CE
330
1F
100
AcDbEntity
  8
0
  6
Continuous
 62
     7
370
    25
100
AcDbLine
 10
222.9082843626
 20
147.3068131155
 30
0.0
 11
222.9182843626
 21
147.3068131155
 31
0.0
  0
SPLINE
  5
1CF
330
1F
100
AcDbEntity
  8
0
  6
Continuous
 62
     7
370
    25
100
AcDbSpline
210
0.0
220
0.0
230
1.0
 70
    24
 71
     3
 72
     9
 73
     5
 74
     0
 42
0.00000001
 43
0.00000001
 40
0.0
 40
0.0
 40
0.0
 40
0.0
 40
0.5597438851756213
 40
1.0
 40
1.0
 40
1.0
 40
1.0
 10
222.9182843626151
 20
146.9369212886177
 30
0.0
 10
222.9182843626151
 20
146.893089560737
 30
0.0
 10
222.9182843626151
 20
146.8147828046623
 30
0.0
 10
222.9182843626151
 20
146.744033674992
 30
0.0
 10
222.9182843626151
 20
146.7128859380362
 30
0.0
  0
SPLINE
  5
1D0
330
1F
100
AcDbEntity
  8
0
  6
Continuous
 62
     7
370
    25
100
AcDbSpline
210
0.0
220
0.0
230
1.0
 70
    24
 71
     3
 72
     9
 73
     5
 74
     0
 42
0.00000001
 43
0.00000001
 40
0.0
 40
0.0
 40
0.0
 40
0.0
 40
0.5591941046497645
 40
1.0
 40
1.0
 40
1.0
 40
1.0
 10
222.9182843626151
 20
165.1502051519764
 30
0.0
 10
222.9182843626151
 20
165.1123650794758
 30
0.0
 10
222.9182843626151
 20
165.0446961391457
 30
0.0
 10
222.9182843626151
 20
164.96989435573
 30
0.0
 10
222.9182843626151
 20
164.9369212886178
 30
0.0
  0
LINE
  5
1D1
330
1F
100
AcDbEntity
  8
0
  6
Continuous
 62
     7
370
    25
100
AcDbLine
 10
222.9082843626
 20
165.7548299425
 30
0.0
 11
222.9182843626
 21
165.7548299425
 31
0.0
  0
LINE
  5
1D2
330
1F
100
AcDbEntity
  8
0
  6
Continuous
 62
     7
370
    25
100
AcDbLine
 10
222.9182843626
 20
165.7548299425
 30
0.0
 11
222.9182843626
 21
165.6303032616
 31
0.0
  0
LINE
  5
1D3
330
1F
100
AcDbEntity
  8
0
  6
Continuous
 62
     7
370
    25
100
AcDbLine
 10
222.9182843626
 20
165.9855991732
 30
0.0
 11
222.9182843626
 21
165.7548299425
 31
0.0
  0
LINE
  5
1D4
330
1F
100
AcDbEntity
  8
0
  6
Continuous
 62
     7
370
    25
100
AcDbLine
 10
222.9182843626
 20
141.8868880283
 30
0.0
 11
222.9182843626
 21
141.7082361756
 31
0.0
  0
LINE
  5
1D5
330
1F
100
AcDbEntity
  8
0
  6
Continuous
 62
     7
370
    25
100
AcDbLine
 10
222.9182843626
 20
170.8875962112
 30
0.0
 11
222.9182843626
 21
170.7312856196
 31
0.0
  0
LINE
  5
1D6
330
1F
100
AcDbEntity
  8
0
  6
Continuous
 62
     7
370
    25
100
AcDbLine
 10
222.9182843626
 20
141.3702145578
 30
0.0
 11
222.9182843626
 21
141.1971376348
 31
0.0
  0
LINE
  5
1D7
330
1F
100
AcDbEntity
  8
0
  6
Continuous
 62
     7
370
    25
100
AcDbLine
 10
222.9182843626
 20
141.1308777153
 30
0.0
 11
222.9182843626
 21
140.9745671237
 31
0.0
  0
LINE
  5
1D8
330
1F
100
AcDbEntity
  8
0
  6
Continuous
 62
     7
370
    25
100
AcDbLine
 10
222.9082843626
 20
140.6586760963
 30
0.0
 11
222.9182843626
 21
140.6586760963
 31
0.0
  0
LINE
  5
1D9
330
1F
100
AcDbEntity
  8
0
  6
Continuous
 62
     7
370
    25
100
AcDbLine
 10
222.9182843626
 20
140.7285989023
 30
0.0
 11
222.9182843626
 21
140.6586760963
 31
0.0
  0
LINE
  5
1DA
330
1F
100
AcDbEntity
  8
0
  6
Continuous
 62
     7
370
    25
100
AcDbLine
 10
222.9182843626
 20
171.1779068655
 30
0.0
 11
222.9182843626
 21
171.1335644327
 31
0.0
  0
LINE
  5
1DB
330
1F
100
AcDbEntity
  8
0
  6
Continuous
 62
     7
370
    25
100
AcDbLine
 10
222.9082843626
 20
171.1779068655
 30
0.0
 11
222.9182843626
 21
171.1779068655
 31
0.0
  0
LINE
  5
1DC
330
1F
100
AcDbEntity
  8
0
  6
Continuous
 62
     7
370
    25
100
AcDbLine
 10
222.9182843626
 20
140.610902429
 30
0.0
 11
222.9182843626
 21
140.5478665182
 31
0.0
  0
LINE
  5
1DD
330
1F
100
AcDbEntity
  8
0
  6
Continuous
 62
     7
370
    25
100
AcDbLine
 10
222.9082843626
 20
171.2740607117
 30
0.0
 11
222.9182843626
 21
171.2740607117
 31
0.0
  0
LINE
  5
1DE
330
1F
100
AcDbEntity
  8
0
  6
Continuous
 62
     7
370
    25
100
AcDbLine
 10
222.9182843626
 20
171.2740607117
 30
0.0
 11
222.9182843626
 21
171.2256805329
 31
0.0
  0
SPLINE
  5
1DF
330
1F
100
AcDbEntity
  8
0
  6
Continuous
 62
     7
370
    25
100
AcDbSpline
210
0.0
220
0.0
230
1.0
 70
    24
 71
     3
 72
     9
 73
     5
 74
     0
 42
0.00000001
 43
0.00000001
 40
0.0
 40
0.0
 40
0.0
 40
0.0
 40
0.5598373539100269
 40
1.0
 40
1.0
 40
1.0
 40
1.0
 10
222.9182843626151
 20
171.784268976414
 30
0.0
 10
222.9182843626151
 20
171.7510089584099
 30
0.0
 10
222.9182843626151
 20
171.6915988140673
 30
0.0
 10
222.9182843626151
 20
171.6257578089029
 30
0.0
 10
222.9182843626151
 20
171.5967770578486
 30
0.0
  0
LINE
  5
1E0
330
1F
100
AcDbEntity
  8
0
  6
Continuous
 62
     7
370
    25
100
AcDbLine
 10
222.9182843626
 20
172.3689111455
 30
0.0
 11
222.9182843626
 21
172.2953192468
 31
0.0
  0
LINE
  5
1E1
330
1F
100
AcDbEntity
  8
0
  6
Continuous
 62
     7
370
    25
100
AcDbLine
 10
222.9182843626
 20
172.6602789001
 30
0.0
 11
222.9182843626
 21
172.5929666625
 31
0.0
  0
LINE
  5
1E2
330
1F
100
AcDbEntity
  8
0
  6
Continuous
 62
     7
370
    25
100
AcDbLine
 10
222.9182843626
 20
172.7179315901
 30
0.0
 11
222.9182843626
 21
172.6689778716
 31
0.0
  0
LINE
  5
1E3
330
1F
100
AcDbEntity
  8
0
  6
Continuous
 62
     7
370
    25
100
AcDbLine
 10
222.9182843626
 20
174.9310816675
 30
0.0
 11
222.8682843626
 21
174.9310816675
 31
0.0
  0
LINE
  5
1E4
330
1F
100
AcDbEntity
  8
0
  6
Continuous
 62
     7
370
    25
100
AcDbLine
 10
222.8682843626
 20
178.9310816675
 30
0.0
 11
222.8682843626
 21
174.9310816675
 31
0.0
  0
LINE
  5
1E5
330
1F
100
AcDbEntity
  8
0
  6
Continuous
 62
     7
370
    25
100
AcDbLine
 10
222.9182843626
 20
178.9310816675
 30
0.0
 11
222.9182843626
 21
174.9310816675
 31
0.0
  0
LINE
  5
1E6
330
1F
100
AcDbEntity
  8
0
  6
Continuous
 62
     7
370
    25
100
AcDbLine
 10
222.8682843626
 20
174.9310816675
 30
0.0
 11
222.8682843626
 21
173.9934735357
 31
0.0
  0
LINE
  5
1E7
330
1F
100
AcDbEntity
  8
0
  6
Continuous
 62
     7
370
    25
100
AcDbLine
 10
222.9182843626
 20
174.9310816675
 30
0.0
 11
222.9182843626
 21
173.9934735357
 31
0.0
  0
LINE
  5
1E8
330
1F
100
AcDbEntity
  8
0
  6
Continuous
 62
     7
370
    25
100
AcDbLine
 10
222.3682843626
 20
175.9310816675
 30
0.0
 11
222.3682843626
 21
135.9310816675
 31
0.0
  0
LINE
  5
1E9
330
1F
100
AcDbEntity
  8
0
  6
Continuous
 62
     7
370
    25
100
AcDbLine
 10
217.3682843626
 20
136.1810816675
 30
0.0
 11
217.3682843626
 21
175.6810816675
 31
0.0
  0
SPLINE
  5
1EA
330
1F
100
AcDbEntity
  8
0
  6
Continuous
 62
     8
370
    25
100
AcDbSpline
210
0.0
220
0.0
230
1.0
 70
    24
 71
     3
 72
    15
 73
    11
 74
     0
 42
0.00000001
 43
0.00000001
 40
0.0
 40
0.0
 40
0.0
 40
0.0
 40
0.118961159658875
 40
0.2448238511361787
 40
0.3706865426134821
 40
0.4965492340907857
 40
0.6224119255680891
 40
0.7482746170453932
 40
0.8741373085226962
 40
1.0
 40
1.0
 40
1.0
 40
1.0
 10
108.3682843626151
 20
164.9283568094999
 30
0.0
 10
108.3682843626151
 20
164.919128373784
 30
0.0
 10
108.3682843626151
 20
164.9001361146433
 30
0.0
 10
108.3682843626152
 20
164.7477222367076
 30
0.0
 10
108.3682843626151
 20
164.5032873131936
 30
0.0
 10
108.3682843626151
 20
164.1619142461995
 30
0.0
 10
108.3682843626151
 20
163.7305758823257
 30
0.0
 10
108.3682843626151
 20
163.2116770893542
 30
0.0
 10
108.3682843626151
 20
162.6171783341159
 30
0.0
 10
108.3682843626151
 20
162.1597805563556
 30
0.0
 10
108.3682843626151
 20
161.9310816674754
 30
0.0
  0
LINE
  5
1EB
330
1F
100
AcDbEntity
  8
0
  6
Continuous
 62
     8
370
    25
100
AcDbLine
 10
96.1182843626
 20
155.9310816675
 30
0.0
 11
96.1182843626
 21
146.9310816675
 31
0.0
  0
LINE
  5
1EC
330
1F
100
AcDbEntity
  8
0
  6
Continuous
 62
     8
370
    25
100
AcDbLine
 10
97.3682843626
 20
169.4310816675
 30
0.0
 11
97.3682843626
 21
178.4310816675
 31
0.0
  0
LINE
  5
1ED
330
1F
100
AcDbEntity
  8
0
  6
Continuous
 62
     8
370
    25
100
AcDbLine
 10
96.1182843626
 20
178.4310816675
 30
0.0
 11
96.1182843626
 21
169.4310816675
 31
0.0
  0
LINE
  5
1EE
330
1F
100
AcDbEntity
  8
0
  6
Continuous
 62
     8
370
    25
100
AcDbLine
 10
217.6182843626
 20
175.9310816675
 30
0.0
 11
217.6182843626
 21
135.9310816675
 31
0.0
  0
DIMENSION
  5
1EF
330
1F
100
AcDbEntity
  8
0
  6
Continuous
 62
     7
370
    18
100
AcDbDimension
280
     0
  2
_D_1
 10
180.8627176075
 20
146.9310816675
 30
0.0
 11
180.8627176075
 21
176.3102678091
 31
0.0
 70
   160
  1
%%c<>
 71
     2
 42
-1.0
 73
     0
 74
     0
 75
     0
  3
SLDDIMSTYLE0
100
AcDbAlignedDimension
 13
217.3682843626
 23
164.9310816675
 33
0.0
 14
209.9556754631
 24
146.9310816675
 34
0.0
 50
90.0
100
AcDbRotatedDimension
  0
DIMENSION
  5
1F9
330
1F
100
AcDbEntity
  8
0
  6
Continuous
 62
     7
370
    18
100
AcDbDimension
280
     0
  2
_D_2
 10
85.9237478615
 20
146.9310816675
 30
0.0
 11
85.9237478615
 21
161.4159375946
 31
0.0
 70
   160
  1
<>
 71
     2
 42
-1.0
 73
     0
 74
     0
 75
     0
  3
SLDDIMSTYLE1
100
AcDbAlignedDimension
 13
96.1182843626
 23
178.4310816675
 33
0.0
 14
96.1182843626
 24
146.9310816675
 34
0.0
 50
90.0
100
AcDbRotatedDimension
  0
DIMENSION
  5
204
330
1F
100
AcDbEntity
  8
0
  6
Continuous
 62
     7
370
    18
100
AcDbDimension
280
     0
  2
_D_3
 10
217.3682843626
 20
185.8457336119
 30
0.0
 11
156.6438074037
 21
185.8457336119
 31
0.0
 70
   160
  1
<>
 71
     2
 42
-1.0
 73
     0
 74
     0
 75
     0
  3
SLDDIMSTYLE0
100
AcDbAlignedDimension
 13
102.3682843626
 23
173.4310816675
 33
0.0
 14
217.3682843626
 24
164.9310816675
 34
0.0
100
AcDbRotatedDimension
  0
DIMENSION
  5
20E
330
1F
100
AcDbEntity
  8
0
  6
Continuous
 62
     7
370
    18
100
AcDbDimension
280
     0
  2
_D_4
 10
95.8682843626
 20
194.9310816675
 30
0.0
 11
156.1893074057
 21
194.9310816675
 31
0.0
 70
   160
  1
<>
 71
     2
 42
-1.0
 73
     0
 74
     0
 75
     0
  3
SLDDIMSTYLE1
100
AcDbAlignedDimension
 13
222.3682843626
 23
175.9310816675
 33
0.0
 14
95.8682843626
 24
178.1810816675
 34
0.0
100
AcDbRotatedDimension
  0
ENDSEC
  0
SECTION
  2
OBJECTS
  0
DICTIONARY
  5
C
330
0
100
AcDbDictionary
281
     1
  3
ACAD_DETAILVIEWSTYLE
350
21F
  3
ACAD_GROUP
350
D
  3
ACAD_LAYOUT
350
1A
  3
ACAD_MATERIAL
350
43
  3
ACAD_MLEADERSTYLE
350
6B
  3
ACAD_MLINESTYLE
350
17
  3
ACAD_PLOTSETTINGS
350
19
  3
ACAD_PLOTSTYLENAME
350
E
  3
ACAD_SCALELIST
350
47
  3
ACAD_SECTIONVIEWSTYLE
350
220
  3
ACAD_TABLESTYLE
350
69
  3
ACAD_VISUALSTYLE
350
2A
  3
ACDB_RECOMPOSE_DATA
350
21C
  3
AcDbVariableDictionary
350
218
  0
SUN
  5
6D
330
29
100
AcDbSun
 90
        1
290
     0
 63
     7
421
 16777215
 40
1.0
291
     1
 91
  2455826
 92
 54000000
292
     0
 70
     2
 71
   256
280
     1
  0
DICTIONARY
  5
21F
102
{ACAD_REACTORS
330
C
102
}
330
C
100
AcDbDictionary
281
     1
  0
DICTIONARY
  5
D
102
{ACAD_REACTORS
330
C
102
}
330
C
100
AcDbDictionary
281
     1
  0
DICTIONARY
  5
1A
102
{ACAD_REACTORS
330
C
102
}
330
C
100
AcDbDictionary
281
     1
  3
Layout1
350
1E
  3
Layout2
350
26
  3
Model
350
22
  0
DICTIONARY
  5
43
102
{ACAD_REACTORS
330
C
102
}
330
C
100
AcDbDictionary
281
     1
  3
ByBlock
350
45
  3
ByLayer
350
44
  3
Global
350
46
  0
DICTIONARY
  5
6B
102
{ACAD_REACTORS
330
C
102
}
330
C
100
AcDbDictionary
281
     1
  3
Standard
350
6C
  0
DICTIONARY
  5
17
102
{ACAD_REACTORS
330
C
102
}
330
C
100
AcDbDictionary
281
     1
  3
Standard
350
18
  0
DICTIONARY
  5
19
102
{ACAD_REACTORS
330
C
102
}
330
C
100
AcDbDictionary
281
     1
  0
ACDBDICTIONARYWDFLT
  5
E
102
{ACAD_REACTORS
330
C
102
}
330
C
100
AcDbDictionary
281
     1
  3
Normal
350
F
100
AcDbDictionaryWithDefault
340
F
  0
DICTIONARY
  5
47
102
{ACAD_REACTORS
330
C
102
}
330
C
100
AcDbDictionary
281
     1
  3
A0
350
48
  3
A1
350
49
  3
A2
350
4A
  3
A3
350
4B
  3
A4
350
4C
  3
A5
350
4D
  3
A6
350
4E
  3
A7
350
4F
  3
A8
350
50
  3
A9
350
51
  3
B0
350
52
  3
B1
350
53
  3
B2
350
54
  3
B3
350
55
  3
B4
350
56
  3
B5
350
57
  3
B6
350
58
  3
B7
350
59
  3
B8
350
5A
  3
B9
350
5B
  3
C0
350
5C
  3
C1
350
5D
  3
C2
350
5E
  3
C3
350
5F
  3
C4
350
60
  3
C5
350
61
  3
C6
350
62
  3
C7
350
63
  3
C8
350
64
  3
C9
350
65
  3
D0
350
66
  3
D1
350
67
  3
D2
350
68
  0
DICTIONARY
  5
220
102
{ACAD_REACTORS
330
C
102
}
330
C
100
AcDbDictionary
281
     1
  0
DICTIONARY
  5
69
102
{ACAD_REACTORS
330
C
102
}
330
C
100
AcDbDictionary
281
     1
  3
Standard
350
6A
  0
DICTIONARY
  5
2A
102
{ACAD_REACTORS
330
C
102
}
330
C
100
AcDbDictionary
281
     1
  3
2dWireframe
350
2F
  3
Basic
350
32
  3
Brighten
350
36
  3
ColorChange
350
3A
  3
Conceptual
350
34
  3
Dim
350
35
  3
EdgeColorOff
350
3D
  3
Facepattern
350
39
  3
Flat
350
2B
  3
FlatWithEdges
350
2C
  3
Gouraud
350
2D
  3
GouraudWithEdges
350
2E
  3
Hidden
350
31
  3
JitterOff
350
3B
  3
Linepattern
350
38
  3
OverhangOff
350
3C
  3
Realistic
350
33
  3
Shaded
350
42
  3
Shaded with edges
350
41
  3
Shades of Gray
350
3E
  3
Sketchy
350
3F
  3
Thicken
350
37
  3
Wireframe
350
30
  3
X-Ray
350
40
  0
XRECORD
  5
21C
102
{ACAD_REACTORS
330
C
102
}
330
C
100
AcDbXrecord
280
     1
 90
        1
330
6A
  0
DICTIONARY
  5
218
102
{ACAD_REACTORS
330
C
102
}
330
C
100
AcDbDictionary
281
     1
  3
CANNOSCALE
350
219
  3
CENTEREXE
350
221
  3
CENTERLTYPEFILE
350
222
  3
CMLEADERSTYLE
350
21E
  3
CTABLESTYLE
350
21D
  0
LAYOUT
  5
1E
102
{ACAD_REACTORS
330
1A
102
}
330
1A
100
AcDbPlotSettings
  1

  2
none_device
  4

  6

 40
0.0
 41
0.0
 42
0.0
 43
0.0
 44
0.0
 45
0.0
 46
0.0
 47
0.0
 48
0.0
 49
0.0
140
0.0
141
0.0
142
1.0
143
1.0
 70
   688
 72
     1
 73
     0
 74
     5
  7

 75
    16
 76
     0
 77
     2
 78
   300
147
1.0
148
0.0
149
0.0
100
AcDbLayout
  1
Layout1
 70
     1
 71
     1
 10
0.0
 20
0.0
 11
420.0
 21
297.0
 12
0.0
 22
0.0
 32
0.0
 14
1.0000000000E+20
 24
1.0000000000E+20
 34
1.0000000000E+20
 15
-1.0000000000E+20
 25
-1.0000000000E+20
 35
-1.0000000000E+20
146
0.0
 13
0.0
 23
0.0
 33
0.0
 16
1.0
 26
0.0
 36
0.0
 17
0.0
 27
1.0
 37
0.0
 76
     0
330
1B
  0
LAYOUT
  5
26
102
{ACAD_REACTORS
330
1A
102
}
330
1A
100
AcDbPlotSettings
  1

  2
none_device
  4

  6

 40
0.0
 41
0.0
 42
0.0
 43
0.0
 44
0.0
 45
0.0
 46
0.0
 47
0.0
 48
0.0
 49
0.0
140
0.0
141
0.0
142
1.0
143
1.0
 70
   688
 72
     1
 73
     0
 74
     5
  7

 75
    16
 76
     0
 77
     2
 78
   300
147
1.0
148
0.0
149
0.0
100
AcDbLayout
  1
Layout2
 70
     1
 71
     2
 10
0.0
 20
0.0
 11
0.0
 21
0.0
 12
0.0
 22
0.0
 32
0.0
 14
0.0
 24
0.0
 34
0.0
 15
0.0
 25
0.0
 35
0.0
146
0.0
 13
0.0
 23
0.0
 33
0.0
 16
1.0
 26
0.0
 36
0.0
 17
0.0
 27
1.0
 37
0.0
 76
     0
330
23
  0
LAYOUT
  5
22
102
{ACAD_REACTORS
330
1A
102
}
330
1A
100
AcDbPlotSettings
  1

  2
none_device
  4
Letter_(8.50_x_11.00_Inches)
  6

 40
6.35
 41
6.35
 42
6.35000508
 43
6.35000508
 44
215.9
 45
279.4
 46
0.0
 47
0.0
 48
0.0
 49
0.0
140
0.0
141
0.0
142
1.0
143
1.0
 70
  1712
 72
     1
 73
     0
 74
     0
  7

 75
     0
 76
     0
 77
     2
 78
   300
147
1.0
148
0.0
149
0.0
100
AcDbLayout
  1
Model
 70
     1
 71
     0
 10
0.0
 20
0.0
 11
420.0
 21
297.0
 12
0.0
 22
0.0
 32
0.0
 14
0.0
 24
0.0
 34
0.0
 15
420.0
 25
297.0
 35
0.0
146
0.0
 13
0.0
 23
0.0
 33
0.0
 16
1.0
 26
0.0
 36
0.0
 17
0.0
 27
1.0
 37
0.0
 76
     0
330
1F
331
29
  0
MATERIAL
  5
45
102
{ACAD_REACTORS
330
43
102
}
330
43
100
AcDbMaterial
  1
ByBlock
 72
     1
 94
      127
  0
MATERIAL
  5
44
102
{ACAD_REACTORS
330
43
102
}
330
43
100
AcDbMaterial
  1
ByLayer
 72
     1
 94
      127
  0
MATERIAL
  5
46
102
{ACAD_REACTORS
330
43
102
}
330
43
100
AcDbMaterial
  1
Global
 72
     1
 94
      127
  0
MLEADERSTYLE
  5
6C
102
{ACAD_REACTORS
330
6B
102
}
330
6B
100
AcDbMLeaderStyle
179
     2
170
     2
171
     1
172
     0
 90
        2
 40
0.0
 41
0.0
173
     1
 91
-1056964608
340
14
 92
       -2
290
     1
 42
2.0
291
     1
 43
8.0
  3
Standard
341
0
 44
4.0
300

342
11
174
     1
178
     6
175
     1
176
     0
 93
-1056964608
 45
4.0
292
     0
297
     0
 46
4.0
343
0
 94
-1056964608
 47
1.0
 49
1.0
140
1.0
293
     1
141
0.0
294
     1
177
     0
142
1.0
295
     0
296
     0
143
3.75
271
     0
272
     9
273
     9
298
     0
  0
MLINESTYLE
  5
18
102
{ACAD_REACTORS
330
17
102
}
330
17
100
AcDbMlineStyle
  2
Standard
 70
     0
  3

 62
   256
 51
90.0
 52
90.0
 71
     2
 49
0.5
 62
   256
  6
BYLAYER
 49
-0.5
 62
   256
  6
BYLAYER
  0
ACDBPLACEHOLDER
  5
F
102
{ACAD_REACTORS
330
E
102
}
330
E
  0
SCALE
  5
48
102
{ACAD_REACTORS
330
47
102
}
330
47
100
AcDbScale
 70
     0
300
1:1
140
1.0
141
1.0
290
     1
  0
SCALE
  5
49
102
{ACAD_REACTORS
330
47
102
}
330
47
100
AcDbScale
 70
     0
300
1:2
140
1.0
141
2.0
290
     0
  0
SCALE
  5
4A
102
{ACAD_REACTORS
330
47
102
}
330
47
100
AcDbScale
 70
     0
300
1:4
140
1.0
141
4.0
290
     0
  0
SCALE
  5
4B
102
{ACAD_REACTORS
330
47
102
}
330
47
100
AcDbScale
 70
     0
300
1:5
140
1.0
141
5.0
290
     0
  0
SCALE
  5
4C
102
{ACAD_REACTORS
330
47
102
}
330
47
100
AcDbScale
 70
     0
300
1:8
140
1.0
141
8.0
290
     0
  0
SCALE
  5
4D
102
{ACAD_REACTORS
330
47
102
}
330
47
100
AcDbScale
 70
     0
300
1:10
140
1.0
141
10.0
290
     0
  0
SCALE
  5
4E
102
{ACAD_REACTORS
330
47
102
}
330
47
100
AcDbScale
 70
     0
300
1:16
140
1.0
141
16.0
290
     0
  0
SCALE
  5
4F
102
{ACAD_REACTORS
330
47
102
}
330
47
100
AcDbScale
 70
     0
300
1:20
140
1.0
141
20.0
290
     0
  0
SCALE
  5
50
102
{ACAD_REACTORS
330
47
102
}
330
47
100
AcDbScale
 70
     0
300
1:30
140
1.0
141
30.0
290
     0
  0
SCALE
  5
51
102
{ACAD_REACTORS
330
47
102
}
330
47
100
AcDbScale
 70
     0
300
1:40
140
1.0
141
40.0
290
     0
  0
SCALE
  5
52
102
{ACAD_REACTORS
330
47
102
}
330
47
100
AcDbScale
 70
     0
300
1:50
140
1.0
141
50.0
290
     0
  0
SCALE
  5
53
102
{ACAD_REACTORS
330
47
102
}
330
47
100
AcDbScale
 70
     0
300
1:100
140
1.0
141
100.0
290
     0
  0
SCALE
  5
54
102
{ACAD_REACTORS
330
47
102
}
330
47
100
AcDbScale
 70
     0
300
2:1
140
2.0
141
1.0
290
     0
  0
SCALE
  5
55
102
{ACAD_REACTORS
330
47
102
}
330
47
100
AcDbScale
 70
     0
300
4:1
140
4.0
141
1.0
290
     0
  0
SCALE
  5
56
102
{ACAD_REACTORS
330
47
102
}
330
47
100
AcDbScale
 70
     0
300
8:1
140
8.0
141
1.0
290
     0
  0
SCALE
  5
57
102
{ACAD_REACTORS
330
47
102
}
330
47
100
AcDbScale
 70
     0
300
10:1
140
10.0
141
1.0
290
     0
  0
SCALE
  5
58
102
{ACAD_REACTORS
330
47
102
}
330
47
100
AcDbScale
 70
     0
300
100:1
140
100.0
141
1.0
290
     0
  0
SCALE
  5
59
102
{ACAD_REACTORS
330
47
102
}
330
47
100
AcDbScale
 70
     0
300
1/128" = 1'-0"
140
0.0078125
141
12.0
290
     0
  0
SCALE
  5
5A
102
{ACAD_REACTORS
330
47
102
}
330
47
100
AcDbScale
 70
     0
300
1/64" = 1'-0"
140
0.015625
141
12.0
290
     0
  0
SCALE
  5
5B
102
{ACAD_REACTORS
330
47
102
}
330
47
100
AcDbScale
 70
     0
300
1/32" = 1'-0"
140
0.03125
141
12.0
290
     0
  0
SCALE
  5
5C
102
{ACAD_REACTORS
330
47
102
}
330
47
100
AcDbScale
 70
     0
300
1/16" = 1'-0"
140
0.0625
141
12.0
290
     0
  0
SCALE
  5
5D
102
{ACAD_REACTORS
330
47
102
}
330
47
100
AcDbScale
 70
     0
300
3/32" = 1'-0"
140
0.09375
141
12.0
290
     0
  0
SCALE
  5
5E
102
{ACAD_REACTORS
330
47
102
}
330
47
100
AcDbScale
 70
     0
300
1/8" = 1'-0"
140
0.125
141
12.0
290
     0
  0
SCALE
  5
5F
102
{ACAD_REACTORS
330
47
102
}
330
47
100
AcDbScale
 70
     0
300
3/16" = 1'-0"
140
0.1875
141
12.0
290
     0
  0
SCALE
  5
60
102
{ACAD_REACTORS
330
47
102
}
330
47
100
AcDbScale
 70
     0
300
1/4" = 1'-0"
140
0.25
141
12.0
290
     0
  0
SCALE
  5
61
102
{ACAD_REACTORS
330
47
102
}
330
47
100
AcDbScale
 70
     0
300
3/8" = 1'-0"
140
0.375
141
12.0
290
     0
  0
SCALE
  5
62
102
{ACAD_REACTORS
330
47
102
}
330
47
100
AcDbScale
 70
     0
300
1/2" = 1'-0"
140
0.5
141
12.0
290
     0
  0
SCALE
  5
63
102
{ACAD_REACTORS
330
47
102
}
330
47
100
AcDbScale
 70
     0
300
3/4" = 1'-0"
140
0.75
141
12.0
290
     0
  0
SCALE
  5
64
102
{ACAD_REACTORS
330
47
102
}
330
47
100
AcDbScale
 70
     0
300
1" = 1'-0"
140
1.0
141
12.0
290
     0
  0
SCALE
  5
65
102
{ACAD_REACTORS
330
47
102
}
330
47
100
AcDbScale
 70
     0
300
1-1/2" = 1'-0"
140
1.5
141
12.0
290
     0
  0
SCALE
  5
66
102
{ACAD_REACTORS
330
47
102
}
330
47
100
AcDbScale
 70
     0
300
3" = 1'-0"
140
3.0
141
12.0
290
     0
  0
SCALE
  5
67
102
{ACAD_REACTORS
330
47
102
}
330
47
100
AcDbScale
 70
     0
300
6" = 1'-0"
140
6.0
141
12.0
290
     0
  0
SCALE
  5
68
102
{ACAD_REACTORS
330
47
102
}
330
47
100
AcDbScale
 70
     0
300
1'-0" = 1'-0"
140
12.0
141
12.0
290
     0
  0
TABLESTYLE
  5
6A
102
{ACAD_REACTORS
330
69
102
}
102
{ACAD_XDICTIONARY
360
21A
102
}
330
69
100
AcDbTableStyle
  3
Standard
 70
     0
 71
     0
 40
0.06
 41
0.06
280
     0
281
     0
  7
Standard
140
4.5
170
     2
 62
     0
 63
   257
283
     0
 90
        4
 91
        0
  1

274
    -2
284
     1
 64
     0
275
    -2
285
     1
 65
     0
276
    -2
286
     1
 66
     0
277
    -2
287
     1
 67
     0
278
    -2
288
     1
 68
     0
279
    -2
289
     1
 69
     0
  7
Standard
140
6.0
170
     5
 62
     0
 63
   257
283
     0
 90
        4
 91
        0
  1

274
    -2
284
     1
 64
     0
275
    -2
285
     1
 65
     0
276
    -2
286
     1
 66
     0
277
    -2
287
     1
 67
     0
278
    -2
288
     1
 68
     0
279
    -2
289
     1
 69
     0
  7
Standard
140
4.5
170
     5
 62
     0
 63
   257
283
     0
 90
        4
 91
        0
  1

274
    -2
284
     1
 64
     0
275
    -2
285
     1
 65
     0
276
    -2
286
     1
 66
     0
277
    -2
287
     1
 67
     0
278
    -2
288
     1
 68
     0
279
    -2
289
     1
 69
     0
  0
VISUALSTYLE
  5
2F
102
{ACAD_REACTORS
330
2A
102
}
330
2A
100
AcDbVisualStyle
  2
2dWireframe
 70
     4
177
     3
291
     0
 70
    58
 90
        0
176
     1
 90
        2
176
     1
 90
        0
176
     1
 90
        0
176
     1
 40
0.6
176
     1
 40
30.0
176
     1
 62
     7
420
 16777215
176
     1
 90
        1
176
     1
 90
        4
176
     1
 62
     7
176
     1
 62
   257
176
     1
 90
        1
176
     1
 90
        1
176
     1
 40
1.0
176
     1
 90
        0
176
     1
 62
   257
176
     1
 40
1.0
176
     1
 90
        1
176
     1
 90
        6
176
     1
 90
        2
176
     1
 62
     7
176
     1
 90
        5
176
     1
 90
        0
176
     1
 90
        0
176
     1
290
     0
176
     1
 90
        1
176
     1
 40
0.0
176
     1
 90
        0
176
     1
290
     1
176
     1
290
     1
176
     1
290
     0
176
     1
290
     0
176
     1
290
     0
176
     1
290
     0
176
     1
290
     0
176
     1
290
     0
176
     1
290
     0
176
     1
 90
       50
176
     1
 40
0.0
176
     1
 40
1.0
176
     1
 90
        0
176
     1
 62
    18
420
        0
176
     1
 90
       50
176
     1
 90
        3
176
     1
 62
     5
420
      255
176
     1
290
     0
176
     1
 90
       50
176
     1
 90
       50
176
     1
 90
       50
176
     1
290
     0
176
     1
 90
       50
176
     1
 62
   256
176
     0
 40
1.0
176
     0
 90
        2
176
     1
  1
strokes_ogs.tif
176
     1
290
     0
176
     1
 40
1.0
176
     1
 40
1.0
176
     1
  0
VISUALSTYLE
  5
32
102
{ACAD_REACTORS
330
2A
102
}
330
2A
100
AcDbVisualStyle
  2
Basic
 70
     7
177
     3
291
     1
 70
    58
 90
        1
176
     1
 90
        0
176
     1
 90
        1
176
     1
 90
        0
176
     1
 40
0.6
176
     1
 40
30.0
176
     1
 62
     7
420
 16777215
176
     1
 90
        0
176
     1
 90
        4
176
     1
 62
     7
176
     1
 62
   257
176
     1
 90
        1
176
     1
 90
        1
176
     1
 40
1.0
176
     1
 90
        8
176
     1
 62
     7
176
     1
 40
1.0
176
     1
 90
        1
176
     1
 90
        6
176
     1
 90
        2
176
     1
 62
     7
176
     1
 90
        5
176
     1
 90
        0
176
     1
 90
        0
176
     1
290
     0
176
     1
 90
        1
176
     1
 40
0.0
176
     1
 90
        0
176
     1
290
     0
176
     1
290
     1
176
     1
290
     1
176
     1
290
     0
176
     1
290
     0
176
     1
290
     0
176
     1
290
     0
176
     1
290
     0
176
     1
290
     0
176
     1
 90
       50
176
     1
 40
0.0
176
     1
 40
1.0
176
     1
 90
        0
176
     1
 62
    18
420
        0
176
     1
 90
       50
176
     1
 90
        3
176
     1
 62
     5
420
      255
176
     1
290
     0
176
     1
 90
       50
176
     1
 90
       50
176
     1
 90
       50
176
     1
290
     0
176
     1
 90
       50
176
     1
 62
   256
176
     0
 40
1.0
176
     0
 90
        2
176
     1
  1
strokes_ogs.tif
176
     1
290
     0
176
     1
 40
1.0
176
     1
 40
1.0
176
     1
  0
VISUALSTYLE
  5
36
102
{ACAD_REACTORS
330
2A
102
}
330
2A
100
AcDbVisualStyle
  2
Brighten
 70
    12
177
     3
291
     1
 70
    58
 90
        2
176
     1
 90
        2
176
     1
 90
        0
176
     1
 90
        0
176
     1
 40
0.6
176
     1
 40
30.0
176
     1
 62
     7
420
 16777215
176
     1
 90
        1
176
     1
 90
        4
176
     1
 62
     7
176
     1
 62
   257
176
     1
 90
        1
176
     1
 90
        1
176
     1
 40
1.0
176
     1
 90
        8
176
     1
 62
     7
176
     1
 40
1.0
176
     1
 90
        1
176
     1
 90
        6
176
     1
 90
        2
176
     1
 62
     7
176
     1
 90
        5
176
     1
 90
        0
176
     1
 90
        0
176
     1
290
     0
176
     1
 90
        1
176
     1
 40
50.0
176
     1
 90
        0
176
     1
290
     0
176
     1
290
     1
176
     1
290
     1
176
     1
290
     0
176
     1
290
     0
176
     1
290
     0
176
     1
290
     0
176
     1
290
     0
176
     1
290
     0
176
     1
 90
       50
176
     1
 40
0.0
176
     1
 40
1.0
176
     1
 90
        0
176
     1
 62
    18
420
        0
176
     1
 90
       50
176
     1
 90
        3
176
     1
 62
     5
420
      255
176
     1
290
     0
176
     1
 90
       50
176
     1
 90
       50
176
     1
 90
       50
176
     1
290
     0
176
     1
 90
       50
176
     1
 62
   256
176
     0
 40
1.0
176
     0
 90
        2
176
     1
  1
strokes_ogs.tif
176
     1
290
     0
176
     1
 40
1.0
176
     1
 40
1.0
176
     1
  0
VISUALSTYLE
  5
3A
102
{ACAD_REACTORS
330
2A
102
}
330
2A
100
AcDbVisualStyle
  2
ColorChange
 70
    16
177
     3
291
     1
 70
    58
 90
        2
176
     1
 90
        2
176
     1
 90
        3
176
     1
 90
        0
176
     1
 40
0.6
176
     1
 40
30.0
176
     1
 62
     8
420
  8421504
176
     1
 90
        1
176
     1
 90
        4
176
     1
 62
     7
176
     1
 62
   257
176
     1
 90
        1
176
     1
 90
        1
176
     1
 40
1.0
176
     1
 90
        8
176
     1
 62
     8
420
  8421504
176
     1
 40
1.0
176
     1
 90
        1
176
     1
 90
        6
176
     1
 90
        2
176
     1
 62
     7
176
     1
 90
        5
176
     1
 90
        0
176
     1
 90
        0
176
     1
290
     0
176
     1
 90
        1
176
     1
 40
0.0
176
     1
 90
        0
176
     1
290
     0
176
     1
290
     1
176
     1
290
     1
176
     1
290
     0
176
     1
290
     0
176
     1
290
     0
176
     1
290
     0
176
     1
290
     0
176
     1
290
     0
176
     1
 90
       50
176
     1
 40
0.0
176
     1
 40
1.0
176
     1
 90
        0
176
     1
 62
    18
420
        0
176
     1
 90
       50
176
     1
 90
        3
176
     1
 62
     5
420
      255
176
     1
290
     0
176
     1
 90
       50
176
     1
 90
       50
176
     1
 90
       50
176
     1
290
     0
176
     1
 90
       50
176
     1
 62
   256
176
     0
 40
1.0
176
     0
 90
        2
176
     1
  1
strokes_ogs.tif
176
     1
290
     0
176
     1
 40
1.0
176
     1
 40
1.0
176
     1
  0
VISUALSTYLE
  5
34
102
{ACAD_REACTORS
330
2A
102
}
330
2A
100
AcDbVisualStyle
  2
Conceptual
 70
     9
177
     3
291
     0
 70
    58
 90
        3
176
     1
 90
        2
176
     1
 90
        0
176
     1
 90
        0
176
     1
 40
0.6
176
     1
 40
30.0
176
     1
 62
     7
420
 16777215
176
     1
 90
        2
176
     1
 90
        2
176
     1
 62
     7
176
     1
 62
   257
176
     1
 90
        1
176
     1
 90
        1
176
     1
 40
179.0
176
     1
 90
        8
176
     1
 62
     7
176
     1
 40
1.0
176
     1
 90
        1
176
     1
 90
        6
176
     1
 90
        2
176
     1
 62
     7
176
     1
 90
        3
176
     1
 90
        0
176
     1
 90
        0
176
     1
290
     0
176
     1
 90
        1
176
     1
 40
0.0
176
     1
 90
        0
176
     1
290
     0
176
     1
290
     1
176
     1
290
     1
176
     1
290
     0
176
     1
290
     0
176
     1
290
     0
176
     1
290
     0
176
     1
290
     0
176
     1
290
     0
176
     1
 90
       50
176
     1
 40
0.0
176
     1
 40
1.0
176
     1
 90
        0
176
     1
 62
    18
420
        0
176
     1
 90
       50
176
     1
 90
        3
176
     1
 62
     5
420
      255
176
     1
290
     0
176
     1
 90
       50
176
     1
 90
       50
176
     1
 90
       50
176
     1
290
     0
176
     1
 90
       50
176
     1
 62
   256
176
     0
 40
1.0
176
     0
 90
        2
176
     1
  1
strokes_ogs.tif
176
     1
290
     0
176
     1
 40
1.0
176
     1
 40
1.0
176
     1
  0
VISUALSTYLE
  5
35
102
{ACAD_REACTORS
330
2A
102
}
330
2A
100
AcDbVisualStyle
  2
Dim
 70
    11
177
     3
291
     1
 70
    58
 90
        2
176
     1
 90
        2
176
     1
 90
        0
176
     1
 90
        0
176
     1
 40
0.6
176
     1
 40
30.0
176
     1
 62
     7
420
 16777215
176
     1
 90
        1
176
     1
 90
        4
176
     1
 62
     7
176
     1
 62
   257
176
     1
 90
        1
176
     1
 90
        1
176
     1
 40
1.0
176
     1
 90
        8
176
     1
 62
     7
176
     1
 40
1.0
176
     1
 90
        1
176
     1
 90
        6
176
     1
 90
        2
176
     1
 62
     7
176
     1
 90
        5
176
     1
 90
        0
176
     1
 90
        0
176
     1
290
     0
176
     1
 90
        1
176
     1
 40
-50.0
176
     1
 90
        0
176
     1
290
     0
176
     1
290
     1
176
     1
290
     1
176
     1
290
     0
176
     1
290
     0
176
     1
290
     0
176
     1
290
     0
176
     1
290
     0
176
     1
290
     0
176
     1
 90
       50
176
     1
 40
0.0
176
     1
 40
1.0
176
     1
 90
        0
176
     1
 62
    18
420
        0
176
     1
 90
       50
176
     1
 90
        3
176
     1
 62
     5
420
      255
176
     1
290
     0
176
     1
 90
       50
176
     1
 90
       50
176
     1
 90
       50
176
     1
290
     0
176
     1
 90
       50
176
     1
 62
   256
176
     0
 40
1.0
176
     0
 90
        2
176
     1
  1
strokes_ogs.tif
176
     1
290
     0
176
     1
 40
1.0
176
     1
 40
1.0
176
     1
  0
VISUALSTYLE
  5
3D
102
{ACAD_REACTORS
330
2A
102
}
330
2A
100
AcDbVisualStyle
  2
EdgeColorOff
 70
    22
177
     3
291
     1
 70
    58
 90
        2
176
     0
 90
        2
176
     0
 90
        0
176
     0
 90
        0
176
     0
 40
0.6
176
     0
 40
30.0
176
     0
 62
     7
420
 16777215
176
     0
 90
        1
176
     0
 90
        4
176
     0
 62
     7
176
     0
 62
   257
176
     0
 90
        1
176
     0
 90
        1
176
     0
 40
1.0
176
     0
 90
        8
176
     2
 62
     7
176
     0
 40
1.0
176
     0
 90
        1
176
     0
 90
        6
176
     0
 90
        2
176
     0
 62
     7
176
     0
 90
        5
176
     0
 90
        0
176
     0
 90
        0
176
     0
290
     0
176
     0
 90
        1
176
     0
 40
0.0
176
     0
 90
        0
176
     0
290
     0
176
     0
290
     1
176
     0
290
     1
176
     0
290
     0
176
     0
290
     0
176
     0
290
     0
176
     0
290
     0
176
     0
290
     0
176
     0
290
     0
176
     0
 90
       50
176
     0
 40
0.0
176
     0
 40
1.0
176
     0
 90
        0
176
     0
 62
    18
420
        0
176
     0
 90
       50
176
     0
 90
        3
176
     0
 62
     5
420
      255
176
     0
290
     0
176
     0
 90
       50
176
     0
 90
       50
176
     0
 90
       50
176
     0
290
     0
176
     0
 90
       50
176
     0
 62
   256
176
     0
 40
1.0
176
     0
 90
        2
176
     0
  1
strokes_ogs.tif
176
     0
290
     0
176
     0
 40
1.0
176
     0
 40
1.0
176
     0
  0
VISUALSTYLE
  5
39
102
{ACAD_REACTORS
330
2A
102
}
330
2A
100
AcDbVisualStyle
  2
Facepattern
 70
    15
177
     3
291
     1
 70
    58
 90
        2
176
     1
 90
        2
176
     1
 90
        0
176
     1
 90
        0
176
     1
 40
0.6
176
     1
 40
30.0
176
     1
 62
     7
420
 16777215
176
     1
 90
        1
176
     1
 90
        4
176
     1
 62
     7
176
     1
 62
   257
176
     1
 90
        1
176
     1
 90
        1
176
     1
 40
1.0
176
     1
 90
        8
176
     1
 62
     7
176
     1
 40
1.0
176
     1
 90
        1
176
     1
 90
        6
176
     1
 90
        2
176
     1
 62
     7
176
     1
 90
        5
176
     1
 90
        0
176
     1
 90
        0
176
     1
290
     0
176
     1
 90
        1
176
     1
 40
0.0
176
     1
 90
        0
176
     1
290
     0
176
     1
290
     1
176
     1
290
     1
176
     1
290
     0
176
     1
290
     0
176
     1
290
     0
176
     1
290
     0
176
     1
290
     0
176
     1
290
     0
176
     1
 90
       50
176
     1
 40
0.0
176
     1
 40
1.0
176
     1
 90
        0
176
     1
 62
    18
420
        0
176
     1
 90
       50
176
     1
 90
        3
176
     1
 62
     5
420
      255
176
     1
290
     0
176
     1
 90
       50
176
     1
 90
       50
176
     1
 90
       50
176
     1
290
     0
176
     1
 90
       50
176
     1
 62
   256
176
     0
 40
1.0
176
     0
 90
        2
176
     1
  1
strokes_ogs.tif
176
     1
290
     0
176
     1
 40
1.0
176
     1
 40
1.0
176
     1
  0
VISUALSTYLE
  5
2B
102
{ACAD_REACTORS
330
2A
102
}
330
2A
100
AcDbVisualStyle
  2
Flat
 70
     0
177
     3
291
     1
 70
    58
 90
        2
176
     1
 90
        1
176
     1
 90
        1
176
     1
 90
        2
176
     1
 40
0.6
176
     1
 40
30.0
176
     1
 62
     7
420
 16777215
176
     1
 90
        0
176
     1
 90
        0
176
     1
 62
     7
176
     1
 62
   257
176
     1
 90
        1
176
     1
 90
        1
176
     1
 40
1.0
176
     1
 90
        8
176
     1
 62
     7
176
     1
 40
1.0
176
     1
 90
        1
176
     1
 90
        6
176
     1
 90
        2
176
     1
 62
     7
176
     1
 90
        5
176
     1
 90
        0
176
     1
 90
        0
176
     1
290
     0
176
     1
 90
       13
176
     1
 40
0.0
176
     1
 90
        0
176
     1
290
     0
176
     1
290
     1
176
     1
290
     1
176
     1
290
     0
176
     1
290
     0
176
     1
290
     0
176
     1
290
     0
176
     1
290
     0
176
     1
290
     0
176
     1
 90
       50
176
     1
 40
0.0
176
     1
 40
1.0
176
     1
 90
        0
176
     1
 62
    18
420
        0
176
     1
 90
       50
176
     1
 90
        3
176
     1
 62
     5
420
      255
176
     1
290
     0
176
     1
 90
       50
176
     1
 90
       50
176
     1
 90
       50
176
     1
290
     0
176
     1
 90
       50
176
     1
 62
   256
176
     0
 40
1.0
176
     0
 90
        2
176
     1
  1
strokes_ogs.tif
176
     1
290
     0
176
     1
 40
1.0
176
     1
 40
1.0
176
     1
  0
VISUALSTYLE
  5
2C
102
{ACAD_REACTORS
330
2A
102
}
330
2A
100
AcDbVisualStyle
  2
FlatWithEdges
 70
     1
177
     3
291
     1
 70
    58
 90
        2
176
     1
 90
        1
176
     1
 90
        1
176
     1
 90
        2
176
     1
 40
0.6
176
     1
 40
30.0
176
     1
 62
     7
420
 16777215
176
     1
 90
        1
176
     1
 90
        0
176
     1
 62
     7
176
     1
 62
   257
176
     1
 90
        1
176
     1
 90
        1
176
     1
 40
1.0
176
     1
 90
        0
176
     1
 62
   257
176
     1
 40
1.0
176
     1
 90
        1
176
     1
 90
        6
176
     1
 90
        2
176
     1
 62
     7
176
     1
 90
        5
176
     1
 90
        0
176
     1
 90
        0
176
     1
290
     0
176
     1
 90
       13
176
     1
 40
0.0
176
     1
 90
        0
176
     1
290
     0
176
     1
290
     1
176
     1
290
     1
176
     1
290
     0
176
     1
290
     0
176
     1
290
     0
176
     1
290
     0
176
     1
290
     0
176
     1
290
     0
176
     1
 90
       50
176
     1
 40
0.0
176
     1
 40
1.0
176
     1
 90
        0
176
     1
 62
    18
420
        0
176
     1
 90
       50
176
     1
 90
        3
176
     1
 62
     5
420
      255
176
     1
290
     0
176
     1
 90
       50
176
     1
 90
       50
176
     1
 90
       50
176
     1
290
     0
176
     1
 90
       50
176
     1
 62
   256
176
     0
 40
1.0
176
     0
 90
        2
176
     1
  1
strokes_ogs.tif
176
     1
290
     0
176
     1
 40
1.0
176
     1
 40
1.0
176
     1
  0
VISUALSTYLE
  5
2D
102
{ACAD_REACTORS
330
2A
102
}
330
2A
100
AcDbVisualStyle
  2
Gouraud
 70
     2
177
     3
291
     1
 70
    58
 90
        2
176
     1
 90
        2
176
     1
 90
        1
176
     1
 90
        2
176
     1
 40
0.6
176
     1
 40
30.0
176
     1
 62
     7
420
 16777215
176
     1
 90
        0
176
     1
 90
        0
176
     1
 62
     7
176
     1
 62
   257
176
     1
 90
        1
176
     1
 90
        1
176
     1
 40
1.0
176
     1
 90
        0
176
     1
 62
     7
176
     1
 40
1.0
176
     1
 90
        1
176
     1
 90
        6
176
     1
 90
        2
176
     1
 62
     7
176
     1
 90
        5
176
     1
 90
        0
176
     1
 90
        0
176
     1
290
     0
176
     1
 90
       13
176
     1
 40
0.0
176
     1
 90
        0
176
     1
290
     0
176
     1
290
     1
176
     1
290
     1
176
     1
290
     0
176
     1
290
     0
176
     1
290
     0
176
     1
290
     0
176
     1
290
     0
176
     1
290
     0
176
     1
 90
       50
176
     1
 40
0.0
176
     1
 40
1.0
176
     1
 90
        0
176
     1
 62
    18
420
        0
176
     1
 90
       50
176
     1
 90
        3
176
     1
 62
     5
420
      255
176
     1
290
     0
176
     1
 90
       50
176
     1
 90
       50
176
     1
 90
       50
176
     1
290
     0
176
     1
 90
       50
176
     1
 62
   256
176
     0
 40
1.0
176
     0
 90
        2
176
     1
  1
strokes_ogs.tif
176
     1
290
     0
176
     1
 40
1.0
176
     1
 40
1.0
176
     1
  0
VISUALSTYLE
  5
2E
102
{ACAD_REACTORS
330
2A
102
}
330
2A
100
AcDbVisualStyle
  2
GouraudWithEdges
 70
     3
177
     3
291
     1
 70
    58
 90
        2
176
     1
 90
        2
176
     1
 90
        1
176
     1
 90
        2
176
     1
 40
0.6
176
     1
 40
30.0
176
     1
 62
     7
420
 16777215
176
     1
 90
        1
176
     1
 90
        0
176
     1
 62
     7
176
     1
 62
   257
176
     1
 90
        1
176
     1
 90
        1
176
     1
 40
1.0
176
     1
 90
        0
176
     1
 62
   257
176
     1
 40
1.0
176
     1
 90
        1
176
     1
 90
        6
176
     1
 90
        2
176
     1
 62
     7
176
     1
 90
        5
176
     1
 90
        0
176
     1
 90
        0
176
     1
290
     0
176
     1
 90
       13
176
     1
 40
0.0
176
     1
 90
        0
176
     1
290
     0
176
     1
290
     1
176
     1
290
     1
176
     1
290
     0
176
     1
290
     0
176
     1
290
     0
176
     1
290
     0
176
     1
290
     0
176
     1
290
     0
176
     1
 90
       50
176
     1
 40
0.0
176
     1
 40
1.0
176
     1
 90
        0
176
     1
 62
    18
420
        0
176
     1
 90
       50
176
     1
 90
        3
176
     1
 62
     5
420
      255
176
     1
290
     0
176
     1
 90
       50
176
     1
 90
       50
176
     1
 90
       50
176
     1
290
     0
176
     1
 90
       50
176
     1
 62
   256
176
     0
 40
1.0
176
     0
 90
        2
176
     1
  1
strokes_ogs.tif
176
     1
290
     0
176
     1
 40
1.0
176
     1
 40
1.0
176
     1
  0
VISUALSTYLE
  5
31
102
{ACAD_REACTORS
330
2A
102
}
330
2A
100
AcDbVisualStyle
  2
Hidden
 70
     6
177
     3
291
     0
 70
    58
 90
        1
176
     1
 90
        2
176
     1
 90
        2
176
     1
 90
        0
176
     1
 40
0.6
176
     1
 40
30.0
176
     1
 62
     7
420
 16777215
176
     1
 90
        2
176
     1
 90
        2
176
     1
 62
     7
176
     1
 62
   257
176
     1
 90
        2
176
     1
 90
        1
176
     1
 40
40.0
176
     1
 90
        0
176
     1
 62
   257
176
     1
 40
1.0
176
     1
 90
        1
176
     1
 90
        6
176
     1
 90
        2
176
     1
 62
     7
176
     1
 90
        3
176
     1
 90
        0
176
     1
 90
        0
176
     1
290
     0
176
     1
 90
        1
176
     1
 40
0.0
176
     1
 90
        0
176
     1
290
     0
176
     1
290
     1
176
     1
290
     1
176
     1
290
     0
176
     1
290
     0
176
     1
290
     0
176
     1
290
     0
176
     1
290
     0
176
     1
290
     0
176
     1
 90
       50
176
     1
 40
0.0
176
     1
 40
1.0
176
     1
 90
        0
176
     1
 62
    18
420
        0
176
     1
 90
       50
176
     1
 90
        3
176
     1
 62
     5
420
      255
176
     1
290
     0
176
     1
 90
       50
176
     1
 90
       50
176
     1
 90
       50
176
     1
290
     0
176
     1
 90
       50
176
     1
 62
   256
176
     0
 40
1.0
176
     0
 90
        2
176
     1
  1
strokes_ogs.tif
176
     1
290
     0
176
     1
 40
1.0
176
     1
 40
1.0
176
     1
  0
VISUALSTYLE
  5
3B
102
{ACAD_REACTORS
330
2A
102
}
330
2A
100
AcDbVisualStyle
  2
JitterOff
 70
    20
177
     3
291
     1
 70
    58
 90
        2
176
     0
 90
        2
176
     0
 90
        0
176
     0
 90
        0
176
     0
 40
0.6
176
     0
 40
30.0
176
     0
 62
     7
420
 16777215
176
     0
 90
        1
176
     0
 90
        4
176
     0
 62
     7
176
     0
 62
   257
176
     0
 90
        1
176
     0
 90
        1
176
     0
 40
1.0
176
     0
 90
       10
176
     2
 62
     7
176
     0
 40
1.0
176
     0
 90
        1
176
     0
 90
        6
176
     0
 90
        2
176
     0
 62
     7
176
     0
 90
        5
176
     0
 90
        0
176
     0
 90
        0
176
     0
290
     0
176
     0
 90
        1
176
     0
 40
0.0
176
     0
 90
        0
176
     0
290
     0
176
     0
290
     1
176
     0
290
     1
176
     0
290
     0
176
     0
290
     0
176
     0
290
     0
176
     0
290
     0
176
     0
290
     0
176
     0
290
     0
176
     0
 90
       50
176
     0
 40
0.0
176
     0
 40
1.0
176
     0
 90
        0
176
     0
 62
    18
420
        0
176
     0
 90
       50
176
     0
 90
        3
176
     0
 62
     5
420
      255
176
     0
290
     0
176
     0
 90
       50
176
     0
 90
       50
176
     0
 90
       50
176
     0
290
     0
176
     0
 90
       50
176
     0
 62
   256
176
     0
 40
1.0
176
     0
 90
        2
176
     0
  1
strokes_ogs.tif
176
     0
290
     0
176
     0
 40
1.0
176
     0
 40
1.0
176
     0
  0
VISUALSTYLE
  5
38
102
{ACAD_REACTORS
330
2A
102
}
330
2A
100
AcDbVisualStyle
  2
Linepattern
 70
    14
177
     3
291
     1
 70
    58
 90
        2
176
     1
 90
        2
176
     1
 90
        0
176
     1
 90
        0
176
     1
 40
0.6
176
     1
 40
30.0
176
     1
 62
     7
420
 16777215
176
     1
 90
        1
176
     1
 90
        4
176
     1
 62
     7
176
     1
 62
   257
176
     1
 90
        7
176
     1
 90
        7
176
     1
 40
1.0
176
     1
 90
        8
176
     1
 62
     7
176
     1
 40
1.0
176
     1
 90
        1
176
     1
 90
        6
176
     1
 90
        2
176
     1
 62
     7
176
     1
 90
        5
176
     1
 90
        0
176
     1
 90
        0
176
     1
290
     0
176
     1
 90
        1
176
     1
 40
0.0
176
     1
 90
        0
176
     1
290
     0
176
     1
290
     1
176
     1
290
     1
176
     1
290
     0
176
     1
290
     0
176
     1
290
     0
176
     1
290
     0
176
     1
290
     0
176
     1
290
     0
176
     1
 90
       50
176
     1
 40
0.0
176
     1
 40
1.0
176
     1
 90
        0
176
     1
 62
    18
420
        0
176
     1
 90
       50
176
     1
 90
        3
176
     1
 62
     5
420
      255
176
     1
290
     0
176
     1
 90
       50
176
     1
 90
       50
176
     1
 90
       50
176
     1
290
     0
176
     1
 90
       50
176
     1
 62
   256
176
     0
 40
1.0
176
     0
 90
        2
176
     1
  1
strokes_ogs.tif
176
     1
290
     0
176
     1
 40
1.0
176
     1
 40
1.0
176
     1
  0
VISUALSTYLE
  5
3C
102
{ACAD_REACTORS
330
2A
102
}
330
2A
100
AcDbVisualStyle
  2
OverhangOff
 70
    21
177
     3
291
     1
 70
    58
 90
        2
176
     0
 90
        2
176
     0
 90
        0
176
     0
 90
        0
176
     0
 40
0.6
176
     0
 40
30.0
176
     0
 62
     7
420
 16777215
176
     0
 90
        1
176
     0
 90
        4
176
     0
 62
     7
176
     0
 62
   257
176
     0
 90
        1
176
     0
 90
        1
176
     0
 40
1.0
176
     0
 90
        9
176
     2
 62
     7
176
     0
 40
1.0
176
     0
 90
        1
176
     0
 90
        6
176
     0
 90
        2
176
     0
 62
     7
176
     0
 90
        5
176
     0
 90
        0
176
     0
 90
        0
176
     0
290
     0
176
     0
 90
        1
176
     0
 40
0.0
176
     0
 90
        0
176
     0
290
     0
176
     0
290
     1
176
     0
290
     1
176
     0
290
     0
176
     0
290
     0
176
     0
290
     0
176
     0
290
     0
176
     0
290
     0
176
     0
290
     0
176
     0
 90
       50
176
     0
 40
0.0
176
     0
 40
1.0
176
     0
 90
        0
176
     0
 62
    18
420
        0
176
     0
 90
       50
176
     0
 90
        3
176
     0
 62
     5
420
      255
176
     0
290
     0
176
     0
 90
       50
176
     0
 90
       50
176
     0
 90
       50
176
     0
290
     0
176
     0
 90
       50
176
     0
 62
   256
176
     0
 40
1.0
176
     0
 90
        2
176
     0
  1
strokes_ogs.tif
176
     0
290
     0
176
     0
 40
1.0
176
     0
 40
1.0
176
     0
  0
VISUALSTYLE
  5
33
102
{ACAD_REACTORS
330
2A
102
}
330
2A
100
AcDbVisualStyle
  2
Realistic
 70
     8
177
     3
291
     0
 70
    58
 90
        2
176
     1
 90
        3
176
     1
 90
        0
176
     1
 90
        2
176
     1
 40
0.6
176
     1
 40
30.0
176
     1
 62
     7
420
 16777215
176
     1
 90
        0
176
     1
 90
        0
176
     1
 62
     7
176
     1
 62
   257
176
     1
 90
        1
176
     1
 90
        1
176
     1
 40
1.0
176
     1
 90
        8
176
     1
 62
   257
176
     1
 40
1.0
176
     1
 90
        1
176
     1
 90
        6
176
     1
 90
        2
176
     1
 62
     7
176
     1
 90
        3
176
     1
 90
        0
176
     1
 90
        0
176
     1
290
     0
176
     1
 90
       13
176
     1
 40
0.0
176
     1
 90
        0
176
     1
290
     0
176
     1
290
     1
176
     1
290
     1
176
     1
290
     0
176
     1
290
     0
176
     1
290
     0
176
     1
290
     0
176
     1
290
     0
176
     1
290
     0
176
     1
 90
       50
176
     1
 40
0.0
176
     1
 40
1.0
176
     1
 90
        0
176
     1
 62
    18
420
        0
176
     1
 90
       50
176
     1
 90
        3
176
     1
 62
     5
420
      255
176
     1
290
     0
176
     1
 90
       50
176
     1
 90
       50
176
     1
 90
       50
176
     1
290
     0
176
     1
 90
       50
176
     1
 62
   256
176
     0
 40
1.0
176
     0
 90
        2
176
     1
  1
strokes_ogs.tif
176
     1
290
     0
176
     1
 40
1.0
176
     1
 40
1.0
176
     1
  0
VISUALSTYLE
  5
42
102
{ACAD_REACTORS
330
2A
102
}
330
2A
100
AcDbVisualStyle
  2
Shaded
 70
    27
177
     3
291
     0
 70
    58
 90
        2
176
     1
 90
        2
176
     1
 90
        1
176
     1
 90
        2
176
     1
 40
0.6
176
     1
 40
30.0
176
     1
 62
     7
420
 16777215
176
     1
 90
        0
176
     1
 90
        4
176
     1
 62
     7
176
     1
 62
   257
176
     1
 90
        1
176
     1
 90
        1
176
     1
 40
1.0
176
     1
 90
        8
176
     1
 62
   257
176
     1
 40
1.0
176
     1
 90
        1
176
     1
 90
        6
176
     1
 90
        2
176
     1
 62
     8
420
  7895160
176
     1
 90
        3
176
     1
 90
        0
176
     1
 90
        0
176
     1
290
     0
176
     1
 90
        5
176
     1
 40
0.0
176
     1
 90
        0
176
     1
290
     0
176
     1
290
     1
176
     1
290
     1
176
     1
290
     0
176
     1
290
     0
176
     1
290
     0
176
     1
290
     0
176
     1
290
     0
176
     1
290
     0
176
     1
 90
       50
176
     1
 40
0.0
176
     1
 40
1.0
176
     1
 90
        0
176
     1
 62
    18
420
        0
176
     1
 90
       50
176
     1
 90
        3
176
     1
 62
     5
420
      255
176
     1
290
     0
176
     1
 90
       50
176
     1
 90
       50
176
     1
 90
       50
176
     1
290
     0
176
     1
 90
       50
176
     1
 62
   256
176
     0
 40
1.0
176
     0
 90
        2
176
     1
  1
strokes_ogs.tif
176
     1
290
     0
176
     1
 40
1.0
176
     1
 40
1.0
176
     1
  0
VISUALSTYLE
  5
41
102
{ACAD_REACTORS
330
2A
102
}
330
2A
100
AcDbVisualStyle
  2
Shaded with edges
 70
    26
177
     3
291
     0
 70
    58
 90
        2
176
     1
 90
        2
176
     1
 90
        1
176
     1
 90
        2
176
     1
 40
0.6
176
     1
 40
30.0
176
     1
 62
     7
420
 16777215
176
     1
 90
        1
176
     1
 90
       10
176
     1
 62
     7
176
     1
 62
   257
176
     1
 90
        2
176
     1
 90
        1
176
     1
 40
1.0
176
     1
 90
        8
176
     1
 62
   257
176
     1
 40
1.0
176
     1
 90
        1
176
     1
 90
        6
176
     1
 90
        2
176
     1
 62
     7
176
     1
 90
        3
176
     1
 90
        0
176
     1
 90
        0
176
     1
290
     0
176
     1
 90
        5
176
     1
 40
0.0
176
     1
 90
        0
176
     1
290
     0
176
     1
290
     1
176
     1
290
     1
176
     1
290
     0
176
     1
290
     0
176
     1
290
     0
176
     1
290
     0
176
     1
290
     0
176
     1
290
     0
176
     1
 90
       50
176
     1
 40
0.0
176
     1
 40
1.0
176
     1
 90
        0
176
     1
 62
    18
420
        0
176
     1
 90
       50
176
     1
 90
        3
176
     1
 62
     5
420
      255
176
     1
290
     0
176
     1
 90
       50
176
     1
 90
       50
176
     1
 90
       50
176
     1
290
     0
176
     1
 90
       50
176
     1
 62
   256
176
     0
 40
1.0
176
     0
 90
        2
176
     1
  1
strokes_ogs.tif
176
     1
290
     0
176
     1
 40
1.0
176
     1
 40
1.0
176
     1
  0
VISUALSTYLE
  5
3E
102
{ACAD_REACTORS
330
2A
102
}
330
2A
100
AcDbVisualStyle
  2
Shades of Gray
 70
    23
177
     3
291
     0
 70
    58
 90
        2
176
     1
 90
        2
176
     1
 90
        3
176
     1
 90
        0
176
     1
 40
0.6
176
     1
 40
30.0
176
     1
 62
     7
420
 16777215
176
     1
 90
        2
176
     1
 90
        2
176
     1
 62
     7
176
     1
 62
     7
176
     1
 90
        1
176
     1
 90
        1
176
     1
 40
40.0
176
     1
 90
        8
176
     1
 62
     7
176
     1
 40
1.0
176
     1
 90
        1
176
     1
 90
        6
176
     1
 90
        2
176
     1
 62
     7
176
     1
 90
        3
176
     1
 90
        0
176
     1
 90
        0
176
     1
290
     0
176
     1
 90
        1
176
     1
 40
0.0
176
     1
 90
        0
176
     1
290
     0
176
     1
290
     1
176
     1
290
     1
176
     1
290
     0
176
     1
290
     0
176
     1
290
     0
176
     1
290
     0
176
     1
290
     0
176
     1
290
     0
176
     1
 90
       50
176
     1
 40
0.0
176
     1
 40
1.0
176
     1
 90
        0
176
     1
 62
    18
420
        0
176
     1
 90
       50
176
     1
 90
        3
176
     1
 62
     5
420
      255
176
     1
290
     0
176
     1
 90
       50
176
     1
 90
       50
176
     1
 90
       50
176
     1
290
     0
176
     1
 90
       50
176
     1
 62
   256
176
     0
 40
1.0
176
     0
 90
        2
176
     1
  1
strokes_ogs.tif
176
     1
290
     0
176
     1
 40
1.0
176
     1
 40
1.0
176
     1
  0
VISUALSTYLE
  5
3F
102
{ACAD_REACTORS
330
2A
102
}
330
2A
100
AcDbVisualStyle
  2
Sketchy
 70
    24
177
     3
291
     0
 70
    58
 90
        1
176
     1
 90
        2
176
     1
 90
        2
176
     1
 90
        0
176
     1
 40
0.6
176
     1
 40
30.0
176
     1
 62
     7
420
 16777215
176
     1
 90
        2
176
     1
 90
        2
176
     1
 62
     7
176
     1
 62
     7
176
     1
 90
        1
176
     1
 90
        1
176
     1
 40
40.0
176
     1
 90
       11
176
     1
 62
     7
176
     1
 40
1.0
176
     1
 90
        1
176
     1
 90
        6
176
     1
 90
        2
176
     1
 62
     7
176
     1
 90
        6
176
     1
 90
        0
176
     1
 90
        0
176
     1
290
     0
176
     1
 90
        1
176
     1
 40
0.0
176
     1
 90
        0
176
     1
290
     0
176
     1
290
     1
176
     1
290
     1
176
     1
290
     0
176
     1
290
     0
176
     1
290
     0
176
     1
290
     0
176
     1
290
     0
176
     1
290
     0
176
     1
 90
       50
176
     1
 40
0.0
176
     1
 40
1.0
176
     1
 90
        0
176
     1
 62
    18
420
        0
176
     1
 90
       50
176
     1
 90
        3
176
     1
 62
     5
420
      255
176
     1
290
     0
176
     1
 90
       50
176
     1
 90
       50
176
     1
 90
       50
176
     1
290
     0
176
     1
 90
       50
176
     1
 62
   256
176
     0
 40
1.0
176
     0
 90
        2
176
     1
  1
strokes_ogs.tif
176
     1
290
     0
176
     1
 40
1.0
176
     1
 40
1.0
176
     1
  0
VISUALSTYLE
  5
37
102
{ACAD_REACTORS
330
2A
102
}
330
2A
100
AcDbVisualStyle
  2
Thicken
 70
    13
177
     3
291
     1
 70
    58
 90
        2
176
     1
 90
        2
176
     1
 90
        0
176
     1
 90
        0
176
     1
 40
0.6
176
     1
 40
30.0
176
     1
 62
     7
420
 16777215
176
     1
 90
        1
176
     1
 90
        4
176
     1
 62
     7
176
     1
 62
   257
176
     1
 90
        1
176
     1
 90
        1
176
     1
 40
1.0
176
     1
 90
       12
176
     1
 62
     7
176
     1
 40
1.0
176
     1
 90
        1
176
     1
 90
        6
176
     1
 90
        2
176
     1
 62
     7
176
     1
 90
        5
176
     1
 90
        0
176
     1
 90
        0
176
     1
290
     0
176
     1
 90
        1
176
     1
 40
0.0
176
     1
 90
        0
176
     1
290
     0
176
     1
290
     1
176
     1
290
     1
176
     1
290
     0
176
     1
290
     0
176
     1
290
     0
176
     1
290
     0
176
     1
290
     0
176
     1
290
     0
176
     1
 90
       50
176
     1
 40
0.0
176
     1
 40
1.0
176
     1
 90
        0
176
     1
 62
    18
420
        0
176
     1
 90
       50
176
     1
 90
        3
176
     1
 62
     5
420
      255
176
     1
290
     0
176
     1
 90
       50
176
     1
 90
       50
176
     1
 90
       50
176
     1
290
     0
176
     1
 90
       50
176
     1
 62
   256
176
     0
 40
1.0
176
     0
 90
        2
176
     1
  1
strokes_ogs.tif
176
     1
290
     0
176
     1
 40
1.0
176
     1
 40
1.0
176
     1
  0
VISUALSTYLE
  5
30
102
{ACAD_REACTORS
330
2A
102
}
330
2A
100
AcDbVisualStyle
  2
Wireframe
 70
     5
177
     3
291
     0
 70
    58
 90
        0
176
     1
 90
        2
176
     1
 90
        0
176
     1
 90
        0
176
     1
 40
0.6
176
     1
 40
30.0
176
     1
 62
     7
420
 16777215
176
     1
 90
        1
176
     1
 90
        4
176
     1
 62
     7
176
     1
 62
   257
176
     1
 90
        1
176
     1
 90
        1
176
     1
 40
1.0
176
     1
 90
        0
176
     1
 62
   257
176
     1
 40
1.0
176
     1
 90
        1
176
     1
 90
        6
176
     1
 90
        2
176
     1
 62
     7
176
     1
 90
        3
176
     1
 90
        0
176
     1
 90
        0
176
     1
290
     0
176
     1
 90
        1
176
     1
 40
0.0
176
     1
 90
        0
176
     1
290
     0
176
     1
290
     1
176
     1
290
     1
176
     1
290
     0
176
     1
290
     0
176
     1
290
     0
176
     1
290
     0
176
     1
290
     0
176
     1
290
     0
176
     1
 90
       50
176
     1
 40
0.0
176
     1
 40
1.0
176
     1
 90
        0
176
     1
 62
    18
420
        0
176
     1
 90
       50
176
     1
 90
        3
176
     1
 62
     5
420
      255
176
     1
290
     0
176
     1
 90
       50
176
     1
 90
       50
176
     1
 90
       50
176
     1
290
     0
176
     1
 90
       50
176
     1
 62
   256
176
     0
 40
1.0
176
     0
 90
        2
176
     1
  1
strokes_ogs.tif
176
     1
290
     0
176
     1
 40
1.0
176
     1
 40
1.0
176
     1
  0
VISUALSTYLE
  5
40
102
{ACAD_REACTORS
330
2A
102
}
330
2A
100
AcDbVisualStyle
  2
X-Ray
 70
    25
177
     3
291
     0
 70
    58
 90
        2
176
     1
 90
        2
176
     1
 90
        1
176
     1
 90
        1
176
     1
 40
0.5
176
     1
 40
30.0
176
     1
 62
     7
420
 16777215
176
     1
 90
        1
176
     1
 90
        0
176
     1
 62
     7
176
     1
 62
   257
176
     1
 90
        1
176
     1
 90
        1
176
     1
 40
1.0
176
     1
 90
        8
176
     1
 62
     7
176
     1
 40
1.0
176
     1
 90
        1
176
     1
 90
        6
176
     1
 90
        2
176
     1
 62
     7
176
     1
 90
        3
176
     1
 90
        0
176
     1
 90
        0
176
     1
290
     0
176
     1
 90
       13
176
     1
 40
0.0
176
     1
 90
        0
176
     1
290
     0
176
     1
290
     1
176
     1
290
     1
176
     1
290
     0
176
     1
290
     0
176
     1
290
     0
176
     1
290
     0
176
     1
290
     0
176
     1
290
     0
176
     1
 90
       50
176
     1
 40
0.0
176
     1
 40
1.0
176
     1
 90
        0
176
     1
 62
    18
420
        0
176
     1
 90
       50
176
     1
 90
        3
176
     1
 62
     5
420
      255
176
     1
290
     0
176
     1
 90
       50
176
     1
 90
       50
176
     1
 90
       50
176
     1
290
     0
176
     1
 90
       50
176
     1
 62
   256
176
     0
 40
1.0
176
     0
 90
        2
176
     1
  1
strokes_ogs.tif
176
     1
290
     0
176
     1
 40
1.0
176
     1
 40
1.0
176
     1
  0
DICTIONARYVAR
  5
219
102
{ACAD_REACTORS
330
218
102
}
330
218
100
DictionaryVariables
280
     0
  1
1:1
  0
DICTIONARYVAR
  5
221
102
{ACAD_REACTORS
330
218
102
}
330
218
100
DictionaryVariables
280
     0
  1
3.500000
  0
DICTIONARYVAR
  5
222
102
{ACAD_REACTORS
330
218
102
}
330
218
100
DictionaryVariables
280
     0
  1
acadiso.lin
  0
DICTIONARYVAR
  5
21E
102
{ACAD_REACTORS
330
218
102
}
330
218
100
DictionaryVariables
280
     0
  1
Standard
  0
DICTIONARYVAR
  5
21D
102
{ACAD_REACTORS
330
218
102
}
330
218
100
DictionaryVariables
280
     0
  1
Standard
  0
DICTIONARY
  5
21A
330
6A
100
AcDbDictionary
280
     1
281
     1
  3
ACAD_ROUNDTRIP_2008_TABLESTYLE_CELLSTYLEMAP
360
21B
  0
CELLSTYLEMAP
  5
21B
102
{ACAD_REACTORS
330
21A
102
}
330
21A
100
AcDbCellStyleMap
 90
        3
300
CELLSTYLE
  1
TABLEFORMAT_BEGIN
 90
        5
170
     1
 91
        0
 92
    32768
 62
   257
 93
        1
300
CONTENTFORMAT
  1
CONTENTFORMAT_BEGIN
 90
        0
 91
        0
 92
        4
 93
        0
300

 40
0.0
140
1.0
 94
        5
 62
     0
340
11
144
6.0
309
CONTENTFORMAT_END
171
     1
301
MARGIN
  1
CELLMARGIN_BEGIN
 40
1.5
 40
1.5
 40
1.5
 40
1.5
 40
1.5
 40
1.5
309
CELLMARGIN_END
 94
        6
 95
        1
302
GRIDFORMAT
  1
GRIDFORMAT_BEGIN
 90
        0
 91
        1
 62
     0
 92
       -2
340
14
 93
        0
 40
0.045
309
GRIDFORMAT_END
 95
        2
302
GRIDFORMAT
  1
GRIDFORMAT_BEGIN
 90
        0
 91
        1
 62
     0
 92
       -2
340
14
 93
        0
 40
0.045
309
GRIDFORMAT_END
 95
        4
302
GRIDFORMAT
  1
GRIDFORMAT_BEGIN
 90
        0
 91
        1
 62
     0
 92
       -2
340
14
 93
        0
 40
0.045
309
GRIDFORMAT_END
 95
        8
302
GRIDFORMAT
  1
GRIDFORMAT_BEGIN
 90
        0
 91
        1
 62
     0
 92
       -2
340
14
 93
        0
 40
0.045
309
GRIDFORMAT_END
 95
       16
302
GRIDFORMAT
  1
GRIDFORMAT_BEGIN
 90
        0
 91
        1
 62
     0
 92
       -2
340
14
 93
        0
 40
0.045
309
GRIDFORMAT_END
 95
       32
302
GRIDFORMAT
  1
GRIDFORMAT_BEGIN
 90
        0
 91
        1
 62
     0
 92
       -2
340
14
 93
        0
 40
0.045
309
GRIDFORMAT_END
309
TABLEFORMAT_END
  1
CELLSTYLE_BEGIN
 90
        1
 91
        1
300
_TITLE
309
CELLSTYLE_END
300
CELLSTYLE
  1
TABLEFORMAT_BEGIN
 90
        5
170
     1
 91
        0
 92
        0
 62
   257
 93
        1
300
CONTENTFORMAT
  1
CONTENTFORMAT_BEGIN
 90
        0
 91
        0
 92
        4
 93
        0
300

 40
0.0
140
1.0
 94
        5
 62
     0
340
11
144
4.5
309
CONTENTFORMAT_END
171
     1
301
MARGIN
  1
CELLMARGIN_BEGIN
 40
1.5
 40
1.5
 40
1.5
 40
1.5
 40
1.5
 40
1.5
309
CELLMARGIN_END
 94
        6
 95
        1
302
GRIDFORMAT
  1
GRIDFORMAT_BEGIN
 90
        0
 91
        1
 62
     0
 92
       -2
340
14
 93
        0
 40
0.045
309
GRIDFORMAT_END
 95
        2
302
GRIDFORMAT
  1
GRIDFORMAT_BEGIN
 90
        0
 91
        1
 62
     0
 92
       -2
340
14
 93
        0
 40
0.045
309
GRIDFORMAT_END
 95
        4
302
GRIDFORMAT
  1
GRIDFORMAT_BEGIN
 90
        0
 91
        1
 62
     0
 92
       -2
340
14
 93
        0
 40
0.045
309
GRIDFORMAT_END
 95
        8
302
GRIDFORMAT
  1
GRIDFORMAT_BEGIN
 90
        0
 91
        1
 62
     0
 92
       -2
340
14
 93
        0
 40
0.045
309
GRIDFORMAT_END
 95
       16
302
GRIDFORMAT
  1
GRIDFORMAT_BEGIN
 90
        0
 91
        1
 62
     0
 92
       -2
340
14
 93
        0
 40
0.045
309
GRIDFORMAT_END
 95
       32
302
GRIDFORMAT
  1
GRIDFORMAT_BEGIN
 90
        0
 91
        1
 62
     0
 92
       -2
340
14
 93
        0
 40
0.045
309
GRIDFORMAT_END
309
TABLEFORMAT_END
  1
CELLSTYLE_BEGIN
 90
        2
 91
        1
300
_HEADER
309
CELLSTYLE_END
300
CELLSTYLE
  1
TABLEFORMAT_BEGIN
 90
        5
170
     1
 91
        0
 92
        0
 62
   257
 93
        1
300
CONTENTFORMAT
  1
CONTENTFORMAT_BEGIN
 90
        0
 91
        0
 92
        4
 93
        0
300

 40
0.0
140
1.0
 94
        2
 62
     0
340
11
144
4.5
309
CONTENTFORMAT_END
171
     1
301
MARGIN
  1
CELLMARGIN_BEGIN
 40
1.5
 40
1.5
 40
1.5
 40
1.5
 40
1.5
 40
1.5
309
CELLMARGIN_END
 94
        6
 95
        1
302
GRIDFORMAT
  1
GRIDFORMAT_BEGIN
 90
        0
 91
        1
 62
     0
 92
       -2
340
14
 93
        0
 40
0.045
309
GRIDFORMAT_END
 95
        2
302
GRIDFORMAT
  1
GRIDFORMAT_BEGIN
 90
        0
 91
        1
 62
     0
 92
       -2
340
14
 93
        0
 40
0.045
309
GRIDFORMAT_END
 95
        4
302
GRIDFORMAT
  1
GRIDFORMAT_BEGIN
 90
        0
 91
        1
 62
     0
 92
       -2
340
14
 93
        0
 40
0.045
309
GRIDFORMAT_END
 95
        8
302
GRIDFORMAT
  1
GRIDFORMAT_BEGIN
 90
        0
 91
        1
 62
     0
 92
       -2
340
14
 93
        0
 40
0.045
309
GRIDFORMAT_END
 95
       16
302
GRIDFORMAT
  1
GRIDFORMAT_BEGIN
 90
        0
 91
        1
 62
     0
 92
       -2
340
14
 93
        0
 40
0.045
309
GRIDFORMAT_END
 95
       32
302
GRIDFORMAT
  1
GRIDFORMAT_BEGIN
 90
        0
 91
        1
 62
     0
 92
       -2
340
14
 93
        0
 40
0.045
309
GRIDFORMAT_END
309
TABLEFORMAT_END
  1
CELLSTYLE_BEGIN
 90
        3
 91
        2
300
_DATA
309
CELLSTYLE_END
  0
ENDSEC
  0
EOF
