  0
SECTION
  2
HEADER
  9
$ACADVER
  1
AC1015
  9
$ACADMAINTVER
 70
     6
  9
$DWGCODEPAGE
  3
ANSI_1252
  9
$INSBASE
 10
0.0
 20
0.0
 30
0.0
  9
$EXTMIN
 10
0.0
 20
0.0
 30
0.0
  9
$EXTMAX
 10
420.0
 20
297.0
 30
0.0
  9
$LIMMIN
 10
0.0
 20
0.0
  9
$LIMMAX
 10
420.0
 20
297.0
  9
$ORTHOMODE
 70
     0
  9
$REGENMODE
 70
     1
  9
$FILLMODE
 70
     1
  9
$QTEXTMODE
 70
     0
  9
$MIRRTEXT
 70
     1
  9
$LTSCALE
 40
1.0
  9
$ATTMODE
 70
     1
  9
$TEXTSIZE
 40
3.5
  9
$TRACEWID
 40
1.0
  9
$TEXTSTYLE
  7
Standard
  9
$CLAYER
  8
0
  9
$CELTYPE
  6
ByLayer
  9
$CECOLOR
 62
   256
  9
$CELTSCALE
 40
1.0
  9
$DISPSILH
 70
     0
  9
$DIMSCALE
 40
1.0
  9
$DIMASZ
 40
6.0
  9
$DIMEXO
 40
1.0
  9
$DIMDLI
 40
3.75
  9
$DIMRND
 40
0.0
  9
$DIMDLE
 40
0.0
  9
$DIMEXE
 40
1.0
  9
$DIMTP
 40
0.0
  9
$DIMTM
 40
0.0
  9
$DIMTXT
 40
3.5
  9
$DIMCEN
 40
2.5
  9
$DIMTSZ
 40
0.0
  9
$DIMTOL
 70
     0
  9
$DIMLIM
 70
     0
  9
$DIMTIH
 70
     1
  9
$DIMTOH
 70
     1
  9
$DIMSE1
 70
     0
  9
$DIMSE2
 70
     0
  9
$DIMTAD
 70
     1
  9
$DIMZIN
 70
     0
  9
$DIMBLK
  1

  9
$DIMASO
 70
     1
  9
$DIMSHO
 70
     1
  9
$DIMPOST
  1

  9
$DIMAPOST
  1

  9
$DIMALT
 70
     0
  9
$DIMALTD
 70
     3
  9
$DIMALTF
 40
0.0393700787
  9
$DIMLFAC
 40
1.0
  9
$DIMTOFL
 70
     1
  9
$DIMTVP
 40
0.0
  9
$DIMTIX
 70
     0
  9
$DIMSOXD
 70
     0
  9
$DIMSAH
 70
     0
  9
$DIMBLK1
  1

  9
$DIMBLK2
  1

  9
$DIMSTYLE
  2
ISO-25
  9
$DIMCLRD
 70
     0
  9
$DIMCLRE
 70
     0
  9
$DIMCLRT
 70
     0
  9
$DIMTFAC
 40
1.0
  9
$DIMGAP
 40
1.524
  9
$DIMJUST
 70
     0
  9
$DIMSD1
 70
     0
  9
$DIMSD2
 70
     0
  9
$DIMTOLJ
 70
     0
  9
$DIMTZIN
 70
     0
  9
$DIMALTZ
 70
     0
  9
$DIMALTTZ
 70
     0
  9
$DIMUPT
 70
     0
  9
$DIMDEC
 70
     2
  9
$DIMTDEC
 70
     2
  9
$DIMALTU
 70
     2
  9
$DIMALTTD
 70
     3
  9
$DIMTXSTY
  7
Standard
  9
$DIMAUNIT
 70
     0
  9
$DIMADEC
 70
     2
  9
$DIMALTRND
 40
0.0
  9
$DIMAZIN
 70
     0
  9
$DIMDSEP
 70
    44
  9
$DIMATFIT
 70
     3
  9
$DIMFRAC
 70
     0
  9
$DIMLDRBLK
  1

  9
$DIMLUNIT
 70
     2
  9
$DIMLWD
 70
    -2
  9
$DIMLWE
 70
    -2
  9
$DIMTMOVE
 70
     0
  9
$LUNITS
 70
     2
  9
$LUPREC
 70
     2
  9
$SKETCHINC
 40
1.0
  9
$FILLETRAD
 40
10.0
  9
$AUNITS
 70
     0
  9
$AUPREC
 70
     2
  9
$MENU
  1
.
  9
$ELEVATION
 40
0.0
  9
$PELEVATION
 40
0.0
  9
$THICKNESS
 40
0.0
  9
$LIMCHECK
 70
     0
  9
$CHAMFERA
 40
10.0
  9
$CHAMFERB
 40
10.0
  9
$CHAMFERC
 40
20.0
  9
$CHAMFERD
 40
0.0
  9
$SKPOLY
 70
     0
  9
$TDCREATE
 40
2456111.639662199
  9
$TDUCREATE
 40
2456111.556328866
  9
$TDUPDATE
 40
2456111.639662211
  9
$TDUUPDATE
 40
2456111.556328877
  9
$TDINDWG
 40
0.0000000116
  9
$TDUSRTIMER
 40
0.0000000116
  9
$USRTIMER
 70
     1
  9
$ANGBASE
 50
0.0
  9
$ANGDIR
 70
     0
  9
$PDMODE
 70
     0
  9
$PDSIZE
 40
-1.0
  9
$PLINEWID
 40
0.0
  9
$SPLFRAME
 70
     0
  9
$SPLINETYPE
 70
     6
  9
$SPLINESEGS
 70
     8
  9
$HANDSEED
  5
254
  9
$SURFTAB1
 70
     6
  9
$SURFTAB2
 70
     6
  9
$SURFTYPE
 70
     6
  9
$SURFU
 70
     6
  9
$SURFV
 70
     6
  9
$UCSBASE
  2

  9
$UCSNAME
  2

  9
$UCSORG
 10
0.0
 20
0.0
 30
0.0
  9
$UCSXDIR
 10
1.0
 20
0.0
 30
0.0
  9
$UCSYDIR
 10
0.0
 20
1.0
 30
0.0
  9
$UCSORTHOREF
  2

  9
$UCSORTHOVIEW
 70
     0
  9
$UCSORGTOP
 10
0.0
 20
0.0
 30
0.0
  9
$UCSORGBOTTOM
 10
0.0
 20
0.0
 30
0.0
  9
$UCSORGLEFT
 10
0.0
 20
0.0
 30
0.0
  9
$UCSORGRIGHT
 10
0.0
 20
0.0
 30
0.0
  9
$UCSORGFRONT
 10
0.0
 20
0.0
 30
0.0
  9
$UCSORGBACK
 10
0.0
 20
0.0
 30
0.0
  9
$PUCSBASE
  2

  9
$PUCSNAME
  2

  9
$PUCSORG
 10
0.0
 20
0.0
 30
0.0
  9
$PUCSXDIR
 10
1.0
 20
0.0
 30
0.0
  9
$PUCSYDIR
 10
0.0
 20
1.0
 30
0.0
  9
$PUCSORTHOREF
  2

  9
$PUCSORTHOVIEW
 70
     0
  9
$PUCSORGTOP
 10
0.0
 20
0.0
 30
0.0
  9
$PUCSORGBOTTOM
 10
0.0
 20
0.0
 30
0.0
  9
$PUCSORGLEFT
 10
0.0
 20
0.0
 30
0.0
  9
$PUCSORGRIGHT
 10
0.0
 20
0.0
 30
0.0
  9
$PUCSORGFRONT
 10
0.0
 20
0.0
 30
0.0
  9
$PUCSORGBACK
 10
0.0
 20
0.0
 30
0.0
  9
$USERI1
 70
     0
  9
$USERI2
 70
     0
  9
$USERI3
 70
     0
  9
$USERI4
 70
     0
  9
$USERI5
 70
     0
  9
$USERR1
 40
0.0
  9
$USERR2
 40
0.0
  9
$USERR3
 40
0.0
  9
$USERR4
 40
0.0
  9
$USERR5
 40
0.0
  9
$WORLDVIEW
 70
     1
  9
$SHADEDGE
 70
     3
  9
$SHADEDIF
 70
    70
  9
$TILEMODE
 70
     1
  9
$MAXACTVP
 70
    64
  9
$PINSBASE
 10
0.0
 20
0.0
 30
0.0
  9
$PLIMCHECK
 70
     0
  9
$PEXTMIN
 10
1.0000000000E+20
 20
1.0000000000E+20
 30
1.0000000000E+20
  9
$PEXTMAX
 10
-1.0000000000E+20
 20
-1.0000000000E+20
 30
-1.0000000000E+20
  9
$PLIMMIN
 10
0.0
 20
0.0
  9
$PLIMMAX
 10
420.0
 20
297.0
  9
$UNITMODE
 70
     0
  9
$VISRETAIN
 70
     1
  9
$PLINEGEN
 70
     0
  9
$PSLTSCALE
 70
     1
  9
$TREEDEPTH
 70
  3020
  9
$CMLSTYLE
  2
Standard
  9
$CMLJUST
 70
     0
  9
$CMLSCALE
 40
20.0
  9
$PROXYGRAPHICS
 70
     1
  9
$MEASUREMENT
 70
     1
  9
$CELWEIGHT
370
    -1
  9
$ENDCAPS
280
     0
  9
$JOINSTYLE
280
     0
  9
$LWDISPLAY
290
     1
  9
$INSUNITS
 70
     4
  9
$HYPERLINKBASE
  1

  9
$STYLESHEET
  1

  9
$XEDIT
290
     1
  9
$CEPSNTYPE
380
     0
  9
$PSTYLEMODE
290
     1
  9
$FINGERPRINTGUID
  2
{51459A93-EDB0-4009-A2EA-5E0F1485FD31}
  9
$VERSIONGUID
  2
{FAEB1C32-E019-11D5-929B-00C0DF256EC4}
  9
$EXTNAMES
290
     1
  9
$PSVPSCALE
 40
0.0
  9
$OLESTARTUP
290
     0
  0
ENDSEC
  0
SECTION
  2
CLASSES
  0
CLASS
  1
ACDBDICTIONARYWDFLT
  2
AcDbDictionaryWithDefault
  3
ObjectDBX Classes
 90
        0
280
     0
281
     0
  0
CLASS
  1
VISUALSTYLE
  2
AcDbVisualStyle
  3
ObjectDBX Classes
 90
     4095
280
     0
281
     0
  0
CLASS
  1
MATERIAL
  2
AcDbMaterial
  3
ObjectDBX Classes
 90
     1153
280
     0
281
     0
  0
CLASS
  1
ACDBPLACEHOLDER
  2
AcDbPlaceHolder
  3
ObjectDBX Classes
 90
        0
280
     0
281
     0
  0
CLASS
  1
LAYOUT
  2
AcDbLayout
  3
ObjectDBX Classes
 90
        0
280
     0
281
     0
  0
ENDSEC
  0
SECTION
  2
TABLES
  0
TABLE
  2
VPORT
  5
8
330
0
100
AcDbSymbolTable
 70
     1
  0
VPORT
  5
29
330
8
100
AcDbSymbolTableRecord
100
AcDbViewportTableRecord
  2
*Active
 70
     0
 10
0.0
 20
0.0
 11
1.0
 21
1.0
 12
210.0
 22
148.5
 13
0.0
 23
0.0
 14
10.0
 24
10.0
 15
10.0
 25
10.0
 16
0.0
 26
0.0
 36
1.0
 17
0.0
 27
0.0
 37
0.0
 40
297.0
 41
1.4141414141
 42
50.0
 43
0.0
 44
0.0
 50
0.0
 51
0.0
 71
     0
 72
  2000
 73
     1
 74
     3
 75
     0
 76
     0
 77
     0
 78
     0
281
     0
 65
     1
110
0.0
120
0.0
130
0.0
111
1.0
121
0.0
131
0.0
112
0.0
122
1.0
132
0.0
 79
     0
146
0.0
  0
ENDTAB
  0
TABLE
  2
LTYPE
  5
5
330
0
100
AcDbSymbolTable
 70
     6
  0
LTYPE
  5
14
330
5
100
AcDbSymbolTableRecord
100
AcDbLinetypeTableRecord
  2
ByBlock
 70
     0
  3

 72
    65
 73
     0
 40
0.0
  0
LTYPE
  5
15
330
5
100
AcDbSymbolTableRecord
100
AcDbLinetypeTableRecord
  2
ByLayer
 70
     0
  3

 72
    65
 73
     0
 40
0.0
  0
LTYPE
  5
16
330
5
100
AcDbSymbolTableRecord
100
AcDbLinetypeTableRecord
  2
Continuous
 70
     0
  3
Solid line
 72
    65
 73
     0
 40
0.0
  0
LTYPE
  5
3F
330
5
100
AcDbSymbolTableRecord
100
AcDbLinetypeTableRecord
  2
HIDDEN
 70
     0
  3
Hidden __ __ __ __ __ __ __ __ __ __ __ __ __ __
 72
    65
 73
     2
 40
1.905
 49
1.27
 74
     0
 49
-0.635
 74
     0
  0
LTYPE
  5
40
330
5
100
AcDbSymbolTableRecord
100
AcDbLinetypeTableRecord
  2
PHANTOM
 70
     0
  3
Phantom ______  __  __  ______  __  __  ______
 72
    65
 73
     6
 40
12.7
 49
6.35
 74
     0
 49
-1.27
 74
     0
 49
1.27
 74
     0
 49
-1.27
 74
     0
 49
1.27
 74
     0
 49
-1.27
 74
     0
  0
LTYPE
  5
41
330
5
100
AcDbSymbolTableRecord
100
AcDbLinetypeTableRecord
  2
CENTER
 70
     0
  3
Center ____ _ ____ _ ____ _ ____ _ ____ _ ____
 72
    65
 73
     4
 40
10.16
 49
6.35
 74
     0
 49
-1.27
 74
     0
 49
1.27
 74
     0
 49
-1.27
 74
     0
  0
LTYPE
  5
42
330
5
100
AcDbSymbolTableRecord
100
AcDbLinetypeTableRecord
  2
CENTERX2
 70
     0
  3
Center (2x) ________  __  ________  __  _____
 72
    65
 73
     4
 40
20.32
 49
12.7
 74
     0
 49
-2.54
 74
     0
 49
2.54
 74
     0
 49
-2.54
 74
     0
  0
LTYPE
  5
43
330
5
100
AcDbSymbolTableRecord
100
AcDbLinetypeTableRecord
  2
DOT2
 70
     0
  3
Dot (.5x) ........................................
 72
    65
 73
     2
 40
0.635
 49
0.0
 74
     0
 49
-0.635
 74
     0
  0
ENDTAB
  0
TABLE
  2
LAYER
  5
2
330
0
100
AcDbSymbolTable
 70
     5
  0
LAYER
  5
10
330
2
100
AcDbSymbolTableRecord
100
AcDbLayerTableRecord
  2
0
 70
     0
 62
     7
  6
Continuous
370
    -3
390
F
  0
LAYER
  5
44
330
2
100
AcDbSymbolTableRecord
100
AcDbLayerTableRecord
  2
VORLAGE
 70
     0
 62
    -1
  6
Continuous
370
    -3
390
F
  0
LAYER
  5
45
330
2
100
AcDbSymbolTableRecord
100
AcDbLayerTableRecord
  2
RAHMEN
 70
     0
 62
   179
  6
Continuous
370
    -3
390
F
  0
LAYER
  5
46
330
2
100
AcDbSymbolTableRecord
100
AcDbLayerTableRecord
  2
KOPF
 70
     0
 62
     7
  6
Continuous
370
    -3
390
F
  0
LAYER
  5
47
330
2
100
AcDbSymbolTableRecord
100
AcDbLayerTableRecord
  2
TEMP
 70
     0
 62
    -7
  6
Continuous
370
    -3
390
F
  0
ENDTAB
  0
TABLE
  2
STYLE
  5
3
330
0
100
AcDbSymbolTable
 70
     2
  0
STYLE
  5
11
330
3
100
AcDbSymbolTableRecord
100
AcDbTextStyleTableRecord
  2
Standard
 70
     0
 40
0.0
 41
1.0
 50
0.0
 71
     0
 42
2.5
  3
txt
  4

  0
STYLE
  5
1C1
330
3
100
AcDbSymbolTableRecord
100
AcDbTextStyleTableRecord
  2
SLDTEXTSTYLE0
 70
     0
 40
0.0
 41
0.75
 50
0.0
 71
     0
 42
0.2
  3
TXT
  4

  0
ENDTAB
  0
TABLE
  2
VIEW
  5
6
330
0
100
AcDbSymbolTable
 70
     0
  0
ENDTAB
  0
TABLE
  2
UCS
  5
7
330
0
100
AcDbSymbolTable
 70
     0
  0
ENDTAB
  0
TABLE
  2
APPID
  5
9
330
0
100
AcDbSymbolTable
 70
     1
  0
APPID
  5
12
330
9
100
AcDbSymbolTableRecord
100
AcDbRegAppTableRecord
  2
ACAD
 70
     0
  0
ENDTAB
  0
TABLE
  2
DIMSTYLE
  5
A
330
0
100
AcDbSymbolTable
 70
     3
100
AcDbDimStyleTable
  0
DIMSTYLE
105
27
330
A
100
AcDbSymbolTableRecord
100
AcDbDimStyleTableRecord
  2
ISO-25
 70
     0
 41
2.5
 42
0.625
 43
3.75
 44
1.25
 73
     0
 74
     0
 77
     1
 78
     8
140
2.5
141
2.5
143
0.0393700787
147
0.625
171
     3
172
     1
178
     0
271
     2
272
     2
274
     3
278
    44
283
     0
284
     8
340
11
  0
DIMSTYLE
105
1C2
102
{ACAD_REACTORS
330
1C0
330
22A
330
236
102
}
330
A
100
AcDbSymbolTableRecord
100
AcDbDimStyleTableRecord
  2
SLDDIMSTYLE0
 70
     0
 41
6.0
 44
0.0
 45
0.000000001
 73
     0
 74
     0
 77
     1
 78
    12
 79
     3
140
3.5
147
0.875
173
     1
178
     0
271
     0
272
     0
276
     2
284
    12
340
1C1
  0
DIMSTYLE
105
243
102
{ACAD_REACTORS
330
242
102
}
330
A
100
AcDbSymbolTableRecord
100
AcDbDimStyleTableRecord
  2
SLDDIMSTYLE1
 70
     0
 41
6.0
 44
0.0
 45
0.000000001
 73
     0
 74
     0
 77
     1
 78
    12
 79
     3
140
3.5
147
0.875
172
     1
173
     1
178
     0
271
     0
272
     0
276
     2
284
    12
289
     0
340
1C1
  0
ENDTAB
  0
TABLE
  2
BLOCK_RECORD
  5
1
330
0
100
AcDbSymbolTable
 70
     6
  0
BLOCK_RECORD
  5
1F
330
1
100
AcDbSymbolTableRecord
100
AcDbBlockTableRecord
  2
*Model_Space
340
22
  0
BLOCK_RECORD
  5
1B
330
1
100
AcDbSymbolTableRecord
100
AcDbBlockTableRecord
  2
*Paper_Space
340
1E
  0
BLOCK_RECORD
  5
23
330
1
100
AcDbSymbolTableRecord
100
AcDbBlockTableRecord
  2
*Paper_Space0
340
26
  0
BLOCK_RECORD
  5
48
330
1
100
AcDbSymbolTableRecord
100
AcDbBlockTableRecord
  2
Logo_Boag
340
0
  0
BLOCK_RECORD
  5
1C3
330
1
100
AcDbSymbolTableRecord
100
AcDbBlockTableRecord
  2
*D2
340
0
  0
BLOCK_RECORD
  5
22B
330
1
100
AcDbSymbolTableRecord
100
AcDbBlockTableRecord
  2
*D3
340
0
  0
BLOCK_RECORD
  5
237
330
1
100
AcDbSymbolTableRecord
100
AcDbBlockTableRecord
  2
*D4
340
0
  0
BLOCK_RECORD
  5
244
330
1
100
AcDbSymbolTableRecord
100
AcDbBlockTableRecord
  2
*D5
340
0
  0
ENDTAB
  0
ENDSEC
  0
SECTION
  2
BLOCKS
  0
BLOCK
  5
20
330
1F
100
AcDbEntity
  8
0
100
AcDbBlockBegin
  2
*Model_Space
 70
     0
 10
0.0
 20
0.0
 30
0.0
  3
*Model_Space
  1

  0
ENDBLK
  5
21
330
1F
100
AcDbEntity
  8
0
100
AcDbBlockEnd
  0
BLOCK
  5
1C
330
1B
100
AcDbEntity
 67
     1
  8
0
100
AcDbBlockBegin
  2
*Paper_Space
 70
     0
 10
0.0
 20
0.0
 30
0.0
  3
*Paper_Space
  1

  0
ENDBLK
  5
1D
330
1B
100
AcDbEntity
 67
     1
  8
0
100
AcDbBlockEnd
  0
BLOCK
  5
24
330
23
100
AcDbEntity
  8
0
100
AcDbBlockBegin
  2
*Paper_Space0
 70
     0
 10
0.0
 20
0.0
 30
0.0
  3
*Paper_Space0
  1

  0
ENDBLK
  5
25
330
23
100
AcDbEntity
  8
0
100
AcDbBlockEnd
  0
BLOCK
  5
49
330
48
100
AcDbEntity
  8
0
100
AcDbBlockBegin
  2
Logo_Boag
 70
     0
 10
0.0
 20
0.0
 30
0.0
  3
Logo_Boag
  1

  0
LINE
  5
4B
330
48
100
AcDbEntity
  8
0
  6
Continuous
 62
     7
370
     0
100
AcDbLine
 10
0.0
 20
2.3429474284
 30
0.0
 11
0.0006046143
 21
2.3429474284
 31
0.0
  0
LINE
  5
4C
330
48
100
AcDbEntity
  8
0
  6
Continuous
 62
     7
370
     0
100
AcDbLine
 10
38.4424493815
 20
0.0213630371
 30
0.0
 11
38.4435242513
 21
0.0213630371
 31
0.0
  0
LINE
  5
4D
330
48
100
AcDbEntity
  8
0
  6
Continuous
 62
     7
370
     0
100
AcDbLine
 10
20.5614529622
 20
0.1305966797
 30
0.0
 11
20.5614529622
 21
2.7389025879
 31
0.0
  0
LINE
  5
4E
330
48
100
AcDbEntity
  8
0
  6
Continuous
 62
     7
370
     0
100
AcDbLine
 10
32.2645008952
 20
5.8065809733
 30
0.0
 11
32.2645008952
 21
0.1305966797
 31
0.0
  0
LINE
  5
4F
330
48
100
AcDbEntity
  8
0
  6
Continuous
 62
     7
370
     0
100
AcDbLine
 10
19.8989300944
 20
0.1305966797
 30
0.0
 11
20.5614529622
 21
0.1305966797
 31
0.0
  0
LINE
  5
50
330
48
100
AcDbEntity
  8
0
  6
Continuous
 62
     7
370
     0
100
AcDbLine
 10
17.1837418213
 20
0.0213630371
 30
0.0
 11
17.1885787354
 21
0.0213630371
 31
0.0
  0
LINE
  5
51
330
48
100
AcDbEntity
  8
0
  6
Continuous
 62
     7
370
     0
100
AcDbLine
 10
27.2947060547
 20
3.6284916992
 30
0.0
 11
27.2586979167
 21
3.7098459066
 31
0.0
  0
LINE
  5
52
330
48
100
AcDbEntity
  8
0
  6
Continuous
 62
     7
370
     0
100
AcDbLine
 10
35.1241919759
 20
0.1305966797
 30
0.0
 11
35.7875209961
 21
0.1305966797
 31
0.0
  0
LINE
  5
53
330
48
100
AcDbEntity
  8
0
  6
Continuous
 62
     7
370
     0
100
AcDbLine
 10
39.800681722
 20
4.6189842122
 30
0.0
 11
39.800681722
 21
4.2021362712
 31
0.0
  0
LINE
  5
54
330
48
100
AcDbEntity
  8
0
  6
Continuous
 62
     7
370
     0
100
AcDbLine
 10
32.9268894043
 20
0.1305966797
 30
0.0
 11
32.9268894043
 21
2.7394400228
 31
0.0
  0
LINE
  5
55
330
48
100
AcDbEntity
  8
0
  6
Continuous
 62
     7
370
     0
100
AcDbLine
 10
19.0864628906
 20
1.4555080566
 30
0.0
 11
19.1096397705
 21
1.5300771484
 31
0.0
  0
LINE
  5
56
330
48
100
AcDbEntity
  8
0
  6
Continuous
 62
     7
370
     0
100
AcDbLine
 10
26.6360795898
 20
3.6284916992
 30
0.0
 11
27.2947060547
 21
3.6284916992
 31
0.0
  0
LINE
  5
57
330
48
100
AcDbEntity
  8
0
  6
Continuous
 62
     7
370
     0
100
AcDbLine
 10
43.4954122721
 20
0.5801609701
 30
0.0
 11
43.4954122721
 21
0.1305966797
 31
0.0
  0
LINE
  5
58
330
48
100
AcDbEntity
  8
0
  6
Continuous
 62
     7
370
     0
100
AcDbLine
 10
37.0703780924
 20
2.3749248047
 30
0.0
 11
37.070109375
 21
2.3749248047
 31
0.0
  0
LINE
  5
59
330
48
100
AcDbEntity
  8
0
  6
Continuous
 62
     7
370
     0
100
AcDbLine
 10
41.7684995931
 20
4.0474222005
 30
0.0
 11
41.7684995931
 21
0.8538496908
 31
0.0
  0
LINE
  5
5A
330
48
100
AcDbEntity
  8
0
  6
Continuous
 62
     7
370
     0
100
AcDbLine
 10
35.1241919759
 20
2.9854508464
 30
0.0
 11
35.1241919759
 21
0.1305966797
 31
0.0
  0
LINE
  5
5B
330
48
100
AcDbEntity
  8
0
  6
Continuous
 62
     7
370
     0
100
AcDbLine
 10
0.7260745443
 20
5.8257270915
 30
0.0
 11
0.0
 21
5.8257270915
 31
0.0
  0
LINE
  5
5C
330
48
100
AcDbEntity
  8
0
  6
Continuous
 62
     7
370
     0
100
AcDbLine
 10
22.7592257894
 20
0.1305966797
 30
0.0
 11
23.4218158366
 21
0.1305966797
 31
0.0
  0
LINE
  5
5D
330
48
100
AcDbEntity
  8
0
  6
Continuous
 62
     7
370
     0
100
AcDbLine
 10
7.5973140462
 20
0.0213630371
 30
0.0
 11
7.5991950684
 21
0.0213630371
 31
0.0
  0
LINE
  5
5E
330
48
100
AcDbEntity
  8
0
  6
Continuous
 62
     7
370
     0
100
AcDbLine
 10
14.3718824463
 20
2.3015649414
 30
0.0
 11
14.3730916748
 21
2.3015649414
 31
0.0
  0
LINE
  5
5F
330
48
100
AcDbEntity
  8
0
  6
Continuous
 62
     7
370
     0
100
AcDbLine
 10
20.5614529622
 20
4.6189842122
 30
0.0
 11
19.8989300944
 21
4.6189842122
 31
0.0
  0
LINE
  5
60
330
48
100
AcDbEntity
  8
0
  6
Continuous
 62
     7
370
     0
100
AcDbLine
 10
25.7210966797
 20
4.7150506999
 30
0.0
 11
25.6641285807
 21
4.714513265
 31
0.0
  0
LINE
  5
61
330
48
100
AcDbEntity
  8
0
  6
Continuous
 62
     7
370
     0
100
AcDbLine
 10
46.7638225911
 20
4.2426454264
 30
0.0
 11
46.7638225911
 21
4.6189842122
 31
0.0
  0
LINE
  5
62
330
48
100
AcDbEntity
  8
0
  6
Continuous
 62
     7
370
     0
100
AcDbLine
 10
31.0650805664
 20
3.5541241455
 30
0.0
 11
31.7829592285
 21
3.5494215902
 31
0.0
  0
LINE
  5
63
330
48
100
AcDbEntity
  8
0
  6
Continuous
 62
     7
370
     0
100
AcDbLine
 10
39.9248291829
 20
0.1305966797
 30
0.0
 11
40.4770435384
 21
0.1305966797
 31
0.0
  0
LINE
  5
64
330
48
100
AcDbEntity
  8
0
  6
Continuous
 62
     7
370
     0
100
AcDbLine
 10
12.3384303385
 20
0.0213630371
 30
0.0
 11
12.3455513509
 21
0.0213630371
 31
0.0
  0
LINE
  5
65
330
48
100
AcDbEntity
  8
0
  6
Continuous
 62
     7
370
     0
100
AcDbLine
 10
42.4311568197
 20
5.8068496908
 30
0.0
 11
41.7684995931
 21
5.8068496908
 31
0.0
  0
LINE
  5
66
330
48
100
AcDbEntity
  8
0
  6
Continuous
 62
     7
370
     0
100
AcDbLine
 10
45.8313730469
 20
4.047690918
 30
0.0
 11
43.4954122721
 21
0.5801609701
 31
0.0
  0
LINE
  5
67
330
48
100
AcDbEntity
  8
0
  6
Continuous
 62
     7
370
     0
100
AcDbLine
 10
31.7829592285
 20
3.5494215902
 30
0.0
 11
31.7470854492
 21
3.6313132324
 31
0.0
  0
LINE
  5
68
330
48
100
AcDbEntity
  8
0
  6
Continuous
 62
     7
370
     0
100
AcDbLine
 10
46.7999650879
 20
0.7024274089
 30
0.0
 11
44.382314209
 21
0.7024274089
 31
0.0
  0
LINE
  5
69
330
48
100
AcDbEntity
  8
0
  6
Continuous
 62
     7
370
     0
100
AcDbLine
 10
42.4311568197
 20
4.0474222005
 30
0.0
 11
45.8313730469
 21
4.047690918
 31
0.0
  0
LINE
  5
6A
330
48
100
AcDbEntity
  8
0
  6
Continuous
 62
     7
370
     0
100
AcDbLine
 10
20.5614529622
 20
4.1084210612
 30
0.0
 11
20.5614529622
 21
4.6189842122
 31
0.0
  0
LINE
  5
6B
330
48
100
AcDbEntity
  8
0
  6
Continuous
 62
     7
370
     0
100
AcDbLine
 10
42.4311568197
 20
1.2182305501
 30
0.0
 11
42.4311568197
 21
4.0474222005
 31
0.0
  0
LINE
  5
6C
330
48
100
AcDbEntity
  8
0
  6
Continuous
 62
     7
370
     0
100
AcDbLine
 10
32.2645008952
 20
0.1305966797
 30
0.0
 11
32.9268894043
 21
0.1305966797
 31
0.0
  0
LINE
  5
6D
330
48
100
AcDbEntity
  8
0
  6
Continuous
 62
     7
370
     0
100
AcDbLine
 10
31.8158771159
 20
1.2786919759
 30
0.0
 11
31.8470483398
 21
1.3576949056
 31
0.0
  0
LINE
  5
6E
330
48
100
AcDbEntity
  8
0
  6
Continuous
 62
     7
370
     0
100
AcDbLine
 10
43.158171875
 20
0.1096367188
 30
0.0
 11
43.158171875
 21
0.6738090007
 31
0.0
  0
LINE
  5
6F
330
48
100
AcDbEntity
  8
0
  6
Continuous
 62
     7
370
     0
100
AcDbLine
 10
26.6192847493
 20
3.6569757487
 30
0.0
 11
26.6360795898
 21
3.6284916992
 31
0.0
  0
LINE
  5
70
330
48
100
AcDbEntity
  8
0
  6
Continuous
 62
     7
370
     0
100
AcDbLine
 10
19.1506863607
 20
2.3348859049
 30
0.0
 11
19.1486038005
 21
2.3953473307
 31
0.0
  0
LINE
  5
71
330
48
100
AcDbEntity
  8
0
  6
Continuous
 62
     7
370
     0
100
AcDbLine
 10
23.4218158366
 20
0.1305966797
 30
0.0
 11
23.4218158366
 21
3.1490325928
 31
0.0
  0
LINE
  5
72
330
48
100
AcDbEntity
  8
0
  6
Continuous
 62
     7
370
     0
100
AcDbLine
 10
46.7638225911
 20
4.6189842122
 30
0.0
 11
42.4311568197
 21
4.6189842122
 31
0.0
  0
LINE
  5
73
330
48
100
AcDbEntity
  8
0
  6
Continuous
 62
     7
370
     0
100
AcDbLine
 10
41.7684995931
 20
5.8068496908
 30
0.0
 11
41.7684995931
 21
4.6189842122
 31
0.0
  0
LINE
  5
74
330
48
100
AcDbEntity
  8
0
  6
Continuous
 62
     7
370
     0
100
AcDbLine
 10
46.7999650879
 20
0.1305966797
 30
0.0
 11
46.7999650879
 21
0.7024274089
 31
0.0
  0
LINE
  5
75
330
48
100
AcDbEntity
  8
0
  6
Continuous
 62
     7
370
     0
100
AcDbLine
 10
17.161236735
 20
0.6476090495
 30
0.0
 11
17.1482711182
 21
0.6478777669
 31
0.0
  0
LINE
  5
76
330
48
100
AcDbEntity
  8
0
  6
Continuous
 62
     7
370
     0
100
AcDbLine
 10
24.0082916667
 20
1.3783861491
 30
0.0
 11
24.0318044434
 21
1.3032796224
 31
0.0
  0
LINE
  5
77
330
48
100
AcDbEntity
  8
0
  6
Continuous
 62
     7
370
     0
100
AcDbLine
 10
14.3730916748
 20
2.3015649414
 30
0.0
 11
14.3730916748
 21
5.8065809733
 31
0.0
  0
LINE
  5
78
330
48
100
AcDbEntity
  8
0
  6
Continuous
 62
     7
370
     0
100
AcDbLine
 10
22.7592257894
 20
2.9849134115
 30
0.0
 11
22.7592257894
 21
0.1305966797
 31
0.0
  0
LINE
  5
79
330
48
100
AcDbEntity
  8
0
  6
Continuous
 62
     7
370
     0
100
AcDbLine
 10
31.1213768717
 20
1.357963623
 30
0.0
 11
31.1061943359
 21
1.324911377
 31
0.0
  0
LINE
  5
7A
330
48
100
AcDbEntity
  8
0
  6
Continuous
 62
     7
370
     0
100
AcDbLine
 10
32.9268894043
 20
4.1010985107
 30
0.0
 11
32.9268894043
 21
5.8065809733
 31
0.0
  0
LINE
  5
7B
330
48
100
AcDbEntity
  8
0
  6
Continuous
 62
     7
370
     0
100
AcDbLine
 10
39.8376303711
 20
0.5832512207
 30
0.0
 11
39.9248291829
 21
0.1305966797
 31
0.0
  0
LINE
  5
7C
330
48
100
AcDbEntity
  8
0
  6
Continuous
 62
     7
370
     0
100
AcDbLine
 10
18.4000241699
 20
2.9064479167
 30
0.0
 11
15.823695638
 21
2.9064479167
 31
0.0
  0
LINE
  5
7D
330
48
100
AcDbEntity
  8
0
  6
Continuous
 62
     7
370
     0
100
AcDbLine
 10
32.9268894043
 20
5.8065809733
 30
0.0
 11
32.2645008952
 21
5.8065809733
 31
0.0
  0
LINE
  5
7E
330
48
100
AcDbEntity
  8
0
  6
Continuous
 62
     7
370
     0
100
AcDbLine
 10
31.8470483398
 20
1.3576949056
 30
0.0
 11
31.1213768717
 21
1.357963623
 31
0.0
  0
LINE
  5
7F
330
48
100
AcDbEntity
  8
0
  6
Continuous
 62
     7
370
     0
100
AcDbLine
 10
44.382314209
 20
0.7024274089
 30
0.0
 11
46.7638225911
 21
4.2426454264
 31
0.0
  0
LINE
  5
80
330
48
100
AcDbEntity
  8
0
  6
Continuous
 62
     7
370
     0
100
AcDbLine
 10
41.7684995931
 20
4.6189842122
 30
0.0
 11
39.800681722
 21
4.6189842122
 31
0.0
  0
LINE
  5
81
330
48
100
AcDbEntity
  8
0
  6
Continuous
 62
     7
370
     0
100
AcDbLine
 10
0.7272837728
 20
2.2849044596
 30
0.0
 11
0.7260745443
 21
2.2849044596
 31
0.0
  0
LINE
  5
82
330
48
100
AcDbEntity
  8
0
  6
Continuous
 62
     7
370
     0
100
AcDbLine
 10
0.7260745443
 20
2.2849044596
 30
0.0
 11
0.7260745443
 21
5.8257270915
 31
0.0
  0
LINE
  5
83
330
48
100
AcDbEntity
  8
0
  6
Continuous
 62
     7
370
     0
100
AcDbLine
 10
13.7147339274
 20
5.8065809733
 30
0.0
 11
13.7147339274
 21
4.1168184814
 31
0.0
  0
LINE
  5
84
330
48
100
AcDbEntity
  8
0
  6
Continuous
 62
     7
370
     0
100
AcDbLine
 10
15.8146936035
 20
2.3348859049
 30
0.0
 11
19.1506863607
 21
2.3348859049
 31
0.0
  0
LINE
  5
85
330
48
100
AcDbEntity
  8
0
  6
Continuous
 62
     7
370
     0
100
AcDbLine
 10
40.4770435384
 20
0.1305966797
 30
0.0
 11
40.4770435384
 21
4.0474222005
 31
0.0
  0
LINE
  5
86
330
48
100
AcDbEntity
  8
0
  6
Continuous
 62
     7
370
     0
100
AcDbLine
 10
42.4311568197
 20
4.6189842122
 30
0.0
 11
42.4311568197
 21
5.8068496908
 31
0.0
  0
LINE
  5
87
330
48
100
AcDbEntity
  8
0
  6
Continuous
 62
     7
370
     0
100
AcDbLine
 10
18.3769816488
 20
1.5300771484
 30
0.0
 11
18.3634114176
 21
1.4916505534
 31
0.0
  0
LINE
  5
88
330
48
100
AcDbEntity
  8
0
  6
Continuous
 62
     7
370
     0
100
AcDbLine
 10
40.4770435384
 20
4.0474222005
 30
0.0
 11
41.7684995931
 21
4.0474222005
 31
0.0
  0
LINE
  5
89
330
48
100
AcDbEntity
  8
0
  6
Continuous
 62
     7
370
     0
100
AcDbLine
 10
19.8989300944
 20
4.6189842122
 30
0.0
 11
19.8989300944
 21
0.1305966797
 31
0.0
  0
LINE
  5
8A
330
48
100
AcDbEntity
  8
0
  6
Continuous
 62
     7
370
     0
100
AcDbLine
 10
35.7875209961
 20
0.1305966797
 30
0.0
 11
35.7875209961
 21
3.1490325928
 31
0.0
  0
LINE
  5
8B
330
48
100
AcDbEntity
  8
0
  6
Continuous
 62
     7
370
     0
100
AcDbLine
 10
43.4954122721
 20
0.1305966797
 30
0.0
 11
46.7999650879
 21
0.1305966797
 31
0.0
  0
LINE
  5
8C
330
48
100
AcDbEntity
  8
0
  6
Continuous
 62
     7
370
     0
100
AcDbLine
 10
31.0498980306
 20
3.5879153646
 30
0.0
 11
31.0650805664
 21
3.5541241455
 31
0.0
  0
LINE
  5
8D
330
48
100
AcDbEntity
  8
0
  6
Continuous
 62
     7
370
     0
100
AcDbLine
 10
25.6641285807
 20
4.714513265
 30
0.0
 11
25.6641285807
 21
4.7132368571
 31
0.0
  0
LINE
  5
8E
330
48
100
AcDbEntity
  8
0
  6
Continuous
 62
     7
370
     0
100
AcDbLine
 10
24.6819663086
 20
1.3783861491
 30
0.0
 11
24.0082916667
 21
1.3783861491
 31
0.0
  0
LINE
  5
8F
330
48
100
AcDbEntity
  8
0
  6
Continuous
 62
     7
370
     0
100
AcDbLine
 10
24.6936555176
 20
1.3361975098
 30
0.0
 11
24.6819663086
 21
1.3783861491
 31
0.0
  0
LINE
  5
90
330
48
100
AcDbEntity
  8
0
  6
Continuous
 62
     7
370
     0
100
AcDbLine
 10
0.0
 20
5.8257270915
 30
0.0
 11
0.0
 21
2.3429474284
 31
0.0
  0
LINE
  5
91
330
48
100
AcDbEntity
  8
0
  6
Continuous
 62
     7
370
     0
100
AcDbLine
 10
29.9199411621
 20
0.0213630371
 30
0.0
 11
29.9324365234
 21
0.0213630371
 31
0.0
  0
LINE
  5
92
330
48
100
AcDbEntity
  8
0
  6
Continuous
 62
     7
370
     0
100
AcDbLine
 10
14.3730916748
 20
5.8065809733
 30
0.0
 11
13.7147339274
 21
5.8065809733
 31
0.0
  0
LINE
  5
93
330
48
100
AcDbEntity
  8
0
  6
Continuous
 62
     7
370
     0
100
AcDbLine
 10
25.7447438151
 20
0.0114204915
 30
0.0
 11
25.7947252604
 21
0.0119579264
 31
0.0
  0
LINE
  5
94
330
48
100
AcDbEntity
  8
0
  6
Continuous
 62
     7
370
     0
100
AcDbLine
 10
15.8148279622
 20
2.2746931966
 30
0.0
 11
15.8146936035
 21
2.3348859049
 31
0.0
  0
LINE
  5
95
330
48
100
AcDbEntity
  8
0
  6
Continuous
 62
     7
370
     0
100
AcDbLine
 10
19.1096397705
 20
1.5300771484
 30
0.0
 11
18.3769816488
 21
1.5300771484
 31
0.0
  0
SPLINE
  5
96
330
48
100
AcDbEntity
  8
0
  6
Continuous
 62
     8
370
     0
100
AcDbSpline
210
0.0
220
0.0
230
1.0
 70
     8
 71
     3
 72
     8
 73
     4
 74
     0
 42
0.00000001
 43
0.00000001
 40
23.0
 40
23.0
 40
23.0
 40
23.0
 40
24.0
 40
24.0
 40
24.0
 40
24.0
 10
27.44102270507814
 20
1.396121500651049
 30
0.0
 10
27.44317244466149
 20
2.313925944010434
 30
0.0
 10
26.74786604817714
 20
2.564639322916659
 30
0.0
 10
26.10213802083333
 20
2.708537516276047
 30
0.0
  0
SPLINE
  5
97
330
48
100
AcDbEntity
  8
0
  6
Continuous
 62
     8
370
     0
100
AcDbSpline
210
0.0
220
0.0
230
1.0
 70
     8
 71
     3
 72
     8
 73
     4
 74
     0
 42
0.00000001
 43
0.00000001
 40
3.0
 40
3.0
 40
3.0
 40
3.0
 40
4.0
 40
4.0
 40
4.0
 40
4.0
 10
13.71030008951826
 20
2.374924804687511
 30
0.0
 10
13.71721956380212
 20
1.167711669921884
 30
0.0
 10
13.11347863769535
 20
0.6497587890624962
 30
0.0
 10
12.33843033854171
 20
0.6476090494791781
 30
0.0
  0
SPLINE
  5
98
330
48
100
AcDbEntity
  8
0
  6
Continuous
 62
     8
370
     0
100
AcDbSpline
210
0.0
220
0.0
230
1.0
 70
     8
 71
     3
 72
     8
 73
     4
 74
     0
 42
0.00000001
 43
0.00000001
 40
1.0
 40
1.0
 40
1.0
 40
1.0
 40
2.0
 40
2.0
 40
2.0
 40
2.0
 10
17.11360656738284
 20
4.728620930989594
 30
0.0
 10
16.55319632975266
 20
4.728620930989594
 30
0.0
 10
16.04196138509117
 20
4.522178751627623
 30
0.0
 10
15.67294514973963
 20
4.121991292317703
 30
0.0
  0
SPLINE
  5
99
330
48
100
AcDbEntity
  8
0
  6
Continuous
 62
     8
370
     0
100
AcDbSpline
210
0.0
220
0.0
230
1.0
 70
     8
 71
     3
 72
     8
 73
     4
 74
     0
 42
0.00000001
 43
0.00000001
 40
12.0
 40
12.0
 40
12.0
 40
12.0
 40
13.0
 40
13.0
 40
13.0
 40
13.0
 10
37.00131770833337
 20
0.6274552408854217
 30
0.0
 10
37.37026676432292
 20
0.2281411132812466
 30
0.0
 10
37.88190478515624
 20
0.0210943196614632
 30
0.0
 10
38.44244938151048
 20
0.0213630371093815
 30
0.0
  0
SPLINE
  5
9A
330
48
100
AcDbEntity
  8
0
  6
Continuous
 62
     8
370
     0
100
AcDbSpline
210
0.0
220
0.0
230
1.0
 70
     8
 71
     3
 72
     8
 73
     4
 74
     0
 42
0.00000001
 43
0.00000001
 40
12.0
 40
12.0
 40
12.0
 40
12.0
 40
13.0
 40
13.0
 40
13.0
 40
13.0
 10
35.40486735026044
 20
4.287386881510424
 30
0.0
 10
35.14138989257815
 20
4.569271484375012
 30
0.0
 10
34.73737320963544
 20
4.728620930989594
 30
0.0
 10
34.18986140950525
 20
4.728620930989594
 30
0.0
  0
SPLINE
  5
9B
330
48
100
AcDbEntity
  8
0
  6
Continuous
 62
     8
370
     0
100
AcDbSpline
210
0.0
220
0.0
230
1.0
 70
     8
 71
     3
 72
     8
 73
     4
 74
     0
 42
0.00000001
 43
0.00000001
 40
9.0
 40
9.0
 40
9.0
 40
9.0
 40
10.0
 40
10.0
 40
10.0
 40
10.0
 10
27.88521264648442
 20
2.375462239583334
 30
0.0
 10
27.90093261718751
 20
0.9750412597656355
 30
0.0
 10
28.79092480468753
 20
0.0204225260416607
 30
0.0
 10
29.91994116210939
 20
0.0213630371093815
 30
0.0
  0
SPLINE
  5
9C
330
48
100
AcDbEntity
  8
0
  6
Continuous
 62
     8
370
     0
100
AcDbSpline
210
0.0
220
0.0
230
1.0
 70
     8
 71
     3
 72
     8
 73
     4
 74
     0
 42
0.00000001
 43
0.00000001
 40
3.0
 40
3.0
 40
3.0
 40
3.0
 40
4.0
 40
4.0
 40
4.0
 40
4.0
 10
10.30343310546877
 20
2.374924804687511
 30
0.0
 10
10.30343310546877
 20
1.616738525390626
 30
0.0
 10
10.5281480712891
 20
1.027172444661453
 30
0.0
 10
10.89743302408858
 20
0.6274552408854217
 30
0.0
  0
SPLINE
  5
9D
330
48
100
AcDbEntity
  8
0
  6
Continuous
 62
     8
370
     0
100
AcDbSpline
210
0.0
220
0.0
230
1.0
 70
     8
 71
     3
 72
     8
 73
     4
 74
     0
 42
0.00000001
 43
0.00000001
 40
0.0
 40
0.0
 40
0.0
 40
0.0
 40
1.0
 40
1.0
 40
1.0
 40
1.0
 10
13.71473392740888
 20
4.116818481445322
 30
0.0
 10
13.39401965332035
 20
4.506996215820333
 30
0.0
 10
12.86787089029953
 20
4.728620930989594
 30
0.0
 10
12.33843033854171
 20
4.728620930989594
 30
0.0
  0
SPLINE
  5
9E
330
48
100
AcDbEntity
  8
0
  6
Continuous
 62
     8
370
     0
100
AcDbSpline
210
0.0
220
0.0
230
1.0
 70
     8
 71
     3
 72
     8
 73
     4
 74
     0
 42
0.00000001
 43
0.00000001
 40
2.0
 40
2.0
 40
2.0
 40
2.0
 40
3.0
 40
3.0
 40
3.0
 40
3.0
 10
37.07010937499999
 20
2.374924804687511
 30
0.0
 10
37.0740057779948
 20
3.47538993326825
 30
0.0
 10
37.66787133789068
 20
4.100292358398469
 30
0.0
 10
38.44244938151048
 20
4.102106201171893
 30
0.0
  0
SPLINE
  5
9F
330
48
100
AcDbEntity
  8
0
  6
Continuous
 62
     8
370
     0
100
AcDbSpline
210
0.0
220
0.0
230
1.0
 70
     8
 71
     3
 72
     8
 73
     4
 74
     0
 42
0.00000001
 43
0.00000001
 40
1.0
 40
1.0
 40
1.0
 40
1.0
 40
2.0
 40
2.0
 40
2.0
 40
2.0
 10
17.11360656738284
 20
4.102106201171893
 30
0.0
 10
17.95684191894536
 20
4.100292358398469
 30
0.0
 10
18.26996492513022
 20
3.512808837890624
 30
0.0
 10
18.40002416992192
 20
2.906447916666679
 30
0.0
  0
SPLINE
  5
A0
330
48
100
AcDbEntity
  8
0
  6
Continuous
 62
     8
370
     0
100
AcDbSpline
210
0.0
220
0.0
230
1.0
 70
     8
 71
     3
 72
     8
 73
     4
 74
     0
 42
0.00000001
 43
0.00000001
 40
5.0
 40
5.0
 40
5.0
 40
5.0
 40
6.0
 40
6.0
 40
6.0
 40
6.0
 10
0.0006046142578264
 20
2.342947428385422
 30
0.0
 10
0.0069194742838841
 20
0.8182446289062562
 30
0.0
 10
0.9118926595052257
 20
0.0
 30
0.0
 10
2.031168009440143
 20
0.0
 30
0.0
  0
SPLINE
  5
A1
330
48
100
AcDbEntity
  8
0
  6
Continuous
 62
     8
370
     0
100
AcDbSpline
210
0.0
220
0.0
230
1.0
 70
     8
 71
     3
 72
     8
 73
     4
 74
     0
 42
0.00000001
 43
0.00000001
 40
6.0
 40
6.0
 40
6.0
 40
6.0
 40
7.0
 40
7.0
 40
7.0
 40
7.0
 10
9.038378540039083
 20
0.6274552408854217
 30
0.0
 10
9.407529134114606
 20
1.027172444661453
 30
0.0
 10
9.632311279296896
 20
1.616738525390626
 30
0.0
 10
9.632311279296896
 20
2.374924804687511
 30
0.0
  0
SPLINE
  5
A2
330
48
100
AcDbEntity
  8
0
  6
Continuous
 62
     8
370
     0
100
AcDbSpline
210
0.0
220
0.0
230
1.0
 70
     8
 71
     3
 72
    11
 73
     7
 74
     0
 42
0.00000001
 43
0.00000001
 40
1.0
 40
1.0
 40
1.0
 40
1.0
 40
2.0
 40
2.0
 40
2.0
 40
3.0
 40
3.0
 40
3.0
 40
3.0
 10
2.78068815104171
 20
4.104255940755225
 30
0.0
 10
3.359438354492206
 20
3.885721476237003
 30
0.0
 10
3.758416585286501
 20
3.269686726888044
 30
0.0
 10
3.758416585286501
 20
2.358936116536495
 30
0.0
 10
3.758416585286501
 20
1.441400390625014
 30
0.0
 10
3.360110148111994
 20
0.8297994791666707
 30
0.0
 10
2.782031738281288
 20
0.61254142252605
 30
0.0
  0
SPLINE
  5
A3
330
48
100
AcDbEntity
  8
0
  6
Continuous
 62
     8
370
     0
100
AcDbSpline
210
0.0
220
0.0
230
1.0
 70
     8
 71
     3
 72
     8
 73
     4
 74
     0
 42
0.00000001
 43
0.00000001
 40
0.0
 40
0.0
 40
0.0
 40
0.0
 40
1.0
 40
1.0
 40
1.0
 40
1.0
 10
38.44244938151048
 20
0.6476090494791781
 30
0.0
 10
37.66733390299481
 20
0.6497587890624962
 30
0.0
 10
37.0740057779948
 20
1.265524820963537
 30
0.0
 10
37.0703780924479
 20
2.374924804687511
 30
0.0
  0
SPLINE
  5
A4
330
48
100
AcDbEntity
  8
0
  6
Continuous
 62
     8
370
     0
100
AcDbSpline
210
0.0
220
0.0
230
1.0
 70
     8
 71
     3
 72
     8
 73
     4
 74
     0
 42
0.00000001
 43
0.00000001
 40
3.0
 40
3.0
 40
3.0
 40
3.0
 40
4.0
 40
4.0
 40
4.0
 40
4.0
 10
25.73292024739587
 20
4.140331258138022
 30
0.0
 10
26.15762817382816
 20
4.136972290039065
 30
0.0
 10
26.43978149414067
 20
3.958208007812505
 30
0.0
 10
26.61928474934899
 20
3.656975748697916
 30
0.0
  0
SPLINE
  5
A5
330
48
100
AcDbEntity
  8
0
  6
Continuous
 62
     8
370
     0
100
AcDbSpline
210
0.0
220
0.0
230
1.0
 70
     8
 71
     3
 72
     8
 73
     4
 74
     0
 42
0.00000001
 43
0.00000001
 40
0.0
 40
0.0
 40
0.0
 40
0.0
 40
1.0
 40
1.0
 40
1.0
 40
1.0
 10
21.82442496744796
 20
4.728150675455733
 30
0.0
 10
21.35228841145836
 20
4.729427083333348
 30
0.0
 10
20.8621477864584
 20
4.559060221354175
 30
0.0
 10
20.5614529622396
 20
4.108421061197909
 30
0.0
  0
SPLINE
  5
A6
330
48
100
AcDbEntity
  8
0
  6
Continuous
 62
     8
370
     0
100
AcDbSpline
210
0.0
220
0.0
230
1.0
 70
     8
 71
     3
 72
     8
 73
     4
 74
     0
 42
0.00000001
 43
0.00000001
 40
21.0
 40
21.0
 40
21.0
 40
21.0
 40
22.0
 40
22.0
 40
22.0
 40
22.0
 10
42.01921297200523
 20
0.2488323567708256
 30
0.0
 10
42.17385986328126
 20
0.1375833333333298
 30
0.0
 10
42.37244205729168
 20
0.1101741536458228
 30
0.0
 10
42.57371142578126
 20
0.1099054361979185
 30
0.0
  0
SPLINE
  5
A7
330
48
100
AcDbEntity
  8
0
  6
Continuous
 62
     8
370
     0
100
AcDbSpline
210
0.0
220
0.0
230
1.0
 70
     8
 71
     3
 72
     8
 73
     4
 74
     0
 42
0.00000001
 43
0.00000001
 40
13.0
 40
13.0
 40
13.0
 40
13.0
 40
14.0
 40
14.0
 40
14.0
 40
14.0
 10
25.53138216145839
 20
2.21396305338542
 30
0.0
 10
25.85585847981775
 20
2.148799072265631
 30
0.0
 10
26.17657275390628
 20
2.096667887369785
 30
0.0
 10
26.40686360677086
 20
1.985687581380208
 30
0.0
  0
SPLINE
  5
A8
330
48
100
AcDbEntity
  8
0
  6
Continuous
 62
     8
370
     0
100
AcDbSpline
210
0.0
220
0.0
230
1.0
 70
     8
 71
     3
 72
     8
 73
     4
 74
     0
 42
0.00000001
 43
0.00000001
 40
11.0
 40
11.0
 40
11.0
 40
11.0
 40
12.0
 40
12.0
 40
12.0
 40
12.0
 10
23.42181583658853
 20
3.149032592773438
 30
0.0
 10
23.42181583658853
 20
3.60934558105469
 30
0.0
 10
23.30304272460942
 20
4.006106892903649
 30
0.0
 10
23.03949808756511
 20
4.287386881510424
 30
0.0
  0
SPLINE
  5
A9
330
48
100
AcDbEntity
  8
0
  6
Continuous
 62
     8
370
     0
100
AcDbSpline
210
0.0
220
0.0
230
1.0
 70
     8
 71
     3
 72
     8
 73
     4
 74
     0
 42
0.00000001
 43
0.00000001
 40
0.0
 40
0.0
 40
0.0
 40
0.0
 40
1.0
 40
1.0
 40
1.0
 40
1.0
 10
15.82369563802086
 20
2.906447916666679
 30
0.0
 10
15.93440722656253
 20
3.583212809244785
 30
0.0
 10
16.39525764973962
 20
4.101098510742196
 30
0.0
 10
17.11360656738284
 20
4.102106201171893
 30
0.0
  0
SPLINE
  5
AA
330
48
100
AcDbEntity
  8
0
  6
Continuous
 62
     8
370
     0
100
AcDbSpline
210
0.0
220
0.0
230
1.0
 70
     8
 71
     3
 72
     8
 73
     4
 74
     0
 42
0.00000001
 43
0.00000001
 40
14.0
 40
14.0
 40
14.0
 40
14.0
 40
15.0
 40
15.0
 40
15.0
 40
15.0
 10
26.40686360677086
 20
1.985687581380208
 30
0.0
 10
26.63715445963544
 20
1.871885742187496
 30
0.0
 10
26.7752752278646
 20
1.71911987304689
 30
0.0
 10
26.77796240234376
 20
1.414394287109377
 30
0.0
  0
SPLINE
  5
AB
330
48
100
AcDbEntity
  8
0
  6
Continuous
 62
     8
370
     0
100
AcDbSpline
210
0.0
220
0.0
230
1.0
 70
     8
 71
     3
 72
     8
 73
     4
 74
     0
 42
0.00000001
 43
0.00000001
 40
10.0
 40
10.0
 40
10.0
 40
10.0
 40
11.0
 40
11.0
 40
11.0
 40
11.0
 10
37.00131770833337
 20
4.121991292317703
 30
0.0
 10
36.63277172851564
 20
3.722677164713556
 30
0.0
 10
36.40745214843749
 20
3.132775187174488
 30
0.0
 10
36.40745214843749
 20
2.374924804687511
 30
0.0
  0
SPLINE
  5
AC
330
48
100
AcDbEntity
  8
0
  6
Continuous
 62
     8
370
     0
100
AcDbSpline
210
0.0
220
0.0
230
1.0
 70
     8
 71
     3
 72
     8
 73
     4
 74
     0
 42
0.00000001
 43
0.00000001
 40
7.0
 40
7.0
 40
7.0
 40
7.0
 40
8.0
 40
8.0
 40
8.0
 40
8.0
 10
9.632311279296896
 20
2.374924804687511
 30
0.0
 10
9.632311279296896
 20
3.132775187174488
 30
0.0
 10
9.407529134114606
 20
3.722677164713556
 30
0.0
 10
9.038378540039083
 20
4.121991292317703
 30
0.0
  0
SPLINE
  5
AD
330
48
100
AcDbEntity
  8
0
  6
Continuous
 62
     8
370
     0
100
AcDbSpline
210
0.0
220
0.0
230
1.0
 70
     8
 71
     3
 72
     8
 73
     4
 74
     0
 42
0.00000001
 43
0.00000001
 40
6.0
 40
6.0
 40
6.0
 40
6.0
 40
7.0
 40
7.0
 40
7.0
 40
7.0
 10
2.031168009440143
 20
0.0
 30
0.0
 10
2.114134521484401
 20
0.0
 30
0.0
 10
2.197101033528659
 20
0.0030902506510527
 30
0.0
 10
2.280067545572972
 20
0.0088676757812461
 30
0.0
  0
SPLINE
  5
AE
330
48
100
AcDbEntity
  8
0
  6
Continuous
 62
     8
370
     0
100
AcDbSpline
210
0.0
220
0.0
230
1.0
 70
     8
 71
     3
 72
     8
 73
     4
 74
     0
 42
0.00000001
 43
0.00000001
 40
12.0
 40
12.0
 40
12.0
 40
12.0
 40
13.0
 40
13.0
 40
13.0
 40
13.0
 10
18.36341141764325
 20
1.491650553385432
 30
0.0
 10
18.18061637369794
 20
0.9786689453124969
 30
0.0
 10
17.80501656087241
 20
0.658357747395838
 30
0.0
 10
17.16123673502607
 20
0.6476090494791781
 30
0.0
  0
SPLINE
  5
AF
330
48
100
AcDbEntity
  8
0
  6
Continuous
 62
     8
370
     0
100
AcDbSpline
210
0.0
220
0.0
230
1.0
 70
     8
 71
     3
 72
     8
 73
     4
 74
     0
 42
0.00000001
 43
0.00000001
 40
5.0
 40
5.0
 40
5.0
 40
5.0
 40
6.0
 40
6.0
 40
6.0
 40
6.0
 10
4.484222412109412
 20
2.358936116536467
 30
0.0
 10
4.480460367838557
 20
3.490303751627608
 30
0.0
 10
3.870068684895867
 20
4.133546142578118
 30
0.0
 10
3.072918375651073
 20
4.135091267903651
 30
0.0
  0
SPLINE
  5
B0
330
48
100
AcDbEntity
  8
0
  6
Continuous
 62
     8
370
     0
100
AcDbSpline
210
0.0
220
0.0
230
1.0
 70
     8
 71
     3
 72
     8
 73
     4
 74
     0
 42
0.00000001
 43
0.00000001
 40
6.0
 40
6.0
 40
6.0
 40
6.0
 40
7.0
 40
7.0
 40
7.0
 40
7.0
 10
12.34555135091148
 20
0.0213630371093815
 30
0.0
 10
13.29291471354169
 20
0.0213630371093815
 30
0.0
 10
14.10538191731775
 20
0.5887599283854184
 30
0.0
 10
14.31592203776044
 20
1.709446044921861
 30
0.0
  0
SPLINE
  5
B1
330
48
100
AcDbEntity
  8
0
  6
Continuous
 62
     8
370
     0
100
AcDbSpline
210
0.0
220
0.0
230
1.0
 70
     8
 71
     3
 72
     8
 73
     4
 74
     0
 42
0.00000001
 43
0.00000001
 40
7.0
 40
7.0
 40
7.0
 40
7.0
 40
8.0
 40
8.0
 40
8.0
 40
8.0
 10
31.74708544921878
 20
3.631313232421871
 30
0.0
 10
31.34669645182292
 20
4.552275105794271
 30
0.0
 10
30.60342399088545
 20
4.731308105468749
 30
0.0
 10
30.04704451497398
 20
4.728150675455733
 30
0.0
  0
SPLINE
  5
B2
330
48
100
AcDbEntity
  8
0
  6
Continuous
 62
     8
370
     0
100
AcDbSpline
210
0.0
220
0.0
230
1.0
 70
     8
 71
     3
 72
     8
 73
     4
 74
     0
 42
0.00000001
 43
0.00000001
 40
3.0
 40
3.0
 40
3.0
 40
3.0
 40
4.0
 40
4.0
 40
4.0
 40
4.0
 10
29.97462516276045
 20
4.102106201171893
 30
0.0
 10
30.48680061848963
 20
4.100292358398469
 30
0.0
 10
30.87697835286463
 20
3.949541870117188
 30
0.0
 10
31.04989803059899
 20
3.587915364583347
 30
0.0
  0
SPLINE
  5
B3
330
48
100
AcDbEntity
  8
0
  6
Continuous
 62
     8
370
     0
100
AcDbSpline
210
0.0
220
0.0
230
1.0
 70
     8
 71
     3
 72
     8
 73
     4
 74
     0
 42
0.00000001
 43
0.00000001
 40
20.0
 40
20.0
 40
20.0
 40
20.0
 40
21.0
 40
21.0
 40
21.0
 40
21.0
 10
24.03180444335939
 20
1.303279622395834
 30
0.0
 10
24.2849362792969
 20
0.4874534505208278
 30
0.0
 10
25.03210514322923
 20
0.0353363444010463
 30
0.0
 10
25.74474381510422
 20
0.0114204915364485
 30
0.0
  0
SPLINE
  5
B4
330
48
100
AcDbEntity
  8
0
  6
Continuous
 62
     8
370
     0
100
AcDbSpline
210
0.0
220
0.0
230
1.0
 70
     8
 71
     3
 72
     8
 73
     4
 74
     0
 42
0.00000001
 43
0.00000001
 40
0.0
 40
0.0
 40
0.0
 40
0.0
 40
1.0
 40
1.0
 40
1.0
 40
1.0
 10
19.14860380045574
 20
2.395347330729172
 30
0.0
 10
19.10755721028651
 20
3.703060791015622
 30
0.0
 10
18.44348921712247
 20
4.731039388020831
 30
0.0
 10
17.11360656738284
 20
4.728620930989594
 30
0.0
  0
SPLINE
  5
B5
330
48
100
AcDbEntity
  8
0
  6
Continuous
 62
     8
370
     0
100
AcDbSpline
210
0.0
220
0.0
230
1.0
 70
     8
 71
     3
 72
     8
 73
     4
 74
     0
 42
0.00000001
 43
0.00000001
 40
12.0
 40
12.0
 40
12.0
 40
12.0
 40
13.0
 40
13.0
 40
13.0
 40
13.0
 10
24.19128824869793
 20
3.454698689778657
 30
0.0
 10
24.18886979166673
 20
2.544216796875012
 30
0.0
 10
24.88820694986982
 20
2.337170003255201
 30
0.0
 10
25.53138216145839
 20
2.21396305338542
 30
0.0
  0
SPLINE
  5
B6
330
48
100
AcDbEntity
  8
0
  6
Continuous
 62
     8
370
     0
100
AcDbSpline
210
0.0
220
0.0
230
1.0
 70
     8
 71
     3
 72
     8
 73
     4
 74
     0
 42
0.00000001
 43
0.00000001
 40
15.0
 40
15.0
 40
15.0
 40
15.0
 40
16.0
 40
16.0
 40
16.0
 40
16.0
 10
26.77796240234376
 20
1.414394287109377
 30
0.0
 10
26.77769368489585
 20
0.7505278320312503
 30
0.0
 10
26.24093058268234
 20
0.5987024739583374
 30
0.0
 10
25.79203808593755
 20
0.5801609700520766
 30
0.0
  0
SPLINE
  5
B7
330
48
100
AcDbEntity
  8
0
  6
Continuous
 62
     8
370
     0
100
AcDbSpline
210
0.0
220
0.0
230
1.0
 70
     8
 71
     3
 72
     8
 73
     4
 74
     0
 42
0.00000001
 43
0.00000001
 40
6.0
 40
6.0
 40
6.0
 40
6.0
 40
7.0
 40
7.0
 40
7.0
 40
7.0
 10
17.14806958007817
 20
0.0221691894531223
 30
0.0
 10
17.15707161458338
 20
0.0221691894531223
 30
0.0
 10
17.16936543782555
 20
0.0213630371093815
 30
0.0
 10
17.18374182128909
 20
0.0213630371093815
 30
0.0
  0
SPLINE
  5
B8
330
48
100
AcDbEntity
  8
0
  6
Continuous
 62
     8
370
     0
100
AcDbSpline
210
0.0
220
0.0
230
1.0
 70
     8
 71
     3
 72
     8
 73
     4
 74
     0
 42
0.00000001
 43
0.00000001
 40
2.0
 40
2.0
 40
2.0
 40
2.0
 40
3.0
 40
3.0
 40
3.0
 40
3.0
 10
28.54786987304692
 20
2.374924804687511
 30
0.0
 10
28.55096012369795
 20
3.552310302734369
 30
0.0
 10
29.25862752278652
 20
4.099284667968758
 30
0.0
 10
29.97462516276045
 20
4.102106201171893
 30
0.0
  0
SPLINE
  5
B9
330
48
100
AcDbEntity
  8
0
  6
Continuous
 62
     8
370
     0
100
AcDbSpline
210
0.0
220
0.0
230
1.0
 70
     8
 71
     3
 72
     8
 73
     4
 74
     0
 42
0.00000001
 43
0.00000001
 40
1.0
 40
1.0
 40
1.0
 40
1.0
 40
2.0
 40
2.0
 40
2.0
 40
2.0
 10
25.22343196614585
 20
2.941784261067698
 30
0.0
 10
24.99045393880212
 20
3.047457397460942
 30
0.0
 10
24.8559608561198
 20
3.179397664388031
 30
0.0
 10
24.85381111653651
 20
3.43662744140627
 30
0.0
  0
SPLINE
  5
BA
330
48
100
AcDbEntity
  8
0
  6
Continuous
 62
     8
370
     0
100
AcDbSpline
210
0.0
220
0.0
230
1.0
 70
     8
 71
     3
 72
     8
 73
     4
 74
     0
 42
0.00000001
 43
0.00000001
 40
7.0
 40
7.0
 40
7.0
 40
7.0
 40
8.0
 40
8.0
 40
8.0
 40
8.0
 10
21.75140100097656
 20
4.102106201171893
 30
0.0
 10
22.42581461588544
 20
4.091155965169277
 30
0.0
 10
22.74793965657551
 20
3.851930257161462
 30
0.0
 10
22.75922578938805
 20
2.984913411458332
 30
0.0
  0
SPLINE
  5
BB
330
48
100
AcDbEntity
  8
0
  6
Continuous
 62
     8
370
     0
100
AcDbSpline
210
0.0
220
0.0
230
1.0
 70
     8
 71
     3
 72
     8
 73
     4
 74
     0
 42
0.00000001
 43
0.00000001
 40
1.0
 40
1.0
 40
1.0
 40
1.0
 40
2.0
 40
2.0
 40
2.0
 40
2.0
 10
6.225242757161492
 20
2.374924804687511
 30
0.0
 10
6.229004801432319
 20
3.47538993326825
 30
0.0
 10
6.82280318196618
 20
4.100292358398455
 30
0.0
 10
7.597314046223991
 20
4.102106201171865
 30
0.0
  0
SPLINE
  5
BC
330
48
100
AcDbEntity
  8
0
  6
Continuous
 62
     8
370
     0
100
AcDbSpline
210
0.0
220
0.0
230
1.0
 70
     8
 71
     3
 72
     8
 73
     4
 74
     0
 42
0.00000001
 43
0.00000001
 40
8.0
 40
8.0
 40
8.0
 40
8.0
 40
9.0
 40
9.0
 40
9.0
 40
9.0
 10
17.18857873535159
 20
0.0213630371093815
 30
0.0
 10
18.05525968424482
 20
0.0213630371093815
 30
0.0
 10
18.79960701497402
 20
0.5244020996093696
 30
0.0
 10
19.08646289062504
 20
1.455508056640617
 30
0.0
  0
SPLINE
  5
BD
330
48
100
AcDbEntity
  8
0
  6
Continuous
 62
     8
370
     0
100
AcDbSpline
210
0.0
220
0.0
230
1.0
 70
     8
 71
     3
 72
     8
 73
     4
 74
     0
 42
0.00000001
 43
0.00000001
 40
8.0
 40
8.0
 40
8.0
 40
8.0
 40
9.0
 40
9.0
 40
9.0
 40
9.0
 10
25.76274788411459
 20
4.716125569661458
 30
0.0
 10
25.74649047851568
 20
4.716125569661458
 30
0.0
 10
25.73292024739587
 20
4.715050699869799
 30
0.0
 10
25.72109667968753
 20
4.715050699869799
 30
0.0
  0
SPLINE
  5
BE
330
48
100
AcDbEntity
  8
0
  6
Continuous
 62
     8
370
     0
100
AcDbSpline
210
0.0
220
0.0
230
1.0
 70
     8
 71
     3
 72
     8
 73
     4
 74
     0
 42
0.00000001
 43
0.00000001
 40
20.0
 40
20.0
 40
20.0
 40
20.0
 40
21.0
 40
21.0
 40
21.0
 40
21.0
 10
41.76849959309897
 20
0.8538496907552207
 30
0.0
 10
41.7674247233073
 20
0.5558420410156223
 30
0.0
 10
41.86375992838548
 20
0.3600813802083214
 30
0.0
 10
42.01921297200523
 20
0.2488323567708256
 30
0.0
  0
SPLINE
  5
BF
330
48
100
AcDbEntity
  8
0
  6
Continuous
 62
     8
370
     0
100
AcDbSpline
210
0.0
220
0.0
230
1.0
 70
     8
 71
     3
 72
     8
 73
     4
 74
     0
 42
0.00000001
 43
0.00000001
 40
2.0
 40
2.0
 40
2.0
 40
2.0
 40
3.0
 40
3.0
 40
3.0
 40
3.0
 10
5.562719889322942
 20
2.374924804687511
 30
0.0
 10
5.56258553059899
 20
1.616738525390626
 30
0.0
 10
5.78736767578128
 20
1.027172444661453
 30
0.0
 10
6.156383911132823
 20
0.6274552408854217
 30
0.0
  0
SPLINE
  5
C0
330
48
100
AcDbEntity
  8
0
  6
Continuous
 62
     8
370
     0
100
AcDbSpline
210
0.0
220
0.0
230
1.0
 70
     8
 71
     3
 72
     8
 73
     4
 74
     0
 42
0.00000001
 43
0.00000001
 40
8.0
 40
8.0
 40
8.0
 40
8.0
 40
9.0
 40
9.0
 40
9.0
 40
9.0
 10
30.04704451497398
 20
4.728150675455733
 30
0.0
 10
28.75840999348961
 20
4.731308105468749
 30
0.0
 10
27.89932031250003
 20
3.773464762369796
 30
0.0
 10
27.88521264648442
 20
2.375462239583334
 30
0.0
  0
SPLINE
  5
C1
330
48
100
AcDbEntity
  8
0
  6
Continuous
 62
     8
370
     0
100
AcDbSpline
210
0.0
220
0.0
230
1.0
 70
     8
 71
     3
 72
     8
 73
     4
 74
     0
 42
0.00000001
 43
0.00000001
 40
14.0
 40
14.0
 40
14.0
 40
14.0
 40
15.0
 40
15.0
 40
15.0
 40
15.0
 10
17.14827111816408
 20
0.6478777669270824
 30
0.0
 10
16.2179713134766
 20
0.657282877604165
 30
0.0
 10
15.82094128417971
 20
1.317387288411478
 30
0.0
 10
15.81482796223962
 20
2.27469319661458
 30
0.0
  0
SPLINE
  5
C2
330
48
100
AcDbEntity
  8
0
  6
Continuous
 62
     8
370
     0
100
AcDbSpline
210
0.0
220
0.0
230
1.0
 70
     8
 71
     3
 72
     8
 73
     4
 74
     0
 42
0.00000001
 43
0.00000001
 40
2.0
 40
2.0
 40
2.0
 40
2.0
 40
3.0
 40
3.0
 40
3.0
 40
3.0
 10
15.67294514973963
 20
4.121991292317703
 30
0.0
 10
15.30392891438806
 20
3.722677164713556
 30
0.0
 10
15.07874369303389
 20
3.132775187174488
 30
0.0
 10
15.07914676920577
 20
2.374387369791661
 30
0.0
  0
SPLINE
  5
C3
330
48
100
AcDbEntity
  8
0
  6
Continuous
 62
     8
370
     0
100
AcDbSpline
210
0.0
220
0.0
230
1.0
 70
     8
 71
     3
 72
     8
 73
     4
 74
     0
 42
0.00000001
 43
0.00000001
 40
3.0
 40
3.0
 40
3.0
 40
3.0
 40
4.0
 40
4.0
 40
4.0
 40
4.0
 10
2.782031738281288
 20
0.61254142252605
 30
0.0
 10
2.875411051432325
 20
0.592656331380198
 30
0.0
 10
2.97268676757817
 20
0.5827137858072928
 30
0.0
 10
3.072918375651073
 20
0.5823107096354085
 30
0.0
  0
SPLINE
  5
C4
330
48
100
AcDbEntity
  8
0
  6
Continuous
 62
     8
370
     0
100
AcDbSpline
210
0.0
220
0.0
230
1.0
 70
     8
 71
     3
 72
     8
 73
     4
 74
     0
 42
0.00000001
 43
0.00000001
 40
2.0
 40
2.0
 40
2.0
 40
2.0
 40
3.0
 40
3.0
 40
3.0
 40
3.0
 10
24.85381111653651
 20
3.43662744140627
 30
0.0
 10
24.86281315104172
 20
3.834396443684898
 30
0.0
 10
25.00859236653647
 20
4.105532348632812
 30
0.0
 10
25.73292024739587
 20
4.140331258138022
 30
0.0
  0
SPLINE
  5
C5
330
48
100
AcDbEntity
  8
0
  6
Continuous
 62
     8
370
     0
100
AcDbSpline
210
0.0
220
0.0
230
1.0
 70
     8
 71
     3
 72
     8
 73
     4
 74
     0
 42
0.00000001
 43
0.00000001
 40
3.0
 40
3.0
 40
3.0
 40
3.0
 40
4.0
 40
4.0
 40
4.0
 40
4.0
 10
8.9693181559245
 20
2.374924804687511
 30
0.0
 10
8.965757649739615
 20
1.265524820963537
 30
0.0
 10
8.372631062825542
 20
0.6497587890624962
 30
0.0
 10
7.597314046223991
 20
0.6473403320312598
 30
0.0
  0
SPLINE
  5
C6
330
48
100
AcDbEntity
  8
0
  6
Continuous
 62
     8
370
     0
100
AcDbSpline
210
0.0
220
0.0
230
1.0
 70
     8
 71
     3
 72
     8
 73
     4
 74
     0
 42
0.00000001
 43
0.00000001
 40
0.0
 40
0.0
 40
0.0
 40
0.0
 40
1.0
 40
1.0
 40
1.0
 40
1.0
 10
31.10619433593753
 20
1.32491137695312
 30
0.0
 10
30.92010750325525
 20
0.9410485026041526
 30
0.0
 10
30.58179223632818
 20
0.6500275065104283
 30
0.0
 10
29.91994116210939
 20
0.6473403320312598
 30
0.0
  0
SPLINE
  5
C7
330
48
100
AcDbEntity
  8
0
  6
Continuous
 62
     8
370
     0
100
AcDbSpline
210
0.0
220
0.0
230
1.0
 70
     8
 71
     3
 72
     8
 73
     4
 74
     0
 42
0.00000001
 43
0.00000001
 40
0.0
 40
0.0
 40
0.0
 40
0.0
 40
1.0
 40
1.0
 40
1.0
 40
1.0
 10
7.597314046223991
 20
0.6473403320312598
 30
0.0
 10
6.822332926432306
 20
0.6497587890624962
 30
0.0
 10
6.229273518880252
 20
1.265524820963537
 30
0.0
 10
6.225242757161492
 20
2.374924804687511
 30
0.0
  0
SPLINE
  5
C8
330
48
100
AcDbEntity
  8
0
  6
Continuous
 62
     8
370
     0
100
AcDbSpline
210
0.0
220
0.0
230
1.0
 70
     8
 71
     3
 72
     8
 73
     4
 74
     0
 42
0.00000001
 43
0.00000001
 40
7.0
 40
7.0
 40
7.0
 40
7.0
 40
8.0
 40
8.0
 40
8.0
 40
8.0
 10
14.31592203776044
 20
1.709446044921861
 30
0.0
 10
14.35723734537764
 20
1.929256917317712
 30
0.0
 10
14.37188244628909
 20
2.175805175781267
 30
0.0
 10
14.37188244628909
 20
2.301564941406236
 30
0.0
  0
SPLINE
  5
C9
330
48
100
AcDbEntity
  8
0
  6
Continuous
 62
     8
370
     0
100
AcDbSpline
210
0.0
220
0.0
230
1.0
 70
     8
 71
     3
 72
     8
 73
     4
 74
     0
 42
0.00000001
 43
0.00000001
 40
7.0
 40
7.0
 40
7.0
 40
7.0
 40
8.0
 40
8.0
 40
8.0
 40
8.0
 10
27.25869791666668
 20
3.709845906575512
 30
0.0
 10
26.96969230143231
 20
4.365382120768244
 30
0.0
 10
26.40552001953128
 20
4.717133260091141
 30
0.0
 10
25.76274788411459
 20
4.716125569661458
 30
0.0
  0
SPLINE
  5
CA
330
48
100
AcDbEntity
  8
0
  6
Continuous
 62
     8
370
     0
100
AcDbSpline
210
0.0
220
0.0
230
1.0
 70
     8
 71
     3
 72
     8
 73
     4
 74
     0
 42
0.00000001
 43
0.00000001
 40
1.0
 40
1.0
 40
1.0
 40
1.0
 40
2.0
 40
2.0
 40
2.0
 40
2.0
 10
6.156383911132823
 20
4.121991292317703
 30
0.0
 10
5.78736767578128
 20
3.722677164713556
 30
0.0
 10
5.56258553059899
 20
3.132775187174488
 30
0.0
 10
5.562719889322942
 20
2.374924804687511
 30
0.0
  0
SPLINE
  5
CB
330
48
100
AcDbEntity
  8
0
  6
Continuous
 62
     8
370
     0
100
AcDbSpline
210
0.0
220
0.0
230
1.0
 70
     8
 71
     3
 72
     8
 73
     4
 74
     0
 42
0.00000001
 43
0.00000001
 40
0.0
 40
0.0
 40
0.0
 40
0.0
 40
1.0
 40
1.0
 40
1.0
 40
1.0
 10
26.10213802083333
 20
2.708537516276047
 30
0.0
 10
25.77739298502607
 20
2.783375325520837
 30
0.0
 10
25.45546948242189
 20
2.838596761067707
 30
0.0
 10
25.22343196614585
 20
2.941784261067698
 30
0.0
  0
SPLINE
  5
CC
330
48
100
AcDbEntity
  8
0
  6
Continuous
 62
     8
370
     0
100
AcDbSpline
210
0.0
220
0.0
230
1.0
 70
     8
 71
     3
 72
     8
 73
     4
 74
     0
 42
0.00000001
 43
0.00000001
 40
7.0
 40
7.0
 40
7.0
 40
7.0
 40
8.0
 40
8.0
 40
8.0
 40
8.0
 10
34.11703898111984
 20
4.102106201171893
 30
0.0
 10
34.79098234049482
 20
4.090887247721373
 30
0.0
 10
35.11317456054691
 20
3.851930257161462
 30
0.0
 10
35.12419197591149
 20
2.985450846354182
 30
0.0
  0
SPLINE
  5
CD
330
48
100
AcDbEntity
  8
0
  6
Continuous
 62
     8
370
     0
100
AcDbSpline
210
0.0
220
0.0
230
1.0
 70
     8
 71
     3
 72
     8
 73
     4
 74
     0
 42
0.00000001
 43
0.00000001
 40
4.0
 40
4.0
 40
4.0
 40
4.0
 40
5.0
 40
5.0
 40
5.0
 40
5.0
 10
3.072918375651073
 20
0.5823107096354085
 30
0.0
 10
3.870538940429741
 20
0.5843260904947883
 30
0.0
 10
4.4800572916667
 20
1.218499267578124
 30
0.0
 10
4.484222412109412
 20
2.358936116536467
 30
0.0
  0
SPLINE
  5
CE
330
48
100
AcDbEntity
  8
0
  6
Continuous
 62
     8
370
     0
100
AcDbSpline
210
0.0
220
0.0
230
1.0
 70
     8
 71
     3
 72
     8
 73
     4
 74
     0
 42
0.00000001
 43
0.00000001
 40
4.0
 40
4.0
 40
4.0
 40
4.0
 40
5.0
 40
5.0
 40
5.0
 40
5.0
 10
15.67294514973963
 20
0.6274552408854217
 30
0.0
 10
16.04169266764327
 20
0.2281411132812466
 30
0.0
 10
16.55319632975266
 20
0.0210943196614632
 30
0.0
 10
17.11360656738284
 20
0.0213630371093815
 30
0.0
  0
SPLINE
  5
CF
330
48
100
AcDbEntity
  8
0
  6
Continuous
 62
     8
370
     0
100
AcDbSpline
210
0.0
220
0.0
230
1.0
 70
     8
 71
     3
 72
     8
 73
     4
 74
     0
 42
0.00000001
 43
0.00000001
 40
1.0
 40
1.0
 40
1.0
 40
1.0
 40
2.0
 40
2.0
 40
2.0
 40
2.0
 10
12.33843033854171
 20
4.728620930989594
 30
0.0
 10
11.77761702473962
 20
4.728620930989594
 30
0.0
 10
11.2662477213542
 20
4.522178751627623
 30
0.0
 10
10.89743302408858
 20
4.121991292317703
 30
0.0
  0
SPLINE
  5
D0
330
48
100
AcDbEntity
  8
0
  6
Continuous
 62
     8
370
     0
100
AcDbSpline
210
0.0
220
0.0
230
1.0
 70
     8
 71
     3
 72
     8
 73
     4
 74
     0
 42
0.00000001
 43
0.00000001
 40
1.0
 40
1.0
 40
1.0
 40
1.0
 40
2.0
 40
2.0
 40
2.0
 40
2.0
 10
29.91994116210939
 20
0.6473403320312598
 30
0.0
 10
29.26091162109379
 20
0.6494900716145918
 30
0.0
 10
28.55015397135418
 20
1.197270589192695
 30
0.0
 10
28.54786987304692
 20
2.374924804687511
 30
0.0
  0
SPLINE
  5
D1
330
48
100
AcDbEntity
  8
0
  6
Continuous
 62
     8
370
     0
100
AcDbSpline
210
0.0
220
0.0
230
1.0
 70
    24
 71
     2
 72
     6
 73
     3
 74
     0
 42
0.00000001
 43
0.00000001
 40
24.0
 40
24.0
 40
24.0
 40
25.0
 40
25.0
 40
25.0
 10
43.15817187500004
 20
0.67380900065106
 30
0.0
 10
42.94333227539065
 20
0.67380900065106
 30
0.0
 10
42.6923501790365
 20
0.67380900065106
 30
0.0
  0
SPLINE
  5
D2
330
48
100
AcDbEntity
  8
0
  6
Continuous
 62
     8
370
     0
100
AcDbSpline
210
0.0
220
0.0
230
1.0
 70
     8
 71
     3
 72
     8
 73
     4
 74
     0
 42
0.00000001
 43
0.00000001
 40
7.0
 40
7.0
 40
7.0
 40
7.0
 40
8.0
 40
8.0
 40
8.0
 40
8.0
 10
2.280067545572972
 20
0.0088676757812461
 30
0.0
 10
1.401764567057318
 20
0.2313657226562377
 30
0.0
 10
0.7479078369140857
 20
1.020320149739601
 30
0.0
 10
0.7272837727864967
 20
2.284904459635417
 30
0.0
  0
SPLINE
  5
D3
330
48
100
AcDbEntity
  8
0
  6
Continuous
 62
     8
370
     0
100
AcDbSpline
210
0.0
220
0.0
230
1.0
 70
     8
 71
     3
 72
     8
 73
     4
 74
     0
 42
0.00000001
 43
0.00000001
 40
12.0
 40
12.0
 40
12.0
 40
12.0
 40
13.0
 40
13.0
 40
13.0
 40
13.0
 10
23.03949808756511
 20
4.287386881510424
 30
0.0
 10
22.77622216796876
 20
4.569540201822917
 30
0.0
 10
22.37213830566409
 20
4.728889648437498
 30
0.0
 10
21.82442496744796
 20
4.728150675455733
 30
0.0
  0
SPLINE
  5
D4
330
48
100
AcDbEntity
  8
0
  6
Continuous
 62
     8
370
     0
100
AcDbSpline
210
0.0
220
0.0
230
1.0
 70
     8
 71
     3
 72
     8
 73
     4
 74
     0
 42
0.00000001
 43
0.00000001
 40
3.0
 40
3.0
 40
3.0
 40
3.0
 40
4.0
 40
4.0
 40
4.0
 40
4.0
 10
15.07914676920577
 20
2.374387369791661
 30
0.0
 10
15.07874369303389
 20
1.616738525390626
 30
0.0
 10
15.30392891438806
 20
1.027172444661453
 30
0.0
 10
15.67294514973963
 20
0.6274552408854217
 30
0.0
  0
SPLINE
  5
D5
330
48
100
AcDbEntity
  8
0
  6
Continuous
 62
     8
370
     0
100
AcDbSpline
210
0.0
220
0.0
230
1.0
 70
     8
 71
     3
 72
     8
 73
     4
 74
     0
 42
0.00000001
 43
0.00000001
 40
0.0
 40
0.0
 40
0.0
 40
0.0
 40
1.0
 40
1.0
 40
1.0
 40
1.0
 10
12.33843033854168
 20
0.6476090494791851
 30
0.0
 10
11.56291178385418
 20
0.6497587890625032
 30
0.0
 10
10.97012109375003
 20
1.265524820963551
 30
0.0
 10
10.96635904947918
 20
2.374924804687511
 30
0.0
  0
SPLINE
  5
D6
330
48
100
AcDbEntity
  8
0
  6
Continuous
 62
     8
370
     0
100
AcDbSpline
210
0.0
220
0.0
230
1.0
 70
     8
 71
     3
 72
     8
 73
     4
 74
     0
 42
0.00000001
 43
0.00000001
 40
1.0
 40
1.0
 40
1.0
 40
1.0
 40
2.0
 40
2.0
 40
2.0
 40
2.0
 10
10.96635904947921
 20
2.374924804687505
 30
0.0
 10
10.96991955566412
 20
3.475389933268257
 30
0.0
 10
11.56331486002607
 20
4.100292358398463
 30
0.0
 10
12.33843033854171
 20
4.102106201171893
 30
0.0
  0
SPLINE
  5
D7
330
48
100
AcDbEntity
  8
0
  6
Continuous
 62
     8
370
     0
100
AcDbSpline
210
0.0
220
0.0
230
1.0
 70
     8
 71
     3
 72
     8
 73
     4
 74
     0
 42
0.00000001
 43
0.00000001
 40
0.0
 40
0.0
 40
0.0
 40
0.0
 40
1.0
 40
1.0
 40
1.0
 40
1.0
 10
7.597314046223991
 20
4.728150675455733
 30
0.0
 10
7.036769449869834
 20
4.728620930989594
 30
0.0
 10
6.52513142903649
 20
4.522178751627623
 30
0.0
 10
6.156383911132823
 20
4.121991292317703
 30
0.0
  0
SPLINE
  5
D8
330
48
100
AcDbEntity
  8
0
  6
Continuous
 62
     8
370
     0
100
AcDbSpline
210
0.0
220
0.0
230
1.0
 70
     8
 71
     3
 72
     8
 73
     4
 74
     0
 42
0.00000001
 43
0.00000001
 40
8.0
 40
8.0
 40
8.0
 40
8.0
 40
9.0
 40
9.0
 40
9.0
 40
9.0
 10
39.80068172200524
 20
4.202136271158855
 30
0.0
 10
39.43979418945315
 20
4.548042805989583
 30
0.0
 10
38.96308943684895
 20
4.728620930989594
 30
0.0
 10
38.44244938151048
 20
4.728150675455733
 30
0.0
  0
SPLINE
  5
D9
330
48
100
AcDbEntity
  8
0
  6
Continuous
 62
     8
370
     0
100
AcDbSpline
210
0.0
220
0.0
230
1.0
 70
     8
 71
     3
 72
     8
 73
     4
 74
     0
 42
0.00000001
 43
0.00000001
 40
9.0
 40
9.0
 40
9.0
 40
9.0
 40
10.0
 40
10.0
 40
10.0
 40
10.0
 10
38.44244938151048
 20
4.728150675455733
 30
0.0
 10
37.88190478515624
 20
4.728620930989594
 30
0.0
 10
37.37026676432292
 20
4.522178751627623
 30
0.0
 10
37.00131770833337
 20
4.121991292317703
 30
0.0
  0
SPLINE
  5
DA
330
48
100
AcDbEntity
  8
0
  6
Continuous
 62
     8
370
     0
100
AcDbSpline
210
0.0
220
0.0
230
1.0
 70
     8
 71
     3
 72
     8
 73
     4
 74
     0
 42
0.00000001
 43
0.00000001
 40
0.0
 40
0.0
 40
0.0
 40
0.0
 40
1.0
 40
1.0
 40
1.0
 40
1.0
 10
3.072918375651073
 20
4.135091267903651
 30
0.0
 10
2.972149332682333
 20
4.134822550455733
 30
0.0
 10
2.874537719726566
 20
4.124409749348967
 30
0.0
 10
2.78068815104171
 20
4.104255940755225
 30
0.0
  0
SPLINE
  5
DB
330
48
100
AcDbEntity
  8
0
  6
Continuous
 62
     8
370
     0
100
AcDbSpline
210
0.0
220
0.0
230
1.0
 70
     8
 71
     3
 72
     8
 73
     4
 74
     0
 42
0.00000001
 43
0.00000001
 40
8.0
 40
8.0
 40
8.0
 40
8.0
 40
9.0
 40
9.0
 40
9.0
 40
9.0
 10
9.038378540039083
 20
4.121991292317703
 30
0.0
 10
8.669295125325549
 20
4.522178751627623
 30
0.0
 10
8.157925821940138
 20
4.728620930989594
 30
0.0
 10
7.597314046223991
 20
4.728150675455733
 30
0.0
  0
SPLINE
  5
DC
330
48
100
AcDbEntity
  8
0
  6
Continuous
 62
     8
370
     0
100
AcDbSpline
210
0.0
220
0.0
230
1.0
 70
     8
 71
     3
 72
     8
 73
     4
 74
     0
 42
0.00000001
 43
0.00000001
 40
3.0
 40
3.0
 40
3.0
 40
3.0
 40
4.0
 40
4.0
 40
4.0
 40
4.0
 10
38.44244938151048
 20
4.102106201171893
 30
0.0
 10
39.2168930664063
 20
4.100292358398469
 30
0.0
 10
39.81062426757814
 20
3.47538993326825
 30
0.0
 10
39.81465502929687
 20
2.374924804687511
 30
0.0
  0
SPLINE
  5
DD
330
48
100
AcDbEntity
  8
0
  6
Continuous
 62
     8
370
     0
100
AcDbSpline
210
0.0
220
0.0
230
1.0
 70
     8
 71
     3
 72
     8
 73
     4
 74
     0
 42
0.00000001
 43
0.00000001
 40
2.0
 40
2.0
 40
2.0
 40
2.0
 40
3.0
 40
3.0
 40
3.0
 40
3.0
 10
10.89743302408858
 20
4.121991292317703
 30
0.0
 10
10.5281480712891
 20
3.722677164713556
 30
0.0
 10
10.30343310546877
 20
3.132775187174488
 30
0.0
 10
10.30343310546877
 20
2.374924804687511
 30
0.0
  0
SPLINE
  5
DE
330
48
100
AcDbEntity
  8
0
  6
Continuous
 62
     8
370
     0
100
AcDbSpline
210
0.0
220
0.0
230
1.0
 70
     8
 71
     3
 72
     8
 73
     4
 74
     0
 42
0.00000001
 43
0.00000001
 40
4.0
 40
4.0
 40
4.0
 40
4.0
 40
5.0
 40
5.0
 40
5.0
 40
5.0
 10
39.81465502929687
 20
2.374924804687511
 30
0.0
 10
39.81062426757814
 20
1.265524820963537
 30
0.0
 10
39.21743050130211
 20
0.6497587890624962
 30
0.0
 10
38.44244938151048
 20
0.6476090494791781
 30
0.0
  0
SPLINE
  5
DF
330
48
100
AcDbEntity
  8
0
  6
Continuous
 62
     8
370
     0
100
AcDbSpline
210
0.0
220
0.0
230
1.0
 70
     8
 71
     3
 72
     8
 73
     4
 74
     0
 42
0.00000001
 43
0.00000001
 40
5.0
 40
5.0
 40
5.0
 40
5.0
 40
6.0
 40
6.0
 40
6.0
 40
6.0
 10
7.599195068359377
 20
0.0213630371093815
 30
0.0
 10
8.159067871093772
 20
0.0213630371093815
 30
0.0
 10
8.669496663411492
 20
0.2281411132812466
 30
0.0
 10
9.038378540039083
 20
0.6274552408854217
 30
0.0
  0
SPLINE
  5
E0
330
48
100
AcDbEntity
  8
0
  6
Continuous
 62
     8
370
     0
100
AcDbSpline
210
0.0
220
0.0
230
1.0
 70
     8
 71
     3
 72
     8
 73
     4
 74
     0
 42
0.00000001
 43
0.00000001
 40
0.0
 40
0.0
 40
0.0
 40
0.0
 40
1.0
 40
1.0
 40
1.0
 40
1.0
 10
34.18986140950525
 20
4.728620930989594
 30
0.0
 10
33.71799357096356
 20
4.729427083333348
 30
0.0
 10
33.22677807617191
 20
4.558791503906257
 30
0.0
 10
32.92688940429689
 20
4.101098510742196
 30
0.0
  0
SPLINE
  5
E1
330
48
100
AcDbEntity
  8
0
  6
Continuous
 62
     8
370
     0
100
AcDbSpline
210
0.0
220
0.0
230
1.0
 70
     8
 71
     3
 72
     8
 73
     4
 74
     0
 42
0.00000001
 43
0.00000001
 40
5.0
 40
5.0
 40
5.0
 40
5.0
 40
6.0
 40
6.0
 40
6.0
 40
6.0
 10
17.11360656738284
 20
0.0213630371093815
 30
0.0
 10
17.12838602701827
 20
0.0213630371093815
 30
0.0
 10
17.13926908365887
 20
0.0221691894531223
 30
0.0
 10
17.14806958007817
 20
0.0221691894531223
 30
0.0
  0
SPLINE
  5
E2
330
48
100
AcDbEntity
  8
0
  6
Continuous
 62
     8
370
     0
100
AcDbSpline
210
0.0
220
0.0
230
1.0
 70
     8
 71
     3
 72
     8
 73
     4
 74
     0
 42
0.00000001
 43
0.00000001
 40
3.0
 40
3.0
 40
3.0
 40
3.0
 40
4.0
 40
4.0
 40
4.0
 40
4.0
 10
6.156383911132823
 20
0.6274552408854217
 30
0.0
 10
6.52513142903649
 20
0.2281411132812466
 30
0.0
 10
7.036769449869834
 20
0.0210943196614632
 30
0.0
 10
7.597314046223991
 20
0.0213630371093815
 30
0.0
  0
SPLINE
  5
E3
330
48
100
AcDbEntity
  8
0
  6
Continuous
 62
     8
370
     0
100
AcDbSpline
210
0.0
220
0.0
230
1.0
 70
     8
 71
     3
 72
     8
 73
     4
 74
     0
 42
0.00000001
 43
0.00000001
 40
16.0
 40
16.0
 40
16.0
 40
16.0
 40
17.0
 40
17.0
 40
17.0
 40
17.0
 10
25.79203808593755
 20
0.5801609700520766
 30
0.0
 10
25.41449007161462
 20
0.5882224934895819
 30
0.0
 10
24.87396492513022
 20
0.7154602050781361
 30
0.0
 10
24.69365551757813
 20
1.33619750976563
 30
0.0
  0
SPLINE
  5
E4
330
48
100
AcDbEntity
  8
0
  6
Continuous
 62
     8
370
     0
100
AcDbSpline
210
0.0
220
0.0
230
1.0
 70
     8
 71
     3
 72
     8
 73
     4
 74
     0
 42
0.00000001
 43
0.00000001
 40
2.0
 40
2.0
 40
2.0
 40
2.0
 40
3.0
 40
3.0
 40
3.0
 40
3.0
 10
12.33843033854171
 20
4.102106201171893
 30
0.0
 10
13.11300838216148
 20
4.100292358398469
 30
0.0
 10
13.71030008951826
 20
3.54364416503905
 30
0.0
 10
13.71030008951826
 20
2.374924804687511
 30
0.0
  0
SPLINE
  5
E5
330
48
100
AcDbEntity
  8
0
  6
Continuous
 62
     8
370
     0
100
AcDbSpline
210
0.0
220
0.0
230
1.0
 70
     8
 71
     3
 72
     8
 73
     4
 74
     0
 42
0.00000001
 43
0.00000001
 40
6.0
 40
6.0
 40
6.0
 40
6.0
 40
7.0
 40
7.0
 40
7.0
 40
7.0
 10
20.5614529622396
 20
2.738902587890613
 30
0.0
 10
20.56615551757818
 20
3.697552083333347
 30
0.0
 10
21.12240063476567
 20
4.097403645833345
 30
0.0
 10
21.75140100097656
 20
4.102106201171893
 30
0.0
  0
SPLINE
  5
E6
330
48
100
AcDbEntity
  8
0
  6
Continuous
 62
     8
370
     0
100
AcDbSpline
210
0.0
220
0.0
230
1.0
 70
     8
 71
     3
 72
     8
 73
     4
 74
     0
 42
0.00000001
 43
0.00000001
 40
14.0
 40
14.0
 40
14.0
 40
14.0
 40
15.0
 40
15.0
 40
15.0
 40
15.0
 10
38.44352425130209
 20
0.0213630371093815
 30
0.0
 10
38.98163094075524
 20
0.0213630371093815
 30
0.0
 10
39.47284643554688
 20
0.214302164713534
 30
0.0
 10
39.83763037109378
 20
0.5832512207031293
 30
0.0
  0
SPLINE
  5
E7
330
48
100
AcDbEntity
  8
0
  6
Continuous
 62
     8
370
     0
100
AcDbSpline
210
0.0
220
0.0
230
1.0
 70
     8
 71
     3
 72
     8
 73
     4
 74
     0
 42
0.00000001
 43
0.00000001
 40
25.0
 40
25.0
 40
25.0
 40
25.0
 40
26.0
 40
26.0
 40
26.0
 40
26.0
 10
42.6923501790365
 20
0.67380900065106
 30
0.0
 10
42.55463248697916
 20
0.6774366861979492
 30
0.0
 10
42.50935359700525
 20
0.7223125000000302
 30
0.0
 10
42.47119571940105
 20
0.814616943359367
 30
0.0
  0
SPLINE
  5
E8
330
48
100
AcDbEntity
  8
0
  6
Continuous
 62
     8
370
     0
100
AcDbSpline
210
0.0
220
0.0
230
1.0
 70
     8
 71
     3
 72
     8
 73
     4
 74
     0
 42
0.00000001
 43
0.00000001
 40
11.0
 40
11.0
 40
11.0
 40
11.0
 40
12.0
 40
12.0
 40
12.0
 40
12.0
 10
36.40745214843749
 20
2.374924804687511
 30
0.0
 10
36.40745214843749
 20
1.616738525390626
 30
0.0
 10
36.63277172851564
 20
1.027172444661453
 30
0.0
 10
37.00131770833337
 20
0.6274552408854217
 30
0.0
  0
SPLINE
  5
E9
330
48
100
AcDbEntity
  8
0
  6
Continuous
 62
     8
370
     0
100
AcDbSpline
210
0.0
220
0.0
230
1.0
 70
     8
 71
     3
 72
     8
 73
     4
 74
     0
 42
0.00000001
 43
0.00000001
 40
11.0
 40
11.0
 40
11.0
 40
11.0
 40
12.0
 40
12.0
 40
12.0
 40
12.0
 10
29.93243652343752
 20
0.0213630371093815
 30
0.0
 10
30.88692089843753
 20
0.0213630371093815
 30
0.0
 10
31.49301310221358
 20
0.4468771158854246
 30
0.0
 10
31.81587711588546
 20
1.278691975911461
 30
0.0
  0
SPLINE
  5
EA
330
48
100
AcDbEntity
  8
0
  6
Continuous
 62
     8
370
     0
100
AcDbSpline
210
0.0
220
0.0
230
1.0
 70
     8
 71
     2
 72
     6
 73
     3
 74
     0
 42
0.00000001
 43
0.00000001
 40
22.0
 40
22.0
 40
22.0
 40
23.0
 40
23.0
 40
23.0
 10
42.57371142578126
 20
0.1099054361979185
 30
0.0
 10
42.6103913574219
 20
0.1099054361979185
 30
0.0
 10
43.15817187500004
 20
0.1096367187500003
 30
0.0
  0
SPLINE
  5
EB
330
48
100
AcDbEntity
  8
0
  6
Continuous
 62
     8
370
     0
100
AcDbSpline
210
0.0
220
0.0
230
1.0
 70
     8
 71
     3
 72
     8
 73
     4
 74
     0
 42
0.00000001
 43
0.00000001
 40
22.0
 40
22.0
 40
22.0
 40
22.0
 40
23.0
 40
23.0
 40
23.0
 40
23.0
 10
25.7947252604167
 20
0.0119579264322989
 30
0.0
 10
26.84205151367192
 20
0.0481004231770721
 30
0.0
 10
27.44263500976568
 20
0.6660161946614729
 30
0.0
 10
27.44102270507814
 20
1.396121500651049
 30
0.0
  0
SPLINE
  5
EC
330
48
100
AcDbEntity
  8
0
  6
Continuous
 62
     8
370
     0
100
AcDbSpline
210
0.0
220
0.0
230
1.0
 70
     8
 71
     3
 72
     8
 73
     4
 74
     0
 42
0.00000001
 43
0.00000001
 40
2.0
 40
2.0
 40
2.0
 40
2.0
 40
3.0
 40
3.0
 40
3.0
 40
3.0
 10
7.597314046223991
 20
4.102106201171865
 30
0.0
 10
8.372227986653686
 20
4.100292358398469
 30
0.0
 10
8.965757649739615
 20
3.47538993326825
 30
0.0
 10
8.9693181559245
 20
2.374924804687511
 30
0.0
  0
SPLINE
  5
ED
330
48
100
AcDbEntity
  8
0
  6
Continuous
 62
     8
370
     0
100
AcDbSpline
210
0.0
220
0.0
230
1.0
 70
     8
 71
     3
 72
     8
 73
     4
 74
     0
 42
0.00000001
 43
0.00000001
 40
6.0
 40
6.0
 40
6.0
 40
6.0
 40
7.0
 40
7.0
 40
7.0
 40
7.0
 10
32.92688940429689
 20
2.739440022786463
 30
0.0
 10
32.93159195963541
 20
3.697552083333347
 30
0.0
 10
33.48770271809898
 20
4.097403645833345
 30
0.0
 10
34.11703898111984
 20
4.102106201171893
 30
0.0
  0
SPLINE
  5
EE
330
48
100
AcDbEntity
  8
0
  6
Continuous
 62
     8
370
     0
100
AcDbSpline
210
0.0
220
0.0
230
1.0
 70
     8
 71
     3
 72
     8
 73
     4
 74
     0
 42
0.00000001
 43
0.00000001
 40
11.0
 40
11.0
 40
11.0
 40
11.0
 40
12.0
 40
12.0
 40
12.0
 40
12.0
 10
25.66412858072919
 20
4.713236857096362
 30
0.0
 10
24.71649650065105
 20
4.68549178059896
 30
0.0
 10
24.18913850911464
 20
4.100023640950523
 30
0.0
 10
24.19128824869793
 20
3.454698689778657
 30
0.0
  0
SPLINE
  5
EF
330
48
100
AcDbEntity
  8
0
  6
Continuous
 62
     8
370
     0
100
AcDbSpline
210
0.0
220
0.0
230
1.0
 70
     8
 71
     3
 72
     8
 73
     4
 74
     0
 42
0.00000001
 43
0.00000001
 40
4.0
 40
4.0
 40
4.0
 40
4.0
 40
5.0
 40
5.0
 40
5.0
 40
5.0
 10
10.89743302408858
 20
0.6274552408854217
 30
0.0
 10
11.2662477213542
 20
0.2281411132812466
 30
0.0
 10
11.77761702473962
 20
0.0210943196614632
 30
0.0
 10
12.33843033854171
 20
0.0213630371093815
 30
0.0
  0
SPLINE
  5
F0
330
48
100
AcDbEntity
  8
0
  6
Continuous
 62
     8
370
     0
100
AcDbSpline
210
0.0
220
0.0
230
1.0
 70
     8
 71
     3
 72
     8
 73
     4
 74
     0
 42
0.00000001
 43
0.00000001
 40
26.0
 40
26.0
 40
26.0
 40
26.0
 40
27.0
 40
27.0
 40
27.0
 40
27.0
 10
42.47119571940105
 20
0.814616943359367
 30
0.0
 10
42.43505322265628
 20
0.9082649739583365
 30
0.0
 10
42.43088810221357
 20
1.055119059244797
 30
0.0
 10
42.43115681966147
 20
1.21823055013022
 30
0.0
  0
SPLINE
  5
F1
330
48
100
AcDbEntity
  8
0
  6
Continuous
 62
     8
370
     0
100
AcDbSpline
210
0.0
220
0.0
230
1.0
 70
     8
 71
     3
 72
     8
 73
     4
 74
     0
 42
0.00000001
 43
0.00000001
 40
11.0
 40
11.0
 40
11.0
 40
11.0
 40
12.0
 40
12.0
 40
12.0
 40
12.0
 10
35.78752099609378
 20
3.149032592773438
 30
0.0
 10
35.78752099609378
 20
3.60934558105469
 30
0.0
 10
35.66874788411462
 20
4.006106892903649
 30
0.0
 10
35.40486735026044
 20
4.287386881510424
 30
0.0
  0
HATCH
  5
F2
330
48
100
AcDbEntity
  8
0
  6
Continuous
 62
     7
100
AcDbHatch
 10
0.0
 20
0.0
 30
0.0
210
0.0
220
0.0
230
1.0
  2
SOLID
 70
     1
 71
     0
 91
        2
 92
        0
 93
       12
 72
     4
 94
        3
 73
     1
 74
     0
 95
        8
 96
        4
 40
4.0
 40
4.0
 40
4.0
 40
4.0
 40
5.0
 40
5.0
 40
5.0
 40
5.0
 10
10.89743302408858
 20
0.6274552408854217
 42
1.0
 10
11.2662477213542
 20
0.2281411132812466
 42
1.0
 10
11.77761702473962
 20
0.0210943196614632
 42
1.0
 10
12.33843033854171
 20
0.0213630371093815
 42
1.0
 72
     1
 10
12.33843033854171
 20
0.0213630371093815
 11
12.34555135091148
 21
0.0213630371093815
 72
     4
 94
        3
 73
     1
 74
     0
 95
        8
 96
        4
 40
6.0
 40
6.0
 40
6.0
 40
6.0
 40
7.0
 40
7.0
 40
7.0
 40
7.0
 10
12.34555135091148
 20
0.0213630371093815
 42
1.0
 10
13.29291471354169
 20
0.0213630371093815
 42
1.0
 10
14.10538191731775
 20
0.5887599283854184
 42
1.0
 10
14.31592203776044
 20
1.709446044921861
 42
1.0
 72
     4
 94
        3
 73
     1
 74
     0
 95
        8
 96
        4
 40
7.0
 40
7.0
 40
7.0
 40
7.0
 40
8.0
 40
8.0
 40
8.0
 40
8.0
 10
14.31592203776044
 20
1.709446044921861
 42
1.0
 10
14.35723734537764
 20
1.929256917317712
 42
1.0
 10
14.37188244628909
 20
2.175805175781267
 42
1.0
 10
14.37188244628909
 20
2.301564941406236
 42
1.0
 72
     1
 10
14.37188244628909
 20
2.301564941406236
 11
14.37309167480472
 21
2.301564941406236
 72
     1
 10
14.37309167480472
 20
2.301564941406236
 11
14.37309167480472
 21
5.806580973307315
 72
     1
 10
14.37309167480472
 20
5.806580973307315
 11
13.71473392740888
 21
5.806580973307315
 72
     1
 10
13.71473392740888
 20
5.806580973307315
 11
13.71473392740888
 21
4.116818481445322
 72
     4
 94
        3
 73
     1
 74
     0
 95
        8
 96
        4
 40
0.0
 40
0.0
 40
0.0
 40
0.0
 40
1.0
 40
1.0
 40
1.0
 40
1.0
 10
13.71473392740888
 20
4.116818481445322
 42
1.0
 10
13.39401965332035
 20
4.506996215820333
 42
1.0
 10
12.86787089029953
 20
4.728620930989594
 42
1.0
 10
12.33843033854171
 20
4.728620930989594
 42
1.0
 72
     4
 94
        3
 73
     1
 74
     0
 95
        8
 96
        4
 40
1.0
 40
1.0
 40
1.0
 40
1.0
 40
2.0
 40
2.0
 40
2.0
 40
2.0
 10
12.33843033854171
 20
4.728620930989594
 42
1.0
 10
11.77761702473962
 20
4.728620930989594
 42
1.0
 10
11.2662477213542
 20
4.522178751627623
 42
1.0
 10
10.89743302408858
 20
4.121991292317703
 42
1.0
 72
     4
 94
        3
 73
     1
 74
     0
 95
        8
 96
        4
 40
2.0
 40
2.0
 40
2.0
 40
2.0
 40
3.0
 40
3.0
 40
3.0
 40
3.0
 10
10.89743302408858
 20
4.121991292317703
 42
1.0
 10
10.5281480712891
 20
3.722677164713556
 42
1.0
 10
10.30343310546877
 20
3.132775187174488
 42
1.0
 10
10.30343310546877
 20
2.374924804687511
 42
1.0
 72
     4
 94
        3
 73
     1
 74
     0
 95
        8
 96
        4
 40
3.0
 40
3.0
 40
3.0
 40
3.0
 40
4.0
 40
4.0
 40
4.0
 40
4.0
 10
10.30343310546877
 20
2.374924804687511
 42
1.0
 10
10.30343310546877
 20
1.616738525390626
 42
1.0
 10
10.5281480712891
 20
1.027172444661453
 42
1.0
 10
10.89743302408858
 20
0.6274552408854217
 42
1.0
 97
        0
 92
        0
 93
        4
 72
     4
 94
        3
 73
     1
 74
     0
 95
        8
 96
        4
 40
1.0
 40
1.0
 40
1.0
 40
1.0
 40
2.0
 40
2.0
 40
2.0
 40
2.0
 10
10.96635904947921
 20
2.374924804687505
 42
1.0
 10
10.96991955566412
 20
3.475389933268257
 42
1.0
 10
11.56331486002607
 20
4.100292358398463
 42
1.0
 10
12.33843033854171
 20
4.102106201171893
 42
1.0
 72
     4
 94
        3
 73
     1
 74
     0
 95
        8
 96
        4
 40
2.0
 40
2.0
 40
2.0
 40
2.0
 40
3.0
 40
3.0
 40
3.0
 40
3.0
 10
12.33843033854171
 20
4.102106201171893
 42
1.0
 10
13.11300838216148
 20
4.100292358398469
 42
1.0
 10
13.71030008951826
 20
3.54364416503905
 42
1.0
 10
13.71030008951826
 20
2.374924804687511
 42
1.0
 72
     4
 94
        3
 73
     1
 74
     0
 95
        8
 96
        4
 40
3.0
 40
3.0
 40
3.0
 40
3.0
 40
4.0
 40
4.0
 40
4.0
 40
4.0
 10
13.71030008951826
 20
2.374924804687511
 42
1.0
 10
13.71721956380212
 20
1.167711669921884
 42
1.0
 10
13.11347863769535
 20
0.6497587890624962
 42
1.0
 10
12.33843033854171
 20
0.6476090494791781
 42
1.0
 72
     4
 94
        3
 73
     1
 74
     0
 95
        8
 96
        4
 40
0.0
 40
0.0
 40
0.0
 40
0.0
 40
1.0
 40
1.0
 40
1.0
 40
1.0
 10
12.33843033854168
 20
0.6476090494791851
 42
1.0
 10
11.56291178385418
 20
0.6497587890625032
 42
1.0
 10
10.97012109375003
 20
1.265524820963551
 42
1.0
 10
10.96635904947918
 20
2.374924804687511
 42
1.0
 97
        0
 75
     0
 76
     1
 98
        1
 10
0.0
 20
0.0
  0
HATCH
  5
F3
330
48
100
AcDbEntity
  8
0
  6
Continuous
 62
     7
100
AcDbHatch
 10
0.0
 20
0.0
 30
0.0
210
0.0
220
0.0
230
1.0
  2
SOLID
 70
     1
 71
     0
 91
        1
 92
        0
 93
        8
 72
     4
 94
        3
 73
     1
 74
     0
 95
        8
 96
        4
 40
7.0
 40
7.0
 40
7.0
 40
7.0
 40
8.0
 40
8.0
 40
8.0
 40
8.0
 10
2.280067545572972
 20
0.0088676757812461
 42
1.0
 10
1.401764567057318
 20
0.2313657226562377
 42
1.0
 10
0.7479078369140857
 20
1.020320149739601
 42
1.0
 10
0.7272837727864967
 20
2.284904459635417
 42
1.0
 72
     1
 10
0.7272837727864967
 20
2.284904459635417
 11
0.7260745442708716
 21
2.284904459635417
 72
     1
 10
0.7260745442708716
 20
2.284904459635417
 11
0.7260745442708716
 21
5.825727091471361
 72
     1
 10
0.7260745442708716
 20
5.825727091471361
 11
0.0000000000000278
 21
5.825727091471361
 72
     1
 10
0.0000000000000278
 20
5.825727091471361
 11
0.0000000000000278
 21
2.342947428385422
 72
     1
 10
0.0000000000000278
 20
2.342947428385422
 11
0.0006046142578264
 21
2.342947428385422
 72
     4
 94
        3
 73
     1
 74
     0
 95
        8
 96
        4
 40
5.0
 40
5.0
 40
5.0
 40
5.0
 40
6.0
 40
6.0
 40
6.0
 40
6.0
 10
0.0006046142578264
 20
2.342947428385422
 42
1.0
 10
0.0069194742838841
 20
0.8182446289062562
 42
1.0
 10
0.9118926595052257
 20
0.0
 42
1.0
 10
2.031168009440143
 20
0.0
 42
1.0
 72
     4
 94
        3
 73
     1
 74
     0
 95
        8
 96
        4
 40
6.0
 40
6.0
 40
6.0
 40
6.0
 40
7.0
 40
7.0
 40
7.0
 40
7.0
 10
2.031168009440143
 20
0.0
 42
1.0
 10
2.114134521484401
 20
0.0
 42
1.0
 10
2.197101033528659
 20
0.0030902506510527
 42
1.0
 10
2.280067545572972
 20
0.0088676757812461
 42
1.0
 97
        0
 75
     0
 76
     1
 98
        1
 10
0.0
 20
0.0
  0
HATCH
  5
F4
330
48
100
AcDbEntity
  8
0
  6
Continuous
 62
     7
100
AcDbHatch
 10
0.0
 20
0.0
 30
0.0
210
0.0
220
0.0
230
1.0
  2
SOLID
 70
     1
 71
     0
 91
        2
 92
        0
 93
        9
 72
     4
 94
        3
 73
     1
 74
     0
 95
        8
 96
        4
 40
3.0
 40
3.0
 40
3.0
 40
3.0
 40
4.0
 40
4.0
 40
4.0
 40
4.0
 10
6.156383911132823
 20
0.6274552408854217
 42
1.0
 10
6.52513142903649
 20
0.2281411132812466
 42
1.0
 10
7.036769449869834
 20
0.0210943196614632
 42
1.0
 10
7.597314046223991
 20
0.0213630371093815
 42
1.0
 72
     1
 10
7.597314046223991
 20
0.0213630371093815
 11
7.599195068359377
 21
0.0213630371093815
 72
     4
 94
        3
 73
     1
 74
     0
 95
        8
 96
        4
 40
5.0
 40
5.0
 40
5.0
 40
5.0
 40
6.0
 40
6.0
 40
6.0
 40
6.0
 10
7.599195068359377
 20
0.0213630371093815
 42
1.0
 10
8.159067871093772
 20
0.0213630371093815
 42
1.0
 10
8.669496663411492
 20
0.2281411132812466
 42
1.0
 10
9.038378540039083
 20
0.6274552408854217
 42
1.0
 72
     4
 94
        3
 73
     1
 74
     0
 95
        8
 96
        4
 40
6.0
 40
6.0
 40
6.0
 40
6.0
 40
7.0
 40
7.0
 40
7.0
 40
7.0
 10
9.038378540039083
 20
0.6274552408854217
 42
1.0
 10
9.407529134114606
 20
1.027172444661453
 42
1.0
 10
9.632311279296896
 20
1.616738525390626
 42
1.0
 10
9.632311279296896
 20
2.374924804687511
 42
1.0
 72
     4
 94
        3
 73
     1
 74
     0
 95
        8
 96
        4
 40
7.0
 40
7.0
 40
7.0
 40
7.0
 40
8.0
 40
8.0
 40
8.0
 40
8.0
 10
9.632311279296896
 20
2.374924804687511
 42
1.0
 10
9.632311279296896
 20
3.132775187174488
 42
1.0
 10
9.407529134114606
 20
3.722677164713556
 42
1.0
 10
9.038378540039083
 20
4.121991292317703
 42
1.0
 72
     4
 94
        3
 73
     1
 74
     0
 95
        8
 96
        4
 40
8.0
 40
8.0
 40
8.0
 40
8.0
 40
9.0
 40
9.0
 40
9.0
 40
9.0
 10
9.038378540039083
 20
4.121991292317703
 42
1.0
 10
8.669295125325549
 20
4.522178751627623
 42
1.0
 10
8.157925821940138
 20
4.728620930989594
 42
1.0
 10
7.597314046223991
 20
4.728150675455733
 42
1.0
 72
     4
 94
        3
 73
     1
 74
     0
 95
        8
 96
        4
 40
0.0
 40
0.0
 40
0.0
 40
0.0
 40
1.0
 40
1.0
 40
1.0
 40
1.0
 10
7.597314046223991
 20
4.728150675455733
 42
1.0
 10
7.036769449869834
 20
4.728620930989594
 42
1.0
 10
6.52513142903649
 20
4.522178751627623
 42
1.0
 10
6.156383911132823
 20
4.121991292317703
 42
1.0
 72
     4
 94
        3
 73
     1
 74
     0
 95
        8
 96
        4
 40
1.0
 40
1.0
 40
1.0
 40
1.0
 40
2.0
 40
2.0
 40
2.0
 40
2.0
 10
6.156383911132823
 20
4.121991292317703
 42
1.0
 10
5.78736767578128
 20
3.722677164713556
 42
1.0
 10
5.56258553059899
 20
3.132775187174488
 42
1.0
 10
5.562719889322942
 20
2.374924804687511
 42
1.0
 72
     4
 94
        3
 73
     1
 74
     0
 95
        8
 96
        4
 40
2.0
 40
2.0
 40
2.0
 40
2.0
 40
3.0
 40
3.0
 40
3.0
 40
3.0
 10
5.562719889322942
 20
2.374924804687511
 42
1.0
 10
5.56258553059899
 20
1.616738525390626
 42
1.0
 10
5.78736767578128
 20
1.027172444661453
 42
1.0
 10
6.156383911132823
 20
0.6274552408854217
 42
1.0
 97
        0
 92
        0
 93
        4
 72
     4
 94
        3
 73
     1
 74
     0
 95
        8
 96
        4
 40
1.0
 40
1.0
 40
1.0
 40
1.0
 40
2.0
 40
2.0
 40
2.0
 40
2.0
 10
6.225242757161492
 20
2.374924804687511
 42
1.0
 10
6.229004801432319
 20
3.47538993326825
 42
1.0
 10
6.82280318196618
 20
4.100292358398455
 42
1.0
 10
7.597314046223991
 20
4.102106201171865
 42
1.0
 72
     4
 94
        3
 73
     1
 74
     0
 95
        8
 96
        4
 40
2.0
 40
2.0
 40
2.0
 40
2.0
 40
3.0
 40
3.0
 40
3.0
 40
3.0
 10
7.597314046223991
 20
4.102106201171865
 42
1.0
 10
8.372227986653686
 20
4.100292358398469
 42
1.0
 10
8.965757649739615
 20
3.47538993326825
 42
1.0
 10
8.9693181559245
 20
2.374924804687511
 42
1.0
 72
     4
 94
        3
 73
     1
 74
     0
 95
        8
 96
        4
 40
3.0
 40
3.0
 40
3.0
 40
3.0
 40
4.0
 40
4.0
 40
4.0
 40
4.0
 10
8.9693181559245
 20
2.374924804687511
 42
1.0
 10
8.965757649739615
 20
1.265524820963537
 42
1.0
 10
8.372631062825542
 20
0.6497587890624962
 42
1.0
 10
7.597314046223991
 20
0.6473403320312598
 42
1.0
 72
     4
 94
        3
 73
     1
 74
     0
 95
        8
 96
        4
 40
0.0
 40
0.0
 40
0.0
 40
0.0
 40
1.0
 40
1.0
 40
1.0
 40
1.0
 10
7.597314046223991
 20
0.6473403320312598
 42
1.0
 10
6.822332926432306
 20
0.6497587890624962
 42
1.0
 10
6.229273518880252
 20
1.265524820963537
 42
1.0
 10
6.225242757161492
 20
2.374924804687511
 42
1.0
 97
        0
 75
     0
 76
     1
 98
        1
 10
0.0
 20
0.0
  0
HATCH
  5
F5
330
48
100
AcDbEntity
  8
0
  6
Continuous
 62
     7
100
AcDbHatch
 10
0.0
 20
0.0
 30
0.0
210
0.0
220
0.0
230
1.0
  2
SOLID
 70
     1
 71
     0
 91
        1
 92
        0
 93
        5
 72
     4
 94
        3
 73
     1
 74
     0
 95
        8
 96
        4
 40
0.0
 40
0.0
 40
0.0
 40
0.0
 40
1.0
 40
1.0
 40
1.0
 40
1.0
 10
3.072918375651073
 20
4.135091267903651
 42
1.0
 10
2.972149332682333
 20
4.134822550455733
 42
1.0
 10
2.874537719726566
 20
4.124409749348967
 42
1.0
 10
2.78068815104171
 20
4.104255940755225
 42
1.0
 72
     4
 94
        3
 73
     1
 74
     0
 95
       11
 96
        7
 40
1.0
 40
1.0
 40
1.0
 40
1.0
 40
2.0
 40
2.0
 40
2.0
 40
3.0
 40
3.0
 40
3.0
 40
3.0
 10
2.78068815104171
 20
4.104255940755225
 42
1.0
 10
3.359438354492206
 20
3.885721476237003
 42
1.0
 10
3.758416585286501
 20
3.269686726888044
 42
1.0
 10
3.758416585286501
 20
2.358936116536495
 42
1.0
 10
3.758416585286501
 20
1.441400390625014
 42
1.0
 10
3.360110148111994
 20
0.8297994791666707
 42
1.0
 10
2.782031738281288
 20
0.61254142252605
 42
1.0
 72
     4
 94
        3
 73
     1
 74
     0
 95
        8
 96
        4
 40
3.0
 40
3.0
 40
3.0
 40
3.0
 40
4.0
 40
4.0
 40
4.0
 40
4.0
 10
2.782031738281288
 20
0.61254142252605
 42
1.0
 10
2.875411051432325
 20
0.592656331380198
 42
1.0
 10
2.97268676757817
 20
0.5827137858072928
 42
1.0
 10
3.072918375651073
 20
0.5823107096354085
 42
1.0
 72
     4
 94
        3
 73
     1
 74
     0
 95
        8
 96
        4
 40
4.0
 40
4.0
 40
4.0
 40
4.0
 40
5.0
 40
5.0
 40
5.0
 40
5.0
 10
3.072918375651073
 20
0.5823107096354085
 42
1.0
 10
3.870538940429741
 20
0.5843260904947883
 42
1.0
 10
4.4800572916667
 20
1.218499267578124
 42
1.0
 10
4.484222412109412
 20
2.358936116536467
 42
1.0
 72
     4
 94
        3
 73
     1
 74
     0
 95
        8
 96
        4
 40
5.0
 40
5.0
 40
5.0
 40
5.0
 40
6.0
 40
6.0
 40
6.0
 40
6.0
 10
4.484222412109412
 20
2.358936116536467
 42
1.0
 10
4.480460367838557
 20
3.490303751627608
 42
1.0
 10
3.870068684895867
 20
4.133546142578118
 42
1.0
 10
3.072918375651073
 20
4.135091267903651
 42
1.0
 97
        0
 75
     0
 76
     1
 98
        1
 10
0.0
 20
0.0
  0
HATCH
  5
F6
330
48
100
AcDbEntity
  8
0
  6
Continuous
 62
     7
100
AcDbHatch
 10
0.0
 20
0.0
 30
0.0
210
0.0
220
0.0
230
1.0
  2
SOLID
 70
     1
 71
     0
 91
        2
 92
        0
 93
       18
 72
     4
 94
        3
 73
     1
 74
     0
 95
        8
 96
        4
 40
5.0
 40
5.0
 40
5.0
 40
5.0
 40
6.0
 40
6.0
 40
6.0
 40
6.0
 10
17.11360656738284
 20
0.0213630371093815
 42
1.0
 10
17.12838602701827
 20
0.0213630371093815
 42
1.0
 10
17.13926908365887
 20
0.0221691894531223
 42
1.0
 10
17.14806958007817
 20
0.0221691894531223
 42
1.0
 72
     4
 94
        3
 73
     1
 74
     0
 95
        8
 96
        4
 40
6.0
 40
6.0
 40
6.0
 40
6.0
 40
7.0
 40
7.0
 40
7.0
 40
7.0
 10
17.14806958007817
 20
0.0221691894531223
 42
1.0
 10
17.15707161458338
 20
0.0221691894531223
 42
1.0
 10
17.16936543782555
 20
0.0213630371093815
 42
1.0
 10
17.18374182128909
 20
0.0213630371093815
 42
1.0
 72
     1
 10
17.18374182128909
 20
0.0213630371093815
 11
17.18857873535159
 21
0.0213630371093815
 72
     4
 94
        3
 73
     1
 74
     0
 95
        8
 96
        4
 40
8.0
 40
8.0
 40
8.0
 40
8.0
 40
9.0
 40
9.0
 40
9.0
 40
9.0
 10
17.18857873535159
 20
0.0213630371093815
 42
1.0
 10
18.05525968424482
 20
0.0213630371093815
 42
1.0
 10
18.79960701497402
 20
0.5244020996093696
 42
1.0
 10
19.08646289062504
 20
1.455508056640617
 42
1.0
 72
     1
 10
19.08646289062504
 20
1.455508056640617
 11
19.10963977050784
 21
1.530077148437503
 72
     1
 10
19.10963977050784
 20
1.530077148437503
 11
18.37698164876306
 21
1.530077148437503
 72
     1
 10
18.37698164876306
 20
1.530077148437503
 11
18.36341141764325
 21
1.491650553385432
 72
     4
 94
        3
 73
     1
 74
     0
 95
        8
 96
        4
 40
12.0
 40
12.0
 40
12.0
 40
12.0
 40
13.0
 40
13.0
 40
13.0
 40
13.0
 10
18.36341141764325
 20
1.491650553385432
 42
1.0
 10
18.18061637369794
 20
0.9786689453124969
 42
1.0
 10
17.80501656087241
 20
0.658357747395838
 42
1.0
 10
17.16123673502607
 20
0.6476090494791781
 42
1.0
 72
     1
 10
17.16123673502607
 20
0.6476090494791781
 11
17.14827111816408
 21
0.6478777669270824
 72
     4
 94
        3
 73
     1
 74
     0
 95
        8
 96
        4
 40
14.0
 40
14.0
 40
14.0
 40
14.0
 40
15.0
 40
15.0
 40
15.0
 40
15.0
 10
17.14827111816408
 20
0.6478777669270824
 42
1.0
 10
16.2179713134766
 20
0.657282877604165
 42
1.0
 10
15.82094128417971
 20
1.317387288411478
 42
1.0
 10
15.81482796223962
 20
2.27469319661458
 42
1.0
 72
     1
 10
15.81482796223962
 20
2.27469319661458
 11
15.81469360351567
 21
2.334885904947903
 72
     1
 10
15.81469360351567
 20
2.334885904947903
 11
19.15068636067713
 21
2.334885904947903
 72
     1
 10
19.15068636067713
 20
2.334885904947903
 11
19.14860380045574
 21
2.395347330729172
 72
     4
 94
        3
 73
     1
 74
     0
 95
        8
 96
        4
 40
0.0
 40
0.0
 40
0.0
 40
0.0
 40
1.0
 40
1.0
 40
1.0
 40
1.0
 10
19.14860380045574
 20
2.395347330729172
 42
1.0
 10
19.10755721028651
 20
3.703060791015622
 42
1.0
 10
18.44348921712247
 20
4.731039388020831
 42
1.0
 10
17.11360656738284
 20
4.728620930989594
 42
1.0
 72
     4
 94
        3
 73
     1
 74
     0
 95
        8
 96
        4
 40
1.0
 40
1.0
 40
1.0
 40
1.0
 40
2.0
 40
2.0
 40
2.0
 40
2.0
 10
17.11360656738284
 20
4.728620930989594
 42
1.0
 10
16.55319632975266
 20
4.728620930989594
 42
1.0
 10
16.04196138509117
 20
4.522178751627623
 42
1.0
 10
15.67294514973963
 20
4.121991292317703
 42
1.0
 72
     4
 94
        3
 73
     1
 74
     0
 95
        8
 96
        4
 40
2.0
 40
2.0
 40
2.0
 40
2.0
 40
3.0
 40
3.0
 40
3.0
 40
3.0
 10
15.67294514973963
 20
4.121991292317703
 42
1.0
 10
15.30392891438806
 20
3.722677164713556
 42
1.0
 10
15.07874369303389
 20
3.132775187174488
 42
1.0
 10
15.07914676920577
 20
2.374387369791661
 42
1.0
 72
     4
 94
        3
 73
     1
 74
     0
 95
        8
 96
        4
 40
3.0
 40
3.0
 40
3.0
 40
3.0
 40
4.0
 40
4.0
 40
4.0
 40
4.0
 10
15.07914676920577
 20
2.374387369791661
 42
1.0
 10
15.07874369303389
 20
1.616738525390626
 42
1.0
 10
15.30392891438806
 20
1.027172444661453
 42
1.0
 10
15.67294514973963
 20
0.6274552408854217
 42
1.0
 72
     4
 94
        3
 73
     1
 74
     0
 95
        8
 96
        4
 40
4.0
 40
4.0
 40
4.0
 40
4.0
 40
5.0
 40
5.0
 40
5.0
 40
5.0
 10
15.67294514973963
 20
0.6274552408854217
 42
1.0
 10
16.04169266764327
 20
0.2281411132812466
 42
1.0
 10
16.55319632975266
 20
0.0210943196614632
 42
1.0
 10
17.11360656738284
 20
0.0213630371093815
 42
1.0
 97
        0
 92
        0
 93
        3
 72
     1
 10
18.40002416992192
 20
2.906447916666679
 11
15.82369563802086
 21
2.906447916666679
 72
     4
 94
        3
 73
     1
 74
     0
 95
        8
 96
        4
 40
0.0
 40
0.0
 40
0.0
 40
0.0
 40
1.0
 40
1.0
 40
1.0
 40
1.0
 10
15.82369563802086
 20
2.906447916666679
 42
1.0
 10
15.93440722656253
 20
3.583212809244785
 42
1.0
 10
16.39525764973962
 20
4.101098510742196
 42
1.0
 10
17.11360656738284
 20
4.102106201171893
 42
1.0
 72
     4
 94
        3
 73
     1
 74
     0
 95
        8
 96
        4
 40
1.0
 40
1.0
 40
1.0
 40
1.0
 40
2.0
 40
2.0
 40
2.0
 40
2.0
 10
17.11360656738284
 20
4.102106201171893
 42
1.0
 10
17.95684191894536
 20
4.100292358398469
 42
1.0
 10
18.26996492513022
 20
3.512808837890624
 42
1.0
 10
18.40002416992192
 20
2.906447916666679
 42
1.0
 97
        0
 75
     0
 76
     1
 98
        1
 10
0.0
 20
0.0
  0
HATCH
  5
F7
330
48
100
AcDbEntity
  8
0
  6
Continuous
 62
     7
100
AcDbHatch
 10
0.0
 20
0.0
 30
0.0
210
0.0
220
0.0
230
1.0
  2
SOLID
 70
     1
 71
     0
 91
        1
 92
        0
 93
       13
 72
     4
 94
        3
 73
     1
 74
     0
 95
        8
 96
        4
 40
6.0
 40
6.0
 40
6.0
 40
6.0
 40
7.0
 40
7.0
 40
7.0
 40
7.0
 10
20.5614529622396
 20
2.738902587890613
 42
1.0
 10
20.56615551757818
 20
3.697552083333347
 42
1.0
 10
21.12240063476567
 20
4.097403645833345
 42
1.0
 10
21.75140100097656
 20
4.102106201171893
 42
1.0
 72
     4
 94
        3
 73
     1
 74
     0
 95
        8
 96
        4
 40
7.0
 40
7.0
 40
7.0
 40
7.0
 40
8.0
 40
8.0
 40
8.0
 40
8.0
 10
21.75140100097656
 20
4.102106201171893
 42
1.0
 10
22.42581461588544
 20
4.091155965169277
 42
1.0
 10
22.74793965657551
 20
3.851930257161462
 42
1.0
 10
22.75922578938805
 20
2.984913411458332
 42
1.0
 72
     1
 10
22.75922578938805
 20
2.984913411458332
 11
22.75922578938805
 21
0.1305966796874974
 72
     1
 10
22.75922578938805
 20
0.1305966796874974
 11
23.42181583658853
 21
0.1305966796874974
 72
     1
 10
23.42181583658853
 20
0.1305966796874974
 11
23.42181583658853
 21
3.149032592773438
 72
     4
 94
        3
 73
     1
 74
     0
 95
        8
 96
        4
 40
11.0
 40
11.0
 40
11.0
 40
11.0
 40
12.0
 40
12.0
 40
12.0
 40
12.0
 10
23.42181583658853
 20
3.149032592773438
 42
1.0
 10
23.42181583658853
 20
3.60934558105469
 42
1.0
 10
23.30304272460942
 20
4.006106892903649
 42
1.0
 10
23.03949808756511
 20
4.287386881510424
 42
1.0
 72
     4
 94
        3
 73
     1
 74
     0
 95
        8
 96
        4
 40
12.0
 40
12.0
 40
12.0
 40
12.0
 40
13.0
 40
13.0
 40
13.0
 40
13.0
 10
23.03949808756511
 20
4.287386881510424
 42
1.0
 10
22.77622216796876
 20
4.569540201822917
 42
1.0
 10
22.37213830566409
 20
4.728889648437498
 42
1.0
 10
21.82442496744796
 20
4.728150675455733
 42
1.0
 72
     4
 94
        3
 73
     1
 74
     0
 95
        8
 96
        4
 40
0.0
 40
0.0
 40
0.0
 40
0.0
 40
1.0
 40
1.0
 40
1.0
 40
1.0
 10
21.82442496744796
 20
4.728150675455733
 42
1.0
 10
21.35228841145836
 20
4.729427083333348
 42
1.0
 10
20.8621477864584
 20
4.559060221354175
 42
1.0
 10
20.5614529622396
 20
4.108421061197909
 42
1.0
 72
     1
 10
20.5614529622396
 20
4.108421061197909
 11
20.5614529622396
 21
4.618984212239593
 72
     1
 10
20.5614529622396
 20
4.618984212239593
 11
19.89893009440108
 21
4.618984212239593
 72
     1
 10
19.89893009440108
 20
4.618984212239593
 11
19.89893009440108
 21
0.1305966796874974
 72
     1
 10
19.89893009440108
 20
0.1305966796874974
 11
20.5614529622396
 21
0.1305966796874974
 72
     1
 10
20.5614529622396
 20
0.1305966796874974
 11
20.5614529622396
 21
2.738902587890613
 97
        0
 75
     0
 76
     1
 98
        1
 10
0.0
 20
0.0
  0
HATCH
  5
F8
330
48
100
AcDbEntity
  8
0
  6
Continuous
 62
     7
100
AcDbHatch
 10
0.0
 20
0.0
 30
0.0
210
0.0
220
0.0
230
1.0
  2
SOLID
 70
     1
 71
     0
 91
        1
 92
        0
 93
       24
 72
     4
 94
        3
 73
     1
 74
     0
 95
        8
 96
        4
 40
11.0
 40
11.0
 40
11.0
 40
11.0
 40
12.0
 40
12.0
 40
12.0
 40
12.0
 10
25.66412858072919
 20
4.713236857096362
 42
1.0
 10
24.71649650065105
 20
4.68549178059896
 42
1.0
 10
24.18913850911464
 20
4.100023640950523
 42
1.0
 10
24.19128824869793
 20
3.454698689778657
 42
1.0
 72
     4
 94
        3
 73
     1
 74
     0
 95
        8
 96
        4
 40
12.0
 40
12.0
 40
12.0
 40
12.0
 40
13.0
 40
13.0
 40
13.0
 40
13.0
 10
24.19128824869793
 20
3.454698689778657
 42
1.0
 10
24.18886979166673
 20
2.544216796875012
 42
1.0
 10
24.88820694986982
 20
2.337170003255201
 42
1.0
 10
25.53138216145839
 20
2.21396305338542
 42
1.0
 72
     4
 94
        3
 73
     1
 74
     0
 95
        8
 96
        4
 40
13.0
 40
13.0
 40
13.0
 40
13.0
 40
14.0
 40
14.0
 40
14.0
 40
14.0
 10
25.53138216145839
 20
2.21396305338542
 42
1.0
 10
25.85585847981775
 20
2.148799072265631
 42
1.0
 10
26.17657275390628
 20
2.096667887369785
 42
1.0
 10
26.40686360677086
 20
1.985687581380208
 42
1.0
 72
     4
 94
        3
 73
     1
 74
     0
 95
        8
 96
        4
 40
14.0
 40
14.0
 40
14.0
 40
14.0
 40
15.0
 40
15.0
 40
15.0
 40
15.0
 10
26.40686360677086
 20
1.985687581380208
 42
1.0
 10
26.63715445963544
 20
1.871885742187496
 42
1.0
 10
26.7752752278646
 20
1.71911987304689
 42
1.0
 10
26.77796240234376
 20
1.414394287109377
 42
1.0
 72
     4
 94
        3
 73
     1
 74
     0
 95
        8
 96
        4
 40
15.0
 40
15.0
 40
15.0
 40
15.0
 40
16.0
 40
16.0
 40
16.0
 40
16.0
 10
26.77796240234376
 20
1.414394287109377
 42
1.0
 10
26.77769368489585
 20
0.7505278320312503
 42
1.0
 10
26.24093058268234
 20
0.5987024739583374
 42
1.0
 10
25.79203808593755
 20
0.5801609700520766
 42
1.0
 72
     4
 94
        3
 73
     1
 74
     0
 95
        8
 96
        4
 40
16.0
 40
16.0
 40
16.0
 40
16.0
 40
17.0
 40
17.0
 40
17.0
 40
17.0
 10
25.79203808593755
 20
0.5801609700520766
 42
1.0
 10
25.41449007161462
 20
0.5882224934895819
 42
1.0
 10
24.87396492513022
 20
0.7154602050781361
 42
1.0
 10
24.69365551757813
 20
1.33619750976563
 42
1.0
 72
     1
 10
24.69365551757813
 20
1.33619750976563
 11
24.68196630859382
 21
1.378386149088556
 72
     1
 10
24.68196630859382
 20
1.378386149088556
 11
24.00829166666668
 21
1.378386149088556
 72
     1
 10
24.00829166666668
 20
1.378386149088556
 11
24.03180444335939
 21
1.303279622395834
 72
     4
 94
        3
 73
     1
 74
     0
 95
        8
 96
        4
 40
20.0
 40
20.0
 40
20.0
 40
20.0
 40
21.0
 40
21.0
 40
21.0
 40
21.0
 10
24.03180444335939
 20
1.303279622395834
 42
1.0
 10
24.2849362792969
 20
0.4874534505208278
 42
1.0
 10
25.03210514322923
 20
0.0353363444010463
 42
1.0
 10
25.74474381510422
 20
0.0114204915364485
 42
1.0
 72
     1
 10
25.74474381510422
 20
0.0114204915364485
 11
25.7947252604167
 21
0.0119579264322989
 72
     4
 94
        3
 73
     1
 74
     0
 95
        8
 96
        4
 40
22.0
 40
22.0
 40
22.0
 40
22.0
 40
23.0
 40
23.0
 40
23.0
 40
23.0
 10
25.7947252604167
 20
0.0119579264322989
 42
1.0
 10
26.84205151367192
 20
0.0481004231770721
 42
1.0
 10
27.44263500976568
 20
0.6660161946614729
 42
1.0
 10
27.44102270507814
 20
1.396121500651049
 42
1.0
 72
     4
 94
        3
 73
     1
 74
     0
 95
        8
 96
        4
 40
23.0
 40
23.0
 40
23.0
 40
23.0
 40
24.0
 40
24.0
 40
24.0
 40
24.0
 10
27.44102270507814
 20
1.396121500651049
 42
1.0
 10
27.44317244466149
 20
2.313925944010434
 42
1.0
 10
26.74786604817714
 20
2.564639322916659
 42
1.0
 10
26.10213802083333
 20
2.708537516276047
 42
1.0
 72
     4
 94
        3
 73
     1
 74
     0
 95
        8
 96
        4
 40
0.0
 40
0.0
 40
0.0
 40
0.0
 40
1.0
 40
1.0
 40
1.0
 40
1.0
 10
26.10213802083333
 20
2.708537516276047
 42
1.0
 10
25.77739298502607
 20
2.783375325520837
 42
1.0
 10
25.45546948242189
 20
2.838596761067707
 42
1.0
 10
25.22343196614585
 20
2.941784261067698
 42
1.0
 72
     4
 94
        3
 73
     1
 74
     0
 95
        8
 96
        4
 40
1.0
 40
1.0
 40
1.0
 40
1.0
 40
2.0
 40
2.0
 40
2.0
 40
2.0
 10
25.22343196614585
 20
2.941784261067698
 42
1.0
 10
24.99045393880212
 20
3.047457397460942
 42
1.0
 10
24.8559608561198
 20
3.179397664388031
 42
1.0
 10
24.85381111653651
 20
3.43662744140627
 42
1.0
 72
     4
 94
        3
 73
     1
 74
     0
 95
        8
 96
        4
 40
2.0
 40
2.0
 40
2.0
 40
2.0
 40
3.0
 40
3.0
 40
3.0
 40
3.0
 10
24.85381111653651
 20
3.43662744140627
 42
1.0
 10
24.86281315104172
 20
3.834396443684898
 42
1.0
 10
25.00859236653647
 20
4.105532348632812
 42
1.0
 10
25.73292024739587
 20
4.140331258138022
 42
1.0
 72
     4
 94
        3
 73
     1
 74
     0
 95
        8
 96
        4
 40
3.0
 40
3.0
 40
3.0
 40
3.0
 40
4.0
 40
4.0
 40
4.0
 40
4.0
 10
25.73292024739587
 20
4.140331258138022
 42
1.0
 10
26.15762817382816
 20
4.136972290039065
 42
1.0
 10
26.43978149414067
 20
3.958208007812505
 42
1.0
 10
26.61928474934899
 20
3.656975748697916
 42
1.0
 72
     1
 10
26.61928474934899
 20
3.656975748697916
 11
26.63607958984376
 21
3.628491699218777
 72
     1
 10
26.63607958984376
 20
3.628491699218777
 11
27.29470605468753
 21
3.628491699218777
 72
     1
 10
27.29470605468753
 20
3.628491699218777
 11
27.25869791666668
 21
3.709845906575512
 72
     4
 94
        3
 73
     1
 74
     0
 95
        8
 96
        4
 40
7.0
 40
7.0
 40
7.0
 40
7.0
 40
8.0
 40
8.0
 40
8.0
 40
8.0
 10
27.25869791666668
 20
3.709845906575512
 42
1.0
 10
26.96969230143231
 20
4.365382120768244
 42
1.0
 10
26.40552001953128
 20
4.717133260091141
 42
1.0
 10
25.76274788411459
 20
4.716125569661458
 42
1.0
 72
     4
 94
        3
 73
     1
 74
     0
 95
        8
 96
        4
 40
8.0
 40
8.0
 40
8.0
 40
8.0
 40
9.0
 40
9.0
 40
9.0
 40
9.0
 10
25.76274788411459
 20
4.716125569661458
 42
1.0
 10
25.74649047851568
 20
4.716125569661458
 42
1.0
 10
25.73292024739587
 20
4.715050699869799
 42
1.0
 10
25.72109667968753
 20
4.715050699869799
 42
1.0
 72
     1
 10
25.72109667968753
 20
4.715050699869799
 11
25.66412858072919
 21
4.714513264973949
 72
     1
 10
25.66412858072919
 20
4.714513264973949
 11
25.66412858072919
 21
4.713236857096362
 97
        0
 75
     0
 76
     1
 98
        1
 10
0.0
 20
0.0
  0
HATCH
  5
F9
330
48
100
AcDbEntity
  8
0
  6
Continuous
 62
     7
100
AcDbHatch
 10
0.0
 20
0.0
 30
0.0
210
0.0
220
0.0
230
1.0
  2
SOLID
 70
     1
 71
     0
 91
        1
 92
        0
 93
       15
 72
     4
 94
        3
 73
     1
 74
     0
 95
        8
 96
        4
 40
11.0
 40
11.0
 40
11.0
 40
11.0
 40
12.0
 40
12.0
 40
12.0
 40
12.0
 10
29.93243652343752
 20
0.0213630371093815
 42
1.0
 10
30.88692089843753
 20
0.0213630371093815
 42
1.0
 10
31.49301310221358
 20
0.4468771158854246
 42
1.0
 10
31.81587711588546
 20
1.278691975911461
 42
1.0
 72
     1
 10
31.81587711588546
 20
1.278691975911461
 11
31.84704833984381
 21
1.357694905598963
 72
     1
 10
31.84704833984381
 20
1.357694905598963
 11
31.12137687174482
 21
1.357963623046868
 72
     1
 10
31.12137687174482
 20
1.357963623046868
 11
31.10619433593753
 21
1.32491137695312
 72
     4
 94
        3
 73
     1
 74
     0
 95
        8
 96
        4
 40
0.0
 40
0.0
 40
0.0
 40
0.0
 40
1.0
 40
1.0
 40
1.0
 40
1.0
 10
31.10619433593753
 20
1.32491137695312
 42
1.0
 10
30.92010750325525
 20
0.9410485026041526
 42
1.0
 10
30.58179223632818
 20
0.6500275065104283
 42
1.0
 10
29.91994116210939
 20
0.6473403320312598
 42
1.0
 72
     4
 94
        3
 73
     1
 74
     0
 95
        8
 96
        4
 40
1.0
 40
1.0
 40
1.0
 40
1.0
 40
2.0
 40
2.0
 40
2.0
 40
2.0
 10
29.91994116210939
 20
0.6473403320312598
 42
1.0
 10
29.26091162109379
 20
0.6494900716145918
 42
1.0
 10
28.55015397135418
 20
1.197270589192695
 42
1.0
 10
28.54786987304692
 20
2.374924804687511
 42
1.0
 72
     4
 94
        3
 73
     1
 74
     0
 95
        8
 96
        4
 40
2.0
 40
2.0
 40
2.0
 40
2.0
 40
3.0
 40
3.0
 40
3.0
 40
3.0
 10
28.54786987304692
 20
2.374924804687511
 42
1.0
 10
28.55096012369795
 20
3.552310302734369
 42
1.0
 10
29.25862752278652
 20
4.099284667968758
 42
1.0
 10
29.97462516276045
 20
4.102106201171893
 42
1.0
 72
     4
 94
        3
 73
     1
 74
     0
 95
        8
 96
        4
 40
3.0
 40
3.0
 40
3.0
 40
3.0
 40
4.0
 40
4.0
 40
4.0
 40
4.0
 10
29.97462516276045
 20
4.102106201171893
 42
1.0
 10
30.48680061848963
 20
4.100292358398469
 42
1.0
 10
30.87697835286463
 20
3.949541870117188
 42
1.0
 10
31.04989803059899
 20
3.587915364583347
 42
1.0
 72
     1
 10
31.04989803059899
 20
3.587915364583347
 11
31.06508056640628
 21
3.554124145507806
 72
     1
 10
31.06508056640628
 20
3.554124145507806
 11
31.78295922851565
 21
3.549421590169271
 72
     1
 10
31.78295922851565
 20
3.549421590169271
 11
31.74708544921878
 21
3.631313232421871
 72
     4
 94
        3
 73
     1
 74
     0
 95
        8
 96
        4
 40
7.0
 40
7.0
 40
7.0
 40
7.0
 40
8.0
 40
8.0
 40
8.0
 40
8.0
 10
31.74708544921878
 20
3.631313232421871
 42
1.0
 10
31.34669645182292
 20
4.552275105794271
 42
1.0
 10
30.60342399088545
 20
4.731308105468749
 42
1.0
 10
30.04704451497398
 20
4.728150675455733
 42
1.0
 72
     4
 94
        3
 73
     1
 74
     0
 95
        8
 96
        4
 40
8.0
 40
8.0
 40
8.0
 40
8.0
 40
9.0
 40
9.0
 40
9.0
 40
9.0
 10
30.04704451497398
 20
4.728150675455733
 42
1.0
 10
28.75840999348961
 20
4.731308105468749
 42
1.0
 10
27.89932031250003
 20
3.773464762369796
 42
1.0
 10
27.88521264648442
 20
2.375462239583334
 42
1.0
 72
     4
 94
        3
 73
     1
 74
     0
 95
        8
 96
        4
 40
9.0
 40
9.0
 40
9.0
 40
9.0
 40
10.0
 40
10.0
 40
10.0
 40
10.0
 10
27.88521264648442
 20
2.375462239583334
 42
1.0
 10
27.90093261718751
 20
0.9750412597656355
 42
1.0
 10
28.79092480468753
 20
0.0204225260416607
 42
1.0
 10
29.91994116210939
 20
0.0213630371093815
 42
1.0
 72
     1
 10
29.91994116210939
 20
0.0213630371093815
 11
29.93243652343752
 21
0.0213630371093815
 97
        0
 75
     0
 76
     1
 98
        1
 10
0.0
 20
0.0
  0
HATCH
  5
FA
330
48
100
AcDbEntity
  8
0
  6
Continuous
 62
     7
100
AcDbHatch
 10
0.0
 20
0.0
 30
0.0
210
0.0
220
0.0
230
1.0
  2
SOLID
 70
     1
 71
     0
 91
        1
 92
        0
 93
       13
 72
     4
 94
        3
 73
     1
 74
     0
 95
        8
 96
        4
 40
11.0
 40
11.0
 40
11.0
 40
11.0
 40
12.0
 40
12.0
 40
12.0
 40
12.0
 10
35.78752099609378
 20
3.149032592773438
 42
1.0
 10
35.78752099609378
 20
3.60934558105469
 42
1.0
 10
35.66874788411462
 20
4.006106892903649
 42
1.0
 10
35.40486735026044
 20
4.287386881510424
 42
1.0
 72
     4
 94
        3
 73
     1
 74
     0
 95
        8
 96
        4
 40
12.0
 40
12.0
 40
12.0
 40
12.0
 40
13.0
 40
13.0
 40
13.0
 40
13.0
 10
35.40486735026044
 20
4.287386881510424
 42
1.0
 10
35.14138989257815
 20
4.569271484375012
 42
1.0
 10
34.73737320963544
 20
4.728620930989594
 42
1.0
 10
34.18986140950525
 20
4.728620930989594
 42
1.0
 72
     4
 94
        3
 73
     1
 74
     0
 95
        8
 96
        4
 40
0.0
 40
0.0
 40
0.0
 40
0.0
 40
1.0
 40
1.0
 40
1.0
 40
1.0
 10
34.18986140950525
 20
4.728620930989594
 42
1.0
 10
33.71799357096356
 20
4.729427083333348
 42
1.0
 10
33.22677807617191
 20
4.558791503906257
 42
1.0
 10
32.92688940429689
 20
4.101098510742196
 42
1.0
 72
     1
 10
32.92688940429689
 20
4.101098510742196
 11
32.92688940429689
 21
5.806580973307315
 72
     1
 10
32.92688940429689
 20
5.806580973307315
 11
32.26450089518234
 21
5.806580973307315
 72
     1
 10
32.26450089518234
 20
5.806580973307315
 11
32.26450089518234
 21
0.1305966796874974
 72
     1
 10
32.26450089518234
 20
0.1305966796874974
 11
32.92688940429689
 21
0.1305966796874974
 72
     1
 10
32.92688940429689
 20
0.1305966796874974
 11
32.92688940429689
 21
2.739440022786463
 72
     4
 94
        3
 73
     1
 74
     0
 95
        8
 96
        4
 40
6.0
 40
6.0
 40
6.0
 40
6.0
 40
7.0
 40
7.0
 40
7.0
 40
7.0
 10
32.92688940429689
 20
2.739440022786463
 42
1.0
 10
32.93159195963541
 20
3.697552083333347
 42
1.0
 10
33.48770271809898
 20
4.097403645833345
 42
1.0
 10
34.11703898111984
 20
4.102106201171893
 42
1.0
 72
     4
 94
        3
 73
     1
 74
     0
 95
        8
 96
        4
 40
7.0
 40
7.0
 40
7.0
 40
7.0
 40
8.0
 40
8.0
 40
8.0
 40
8.0
 10
34.11703898111984
 20
4.102106201171893
 42
1.0
 10
34.79098234049482
 20
4.090887247721373
 42
1.0
 10
35.11317456054691
 20
3.851930257161462
 42
1.0
 10
35.12419197591149
 20
2.985450846354182
 42
1.0
 72
     1
 10
35.12419197591149
 20
2.985450846354182
 11
35.12419197591149
 21
0.1305966796874974
 72
     1
 10
35.12419197591149
 20
0.1305966796874974
 11
35.78752099609378
 21
0.1305966796874974
 72
     1
 10
35.78752099609378
 20
0.1305966796874974
 11
35.78752099609378
 21
3.149032592773438
 97
        0
 75
     0
 76
     1
 98
        1
 10
0.0
 20
0.0
  0
HATCH
  5
FB
330
48
100
AcDbEntity
  8
0
  6
Continuous
 62
     7
100
AcDbHatch
 10
0.0
 20
0.0
 30
0.0
210
0.0
220
0.0
230
1.0
  2
SOLID
 70
     1
 71
     0
 91
        2
 92
        0
 93
       34
 72
     4
 94
        3
 73
     1
 74
     0
 95
        8
 96
        4
 40
26.0
 40
26.0
 40
26.0
 40
26.0
 40
27.0
 40
27.0
 40
27.0
 40
27.0
 10
42.47119571940105
 20
0.814616943359367
 42
1.0
 10
42.43505322265628
 20
0.9082649739583365
 42
1.0
 10
42.43088810221357
 20
1.055119059244797
 42
1.0
 10
42.43115681966147
 20
1.21823055013022
 42
1.0
 72
     1
 10
42.43115681966147
 20
1.21823055013022
 11
42.43115681966147
 21
4.047422200520845
 72
     1
 10
42.43115681966147
 20
4.047422200520845
 11
45.83137304687506
 21
4.047690917968763
 72
     1
 10
45.83137304687506
 20
4.047690917968763
 11
43.49541227213544
 21
0.5801609700520766
 72
     1
 10
43.49541227213544
 20
0.5801609700520766
 11
43.49541227213544
 21
0.1305966796875113
 72
     1
 10
43.49541227213544
 20
0.1305966796875113
 11
46.79996508789064
 21
0.1305966796875113
 72
     1
 10
46.79996508789064
 20
0.1305966796875113
 11
46.79996508789064
 21
0.7024274088541643
 72
     1
 10
46.79996508789064
 20
0.7024274088541643
 11
44.38231420898442
 21
0.7024274088541643
 72
     1
 10
44.38231420898442
 20
0.7024274088541643
 11
46.76382259114587
 21
4.242645426432295
 72
     1
 10
46.76382259114587
 20
4.242645426432295
 11
46.76382259114587
 21
4.618984212239593
 72
     1
 10
46.76382259114587
 20
4.618984212239593
 11
42.43115681966147
 21
4.618984212239593
 72
     1
 10
42.43115681966147
 20
4.618984212239593
 11
42.43115681966147
 21
5.806849690755206
 72
     1
 10
42.43115681966147
 20
5.806849690755206
 11
41.76849959309897
 21
5.806849690755206
 72
     1
 10
41.76849959309897
 20
5.806849690755206
 11
41.76849959309897
 21
4.618984212239593
 72
     1
 10
41.76849959309897
 20
4.618984212239593
 11
39.80068172200524
 21
4.618984212239593
 72
     1
 10
39.80068172200524
 20
4.618984212239593
 11
39.80068172200524
 21
4.202136271158855
 72
     4
 94
        3
 73
     1
 74
     0
 95
        8
 96
        4
 40
8.0
 40
8.0
 40
8.0
 40
8.0
 40
9.0
 40
9.0
 40
9.0
 40
9.0
 10
39.80068172200524
 20
4.202136271158855
 42
1.0
 10
39.43979418945315
 20
4.548042805989583
 42
1.0
 10
38.96308943684895
 20
4.728620930989594
 42
1.0
 10
38.44244938151048
 20
4.728150675455733
 42
1.0
 72
     4
 94
        3
 73
     1
 74
     0
 95
        8
 96
        4
 40
9.0
 40
9.0
 40
9.0
 40
9.0
 40
10.0
 40
10.0
 40
10.0
 40
10.0
 10
38.44244938151048
 20
4.728150675455733
 42
1.0
 10
37.88190478515624
 20
4.728620930989594
 42
1.0
 10
37.37026676432292
 20
4.522178751627623
 42
1.0
 10
37.00131770833337
 20
4.121991292317703
 42
1.0
 72
     4
 94
        3
 73
     1
 74
     0
 95
        8
 96
        4
 40
10.0
 40
10.0
 40
10.0
 40
10.0
 40
11.0
 40
11.0
 40
11.0
 40
11.0
 10
37.00131770833337
 20
4.121991292317703
 42
1.0
 10
36.63277172851564
 20
3.722677164713556
 42
1.0
 10
36.40745214843749
 20
3.132775187174488
 42
1.0
 10
36.40745214843749
 20
2.374924804687511
 42
1.0
 72
     4
 94
        3
 73
     1
 74
     0
 95
        8
 96
        4
 40
11.0
 40
11.0
 40
11.0
 40
11.0
 40
12.0
 40
12.0
 40
12.0
 40
12.0
 10
36.40745214843749
 20
2.374924804687511
 42
1.0
 10
36.40745214843749
 20
1.616738525390626
 42
1.0
 10
36.63277172851564
 20
1.027172444661453
 42
1.0
 10
37.00131770833337
 20
0.6274552408854217
 42
1.0
 72
     4
 94
        3
 73
     1
 74
     0
 95
        8
 96
        4
 40
12.0
 40
12.0
 40
12.0
 40
12.0
 40
13.0
 40
13.0
 40
13.0
 40
13.0
 10
37.00131770833337
 20
0.6274552408854217
 42
1.0
 10
37.37026676432292
 20
0.2281411132812466
 42
1.0
 10
37.88190478515624
 20
0.0210943196614632
 42
1.0
 10
38.44244938151048
 20
0.0213630371093815
 42
1.0
 72
     1
 10
38.44244938151048
 20
0.0213630371093815
 11
38.44352425130209
 21
0.0213630371093815
 72
     4
 94
        3
 73
     1
 74
     0
 95
        8
 96
        4
 40
14.0
 40
14.0
 40
14.0
 40
14.0
 40
15.0
 40
15.0
 40
15.0
 40
15.0
 10
38.44352425130209
 20
0.0213630371093815
 42
1.0
 10
38.98163094075524
 20
0.0213630371093815
 42
1.0
 10
39.47284643554688
 20
0.214302164713534
 42
1.0
 10
39.83763037109378
 20
0.5832512207031293
 42
1.0
 72
     1
 10
39.83763037109378
 20
0.5832512207031293
 11
39.92482918294277
 21
0.1305966796875113
 72
     1
 10
39.92482918294277
 20
0.1305966796875113
 11
40.47704353841147
 21
0.1305966796875113
 72
     1
 10
40.47704353841147
 20
0.1305966796875113
 11
40.47704353841147
 21
4.047422200520845
 72
     1
 10
40.47704353841147
 20
4.047422200520845
 11
41.76849959309897
 21
4.047422200520845
 72
     1
 10
41.76849959309897
 20
4.047422200520845
 11
41.76849959309897
 21
0.8538496907552207
 72
     4
 94
        3
 73
     1
 74
     0
 95
        8
 96
        4
 40
20.0
 40
20.0
 40
20.0
 40
20.0
 40
21.0
 40
21.0
 40
21.0
 40
21.0
 10
41.76849959309897
 20
0.8538496907552207
 42
1.0
 10
41.7674247233073
 20
0.5558420410156223
 42
1.0
 10
41.86375992838548
 20
0.3600813802083214
 42
1.0
 10
42.01921297200523
 20
0.2488323567708256
 42
1.0
 72
     4
 94
        3
 73
     1
 74
     0
 95
        8
 96
        4
 40
21.0
 40
21.0
 40
21.0
 40
21.0
 40
22.0
 40
22.0
 40
22.0
 40
22.0
 10
42.01921297200523
 20
0.2488323567708256
 42
1.0
 10
42.17385986328126
 20
0.1375833333333298
 42
1.0
 10
42.37244205729168
 20
0.1101741536458228
 42
1.0
 10
42.57371142578126
 20
0.1099054361979185
 42
1.0
 72
     4
 94
        2
 73
     1
 74
     0
 95
        6
 96
        3
 40
22.0
 40
22.0
 40
22.0
 40
23.0
 40
23.0
 40
23.0
 10
42.57371142578126
 20
0.1099054361979185
 42
1.0
 10
42.6103913574219
 20
0.1099054361979185
 42
1.0
 10
43.15817187500004
 20
0.1096367187500003
 42
1.0
 72
     1
 10
43.15817187500004
 20
0.1096367187500003
 11
43.15817187500004
 21
0.67380900065106
 72
     4
 94
        2
 73
     1
 74
     0
 95
        6
 96
        3
 40
24.0
 40
24.0
 40
24.0
 40
25.0
 40
25.0
 40
25.0
 10
43.15817187500004
 20
0.67380900065106
 42
1.0
 10
42.94333227539065
 20
0.67380900065106
 42
1.0
 10
42.6923501790365
 20
0.67380900065106
 42
1.0
 72
     4
 94
        3
 73
     1
 74
     0
 95
        8
 96
        4
 40
25.0
 40
25.0
 40
25.0
 40
25.0
 40
26.0
 40
26.0
 40
26.0
 40
26.0
 10
42.6923501790365
 20
0.67380900065106
 42
1.0
 10
42.55463248697916
 20
0.6774366861979492
 42
1.0
 10
42.50935359700525
 20
0.7223125000000302
 42
1.0
 10
42.47119571940105
 20
0.814616943359367
 42
1.0
 97
        0
 92
        0
 93
        5
 72
     4
 94
        3
 73
     1
 74
     0
 95
        8
 96
        4
 40
3.0
 40
3.0
 40
3.0
 40
3.0
 40
4.0
 40
4.0
 40
4.0
 40
4.0
 10
38.44244938151048
 20
4.102106201171893
 42
1.0
 10
39.2168930664063
 20
4.100292358398469
 42
1.0
 10
39.81062426757814
 20
3.47538993326825
 42
1.0
 10
39.81465502929687
 20
2.374924804687511
 42
1.0
 72
     4
 94
        3
 73
     1
 74
     0
 95
        8
 96
        4
 40
4.0
 40
4.0
 40
4.0
 40
4.0
 40
5.0
 40
5.0
 40
5.0
 40
5.0
 10
39.81465502929687
 20
2.374924804687511
 42
1.0
 10
39.81062426757814
 20
1.265524820963537
 42
1.0
 10
39.21743050130211
 20
0.6497587890624962
 42
1.0
 10
38.44244938151048
 20
0.6476090494791781
 42
1.0
 72
     4
 94
        3
 73
     1
 74
     0
 95
        8
 96
        4
 40
0.0
 40
0.0
 40
0.0
 40
0.0
 40
1.0
 40
1.0
 40
1.0
 40
1.0
 10
38.44244938151048
 20
0.6476090494791781
 42
1.0
 10
37.66733390299481
 20
0.6497587890624962
 42
1.0
 10
37.0740057779948
 20
1.265524820963537
 42
1.0
 10
37.0703780924479
 20
2.374924804687511
 42
1.0
 72
     1
 10
37.0703780924479
 20
2.374924804687511
 11
37.07010937499999
 21
2.374924804687511
 72
     4
 94
        3
 73
     1
 74
     0
 95
        8
 96
        4
 40
2.0
 40
2.0
 40
2.0
 40
2.0
 40
3.0
 40
3.0
 40
3.0
 40
3.0
 10
37.07010937499999
 20
2.374924804687511
 42
1.0
 10
37.0740057779948
 20
3.47538993326825
 42
1.0
 10
37.66787133789068
 20
4.100292358398469
 42
1.0
 10
38.44244938151048
 20
4.102106201171893
 42
1.0
 97
        0
 75
     0
 76
     1
 98
        1
 10
0.0
 20
0.0
  0
ENDBLK
  5
4A
330
48
100
AcDbEntity
  8
0
100
AcDbBlockEnd
  0
BLOCK
  5
1C4
330
1C3
100
AcDbEntity
  8
0
100
AcDbBlockBegin
  2
*D2
 70
     1
 10
0.0
 20
0.0
 30
0.0
  3
*D2
  1

  0
ARC
  5
1C6
330
1C3
100
AcDbEntity
  8
0
  6
Continuous
 62
     7
370
     0
100
AcDbCircle
 10
123.310659188
 20
81.9348283703
 30
0.0
 40
6.208922879380986
100
AcDbArc
 50
243.4349488229
 51
296.5650511771
  0
ARC
  5
1C7
330
1C3
100
AcDbEntity
  8
0
  6
Continuous
 62
     7
370
     0
100
AcDbCircle
 10
123.310659188
 20
79.1724302342
 30
0.0
 40
6.208922879380999
100
AcDbArc
 50
63.4349488229
 51
116.5650511771
  0
SOLID
  5
1C8
330
1C3
100
AcDbEntity
  8
0
  6
Continuous
 62
     7
370
     0
100
AcDbTrace
 10
126.0873739131
 20
123.6996642025
 30
0.0
 11
125.1873739131
 21
117.6996642025
 31
0.0
 12
126.9873739131
 22
117.6996642025
 32
0.0
 13
126.9873739131
 23
117.6996642025
 33
0.0
  0
SOLID
  5
1C9
330
1C3
100
AcDbEntity
  8
0
  6
Continuous
 62
     7
370
     0
100
AcDbTrace
 10
126.0873739131
 20
39.3061149482
 30
0.0
 11
126.9873739131
 21
45.3061149482
 31
0.0
 12
125.1873739131
 22
45.3061149482
 32
0.0
 13
125.1873739131
 23
45.3061149482
 33
0.0
  0
LINE
  5
1CA
330
1C3
100
AcDbEntity
  8
0
  6
Continuous
 62
     7
370
     0
100
AcDbLine
 10
166.2372226272
 20
123.6996642025
 30
0.0
 11
125.0873739131
 21
123.6996642025
 31
0.0
  0
LINE
  5
1CB
330
1C3
100
AcDbEntity
  8
0
  6
Continuous
 62
     7
370
     0
100
AcDbLine
 10
166.2372226272
 20
39.3061149482
 30
0.0
 11
125.0873739131
 21
39.3061149482
 31
0.0
  0
LINE
  5
1CC
330
1C3
100
AcDbEntity
  8
0
  6
Continuous
 62
     7
370
     0
100
AcDbLine
 10
126.0873739131
 20
123.6996642025
 30
0.0
 11
126.0873739131
 21
39.3061149482
 31
0.0
  0
MTEXT
  5
1CD
330
1C3
100
AcDbEntity
  8
0
  6
Continuous
 62
     7
370
     0
100
AcDbMText
 10
121.5756369985
 20
77.9688989201
 30
0.0
 40
3.5
 41
0.0
 71
     1
 72
     1
  1
84
  7
SLDTEXTSTYLE0
 11
-7.044195017643634E-15
 21
1.0
 31
0.0
 73
     1
 44
1.0
  0
ENDBLK
  5
1C5
330
1C3
100
AcDbEntity
  8
0
100
AcDbBlockEnd
  0
BLOCK
  5
22C
330
22B
100
AcDbEntity
  8
0
100
AcDbBlockBegin
  2
*D3
 70
     1
 10
0.0
 20
0.0
 30
0.0
  3
*D3
  1

  0
ARC
  5
22E
330
22B
100
AcDbEntity
  8
0
  6
Continuous
 62
     7
370
     0
100
AcDbCircle
 10
223.4618168487
 20
266.8264855403
 30
0.0
 40
6.208922879380922
100
AcDbArc
 50
153.4349488229
 51
206.5650511771
  0
ARC
  5
22F
330
22B
100
AcDbEntity
  8
0
  6
Continuous
 62
     7
370
     0
100
AcDbCircle
 10
223.2855607443
 20
266.8264855403
 30
0.0
 40
6.208922879380974
100
AcDbArc
 50
333.4349488229
 51
26.5650511771
  0
SOLID
  5
230
330
22B
100
AcDbEntity
  8
0
  6
Continuous
 62
     7
370
     0
100
AcDbTrace
 10
152.5745221737
 20
264.0497708152
 30
0.0
 11
158.5745221737
 21
263.1497708152
 31
0.0
 12
158.5745221737
 22
264.9497708152
 32
0.0
 13
158.5745221737
 23
264.9497708152
 33
0.0
  0
SOLID
  5
231
330
22B
100
AcDbEntity
  8
0
  6
Continuous
 62
     7
370
     0
100
AcDbTrace
 10
291.8999230806
 20
264.0497708152
 30
0.0
 11
285.8999230806
 21
264.9497708152
 31
0.0
 12
285.8999230806
 22
263.1497708152
 32
0.0
 13
285.8999230806
 23
263.1497708152
 33
0.0
  0
LINE
  5
232
330
22B
100
AcDbEntity
  8
0
  6
Continuous
 62
     7
370
     0
100
AcDbLine
 10
152.5745221737
 20
255.8190153102
 30
0.0
 11
152.5745221737
 21
265.0497708152
 31
0.0
  0
LINE
  5
233
330
22B
100
AcDbEntity
  8
0
  6
Continuous
 62
     7
370
     0
100
AcDbLine
 10
291.8999230806
 20
255.8190153102
 30
0.0
 11
291.8999230806
 21
265.0497708152
 31
0.0
  0
LINE
  5
234
330
22B
100
AcDbEntity
  8
0
  6
Continuous
 62
     7
370
     0
100
AcDbLine
 10
152.5745221737
 20
264.0497708152
 30
0.0
 11
291.8999230806
 21
264.0497708152
 31
0.0
  0
MTEXT
  5
235
330
22B
100
AcDbEntity
  8
0
  6
Continuous
 62
     7
370
     0
100
AcDbMText
 10
219.4958873985
 20
268.5615077298
 30
0.0
 40
3.5
 41
0.0
 71
     1
 72
     1
  1
139
  7
SLDTEXTSTYLE0
 73
     1
 44
1.0
  0
ENDBLK
  5
22D
330
22B
100
AcDbEntity
  8
0
100
AcDbBlockEnd
  0
BLOCK
  5
238
330
237
100
AcDbEntity
  8
0
100
AcDbBlockBegin
  2
*D4
 70
     1
 10
0.0
 20
0.0
 30
0.0
  3
*D4
  1

  0
ARC
  5
23A
330
237
100
AcDbEntity
  8
0
  6
Continuous
 62
     7
370
     0
100
AcDbCircle
 10
305.1572825293
 20
231.3744591548
 30
0.0
 40
6.208922879380974
100
AcDbArc
 50
243.4349488229
 51
296.5650511771
  0
ARC
  5
23B
330
237
100
AcDbEntity
  8
0
  6
Continuous
 62
     7
370
     0
100
AcDbCircle
 10
305.1572825293
 20
228.6120610188
 30
0.0
 40
6.208922879380999
100
AcDbArc
 50
63.4349488229
 51
116.5650511771
  0
SOLID
  5
23C
330
237
100
AcDbEntity
  8
0
  6
Continuous
 62
     7
370
     0
100
AcDbTrace
 10
307.9339972543
 20
255.7849411365
 30
0.0
 11
307.0339972543
 21
249.7849411365
 31
0.0
 12
308.8339972543
 22
249.7849411365
 32
0.0
 13
308.8339972543
 23
249.7849411365
 33
0.0
  0
SOLID
  5
23D
330
237
100
AcDbEntity
  8
0
  6
Continuous
 62
     7
370
     0
100
AcDbTrace
 10
307.9339972543
 20
201.3778343553
 30
0.0
 11
308.8339972543
 21
207.3778343553
 31
0.0
 12
307.0339972543
 22
207.3778343553
 32
0.0
 13
307.0339972543
 23
207.3778343553
 33
0.0
  0
LINE
  5
23E
330
237
100
AcDbEntity
  8
0
  6
Continuous
 62
     7
370
     0
100
AcDbLine
 10
290.1159022836
 20
255.7849411365
 30
0.0
 11
308.9339972543
 21
255.7849411365
 31
0.0
  0
LINE
  5
23F
330
237
100
AcDbEntity
  8
0
  6
Continuous
 62
     7
370
     0
100
AcDbLine
 10
257.7372226272
 20
201.3778343553
 30
0.0
 11
308.9339972543
 21
201.3778343553
 31
0.0
  0
LINE
  5
240
330
237
100
AcDbEntity
  8
0
  6
Continuous
 62
     7
370
     0
100
AcDbLine
 10
307.9339972543
 20
255.7849411365
 30
0.0
 11
307.9339972543
 21
201.3778343553
 31
0.0
  0
MTEXT
  5
241
330
237
100
AcDbEntity
  8
0
  6
Continuous
 62
     7
370
     0
100
AcDbMText
 10
303.4222603398
 20
227.4085297047
 30
0.0
 40
3.5
 41
0.0
 71
     1
 72
     1
  1
54
  7
SLDTEXTSTYLE0
 11
-7.044195017643634E-15
 21
1.0
 31
0.0
 73
     1
 44
1.0
  0
ENDBLK
  5
239
330
237
100
AcDbEntity
  8
0
100
AcDbBlockEnd
  0
BLOCK
  5
245
330
244
100
AcDbEntity
  8
0
100
AcDbBlockBegin
  2
*D5
 70
     1
 10
0.0
 20
0.0
 30
0.0
  3
*D5
  1

  0
ARC
  5
247
330
244
100
AcDbEntity
  8
0
  6
Continuous
 62
     7
370
     0
100
AcDbCircle
 10
150.7654883942
 20
220.5762282637
 30
0.0
 40
6.20892287938096
100
AcDbArc
 50
243.4349488229
 51
296.5650511771
  0
ARC
  5
248
330
244
100
AcDbEntity
  8
0
  6
Continuous
 62
     7
370
     0
100
AcDbCircle
 10
150.7654883942
 20
217.8138301276
 30
0.0
 40
6.208922879380935
100
AcDbArc
 50
63.4349488229
 51
116.5650511771
  0
SOLID
  5
249
330
244
100
AcDbEntity
  8
0
  6
Continuous
 62
     7
370
     0
100
AcDbTrace
 10
153.5422031193
 20
233.5778343553
 30
0.0
 11
154.4422031193
 21
239.5778343553
 31
0.0
 12
152.6422031193
 22
239.5778343553
 32
0.0
 13
152.6422031193
 23
239.5778343553
 33
0.0
  0
SOLID
  5
24A
330
244
100
AcDbEntity
  8
0
  6
Continuous
 62
     7
370
     0
100
AcDbTrace
 10
153.5422031193
 20
201.3778343553
 30
0.0
 11
152.6422031193
 21
195.3778343553
 31
0.0
 12
154.4422031193
 22
195.3778343553
 32
0.0
 13
154.4422031193
 23
195.3778343553
 33
0.0
  0
LINE
  5
24B
330
244
100
AcDbEntity
  8
0
  6
Continuous
 62
     7
370
     0
100
AcDbLine
 10
186.7372226272
 20
233.5778343553
 30
0.0
 11
152.5422031193
 21
233.5778343553
 31
0.0
  0
LINE
  5
24C
330
244
100
AcDbEntity
  8
0
  6
Continuous
 62
     7
370
     0
100
AcDbLine
 10
186.7372226272
 20
201.3778343553
 30
0.0
 11
152.5422031193
 21
201.3778343553
 31
0.0
  0
LINE
  5
24D
330
244
100
AcDbEntity
  8
0
  6
Continuous
 62
     7
370
     0
100
AcDbLine
 10
153.5422031193
 20
233.5778343553
 30
0.0
 11
153.5422031193
 21
245.5778343553
 31
0.0
  0
LINE
  5
24E
330
244
100
AcDbEntity
  8
0
  6
Continuous
 62
     7
370
     0
100
AcDbLine
 10
153.5422031193
 20
233.5778343553
 30
0.0
 11
153.5422031193
 21
201.3778343553
 31
0.0
  0
LINE
  5
24F
330
244
100
AcDbEntity
  8
0
  6
Continuous
 62
     7
370
     0
100
AcDbLine
 10
153.5422031193
 20
201.3778343553
 30
0.0
 11
153.5422031193
 21
189.3778343553
 31
0.0
  0
MTEXT
  5
250
330
244
100
AcDbEntity
  8
0
  6
Continuous
 62
     7
370
     0
100
AcDbMText
 10
149.0304662047
 20
216.6102988135
 30
0.0
 40
3.5
 41
0.0
 71
     1
 72
     1
  1
32
  7
SLDTEXTSTYLE0
 11
-7.044195017643634E-15
 21
1.0
 31
0.0
 73
     1
 44
1.0
  0
ENDBLK
  5
246
330
244
100
AcDbEntity
  8
0
100
AcDbBlockEnd
  0
ENDSEC
  0
SECTION
  2
ENTITIES
  0
LINE
  5
FC
330
1F
100
AcDbEntity
  8
0
  6
Continuous
 62
     7
370
    15
100
AcDbLine
 10
277.2372223292
 20
123.699662568
 30
0.0
 11
167.2372229252
 21
123.699662568
 31
0.0
  0
ARC
  5
FD
330
1F
100
AcDbEntity
  8
0
  6
Continuous
 62
     7
370
    15
100
AcDbCircle
 10
167.2372226272
 20
109.0028895754
 30
0.0
 40
14.69677462715882
100
AcDbArc
 50
90.0
 51
180.0
  0
ARC
  5
FE
330
1F
100
AcDbEntity
  8
0
  6
Continuous
 62
     7
370
    15
100
AcDbCircle
 10
277.2372226272
 20
109.0028895754
 30
0.0
 40
14.69677462715885
100
AcDbArc
 50
0.0
 51
90.0
  0
LINE
  5
FF
330
1F
100
AcDbEntity
  8
0
  6
Continuous
 62
     7
370
    15
100
AcDbLine
 10
152.5404460583
 20
109.0028894264
 30
0.0
 11
152.5404460583
 21
54.0028897244
 31
0.0
  0
LINE
  5
100
330
1F
100
AcDbEntity
  8
0
  6
Continuous
 62
     7
370
    15
100
AcDbLine
 10
291.9339991961
 20
54.0028897244
 30
0.0
 11
291.9339991961
 21
109.0028894264
 31
0.0
  0
ARC
  5
101
330
1F
100
AcDbEntity
  8
0
  6
Continuous
 62
     7
370
    15
100
AcDbCircle
 10
167.2372226272
 20
54.0028895754
 30
0.0
 40
14.69677462715879
100
AcDbArc
 50
180.0
 51
270.0
  0
ARC
  5
102
330
1F
100
AcDbEntity
  8
0
  6
Continuous
 62
     7
370
    15
100
AcDbCircle
 10
277.2372226272
 20
54.0028895754
 30
0.0
 40
14.6967746271588
100
AcDbArc
 50
270.0
 51
0.0
  0
LINE
  5
103
330
1F
100
AcDbEntity
  8
0
  6
Continuous
 62
     7
370
    15
100
AcDbLine
 10
167.2372229252
 20
39.3061165828
 30
0.0
 11
277.2372223292
 21
39.3061165828
 31
0.0
  0
ARC
  5
104
330
1F
100
AcDbEntity
  8
0
  6
Continuous
 62
     7
370
    15
100
AcDbCircle
 10
272.2372226272
 20
99.5028895754
 30
0.0
 40
1.250000000000009
100
AcDbArc
 50
286.2602047083
 51
73.7397952917
  0
ARC
  5
105
330
1F
100
AcDbEntity
  8
0
  6
Continuous
 62
     7
370
    15
100
AcDbCircle
 10
177.4872226272
 20
81.5028895754
 30
0.0
 40
20.00000000000003
100
AcDbArc
 50
90.0
 51
106.2602047083
  0
ARC
  5
106
330
1F
100
AcDbEntity
  8
0
  6
Continuous
 62
     7
370
    15
100
AcDbCircle
 10
172.2372226272
 20
99.5028895754
 30
0.0
 40
1.250000000000028
100
AcDbArc
 50
106.2602047083
 51
253.7397952917
  0
ARC
  5
107
330
1F
100
AcDbEntity
  8
0
  6
Continuous
 62
     7
370
    15
100
AcDbCircle
 10
266.9872226272
 20
117.5028895754
 30
0.0
 40
20.0
100
AcDbArc
 50
270.0
 51
286.2602047083
  0
ARC
  5
108
330
1F
100
AcDbEntity
  8
0
  6
Continuous
 62
     7
370
    15
100
AcDbCircle
 10
266.9872226272
 20
81.5028895754
 30
0.0
 40
19.99999999999999
100
AcDbArc
 50
73.7397952917
 51
90.0
  0
ARC
  5
109
330
1F
100
AcDbEntity
  8
0
  6
Continuous
 62
     7
370
    15
100
AcDbCircle
 10
177.4872226272
 20
117.5028895754
 30
0.0
 40
19.99999999999998
100
AcDbArc
 50
253.7397952917
 51
270.0
  0
ARC
  5
10A
330
1F
100
AcDbEntity
  8
0
  6
Continuous
 62
     7
370
    15
100
AcDbCircle
 10
177.4872226272
 20
63.5028895754
 30
0.0
 40
19.99999999999999
100
AcDbArc
 50
90.0
 51
106.2602047083
  0
ARC
  5
10B
330
1F
100
AcDbEntity
  8
0
  6
Continuous
 62
     7
370
    15
100
AcDbCircle
 10
172.2372226272
 20
81.5028895754
 30
0.0
 40
1.250000000000015
100
AcDbArc
 50
106.2602047083
 51
253.7397952917
  0
ARC
  5
10C
330
1F
100
AcDbEntity
  8
0
  6
Continuous
 62
     7
370
    15
100
AcDbCircle
 10
177.4872226272
 20
99.5028895754
 30
0.0
 40
20.00000000000003
100
AcDbArc
 50
253.7397952917
 51
270.0
  0
ARC
  5
10D
330
1F
100
AcDbEntity
  8
0
  6
Continuous
 62
     7
370
    15
100
AcDbCircle
 10
266.9872226272
 20
63.5028895754
 30
0.0
 40
20.0
100
AcDbArc
 50
73.7397952917
 51
90.0
  0
ARC
  5
10E
330
1F
100
AcDbEntity
  8
0
  6
Continuous
 62
     7
370
    15
100
AcDbCircle
 10
272.2372226272
 20
81.5028895754
 30
0.0
 40
1.249999999999995
100
AcDbArc
 50
286.2602047083
 51
73.7397952917
  0
ARC
  5
10F
330
1F
100
AcDbEntity
  8
0
  6
Continuous
 62
     7
370
    15
100
AcDbCircle
 10
266.9872226272
 20
99.5028895754
 30
0.0
 40
19.99999999999999
100
AcDbArc
 50
270.0
 51
286.2602047083
  0
ARC
  5
110
330
1F
100
AcDbEntity
  8
0
  6
Continuous
 62
     7
370
    15
100
AcDbCircle
 10
272.2372226272
 20
63.5028895754
 30
0.0
 40
1.250000000000023
100
AcDbArc
 50
286.2602047083
 51
73.7397952917
  0
ARC
  5
111
330
1F
100
AcDbEntity
  8
0
  6
Continuous
 62
     7
370
    15
100
AcDbCircle
 10
266.9872226272
 20
45.5028895754
 30
0.0
 40
20.00000000000002
100
AcDbArc
 50
73.7397952917
 51
90.0
  0
ARC
  5
112
330
1F
100
AcDbEntity
  8
0
  6
Continuous
 62
     7
370
    15
100
AcDbCircle
 10
177.4872226272
 20
45.5028895754
 30
0.0
 40
20.00000000000002
100
AcDbArc
 50
90.0
 51
106.2602047083
  0
ARC
  5
113
330
1F
100
AcDbEntity
  8
0
  6
Continuous
 62
     7
370
    15
100
AcDbCircle
 10
172.2372226272
 20
63.5028895754
 30
0.0
 40
1.250000000000036
100
AcDbArc
 50
106.2602047083
 51
253.7397952917
  0
ARC
  5
114
330
1F
100
AcDbEntity
  8
0
  6
Continuous
 62
     7
370
    15
100
AcDbCircle
 10
266.9872226272
 20
81.5028895754
 30
0.0
 40
20.0
100
AcDbArc
 50
270.0
 51
286.2602047083
  0
ARC
  5
115
330
1F
100
AcDbEntity
  8
0
  6
Continuous
 62
     7
370
    15
100
AcDbCircle
 10
177.4872226272
 20
81.5028895754
 30
0.0
 40
20.0
100
AcDbArc
 50
253.7397952917
 51
270.0
  0
LINE
  5
116
330
1F
100
AcDbEntity
  8
0
  6
Continuous
 62
     7
370
    15
100
AcDbLine
 10
177.4872213457
 20
101.5028891283
 30
0.0
 11
266.9872239087
 21
101.5028891283
 31
0.0
  0
LINE
  5
117
330
1F
100
AcDbEntity
  8
0
  6
Continuous
 62
     7
370
    15
100
AcDbLine
 10
266.9872239087
 20
97.5028903353
 30
0.0
 11
177.4872213457
 21
97.5028903353
 31
0.0
  0
LINE
  5
118
330
1F
100
AcDbEntity
  8
0
  6
Continuous
 62
     7
370
    15
100
AcDbLine
 10
177.4872213457
 20
83.5028896704
 30
0.0
 11
266.9872239087
 21
83.5028896704
 31
0.0
  0
LINE
  5
119
330
1F
100
AcDbEntity
  8
0
  6
Continuous
 62
     7
370
    15
100
AcDbLine
 10
266.9872239087
 20
79.5028894804
 30
0.0
 11
177.4872213457
 21
79.5028894804
 31
0.0
  0
LINE
  5
11A
330
1F
100
AcDbEntity
  8
0
  6
Continuous
 62
     7
370
    15
100
AcDbLine
 10
177.4872213457
 20
65.5028888154
 30
0.0
 11
266.9872239087
 21
65.5028888154
 31
0.0
  0
LINE
  5
11B
330
1F
100
AcDbEntity
  8
0
  6
Continuous
 62
     7
370
    15
100
AcDbLine
 10
266.9872239087
 20
61.5028900224
 30
0.0
 11
177.4872213457
 21
61.5028900224
 31
0.0
  0
LINE
  5
11C
330
1F
100
AcDbEntity
  8
0
  6
Continuous
 62
     8
370
     0
100
AcDbLine
 10
277.2372223292
 20
122.6996642667
 30
0.0
 11
167.2372229252
 21
122.6996642667
 31
0.0
  0
LINE
  5
11D
330
1F
100
AcDbEntity
  8
0
  6
Continuous
 62
     8
370
     0
100
AcDbLine
 10
167.2372229252
 20
122.6996642667
 30
0.0
 11
167.2372229252
 21
123.699662568
 31
0.0
  0
LINE
  5
11E
330
1F
100
AcDbEntity
  8
0
  6
Continuous
 62
     8
370
     0
100
AcDbLine
 10
277.2372223292
 20
122.6996642667
 30
0.0
 11
277.2372223292
 21
123.699662568
 31
0.0
  0
ARC
  5
11F
330
1F
100
AcDbEntity
  8
0
  6
Continuous
 62
     8
370
     0
100
AcDbCircle
 10
167.2372226272
 20
109.0028895754
 30
0.0
 40
13.69677462715879
100
AcDbArc
 50
90.0
 51
180.0
  0
ARC
  5
120
330
1F
100
AcDbEntity
  8
0
  6
Continuous
 62
     8
370
     0
100
AcDbCircle
 10
277.2372226272
 20
109.0028895754
 30
0.0
 40
13.69677462715885
100
AcDbArc
 50
0.0
 51
90.0
  0
LINE
  5
121
330
1F
100
AcDbEntity
  8
0
  6
Continuous
 62
     8
370
     0
100
AcDbLine
 10
290.9339971695
 20
54.0028897244
 30
0.0
 11
290.9339971695
 21
109.0028894264
 31
0.0
  0
ARC
  5
122
330
1F
100
AcDbEntity
  8
0
  6
Continuous
 62
     8
370
     0
100
AcDbCircle
 10
277.2372226272
 20
54.0028895754
 30
0.0
 40
13.6967746271588
100
AcDbArc
 50
270.0
 51
0.0
  0
LINE
  5
123
330
1F
100
AcDbEntity
  8
0
  6
Continuous
 62
     8
370
     0
100
AcDbLine
 10
167.2372229252
 20
40.306114884
 30
0.0
 11
277.2372223292
 21
40.306114884
 31
0.0
  0
ARC
  5
124
330
1F
100
AcDbEntity
  8
0
  6
Continuous
 62
     8
370
     0
100
AcDbCircle
 10
167.2372226272
 20
54.0028895754
 30
0.0
 40
13.69677462715882
100
AcDbArc
 50
180.0
 51
270.0
  0
LINE
  5
125
330
1F
100
AcDbEntity
  8
0
  6
Continuous
 62
     8
370
     0
100
AcDbLine
 10
153.5404480849
 20
109.0028894264
 30
0.0
 11
153.5404480849
 21
54.0028897244
 31
0.0
  0
ARC
  5
126
330
1F
100
AcDbEntity
  8
0
  6
Continuous
 62
     8
370
     0
100
AcDbCircle
 10
277.2372226272
 20
109.0028895754
 30
0.0
 40
12.58578643762689
100
AcDbArc
 50
0.0
 51
90.0
  0
LINE
  5
127
330
1F
100
AcDbEntity
  8
0
  6
Continuous
 62
     8
370
     0
100
AcDbLine
 10
167.2372229252
 20
121.5886746663
 30
0.0
 11
277.2372223292
 21
121.5886746663
 31
0.0
  0
ARC
  5
128
330
1F
100
AcDbEntity
  8
0
  6
Continuous
 62
     8
370
     0
100
AcDbCircle
 10
167.2372226272
 20
109.0028895754
 30
0.0
 40
12.58578643762689
100
AcDbArc
 50
90.0
 51
180.0
  0
LINE
  5
129
330
1F
100
AcDbEntity
  8
0
  6
Continuous
 62
     8
370
     0
100
AcDbLine
 10
154.65143396
 20
54.0028897244
 30
0.0
 11
154.65143396
 21
109.0028894264
 31
0.0
  0
ARC
  5
12A
330
1F
100
AcDbEntity
  8
0
  6
Continuous
 62
     8
370
     0
100
AcDbCircle
 10
167.2372226272
 20
54.0028895754
 30
0.0
 40
12.58578643762691
100
AcDbArc
 50
180.0
 51
270.0
  0
LINE
  5
12B
330
1F
100
AcDbEntity
  8
0
  6
Continuous
 62
     8
370
     0
100
AcDbLine
 10
277.2372223292
 20
41.4171044844
 30
0.0
 11
167.2372229252
 21
41.4171044844
 31
0.0
  0
ARC
  5
12C
330
1F
100
AcDbEntity
  8
0
  6
Continuous
 62
     8
370
     0
100
AcDbCircle
 10
277.2372226272
 20
54.0028895754
 30
0.0
 40
12.58578643762695
100
AcDbArc
 50
270.0
 51
0.0
  0
LINE
  5
12D
330
1F
100
AcDbEntity
  8
0
  6
Continuous
 62
     8
370
     0
100
AcDbLine
 10
289.8230112944
 20
109.0028894264
 30
0.0
 11
289.8230112944
 21
54.0028897244
 31
0.0
  0
LINE
  5
12E
330
1F
100
AcDbEntity
  8
0
  6
Continuous
 62
     8
370
     0
100
AcDbLine
 10
153.5404480849
 20
109.0028894264
 30
0.0
 11
152.5404460583
 21
109.0028894264
 31
0.0
  0
LINE
  5
12F
330
1F
100
AcDbEntity
  8
0
  6
Continuous
 62
     8
370
     0
100
AcDbLine
 10
291.9339991961
 20
109.0028894264
 30
0.0
 11
290.9339971695
 21
109.0028894264
 31
0.0
  0
LINE
  5
130
330
1F
100
AcDbEntity
  8
0
  6
Continuous
 62
     8
370
     0
100
AcDbLine
 10
277.2372223292
 20
121.5886746663
 30
0.0
 11
277.2372223292
 21
120.8815698642
 31
0.0
  0
LINE
  5
131
330
1F
100
AcDbEntity
  8
0
  6
Continuous
 62
     8
370
     0
100
AcDbLine
 10
277.2372223292
 20
120.8815698642
 30
0.0
 11
167.2372229252
 21
120.8815698642
 31
0.0
  0
LINE
  5
132
330
1F
100
AcDbEntity
  8
0
  6
Continuous
 62
     8
370
     0
100
AcDbLine
 10
167.2372229252
 20
121.5886746663
 30
0.0
 11
167.2372229252
 21
120.8815698642
 31
0.0
  0
LINE
  5
133
330
1F
100
AcDbEntity
  8
0
  6
Continuous
 62
     8
370
     0
100
AcDbLine
 10
289.8230112944
 20
109.0028894264
 30
0.0
 11
289.1158990417
 21
109.0028894264
 31
0.0
  0
ARC
  5
134
330
1F
100
AcDbEntity
  8
0
  6
Continuous
 62
     8
370
     0
100
AcDbCircle
 10
277.2372226272
 20
109.0028895754
 30
0.0
 40
11.8786796564404
100
AcDbArc
 50
0.0
 51
90.0
  0
ARC
  5
135
330
1F
100
AcDbEntity
  8
0
  6
Continuous
 62
     8
370
     0
100
AcDbCircle
 10
167.2372226272
 20
109.0028895754
 30
0.0
 40
11.8786796564404
100
AcDbArc
 50
90.0
 51
180.0
  0
LINE
  5
136
330
1F
100
AcDbEntity
  8
0
  6
Continuous
 62
     8
370
     0
100
AcDbLine
 10
155.3585462127
 20
109.0028894264
 30
0.0
 11
154.65143396
 21
109.0028894264
 31
0.0
  0
LINE
  5
137
330
1F
100
AcDbEntity
  8
0
  6
Continuous
 62
     8
370
     0
100
AcDbLine
 10
155.3585462127
 20
109.0028894264
 30
0.0
 11
155.3585462127
 21
54.0028897244
 31
0.0
  0
LINE
  5
138
330
1F
100
AcDbEntity
  8
0
  6
Continuous
 62
     8
370
     0
100
AcDbLine
 10
155.3585462127
 20
54.0028897244
 30
0.0
 11
154.65143396
 21
54.0028897244
 31
0.0
  0
LINE
  5
139
330
1F
100
AcDbEntity
  8
0
  6
Continuous
 62
     8
370
     0
100
AcDbLine
 10
153.5404480849
 20
54.0028897244
 30
0.0
 11
152.5404460583
 21
54.0028897244
 31
0.0
  0
LINE
  5
13A
330
1F
100
AcDbEntity
  8
0
  6
Continuous
 62
     8
370
     0
100
AcDbLine
 10
289.8230112944
 20
54.0028897244
 30
0.0
 11
289.1158990417
 21
54.0028897244
 31
0.0
  0
LINE
  5
13B
330
1F
100
AcDbEntity
  8
0
  6
Continuous
 62
     8
370
     0
100
AcDbLine
 10
289.1158990417
 20
54.0028897244
 30
0.0
 11
289.1158990417
 21
109.0028894264
 31
0.0
  0
LINE
  5
13C
330
1F
100
AcDbEntity
  8
0
  6
Continuous
 62
     8
370
     0
100
AcDbLine
 10
291.9339991961
 20
54.0028897244
 30
0.0
 11
290.9339971695
 21
54.0028897244
 31
0.0
  0
ARC
  5
13D
330
1F
100
AcDbEntity
  8
0
  6
Continuous
 62
     8
370
     0
100
AcDbCircle
 10
167.2372226272
 20
54.0028895754
 30
0.0
 40
11.87867965644037
100
AcDbArc
 50
180.0
 51
270.0
  0
LINE
  5
13E
330
1F
100
AcDbEntity
  8
0
  6
Continuous
 62
     8
370
     0
100
AcDbLine
 10
167.2372229252
 20
42.1242092866
 30
0.0
 11
167.2372229252
 21
41.4171044844
 31
0.0
  0
LINE
  5
13F
330
1F
100
AcDbEntity
  8
0
  6
Continuous
 62
     8
370
     0
100
AcDbLine
 10
167.2372229252
 20
39.3061165828
 30
0.0
 11
167.2372229252
 21
40.306114884
 31
0.0
  0
ARC
  5
140
330
1F
100
AcDbEntity
  8
0
  6
Continuous
 62
     8
370
     0
100
AcDbCircle
 10
277.2372226272
 20
54.0028895754
 30
0.0
 40
11.8786796564404
100
AcDbArc
 50
270.0
 51
0.0
  0
LINE
  5
141
330
1F
100
AcDbEntity
  8
0
  6
Continuous
 62
     8
370
     0
100
AcDbLine
 10
277.2372223292
 20
42.1242092866
 30
0.0
 11
277.2372223292
 21
41.4171044844
 31
0.0
  0
LINE
  5
142
330
1F
100
AcDbEntity
  8
0
  6
Continuous
 62
     8
370
     0
100
AcDbLine
 10
277.2372223292
 20
39.3061165828
 30
0.0
 11
277.2372223292
 21
40.306114884
 31
0.0
  0
LINE
  5
143
330
1F
100
AcDbEntity
  8
0
  6
Continuous
 62
     8
370
     0
100
AcDbLine
 10
167.2372229252
 20
42.1242092866
 30
0.0
 11
277.2372223292
 21
42.1242092866
 31
0.0
  0
ARC
  5
144
330
1F
100
AcDbEntity
  8
0
  6
Continuous
 62
     8
370
     0
100
AcDbCircle
 10
167.2372226272
 20
109.0028895754
 30
0.0
 40
4.136038969321106
100
AcDbArc
 50
90.0
 51
180.0
  0
LINE
  5
145
330
1F
100
AcDbEntity
  8
0
  6
Continuous
 62
     8
370
     0
100
AcDbLine
 10
163.1011821184
 20
109.0028894264
 30
0.0
 11
155.3585462127
 21
109.0028894264
 31
0.0
  0
LINE
  5
146
330
1F
100
AcDbEntity
  8
0
  6
Continuous
 62
     8
370
     0
100
AcDbLine
 10
167.2372229252
 20
113.1389302331
 30
0.0
 11
167.2372229252
 21
120.8815698642
 31
0.0
  0
LINE
  5
147
330
1F
100
AcDbEntity
  8
0
  6
Continuous
 62
     8
370
     0
100
AcDbLine
 10
167.2372229252
 20
113.1389302331
 30
0.0
 11
277.2372223292
 21
113.1389302331
 31
0.0
  0
LINE
  5
148
330
1F
100
AcDbEntity
  8
0
  6
Continuous
 62
     8
370
     0
100
AcDbLine
 10
277.2372223292
 20
113.1389302331
 30
0.0
 11
277.2372223292
 21
120.8815698642
 31
0.0
  0
ARC
  5
149
330
1F
100
AcDbEntity
  8
0
  6
Continuous
 62
     8
370
     0
100
AcDbCircle
 10
277.2372226272
 20
109.0028895754
 30
0.0
 40
4.136038969321135
100
AcDbArc
 50
0.0
 51
90.0
  0
LINE
  5
14A
330
1F
100
AcDbEntity
  8
0
  6
Continuous
 62
     8
370
     0
100
AcDbLine
 10
281.3732631359
 20
109.0028894264
 30
0.0
 11
289.1158990417
 21
109.0028894264
 31
0.0
  0
LINE
  5
14B
330
1F
100
AcDbEntity
  8
0
  6
Continuous
 62
     8
370
     0
100
AcDbLine
 10
163.1011821184
 20
54.0028897244
 30
0.0
 11
163.1011821184
 21
109.0028894264
 31
0.0
  0
LINE
  5
14C
330
1F
100
AcDbEntity
  8
0
  6
Continuous
 62
     8
370
     0
100
AcDbLine
 10
163.1011821184
 20
54.0028897244
 30
0.0
 11
155.3585462127
 21
54.0028897244
 31
0.0
  0
LINE
  5
14D
330
1F
100
AcDbEntity
  8
0
  6
Continuous
 62
     8
370
     0
100
AcDbLine
 10
281.3732631359
 20
109.0028894264
 30
0.0
 11
281.3732631359
 21
54.0028897244
 31
0.0
  0
LINE
  5
14E
330
1F
100
AcDbEntity
  8
0
  6
Continuous
 62
     8
370
     0
100
AcDbLine
 10
281.3732631359
 20
54.0028897244
 30
0.0
 11
289.1158990417
 21
54.0028897244
 31
0.0
  0
ARC
  5
14F
330
1F
100
AcDbEntity
  8
0
  6
Continuous
 62
     8
370
     0
100
AcDbCircle
 10
167.2372226272
 20
54.0028895754
 30
0.0
 40
4.136038969321099
100
AcDbArc
 50
180.0
 51
270.0
  0
LINE
  5
150
330
1F
100
AcDbEntity
  8
0
  6
Continuous
 62
     8
370
     0
100
AcDbLine
 10
167.2372229252
 20
49.8668489176
 30
0.0
 11
167.2372229252
 21
42.1242092866
 31
0.0
  0
ARC
  5
151
330
1F
100
AcDbEntity
  8
0
  6
Continuous
 62
     8
370
     0
100
AcDbCircle
 10
277.2372226272
 20
54.0028895754
 30
0.0
 40
4.136038969321135
100
AcDbArc
 50
270.0
 51
0.0
  0
LINE
  5
152
330
1F
100
AcDbEntity
  8
0
  6
Continuous
 62
     8
370
     0
100
AcDbLine
 10
277.2372223292
 20
49.8668489176
 30
0.0
 11
277.2372223292
 21
42.1242092866
 31
0.0
  0
LINE
  5
153
330
1F
100
AcDbEntity
  8
0
  6
Continuous
 62
     8
370
     0
100
AcDbLine
 10
277.2372223292
 20
49.8668489176
 30
0.0
 11
167.2372229252
 21
49.8668489176
 31
0.0
  0
SPLINE
  5
154
330
1F
100
AcDbEntity
  8
0
  6
Continuous
 62
     8
370
     0
100
AcDbSpline
210
0.0
220
0.0
230
1.0
 70
     8
 71
     3
 72
    17
 73
    13
 74
     0
 42
0.00000001
 43
0.00000001
 40
0.0
 40
0.0
 40
0.0
 40
0.0
 40
0.0032098925540977
 40
0.0914252670645313
 40
0.3475235694096119
 40
0.4915210081718832
 40
0.6021550455370338
 40
0.7367791769264544
 40
0.8216598223780796
 40
0.9007327611856966
 40
0.9596051538379067
 40
0.9999999999999999
 40
0.9999999999999999
 40
0.9999999999999999
 40
0.9999999999999999
 10
271.2592229101895
 20
99.50288880050985
 30
0.0
 10
271.2612942397923
 20
99.5010522719351
 30
0.0
 10
271.3202905641004
 20
99.44874363150865
 30
0.0
 10
271.543915108709
 20
99.24954345267511
 30
0.0
 10
271.8527753650504
 20
98.97111208344734
 30
0.0
 10
272.1354849083511
 20
98.71447208997631
 30
0.0
 10
272.3218876276655
 20
98.54483224330968
 30
0.0
 10
272.4486329077492
 20
98.42930451199224
 30
0.0
 10
272.5295126120051
 20
98.35553973998546
 30
0.0
 10
272.5684682844022
 20
98.31999965781718
 30
0.0
 10
272.5850642558077
 20
98.30486052765045
 30
0.0
 10
272.5865978005577
 20
98.30345921351105
 30
0.0
 10
272.5872218463658
 20
98.30288897634355
 30
0.0
  0
SPLINE
  5
155
330
1F
100
AcDbEntity
  8
0
  6
Continuous
 62
     8
370
     0
100
AcDbSpline
210
0.0
220
0.0
230
1.0
 70
     8
 71
     3
 72
    17
 73
    13
 74
     0
 42
0.00000001
 43
0.00000001
 40
0.0
 40
0.0
 40
0.0
 40
0.0
 40
0.0403948290745715
 40
0.0992671968230281
 40
0.1783401021818098
 40
0.2632207117278675
 40
0.3978447861696084
 40
0.5084791378323128
 40
0.65247609991363
 40
0.9085742939259475
 40
0.9967896311201818
 40
0.9999999999999999
 40
0.9999999999999999
 40
0.9999999999999999
 40
0.9999999999999999
 10
272.5872218463658
 20
100.7028904873213
 30
0.0
 10
272.5865978004512
 20
100.7023202503717
 30
0.0
 10
272.5850642554395
 20
100.7009189367676
 30
0.0
 10
272.5684682870302
 20
100.6857798004721
 30
0.0
 10
272.52951259808
 20
100.6502397521626
 30
0.0
 10
272.4486329772893
 20
100.5764748094309
 30
0.0
 10
272.3218870912737
 20
100.4609479075997
 30
0.0
 10
272.1354860668604
 20
100.2913045109277
 30
0.0
 10
271.8527721636827
 20
100.034671054244
 30
0.0
 10
271.543926706507
 20
99.75622286510867
 30
0.0
 10
271.3202819226992
 20
99.55704495578333
 30
0.0
 10
271.2612942339811
 20
99.50472595653756
 30
0.0
 10
271.2592229101895
 20
99.50288880050985
 30
0.0
  0
LINE
  5
156
330
1F
100
AcDbEntity
  8
0
  6
Continuous
 62
     8
370
     0
100
AcDbLine
 10
177.4872213457
 20
101.5028891283
 30
0.0
 11
177.4872213457
 21
100.0028898138
 31
0.0
  0
ARC
  5
157
330
1F
100
AcDbEntity
  8
0
  6
Continuous
 62
     8
370
     0
100
AcDbCircle
 10
177.4872226272
 20
81.5028895754
 30
0.0
 40
18.50000000000003
100
AcDbArc
 50
90.0
 51
103.3511843322
  0
SPLINE
  5
158
330
1F
100
AcDbEntity
  8
0
  6
Continuous
 62
     8
370
     0
100
AcDbSpline
210
0.0
220
0.0
230
1.0
 70
     8
 71
     3
 72
    17
 73
    13
 74
     0
 42
0.00000001
 43
0.00000001
 40
0.0
 40
0.0
 40
0.0
 40
0.0
 40
0.0403948290745715
 40
0.0992671968230281
 40
0.1783401021818098
 40
0.2632207117278675
 40
0.3978447861696084
 40
0.5084791378323128
 40
0.65247609991363
 40
0.9085742939259475
 40
0.9967896311201818
 40
0.9999999999999999
 40
0.9999999999999999
 40
0.9999999999999999
 40
0.9999999999999999
 10
171.8872234080074
 20
100.7028904873213
 30
0.0
 10
171.887847453922
 20
100.7023202503717
 30
0.0
 10
171.8893809989337
 20
100.7009189367676
 30
0.0
 10
171.905976967343
 20
100.6857798004721
 30
0.0
 10
171.9449326562932
 20
100.6502397521626
 30
0.0
 10
172.0258122770839
 20
100.5764748094309
 30
0.0
 10
172.1525581630995
 20
100.4609479075997
 30
0.0
 10
172.3389591875128
 20
100.2913045109277
 30
0.0
 10
172.6216730906905
 20
100.034671054244
 30
0.0
 10
172.9305185478662
 20
99.75622286510867
 30
0.0
 10
173.1541633316741
 20
99.55704495578333
 30
0.0
 10
173.2131510203922
 20
99.50472595653756
 30
0.0
 10
173.2152223441837
 20
99.50288880050985
 30
0.0
  0
SPLINE
  5
159
330
1F
100
AcDbEntity
  8
0
  6
Continuous
 62
     8
370
     0
100
AcDbSpline
210
0.0
220
0.0
230
1.0
 70
     8
 71
     3
 72
    17
 73
    13
 74
     0
 42
0.00000001
 43
0.00000001
 40
0.0
 40
0.0
 40
0.0
 40
0.0
 40
0.0032098925540977
 40
0.0914252670645313
 40
0.3475235694096119
 40
0.4915210081718832
 40
0.6021550455370338
 40
0.7367791769264544
 40
0.8216598223780796
 40
0.9007327611856966
 40
0.9596051538379067
 40
0.9999999999999999
 40
0.9999999999999999
 40
0.9999999999999999
 40
0.9999999999999999
 10
173.2152223441837
 20
99.50288880050985
 30
0.0
 10
173.2131510145809
 20
99.5010522719351
 30
0.0
 10
173.1541546902727
 20
99.44874363150865
 30
0.0
 10
172.9305301456642
 20
99.24954345267511
 30
0.0
 10
172.6216698893228
 20
98.97111208344734
 30
0.0
 10
172.3389603460221
 20
98.71447208997631
 30
0.0
 10
172.1525576267077
 20
98.54483224330968
 30
0.0
 10
172.025812346624
 20
98.42930451199224
 30
0.0
 10
171.9449326423681
 20
98.35553973998546
 30
0.0
 10
171.905976969971
 20
98.31999965781718
 30
0.0
 10
171.8893809985655
 20
98.30486052765045
 30
0.0
 10
171.8878474538155
 20
98.30345921351105
 30
0.0
 10
171.8872234080074
 20
98.30288897634355
 30
0.0
  0
ARC
  5
15A
330
1F
100
AcDbEntity
  8
0
  6
Continuous
 62
     8
370
     0
100
AcDbCircle
 10
266.9872226272
 20
117.5028895754
 30
0.0
 40
18.5
100
AcDbArc
 50
270.0
 51
283.3511843322
  0
LINE
  5
15B
330
1F
100
AcDbEntity
  8
0
  6
Continuous
 62
     8
370
     0
100
AcDbLine
 10
266.9872239087
 20
99.0028896499
 30
0.0
 11
266.9872239087
 21
97.5028903353
 31
0.0
  0
ARC
  5
15C
330
1F
100
AcDbEntity
  8
0
  6
Continuous
 62
     8
370
     0
100
AcDbCircle
 10
266.9872226272
 20
81.5028895754
 30
0.0
 40
18.5
100
AcDbArc
 50
76.6488156678
 51
90.0
  0
LINE
  5
15D
330
1F
100
AcDbEntity
  8
0
  6
Continuous
 62
     8
370
     0
100
AcDbLine
 10
266.9872239087
 20
101.5028891283
 30
0.0
 11
266.9872239087
 21
100.0028898138
 31
0.0
  0
ARC
  5
15E
330
1F
100
AcDbEntity
  8
0
  6
Continuous
 62
     8
370
     0
100
AcDbCircle
 10
177.4872226272
 20
117.5028895754
 30
0.0
 40
18.49999999999997
100
AcDbArc
 50
256.6488156678
 51
270.0
  0
LINE
  5
15F
330
1F
100
AcDbEntity
  8
0
  6
Continuous
 62
     8
370
     0
100
AcDbLine
 10
177.4872213457
 20
99.0028896499
 30
0.0
 11
177.4872213457
 21
97.5028903353
 31
0.0
  0
LINE
  5
160
330
1F
100
AcDbEntity
  8
0
  6
Continuous
 62
     8
370
     0
100
AcDbLine
 10
177.4872213457
 20
83.5028896704
 30
0.0
 11
177.4872213457
 21
82.0028895991
 31
0.0
  0
ARC
  5
161
330
1F
100
AcDbEntity
  8
0
  6
Continuous
 62
     8
370
     0
100
AcDbCircle
 10
177.4872226272
 20
63.5028895754
 30
0.0
 40
18.49999999999999
100
AcDbArc
 50
90.0
 51
103.3511843322
  0
SPLINE
  5
162
330
1F
100
AcDbEntity
  8
0
  6
Continuous
 62
     8
370
     0
100
AcDbSpline
210
0.0
220
0.0
230
1.0
 70
     8
 71
     3
 72
    17
 73
    13
 74
     0
 42
0.00000001
 43
0.00000001
 40
0.0
 40
0.0
 40
0.0
 40
0.0
 40
0.0403948191983723
 40
0.0992672087501358
 40
0.1783401179444445
 40
0.2632208044989228
 40
0.3978448366918361
 40
0.508479115076576
 40
0.652476346142168
 40
0.908574612163116
 40
0.9967897658010139
 40
1.0
 40
1.0
 40
1.0
 40
1.0
 10
171.8872234080074
 20
82.70288963236717
 30
0.0
 10
171.8878474547446
 20
82.70232003349375
 30
0.0
 10
171.889381002337
 20
82.70092028740268
 30
0.0
 10
171.9059769581749
 20
82.6857796097871
 30
0.0
 10
171.9449326897979
 20
82.6502405299916
 30
0.0
 10
172.0258122084209
 20
82.57647423908975
 30
0.0
 10
172.1525580702966
 20
82.46094814292786
 30
0.0
 10
172.338959592635
 20
82.29130544466021
 30
0.0
 10
172.6216721042796
 20
82.03466959190547
 30
0.0
 10
172.9305211602432
 20
81.75622561203477
 30
0.0
 10
173.1541610166963
 20
81.55704251289907
 30
0.0
 10
173.2131510188464
 20
81.5047265539655
 30
0.0
 10
173.2152223441837
 20
81.50288957537022
 30
0.0
  0
SPLINE
  5
163
330
1F
100
AcDbEntity
  8
0
  6
Continuous
 62
     8
370
     0
100
AcDbSpline
210
0.0
220
0.0
230
1.0
 70
     8
 71
     3
 72
    17
 73
    13
 74
     0
 42
0.00000001
 43
0.00000001
 40
0.0
 40
0.0
 40
0.0
 40
0.0
 40
0.0032102341989827
 40
0.0914253878368809
 40
0.3475236538578297
 40
0.4915208849234222
 40
0.6021551633081625
 40
0.7367791955010763
 40
0.8216598820555548
 40
0.9007327912498638
 40
0.9596051808016276
 40
0.9999999999999999
 40
0.9999999999999999
 40
0.9999999999999999
 40
0.9999999999999999
 10
173.2152223441837
 20
81.50288957537022
 30
0.0
 10
173.2131510188464
 20
81.50105259677495
 30
0.0
 10
173.1541610166962
 20
81.44873663784145
 30
0.0
 10
172.9305211602434
 20
81.2495535387056
 30
0.0
 10
172.6216721042795
 20
80.97110955883501
 30
0.0
 10
172.338959592635
 20
80.71447370608024
 30
0.0
 10
172.1525580702966
 20
80.54483100781259
 30
0.0
 10
172.0258122084209
 20
80.4293049116507
 30
0.0
 10
171.9449326897979
 20
80.35553862074886
 30
0.0
 10
171.9059769581749
 20
80.31999954095336
 30
0.0
 10
171.889381002337
 20
80.30485886333778
 30
0.0
 10
171.8878474547446
 20
80.30345911724672
 30
0.0
 10
171.8872234080074
 20
80.30288951837329
 30
0.0
  0
ARC
  5
164
330
1F
100
AcDbEntity
  8
0
  6
Continuous
 62
     8
370
     0
100
AcDbCircle
 10
177.4872226272
 20
99.5028895754
 30
0.0
 40
18.50000000000004
100
AcDbArc
 50
256.6488156678
 51
270.0
  0
LINE
  5
165
330
1F
100
AcDbEntity
  8
0
  6
Continuous
 62
     8
370
     0
100
AcDbLine
 10
177.4872213457
 20
81.0028895516
 30
0.0
 11
177.4872213457
 21
79.5028894804
 31
0.0
  0
SPLINE
  5
166
330
1F
100
AcDbEntity
  8
0
  6
Continuous
 62
     8
370
     0
100
AcDbSpline
210
0.0
220
0.0
230
1.0
 70
     8
 71
     3
 72
    17
 73
    13
 74
     0
 42
0.00000001
 43
0.00000001
 40
0.0
 40
0.0
 40
0.0
 40
0.0
 40
0.0403948191983723
 40
0.0992672087501358
 40
0.1783401179444445
 40
0.2632208044989228
 40
0.3978448366918361
 40
0.508479115076576
 40
0.652476346142168
 40
0.908574612163116
 40
0.9967897658010139
 40
1.0
 40
1.0
 40
1.0
 40
1.0
 10
272.5872218463658
 20
82.70288963236717
 30
0.0
 10
272.5865977996286
 20
82.70232003349375
 30
0.0
 10
272.5850642520361
 20
82.70092028740268
 30
0.0
 10
272.5684682961983
 20
82.6857796097871
 30
0.0
 10
272.5295125645754
 20
82.6502405299916
 30
0.0
 10
272.4486330459524
 20
82.57647423908975
 30
0.0
 10
272.3218871840766
 20
82.46094814292786
 30
0.0
 10
272.1354856617382
 20
82.29130544466021
 30
0.0
 10
271.8527731500936
 20
82.03466959190547
 30
0.0
 10
271.54392409413
 20
81.75622561203477
 30
0.0
 10
271.3202842376769
 20
81.55704251289907
 30
0.0
 10
271.2612942355268
 20
81.5047265539655
 30
0.0
 10
271.2592229101895
 20
81.50288957537022
 30
0.0
  0
ARC
  5
167
330
1F
100
AcDbEntity
  8
0
  6
Continuous
 62
     8
370
     0
100
AcDbCircle
 10
266.9872226272
 20
63.5028895754
 30
0.0
 40
18.5
100
AcDbArc
 50
76.6488156678
 51
90.0
  0
LINE
  5
168
330
1F
100
AcDbEntity
  8
0
  6
Continuous
 62
     8
370
     0
100
AcDbLine
 10
266.9872239087
 20
83.5028896704
 30
0.0
 11
266.9872239087
 21
82.0028895991
 31
0.0
  0
SPLINE
  5
169
330
1F
100
AcDbEntity
  8
0
  6
Continuous
 62
     8
370
     0
100
AcDbSpline
210
0.0
220
0.0
230
1.0
 70
     8
 71
     3
 72
    17
 73
    13
 74
     0
 42
0.00000001
 43
0.00000001
 40
0.0
 40
0.0
 40
0.0
 40
0.0
 40
0.0032102341989827
 40
0.0914253878368809
 40
0.3475236538578297
 40
0.4915208849234222
 40
0.6021551633081625
 40
0.7367791955010763
 40
0.8216598820555548
 40
0.9007327912498638
 40
0.9596051808016276
 40
0.9999999999999999
 40
0.9999999999999999
 40
0.9999999999999999
 40
0.9999999999999999
 10
271.2592229101895
 20
81.50288957537022
 30
0.0
 10
271.2612942355268
 20
81.50105259677495
 30
0.0
 10
271.3202842376771
 20
81.44873663784145
 30
0.0
 10
271.5439240941299
 20
81.2495535387056
 30
0.0
 10
271.8527731500937
 20
80.97110955883501
 30
0.0
 10
272.1354856617382
 20
80.71447370608024
 30
0.0
 10
272.3218871840766
 20
80.54483100781259
 30
0.0
 10
272.4486330459524
 20
80.4293049116507
 30
0.0
 10
272.5295125645753
 20
80.35553862074886
 30
0.0
 10
272.5684682961983
 20
80.31999954095336
 30
0.0
 10
272.5850642520361
 20
80.30485886333778
 30
0.0
 10
272.5865977996286
 20
80.30345911724672
 30
0.0
 10
272.5872218463658
 20
80.30288951837329
 30
0.0
  0
ARC
  5
16A
330
1F
100
AcDbEntity
  8
0
  6
Continuous
 62
     8
370
     0
100
AcDbCircle
 10
266.9872226272
 20
99.5028895754
 30
0.0
 40
18.49999999999999
100
AcDbArc
 50
270.0
 51
283.3511843322
  0
LINE
  5
16B
330
1F
100
AcDbEntity
  8
0
  6
Continuous
 62
     8
370
     0
100
AcDbLine
 10
266.9872239087
 20
81.0028895516
 30
0.0
 11
266.9872239087
 21
79.5028894804
 31
0.0
  0
SPLINE
  5
16C
330
1F
100
AcDbEntity
  8
0
  6
Continuous
 62
     8
370
     0
100
AcDbSpline
210
0.0
220
0.0
230
1.0
 70
     8
 71
     3
 72
    17
 73
    13
 74
     0
 42
0.00000001
 43
0.00000001
 40
0.0
 40
0.0
 40
0.0
 40
0.0
 40
0.0032103688798181
 40
0.0914257060740525
 40
0.3475239000863699
 40
0.4915208621676871
 40
0.6021552138303916
 40
0.7367792882721323
 40
0.82165989781819
 40
0.9007328031769717
 40
0.9596051709254284
 40
0.9999999999999999
 40
0.9999999999999999
 40
0.9999999999999999
 40
0.9999999999999999
 10
271.2592229101895
 20
63.50289035023062
 30
0.0
 10
271.2612942339811
 20
63.5010531942029
 30
0.0
 10
271.3202819226991
 20
63.44873419495711
 30
0.0
 10
271.5439267065071
 20
63.24955628563181
 30
0.0
 10
271.8527721636827
 20
62.97110809649645
 30
0.0
 10
272.1354860668604
 20
62.71447463981281
 30
0.0
 10
272.3218870912737
 20
62.54483124314077
 30
0.0
 10
272.4486329772892
 20
62.42930434130959
 30
0.0
 10
272.52951259808
 20
62.35553939857783
 30
0.0
 10
272.5684682870302
 20
62.31999935026833
 30
0.0
 10
272.5850642554395
 20
62.30486021397287
 30
0.0
 10
272.5865978004512
 20
62.30345890036881
 30
0.0
 10
272.5872218463658
 20
62.30288866341917
 30
0.0
  0
SPLINE
  5
16D
330
1F
100
AcDbEntity
  8
0
  6
Continuous
 62
     8
370
     0
100
AcDbSpline
210
0.0
220
0.0
230
1.0
 70
     8
 71
     3
 72
    17
 73
    13
 74
     0
 42
0.00000001
 43
0.00000001
 40
0.0
 40
0.0
 40
0.0
 40
0.0
 40
0.0403948461620932
 40
0.0992672388143033
 40
0.1783401776219203
 40
0.2632208230735454
 40
0.3978449544629661
 40
0.5084789918281167
 40
0.6524764305903881
 40
0.9085747329354688
 40
0.9967901074459022
 40
0.9999999999999999
 40
0.9999999999999999
 40
0.9999999999999999
 40
0.9999999999999999
 10
272.5872218463658
 20
64.70289017439691
 30
0.0
 10
272.5865978005577
 20
64.70231993722942
 30
0.0
 10
272.5850642558078
 20
64.70091862309
 30
0.0
 10
272.5684682844022
 20
64.68577949292329
 30
0.0
 10
272.5295126120051
 20
64.65023941075502
 30
0.0
 10
272.4486329077492
 20
64.57647463874821
 30
0.0
 10
272.3218876276655
 20
64.4609469074308
 30
0.0
 10
272.1354849083511
 20
64.29130706076414
 30
0.0
 10
271.8527753650504
 20
64.03466706729313
 30
0.0
 10
271.5439151087091
 20
63.75623569806537
 30
0.0
 10
271.3202905641003
 20
63.55703551923181
 30
0.0
 10
271.2612942397923
 20
63.50472687880537
 30
0.0
 10
271.2592229101895
 20
63.50289035023062
 30
0.0
  0
ARC
  5
16E
330
1F
100
AcDbEntity
  8
0
  6
Continuous
 62
     8
370
     0
100
AcDbCircle
 10
266.9872226272
 20
45.5028895754
 30
0.0
 40
18.50000000000004
100
AcDbArc
 50
76.6488156678
 51
90.0
  0
LINE
  5
16F
330
1F
100
AcDbEntity
  8
0
  6
Continuous
 62
     8
370
     0
100
AcDbLine
 10
266.9872239087
 20
65.5028888154
 30
0.0
 11
266.9872239087
 21
64.0028895009
 31
0.0
  0
LINE
  5
170
330
1F
100
AcDbEntity
  8
0
  6
Continuous
 62
     8
370
     0
100
AcDbLine
 10
177.4872213457
 20
65.5028888154
 30
0.0
 11
177.4872213457
 21
64.0028895009
 31
0.0
  0
ARC
  5
171
330
1F
100
AcDbEntity
  8
0
  6
Continuous
 62
     8
370
     0
100
AcDbCircle
 10
177.4872226272
 20
45.5028895754
 30
0.0
 40
18.5
100
AcDbArc
 50
90.0
 51
103.3511843322
  0
SPLINE
  5
172
330
1F
100
AcDbEntity
  8
0
  6
Continuous
 62
     8
370
     0
100
AcDbSpline
210
0.0
220
0.0
230
1.0
 70
     8
 71
     3
 72
    17
 73
    13
 74
     0
 42
0.00000001
 43
0.00000001
 40
0.0
 40
0.0
 40
0.0
 40
0.0
 40
0.0403948461620932
 40
0.0992672388143033
 40
0.1783401776219203
 40
0.2632208230735454
 40
0.3978449544629661
 40
0.5084789918281167
 40
0.6524764305903881
 40
0.9085747329354688
 40
0.9967901074459022
 40
0.9999999999999999
 40
0.9999999999999999
 40
0.9999999999999999
 40
0.9999999999999999
 10
171.8872234080074
 20
64.70289017439691
 30
0.0
 10
171.8878474538155
 20
64.70231993722942
 30
0.0
 10
171.8893809985655
 20
64.70091862309
 30
0.0
 10
171.905976969971
 20
64.68577949292329
 30
0.0
 10
171.9449326423681
 20
64.65023941075502
 30
0.0
 10
172.025812346624
 20
64.57647463874821
 30
0.0
 10
172.1525576267077
 20
64.4609469074308
 30
0.0
 10
172.3389603460221
 20
64.29130706076414
 30
0.0
 10
172.6216698893228
 20
64.03466706729313
 30
0.0
 10
172.9305301456641
 20
63.75623569806537
 30
0.0
 10
173.1541546902728
 20
63.55703551923181
 30
0.0
 10
173.2131510145809
 20
63.50472687880537
 30
0.0
 10
173.2152223441837
 20
63.50289035023062
 30
0.0
  0
SPLINE
  5
173
330
1F
100
AcDbEntity
  8
0
  6
Continuous
 62
     8
370
     0
100
AcDbSpline
210
0.0
220
0.0
230
1.0
 70
     8
 71
     3
 72
    17
 73
    13
 74
     0
 42
0.00000001
 43
0.00000001
 40
0.0
 40
0.0
 40
0.0
 40
0.0
 40
0.0032103688798181
 40
0.0914257060740525
 40
0.3475239000863699
 40
0.4915208621676871
 40
0.6021552138303916
 40
0.7367792882721323
 40
0.82165989781819
 40
0.9007328031769717
 40
0.9596051709254284
 40
0.9999999999999999
 40
0.9999999999999999
 40
0.9999999999999999
 40
0.9999999999999999
 10
173.2152223441837
 20
63.50289035023062
 30
0.0
 10
173.2131510203922
 20
63.5010531942029
 30
0.0
 10
173.1541633316741
 20
63.44873419495711
 30
0.0
 10
172.9305185478661
 20
63.24955628563181
 30
0.0
 10
172.6216730906905
 20
62.97110809649645
 30
0.0
 10
172.3389591875128
 20
62.71447463981281
 30
0.0
 10
172.1525581630995
 20
62.54483124314077
 30
0.0
 10
172.025812277084
 20
62.42930434130959
 30
0.0
 10
171.9449326562932
 20
62.35553939857783
 30
0.0
 10
171.905976967343
 20
62.31999935026833
 30
0.0
 10
171.8893809989337
 20
62.30486021397287
 30
0.0
 10
171.887847453922
 20
62.30345890036881
 30
0.0
 10
171.8872234080074
 20
62.30288866341917
 30
0.0
  0
ARC
  5
174
330
1F
100
AcDbEntity
  8
0
  6
Continuous
 62
     8
370
     0
100
AcDbCircle
 10
266.9872226272
 20
81.5028895754
 30
0.0
 40
18.49999999999998
100
AcDbArc
 50
270.0
 51
283.3511843322
  0
LINE
  5
175
330
1F
100
AcDbEntity
  8
0
  6
Continuous
 62
     8
370
     0
100
AcDbLine
 10
266.9872239087
 20
63.002889337
 30
0.0
 11
266.9872239087
 21
61.5028900224
 31
0.0
  0
ARC
  5
176
330
1F
100
AcDbEntity
  8
0
  6
Continuous
 62
     8
370
     0
100
AcDbCircle
 10
177.4872226272
 20
81.5028895754
 30
0.0
 40
18.49999999999999
100
AcDbArc
 50
256.6488156678
 51
270.0
  0
LINE
  5
177
330
1F
100
AcDbEntity
  8
0
  6
Continuous
 62
     8
370
     0
100
AcDbLine
 10
177.4872213457
 20
63.002889337
 30
0.0
 11
177.4872213457
 21
61.5028900224
 31
0.0
  0
LINE
  5
178
330
1F
100
AcDbEntity
  8
0
  6
Continuous
 62
     8
370
     0
100
AcDbLine
 10
266.9872239087
 20
100.0028898138
 30
0.0
 11
177.4872213457
 21
100.0028898138
 31
0.0
  0
LINE
  5
179
330
1F
100
AcDbEntity
  8
0
  6
Continuous
 62
     8
370
     0
100
AcDbLine
 10
177.4872213457
 20
99.0028896499
 30
0.0
 11
266.9872239087
 21
99.0028896499
 31
0.0
  0
LINE
  5
17A
330
1F
100
AcDbEntity
  8
0
  6
Continuous
 62
     8
370
     0
100
AcDbLine
 10
266.9872239087
 20
82.0028895991
 30
0.0
 11
177.4872213457
 21
82.0028895991
 31
0.0
  0
LINE
  5
17B
330
1F
100
AcDbEntity
  8
0
  6
Continuous
 62
     8
370
     0
100
AcDbLine
 10
177.4872213457
 20
81.0028895516
 30
0.0
 11
266.9872239087
 21
81.0028895516
 31
0.0
  0
LINE
  5
17C
330
1F
100
AcDbEntity
  8
0
  6
Continuous
 62
     8
370
     0
100
AcDbLine
 10
266.9872239087
 20
64.0028895009
 30
0.0
 11
177.4872213457
 21
64.0028895009
 31
0.0
  0
LINE
  5
17D
330
1F
100
AcDbEntity
  8
0
  6
Continuous
 62
     8
370
     0
100
AcDbLine
 10
177.4872213457
 20
63.002889337
 30
0.0
 11
266.9872239087
 21
63.002889337
 31
0.0
  0
LINE
  5
17E
330
1F
100
AcDbEntity
  8
0
  6
Continuous
 62
     8
370
     0
100
AcDbLine
 10
277.2372223292
 20
109.6033950466
 30
0.0
 11
167.2372229252
 21
109.6033950466
 31
0.0
  0
LINE
  5
17F
330
1F
100
AcDbEntity
  8
0
  6
Continuous
 62
     8
370
     0
100
AcDbLine
 10
167.2372229252
 20
109.6033950466
 30
0.0
 11
167.2372229252
 21
113.1389302331
 31
0.0
  0
LINE
  5
180
330
1F
100
AcDbEntity
  8
0
  6
Continuous
 62
     8
370
     0
100
AcDbLine
 10
277.2372223292
 20
109.6033950466
 30
0.0
 11
277.2372223292
 21
113.1389302331
 31
0.0
  0
ARC
  5
181
330
1F
100
AcDbEntity
  8
0
  6
Continuous
 62
     8
370
     0
100
AcDbCircle
 10
167.2372226272
 20
109.0028895754
 30
0.0
 40
0.6005050633883968
100
AcDbArc
 50
90.0
 51
180.0
  0
LINE
  5
182
330
1F
100
AcDbEntity
  8
0
  6
Continuous
 62
     8
370
     0
100
AcDbLine
 10
166.636717305
 20
109.0028894264
 30
0.0
 11
163.1011821184
 21
109.0028894264
 31
0.0
  0
ARC
  5
183
330
1F
100
AcDbEntity
  8
0
  6
Continuous
 62
     8
370
     0
100
AcDbCircle
 10
277.2372226272
 20
109.0028895754
 30
0.0
 40
0.6005050633883684
100
AcDbArc
 50
0.0
 51
90.0
  0
LINE
  5
184
330
1F
100
AcDbEntity
  8
0
  6
Continuous
 62
     8
370
     0
100
AcDbLine
 10
281.3732631359
 20
109.0028894264
 30
0.0
 11
277.8377279494
 21
109.0028894264
 31
0.0
  0
LINE
  5
185
330
1F
100
AcDbEntity
  8
0
  6
Continuous
 62
     8
370
     0
100
AcDbLine
 10
166.636717305
 20
109.0028894264
 30
0.0
 11
166.636717305
 21
54.0028897244
 31
0.0
  0
LINE
  5
186
330
1F
100
AcDbEntity
  8
0
  6
Continuous
 62
     8
370
     0
100
AcDbLine
 10
166.636717305
 20
54.0028897244
 30
0.0
 11
163.1011821184
 21
54.0028897244
 31
0.0
  0
LINE
  5
187
330
1F
100
AcDbEntity
  8
0
  6
Continuous
 62
     8
370
     0
100
AcDbLine
 10
281.3732631359
 20
54.0028897244
 30
0.0
 11
277.8377279494
 21
54.0028897244
 31
0.0
  0
LINE
  5
188
330
1F
100
AcDbEntity
  8
0
  6
Continuous
 62
     8
370
     0
100
AcDbLine
 10
277.8377279494
 20
54.0028897244
 30
0.0
 11
277.8377279494
 21
109.0028894264
 31
0.0
  0
LINE
  5
189
330
1F
100
AcDbEntity
  8
0
  6
Continuous
 62
     8
370
     0
100
AcDbLine
 10
167.2372229252
 20
49.8668489176
 30
0.0
 11
167.2372229252
 21
53.4023841041
 31
0.0
  0
LINE
  5
18A
330
1F
100
AcDbEntity
  8
0
  6
Continuous
 62
     8
370
     0
100
AcDbLine
 10
167.2372229252
 20
53.4023841041
 30
0.0
 11
277.2372223292
 21
53.4023841041
 31
0.0
  0
LINE
  5
18B
330
1F
100
AcDbEntity
  8
0
  6
Continuous
 62
     8
370
     0
100
AcDbLine
 10
277.2372223292
 20
49.8668489176
 30
0.0
 11
277.2372223292
 21
53.4023841041
 31
0.0
  0
ARC
  5
18C
330
1F
100
AcDbEntity
  8
0
  6
Continuous
 62
     8
370
     0
100
AcDbCircle
 10
167.2372226272
 20
54.0028895754
 30
0.0
 40
0.6005050633883755
100
AcDbArc
 50
180.0
 51
270.0
  0
ARC
  5
18D
330
1F
100
AcDbEntity
  8
0
  6
Continuous
 62
     8
370
     0
100
AcDbCircle
 10
277.2372226272
 20
54.0028895754
 30
0.0
 40
0.6005050633883755
100
AcDbArc
 50
270.0
 51
0.0
  0
ARC
  5
18E
330
1F
100
AcDbEntity
  8
0
  6
Continuous
 62
     8
370
     0
100
AcDbCircle
 10
177.4872226272
 20
81.5028895754
 30
0.0
 40
20.50000000000004
100
AcDbArc
 50
90.0
 51
106.2602047083
  0
LINE
  5
18F
330
1F
100
AcDbEntity
  8
0
  6
Continuous
 62
     8
370
     0
100
AcDbLine
 10
177.4872213457
 20
102.0028901416
 30
0.0
 11
177.4872213457
 21
101.5028891283
 31
0.0
  0
LWPOLYLINE
  5
190
330
1F
100
AcDbEntity
  8
0
  6
Continuous
 62
     8
370
     0
100
AcDbPolyline
 90
        9
 70
   128
 43
0.0
 10
171.7472232733
 20
101.182890417
 10
171.7745371018
 20
101.0892459321
 10
171.8007966731
 20
100.9992019403
 10
171.8250036094
 20
100.916215511
 10
171.8462191377
 20
100.8434792179
 10
171.8636274193
 20
100.7837833035
 10
171.8765653525
 20
100.7394281346
 10
171.8845337484
 20
100.7121124435
 10
171.887223408
 20
100.7028904873
  0
LINE
  5
191
330
1F
100
AcDbEntity
  8
0
  6
Continuous
 62
     8
370
     0
100
AcDbLine
 10
177.4872213457
 20
102.0028901416
 30
0.0
 11
266.9872239087
 21
102.0028901416
 31
0.0
  0
LINE
  5
192
330
1F
100
AcDbEntity
  8
0
  6
Continuous
 62
     8
370
     0
100
AcDbLine
 10
266.9872239087
 20
101.5028891283
 30
0.0
 11
266.9872239087
 21
102.0028901416
 31
0.0
  0
ARC
  5
193
330
1F
100
AcDbEntity
  8
0
  6
Continuous
 62
     8
370
     0
100
AcDbCircle
 10
266.9872226272
 20
81.5028895754
 30
0.0
 40
20.5
100
AcDbArc
 50
73.7397952917
 51
90.0
  0
LWPOLYLINE
  5
194
330
1F
100
AcDbEntity
  8
0
  6
Continuous
 62
     8
370
     0
100
AcDbPolyline
 90
        9
 70
   128
 43
0.0
 10
272.5872218464
 20
100.7028904873
 10
272.589911506
 20
100.7121124435
 10
272.5978799019
 20
100.7394281346
 10
272.6108178351
 20
100.7837833035
 10
272.6282261167
 20
100.8434792179
 10
272.6494416449
 20
100.916215511
 10
272.6736485813
 20
100.9992019403
 10
272.6999081526
 20
101.0892459321
 10
272.7272219811
 20
101.182890417
  0
ARC
  5
195
330
1F
100
AcDbEntity
  8
0
  6
Continuous
 62
     8
370
     0
100
AcDbCircle
 10
272.2372226272
 20
99.5028895754
 30
0.0
 40
1.749999999999995
100
AcDbArc
 50
286.2602047083
 51
73.7397952917
  0
LWPOLYLINE
  5
196
330
1F
100
AcDbEntity
  8
0
  6
Continuous
 62
     8
370
     0
100
AcDbPolyline
 90
        9
 70
   128
 43
0.0
 10
272.5872218464
 20
98.3028889763
 10
272.589911506
 20
98.2936670202
 10
272.5978799019
 20
98.2663513291
 10
272.6108178351
 20
98.2219942975
 10
272.6282261167
 20
98.1623002458
 10
272.6494416449
 20
98.0895639527
 10
272.6736485813
 20
98.0065775234
 10
272.6999081526
 20
97.9165335316
 10
272.7272219811
 20
97.8228890467
  0
ARC
  5
197
330
1F
100
AcDbEntity
  8
0
  6
Continuous
 62
     8
370
     0
100
AcDbCircle
 10
172.2372226272
 20
99.5028895754
 30
0.0
 40
1.750000000000023
100
AcDbArc
 50
106.2602047083
 51
253.7397952917
  0
LWPOLYLINE
  5
198
330
1F
100
AcDbEntity
  8
0
  6
Continuous
 62
     8
370
     0
100
AcDbPolyline
 90
        9
 70
   128
 43
0.0
 10
171.7472232733
 20
97.8228890467
 10
171.7745371018
 20
97.9165335316
 10
171.8007966731
 20
98.0065775234
 10
171.8250036094
 20
98.0895639527
 10
171.8462191377
 20
98.1623002458
 10
171.8636274193
 20
98.2219942975
 10
171.8765653525
 20
98.2663513291
 10
171.8845337484
 20
98.2936670202
 10
171.887223408
 20
98.3028889763
  0
ARC
  5
199
330
1F
100
AcDbEntity
  8
0
  6
Continuous
 62
     8
370
     0
100
AcDbCircle
 10
266.9872226272
 20
117.5028895754
 30
0.0
 40
20.5
100
AcDbArc
 50
270.0
 51
286.2602047083
  0
LINE
  5
19A
330
1F
100
AcDbEntity
  8
0
  6
Continuous
 62
     8
370
     0
100
AcDbLine
 10
266.9872239087
 20
97.5028903353
 30
0.0
 11
266.9872239087
 21
97.0028893221
 31
0.0
  0
ARC
  5
19B
330
1F
100
AcDbEntity
  8
0
  6
Continuous
 62
     8
370
     0
100
AcDbCircle
 10
177.4872226272
 20
117.5028895754
 30
0.0
 40
20.49999999999997
100
AcDbArc
 50
253.7397952917
 51
270.0
  0
LINE
  5
19C
330
1F
100
AcDbEntity
  8
0
  6
Continuous
 62
     8
370
     0
100
AcDbLine
 10
177.4872213457
 20
97.0028893221
 30
0.0
 11
177.4872213457
 21
97.5028903353
 31
0.0
  0
LINE
  5
19D
330
1F
100
AcDbEntity
  8
0
  6
Continuous
 62
     8
370
     0
100
AcDbLine
 10
266.9872239087
 20
97.0028893221
 30
0.0
 11
177.4872213457
 21
97.0028893221
 31
0.0
  0
LINE
  5
19E
330
1F
100
AcDbEntity
  8
0
  6
Continuous
 62
     8
370
     0
100
AcDbLine
 10
266.9872239087
 20
83.5028896704
 30
0.0
 11
266.9872239087
 21
84.0028895195
 31
0.0
  0
ARC
  5
19F
330
1F
100
AcDbEntity
  8
0
  6
Continuous
 62
     8
370
     0
100
AcDbCircle
 10
266.9872226272
 20
63.5028895754
 30
0.0
 40
20.5
100
AcDbArc
 50
73.7397952917
 51
90.0
  0
LWPOLYLINE
  5
1A0
330
1F
100
AcDbEntity
  8
0
  6
Continuous
 62
     8
370
     0
100
AcDbPolyline
 90
        9
 70
   128
 43
0.0
 10
272.5872218464
 20
82.7028896324
 10
272.589911506
 20
82.7121126362
 10
272.5978799019
 20
82.739427396
 10
272.6108178351
 20
82.7837841948
 10
272.6282261167
 20
82.8434783629
 10
272.6494416449
 20
82.9162158202
 10
272.6736485813
 20
82.999201551
 10
272.6999081526
 20
83.0892462413
 10
272.7272219811
 20
83.182889562
  0
ARC
  5
1A1
330
1F
100
AcDbEntity
  8
0
  6
Continuous
 62
     8
370
     0
100
AcDbCircle
 10
272.2372226272
 20
81.5028895754
 30
0.0
 40
1.750000000000009
100
AcDbArc
 50
286.2602047083
 51
73.7397952917
  0
LWPOLYLINE
  5
1A2
330
1F
100
AcDbEntity
  8
0
  6
Continuous
 62
     8
370
     0
100
AcDbPolyline
 90
        9
 70
   128
 43
0.0
 10
272.5872218464
 20
80.3028895184
 10
272.589911506
 20
80.2936665145
 10
272.5978799019
 20
80.2663517547
 10
272.6108178351
 20
80.221994956
 10
272.6282261167
 20
80.1623007878
 10
272.6494416449
 20
80.0895633306
 10
272.6736485813
 20
80.0065775997
 10
272.6999081526
 20
79.9165329094
 10
272.7272219811
 20
79.8228895887
  0
ARC
  5
1A3
330
1F
100
AcDbEntity
  8
0
  6
Continuous
 62
     8
370
     0
100
AcDbCircle
 10
177.4872226272
 20
63.5028895754
 30
0.0
 40
20.49999999999999
100
AcDbArc
 50
90.0
 51
106.2602047083
  0
LINE
  5
1A4
330
1F
100
AcDbEntity
  8
0
  6
Continuous
 62
     8
370
     0
100
AcDbLine
 10
177.4872213457
 20
84.0028895195
 30
0.0
 11
177.4872213457
 21
83.5028896704
 31
0.0
  0
LWPOLYLINE
  5
1A5
330
1F
100
AcDbEntity
  8
0
  6
Continuous
 62
     8
370
     0
100
AcDbPolyline
 90
        9
 70
   128
 43
0.0
 10
171.7472232733
 20
83.182889562
 10
171.7745371018
 20
83.0892462413
 10
171.8007966731
 20
82.999201551
 10
171.8250036094
 20
82.9162158202
 10
171.8462191377
 20
82.8434783629
 10
171.8636274193
 20
82.7837841948
 10
171.8765653525
 20
82.739427396
 10
171.8845337484
 20
82.7121126362
 10
171.887223408
 20
82.7028896324
  0
ARC
  5
1A6
330
1F
100
AcDbEntity
  8
0
  6
Continuous
 62
     8
370
     0
100
AcDbCircle
 10
172.2372226272
 20
81.5028895754
 30
0.0
 40
1.750000000000023
100
AcDbArc
 50
106.2602047083
 51
253.7397952917
  0
LWPOLYLINE
  5
1A7
330
1F
100
AcDbEntity
  8
0
  6
Continuous
 62
     8
370
     0
100
AcDbPolyline
 90
        9
 70
   128
 43
0.0
 10
171.7472232733
 20
79.8228895887
 10
171.7745371018
 20
79.9165329094
 10
171.8007966731
 20
80.0065775997
 10
171.8250036094
 20
80.0895633306
 10
171.8462191377
 20
80.1623007878
 10
171.8636274193
 20
80.221994956
 10
171.8765653525
 20
80.2663517547
 10
171.8845337484
 20
80.2936665145
 10
171.887223408
 20
80.3028895184
  0
LINE
  5
1A8
330
1F
100
AcDbEntity
  8
0
  6
Continuous
 62
     8
370
     0
100
AcDbLine
 10
177.4872213457
 20
84.0028895195
 30
0.0
 11
266.9872239087
 21
84.0028895195
 31
0.0
  0
ARC
  5
1A9
330
1F
100
AcDbEntity
  8
0
  6
Continuous
 62
     8
370
     0
100
AcDbCircle
 10
266.9872226272
 20
99.5028895754
 30
0.0
 40
20.49999999999999
100
AcDbArc
 50
270.0
 51
286.2602047083
  0
LINE
  5
1AA
330
1F
100
AcDbEntity
  8
0
  6
Continuous
 62
     8
370
     0
100
AcDbLine
 10
266.9872239087
 20
79.5028894804
 30
0.0
 11
266.9872239087
 21
79.0028896312
 31
0.0
  0
LINE
  5
1AB
330
1F
100
AcDbEntity
  8
0
  6
Continuous
 62
     8
370
     0
100
AcDbLine
 10
266.9872239087
 20
79.0028896312
 30
0.0
 11
177.4872213457
 21
79.0028896312
 31
0.0
  0
LINE
  5
1AC
330
1F
100
AcDbEntity
  8
0
  6
Continuous
 62
     8
370
     0
100
AcDbLine
 10
177.4872213457
 20
79.0028896312
 30
0.0
 11
177.4872213457
 21
79.5028894804
 31
0.0
  0
ARC
  5
1AD
330
1F
100
AcDbEntity
  8
0
  6
Continuous
 62
     8
370
     0
100
AcDbCircle
 10
177.4872226272
 20
99.5028895754
 30
0.0
 40
20.50000000000004
100
AcDbArc
 50
253.7397952917
 51
270.0
  0
ARC
  5
1AE
330
1F
100
AcDbEntity
  8
0
  6
Continuous
 62
     8
370
     0
100
AcDbCircle
 10
177.4872226272
 20
45.5028895754
 30
0.0
 40
20.50000000000002
100
AcDbArc
 50
90.0
 51
106.2602047083
  0
LINE
  5
1AF
330
1F
100
AcDbEntity
  8
0
  6
Continuous
 62
     8
370
     0
100
AcDbLine
 10
177.4872213457
 20
66.0028898287
 30
0.0
 11
177.4872213457
 21
65.5028888154
 31
0.0
  0
LWPOLYLINE
  5
1B0
330
1F
100
AcDbEntity
  8
0
  6
Continuous
 62
     8
370
     0
100
AcDbPolyline
 90
        9
 70
   128
 43
0.0
 10
171.7472232733
 20
65.1828901041
 10
171.7745371018
 20
65.0892456192
 10
171.8007966731
 20
64.9992016274
 10
171.8250036094
 20
64.916215198
 10
171.8462191377
 20
64.843478905
 10
171.8636274193
 20
64.7837848532
 10
171.8765653525
 20
64.7394278216
 10
171.8845337484
 20
64.7121121305
 10
171.887223408
 20
64.7028901744
  0
ARC
  5
1B1
330
1F
100
AcDbEntity
  8
0
  6
Continuous
 62
     8
370
     0
100
AcDbCircle
 10
172.2372226272
 20
63.5028895754
 30
0.0
 40
1.750000000000036
100
AcDbArc
 50
106.2602047083
 51
253.7397952917
  0
LWPOLYLINE
  5
1B2
330
1F
100
AcDbEntity
  8
0
  6
Continuous
 62
     8
370
     0
100
AcDbPolyline
 90
        9
 70
   128
 43
0.0
 10
171.7472232733
 20
61.8228887338
 10
171.7745371018
 20
61.9165332186
 10
171.8007966731
 20
62.0065772104
 10
171.8250036094
 20
62.0895636398
 10
171.8462191377
 20
62.1622999328
 10
171.8636274193
 20
62.2219958472
 10
171.8765653525
 20
62.2663510162
 10
171.8845337484
 20
62.2936667073
 10
171.887223408
 20
62.3028886634
  0
LINE
  5
1B3
330
1F
100
AcDbEntity
  8
0
  6
Continuous
 62
     8
370
     0
100
AcDbLine
 10
266.9872239087
 20
65.5028888154
 30
0.0
 11
266.9872239087
 21
66.0028898287
 31
0.0
  0
ARC
  5
1B4
330
1F
100
AcDbEntity
  8
0
  6
Continuous
 62
     8
370
     0
100
AcDbCircle
 10
266.9872226272
 20
45.5028895754
 30
0.0
 40
20.50000000000001
100
AcDbArc
 50
73.7397952917
 51
90.0
  0
LWPOLYLINE
  5
1B5
330
1F
100
AcDbEntity
  8
0
  6
Continuous
 62
     8
370
     0
100
AcDbPolyline
 90
        9
 70
   128
 43
0.0
 10
272.5872218464
 20
64.7028901744
 10
272.589911506
 20
64.7121121305
 10
272.5978799019
 20
64.7394278216
 10
272.6108178351
 20
64.7837848532
 10
272.6282261167
 20
64.843478905
 10
272.6494416449
 20
64.916215198
 10
272.6736485813
 20
64.9992016274
 10
272.6999081526
 20
65.0892456192
 10
272.7272219811
 20
65.1828901041
  0
ARC
  5
1B6
330
1F
100
AcDbEntity
  8
0
  6
Continuous
 62
     8
370
     0
100
AcDbCircle
 10
272.2372226272
 20
63.5028895754
 30
0.0
 40
1.750000000000002
100
AcDbArc
 50
286.2602047083
 51
73.7397952917
  0
LWPOLYLINE
  5
1B7
330
1F
100
AcDbEntity
  8
0
  6
Continuous
 62
     8
370
     0
100
AcDbPolyline
 90
        9
 70
   128
 43
0.0
 10
272.5872218464
 20
62.3028886634
 10
272.589911506
 20
62.2936667073
 10
272.5978799019
 20
62.2663510162
 10
272.6108178351
 20
62.2219958472
 10
272.6282261167
 20
62.1622999328
 10
272.6494416449
 20
62.0895636398
 10
272.6736485813
 20
62.0065772104
 10
272.6999081526
 20
61.9165332186
 10
272.7272219811
 20
61.8228887338
  0
LINE
  5
1B8
330
1F
100
AcDbEntity
  8
0
  6
Continuous
 62
     8
370
     0
100
AcDbLine
 10
177.4872213457
 20
66.0028898287
 30
0.0
 11
266.9872239087
 21
66.0028898287
 31
0.0
  0
ARC
  5
1B9
330
1F
100
AcDbEntity
  8
0
  6
Continuous
 62
     8
370
     0
100
AcDbCircle
 10
177.4872226272
 20
81.5028895754
 30
0.0
 40
20.50000000000001
100
AcDbArc
 50
253.7397952917
 51
270.0
  0
LINE
  5
1BA
330
1F
100
AcDbEntity
  8
0
  6
Continuous
 62
     8
370
     0
100
AcDbLine
 10
177.4872213457
 20
61.0028890091
 30
0.0
 11
177.4872213457
 21
61.5028900224
 31
0.0
  0
LINE
  5
1BB
330
1F
100
AcDbEntity
  8
0
  6
Continuous
 62
     8
370
     0
100
AcDbLine
 10
266.9872239087
 20
61.5028900224
 30
0.0
 11
266.9872239087
 21
61.0028890091
 31
0.0
  0
LINE
  5
1BC
330
1F
100
AcDbEntity
  8
0
  6
Continuous
 62
     8
370
     0
100
AcDbLine
 10
266.9872239087
 20
61.0028890091
 30
0.0
 11
177.4872213457
 21
61.0028890091
 31
0.0
  0
ARC
  5
1BD
330
1F
100
AcDbEntity
  8
0
  6
Continuous
 62
     8
370
     0
100
AcDbCircle
 10
266.9872226272
 20
81.5028895754
 30
0.0
 40
20.5
100
AcDbArc
 50
270.0
 51
286.2602047083
  0
LINE
  5
1BE
330
1F
100
AcDbEntity
  8
RAHMEN
100
AcDbLine
 10
222.2372226272
 20
138.8605295149
 30
0.0
 11
222.2372226272
 21
26.4136308764
 31
0.0
  0
LINE
  5
1BF
330
1F
100
AcDbEntity
  8
RAHMEN
100
AcDbLine
 10
141.7160425969
 20
81.5028895754
 30
0.0
 11
303.4192196015
 21
81.5028895754
 31
0.0
  0
DIMENSION
  5
1C0
330
1F
100
AcDbEntity
  8
0
  6
Continuous
 62
     7
370
     0
100
AcDbDimension
  2
*D2
 10
126.0873739131
 20
39.3061149482
 30
0.0
 11
126.0873739131
 21
80.5536293022
 31
0.0
 70
   160
  1
(<>)
 71
     2
 42
-1.0
  3
SLDDIMSTYLE0
100
AcDbAlignedDimension
 13
167.2372226272
 23
123.6996642025
 33
0.0
 14
167.2372226272
 24
39.3061149482
 34
0.0
 50
90.0
100
AcDbRotatedDimension
  0
LINE
  5
1CE
330
1F
100
AcDbEntity
  8
0
  6
CENTER
 62
     7
370
     0
100
AcDbLine
 10
133.9387354865
 20
81.5028895754
 30
0.0
 11
312.4927445636
 21
81.5028895754
 31
0.0
  0
LINE
  5
1CF
330
1F
100
AcDbEntity
  8
0
  6
Continuous
 62
     7
370
     0
100
AcDbLine
 10
135.9387354865
 20
69.5028895754
 30
0.0
 11
135.9387354865
 21
81.5028895754
 31
0.0
  0
SOLID
  5
1D0
330
1F
100
AcDbEntity
  8
0
  6
Continuous
 62
     7
370
     0
100
AcDbTrace
 10
135.9387354865
 20
81.5028895754
 30
0.0
 11
134.4387354865
 21
75.5028895754
 31
0.0
 12
137.4387354865
 22
75.5028895754
 32
0.0
 13
137.4387354865
 23
75.5028895754
 33
0.0
  0
LINE
  5
1D1
330
1F
100
AcDbEntity
  8
0
  6
Continuous
 62
     7
370
     0
100
AcDbLine
 10
310.4927445636
 20
69.5028895754
 30
0.0
 11
310.4927445636
 21
81.5028895754
 31
0.0
  0
SOLID
  5
1D2
330
1F
100
AcDbEntity
  8
0
  6
Continuous
 62
     7
370
     0
100
AcDbTrace
 10
310.4927445636
 20
81.5028895754
 30
0.0
 11
308.9927445636
 21
75.5028895754
 31
0.0
 12
311.9927445636
 22
75.5028895754
 32
0.0
 13
311.9927445636
 23
75.5028895754
 33
0.0
  0
MTEXT
  5
1D3
330
1F
100
AcDbEntity
  8
0
  6
Continuous
 62
     7
100
AcDbMText
 10
138.4435665023
 20
79.5905374784
 30
0.0
 40
6.35
 41
0.0
 71
     1
 72
     1
  1
A
  7
SLDTEXTSTYLE0
 73
     1
 44
1.0
  0
MTEXT
  5
1D4
330
1F
100
AcDbEntity
  8
0
  6
Continuous
 62
     7
100
AcDbMText
 10
312.9975755795
 20
79.5905374784
 30
0.0
 40
6.35
 41
0.0
 71
     1
 72
     1
  1
A
  7
SLDTEXTSTYLE0
 73
     1
 44
1.0
  0
SPLINE
  5
1D5
330
1F
100
AcDbEntity
  8
0
  6
Continuous
 62
     7
370
    15
100
AcDbSpline
210
0.0
220
0.0
230
1.0
 70
     8
 71
     3
 72
    12
 73
     8
 74
     0
 42
0.00000001
 43
0.00000001
 40
0.0
 40
0.0
 40
0.0
 40
0.0
 40
0.3952549052000964
 40
0.5661647898686893
 40
0.7382166631207125
 40
0.8983426831476284
 40
0.9999999999999999
 40
0.9999999999999999
 40
0.9999999999999999
 40
0.9999999999999999
 10
173.2152223441837
 20
248.5778361315191
 30
0.0
 10
172.8143171020471
 20
248.5613087676403
 30
0.0
 10
172.240058745768
 20
248.5376349020554
 30
0.0
 10
171.5601114245629
 20
248.2142329982633
 30
0.0
 10
171.1982655150907
 20
247.8496778087102
 30
0.0
 10
171.0124234730067
 20
247.442455641829
 30
0.0
 10
170.9942718314196
 20
247.1798209946072
 30
0.0
 10
170.9872230742214
 20
247.0778330916822
 30
0.0
  0
SPLINE
  5
1D6
330
1F
100
AcDbEntity
  8
0
  6
Continuous
 62
     7
370
    15
100
AcDbSpline
210
0.0
220
0.0
230
1.0
 70
     8
 71
     3
 72
    12
 73
     8
 74
     0
 42
0.00000001
 43
0.00000001
 40
0.0
 40
0.0
 40
0.0
 40
0.0
 40
0.1482660899847031
 40
0.2964573066747658
 40
0.4472879209322849
 40
0.6493197246428033
 40
0.9999999999999999
 40
0.9999999999999999
 40
0.9999999999999999
 40
0.9999999999999999
 10
273.4872221801517
 20
247.0778330916822
 30
0.0
 10
273.4724367080291
 20
247.2270964810689
 30
0.0
 10
273.4428732303394
 20
247.5255478829187
 30
0.0
 10
273.2125855100138
 20
247.9247953774222
 30
0.0
 10
272.8366732363473
 20
248.2673136817213
 30
0.0
 10
272.1703813793736
 20
248.542422868217
 30
0.0
 10
271.6129178482774
 20
248.5640893548664
 30
0.0
 10
271.2592229101894
 20
248.5778361315191
 30
0.0
  0
LINE
  5
1D7
330
1F
100
AcDbEntity
  8
0
  6
Continuous
 62
     7
370
    15
100
AcDbLine
 10
247.8546004597
 20
218.5778349394
 30
0.0
 11
196.6198447947
 21
218.5778349394
 31
0.0
  0
ARC
  5
1D8
330
1F
100
AcDbEntity
  8
0
  6
Continuous
 62
     7
370
    15
100
AcDbCircle
 10
222.2372226272
 20
208.5778343553
 30
0.0
 40
27.50000000000001
100
AcDbArc
 50
21.3236862635
 51
158.6763137365
  0
ARC
  5
1D9
330
1F
100
AcDbEntity
  8
0
  6
Continuous
 62
     7
370
    15
100
AcDbCircle
 10
192.8067202553
 20
220.5778343553
 30
0.0
 40
2.0
100
AcDbArc
 50
182.5
 51
270.0
  0
ARC
  5
1DA
330
1F
100
AcDbEntity
  8
0
  6
Continuous
 62
     7
370
    15
100
AcDbCircle
 10
251.667724999
 20
220.5778343553
 30
0.0
 40
2.000000000000002
100
AcDbArc
 50
270.0
 51
357.5
  0
ARC
  5
1DB
330
1F
100
AcDbEntity
  8
0
  6
Continuous
 62
     7
370
    15
100
AcDbCircle
 10
273.9872226272
 20
247.0778343553
 30
0.0
 40
0.5
100
AcDbArc
 50
180.0
 51
270.0
  0
LINE
  5
1DC
330
1F
100
AcDbEntity
  8
0
  6
Continuous
 62
     7
370
    15
100
AcDbLine
 10
273.9872231934
 20
246.5778358037
 30
0.0
 11
277.8377279494
 21
246.5778358037
 31
0.0
  0
ARC
  5
1DD
330
1F
100
AcDbEntity
  8
0
  6
Continuous
 62
     7
370
    15
100
AcDbCircle
 10
277.8377276906
 20
251.5778343553
 30
0.0
 40
5.0
100
AcDbArc
 50
270.0
 51
315.0
  0
LINE
  5
1DE
330
1F
100
AcDbEntity
  8
0
  6
Continuous
 62
     7
370
    15
100
AcDbLine
 10
289.1158990417
 20
255.7849429304
 30
0.0
 11
281.3732631359
 21
248.0422995741
 31
0.0
  0
ARC
  5
1DF
330
1F
100
AcDbEntity
  8
0
  6
Continuous
 62
     7
370
    15
100
AcDbCircle
 10
289.8230090648
 20
255.0778343553
 30
0.0
 40
1.0
100
AcDbArc
 50
90.0
 51
135.0
  0
LINE
  5
1E0
330
1F
100
AcDbEntity
  8
0
  6
Continuous
 62
     7
370
    15
100
AcDbLine
 10
289.8230112944
 20
256.0778327043
 30
0.0
 11
290.9339971695
 21
256.0778327043
 31
0.0
  0
ARC
  5
1E1
330
1F
100
AcDbEntity
  8
0
  6
Continuous
 62
     7
370
    15
100
AcDbCircle
 10
290.9339972543
 20
255.0778343553
 30
0.0
 40
1.0
100
AcDbArc
 50
345.0
 51
90.0
  0
LINE
  5
1E2
330
1F
100
AcDbEntity
  8
0
  6
Continuous
 62
     7
370
    15
100
AcDbLine
 10
290.9431241307
 20
251.2482061738
 30
0.0
 11
291.8999202404
 21
254.8190161342
 31
0.0
  0
LINE
  5
1E3
330
1F
100
AcDbEntity
  8
0
  6
Continuous
 62
     7
370
    15
100
AcDbLine
 10
283.2372233126
 20
243.5423016304
 30
0.0
 11
290.9431241307
 21
251.2482061738
 31
0.0
  0
ARC
  5
1E4
330
1F
100
AcDbEntity
  8
0
  6
Continuous
 62
     7
370
    15
100
AcDbCircle
 10
279.7016887213
 20
247.0778343553
 30
0.0
 40
5.0
100
AcDbArc
 50
270.0
 51
315.0
  0
LINE
  5
1E5
330
1F
100
AcDbEntity
  8
0
  6
Continuous
 62
     7
370
    15
100
AcDbLine
 10
279.7016881261
 20
242.0778341348
 30
0.0
 11
257.2372227762
 21
242.0778341348
 31
0.0
  0
LINE
  5
1E6
330
1F
100
AcDbEntity
  8
0
  6
Continuous
 62
     7
370
    15
100
AcDbLine
 10
257.2372227762
 20
242.0778341348
 30
0.0
 11
257.0656433556
 21
235.5254806334
 31
0.0
  0
ARC
  5
1E7
330
1F
100
AcDbEntity
  8
0
  6
Continuous
 62
     7
370
    15
100
AcDbCircle
 10
255.066328552
 20
235.5778343553
 30
0.0
 40
2.0
100
AcDbArc
 50
270.0
 51
358.5
  0
LINE
  5
1E8
330
1F
100
AcDbEntity
  8
0
  6
Continuous
 62
     7
370
    15
100
AcDbLine
 10
254.2372241471
 20
233.5778355355
 30
0.0
 11
255.0663284812
 21
233.5778355355
 31
0.0
  0
LINE
  5
1E9
330
1F
100
AcDbEntity
  8
0
  6
Continuous
 62
     7
370
    15
100
AcDbLine
 10
254.2372241471
 20
233.5778355355
 30
0.0
 11
253.6658204947
 21
220.490596419
 31
0.0
  0
LINE
  5
1EA
330
1F
100
AcDbEntity
  8
0
  6
Continuous
 62
     7
370
    15
100
AcDbLine
 10
190.8086247597
 20
220.490596419
 30
0.0
 11
190.2372211073
 21
233.5778355355
 31
0.0
  0
LINE
  5
1EB
330
1F
100
AcDbEntity
  8
0
  6
Continuous
 62
     7
370
    15
100
AcDbLine
 10
189.4081167732
 20
233.5778355355
 30
0.0
 11
190.2372211073
 21
233.5778355355
 31
0.0
  0
ARC
  5
1EC
330
1F
100
AcDbEntity
  8
0
  6
Continuous
 62
     7
370
    15
100
AcDbCircle
 10
189.4081167024
 20
235.5778343553
 30
0.0
 40
2.000000000000002
100
AcDbArc
 50
181.5
 51
270.0
  0
LINE
  5
1ED
330
1F
100
AcDbEntity
  8
0
  6
Continuous
 62
     7
370
    15
100
AcDbLine
 10
187.4088018987
 20
235.5254806334
 30
0.0
 11
187.2372224782
 21
242.0778341348
 31
0.0
  0
LINE
  5
1EE
330
1F
100
AcDbEntity
  8
0
  6
Continuous
 62
     7
370
    15
100
AcDbLine
 10
187.2372224782
 20
242.0778341348
 30
0.0
 11
164.7727571283
 21
242.0778341348
 31
0.0
  0
ARC
  5
1EF
330
1F
100
AcDbEntity
  8
0
  6
Continuous
 62
     7
370
    15
100
AcDbCircle
 10
164.7727565331
 20
247.0778343553
 30
0.0
 40
5.0
100
AcDbArc
 50
225.0
 51
270.0
  0
LINE
  5
1F0
330
1F
100
AcDbEntity
  8
0
  6
Continuous
 62
     7
370
    15
100
AcDbLine
 10
153.5313211236
 20
251.2482061738
 30
0.0
 11
161.2372219417
 21
243.5423016304
 31
0.0
  0
LINE
  5
1F1
330
1F
100
AcDbEntity
  8
0
  6
Continuous
 62
     7
370
    15
100
AcDbLine
 10
152.5745250139
 20
254.8190161342
 30
0.0
 11
153.5313211236
 21
251.2482061738
 31
0.0
  0
ARC
  5
1F2
330
1F
100
AcDbEntity
  8
0
  6
Continuous
 62
     7
370
    15
100
AcDbCircle
 10
153.540448
 20
255.0778343553
 30
0.0
 40
1.0
100
AcDbArc
 50
90.0
 51
195.0
  0
LINE
  5
1F3
330
1F
100
AcDbEntity
  8
0
  6
Continuous
 62
     7
370
    15
100
AcDbLine
 10
153.5404480849
 20
256.0778327043
 30
0.0
 11
154.65143396
 21
256.0778327043
 31
0.0
  0
ARC
  5
1F4
330
1F
100
AcDbEntity
  8
0
  6
Continuous
 62
     7
370
    15
100
AcDbCircle
 10
154.6514361896
 20
255.0778343553
 30
0.0
 40
1.0
100
AcDbArc
 50
45.0
 51
90.0
  0
LINE
  5
1F5
330
1F
100
AcDbEntity
  8
0
  6
Continuous
 62
     7
370
    15
100
AcDbLine
 10
163.1011821184
 20
248.0422995741
 30
0.0
 11
155.3585462127
 21
255.7849429304
 31
0.0
  0
ARC
  5
1F6
330
1F
100
AcDbEntity
  8
0
  6
Continuous
 62
     7
370
    15
100
AcDbCircle
 10
166.6367175638
 20
251.5778343553
 30
0.0
 40
5.0
100
AcDbArc
 50
225.0
 51
270.0
  0
LINE
  5
1F7
330
1F
100
AcDbEntity
  8
0
  6
Continuous
 62
     7
370
    15
100
AcDbLine
 10
166.636717305
 20
246.5778358037
 30
0.0
 11
170.4872220609
 21
246.5778358037
 31
0.0
  0
ARC
  5
1F8
330
1F
100
AcDbEntity
  8
0
  6
Continuous
 62
     7
370
    15
100
AcDbCircle
 10
170.4872226272
 20
247.0778343553
 30
0.0
 40
0.5
100
AcDbArc
 50
270.0
 51
0.0
  0
LINE
  5
1F9
330
1F
100
AcDbEntity
  8
0
  6
Continuous
 62
     7
370
    15
100
AcDbLine
 10
173.2152223442
 20
248.5778361315
 30
0.0
 11
271.2592229102
 21
248.5778361315
 31
0.0
  0
LINE
  5
1FA
330
1F
100
AcDbEntity
  8
0
  6
Continuous
 62
     7
370
    15
100
AcDbLine
 10
247.8546004597
 20
218.5778349394
 30
0.0
 11
251.6677256528
 21
218.5778349394
 31
0.0
  0
LINE
  5
1FB
330
1F
100
AcDbEntity
  8
0
  6
Continuous
 62
     7
370
    15
100
AcDbLine
 10
192.8067196015
 20
218.5778349394
 30
0.0
 11
196.6198447947
 21
218.5778349394
 31
0.0
  0
LINE
  5
1FC
330
1F
100
AcDbEntity
  8
0
  6
Continuous
 62
     7
370
    15
100
AcDbLine
 10
154.65143396
 20
256.0778327043
 30
0.0
 11
167.2372229252
 21
256.0778327043
 31
0.0
  0
LINE
  5
1FD
330
1F
100
AcDbEntity
  8
0
  6
Continuous
 62
     7
370
    15
100
AcDbLine
 10
277.2372223292
 20
256.0778327043
 30
0.0
 11
289.8230112944
 21
256.0778327043
 31
0.0
  0
LINE
  5
1FE
330
1F
100
AcDbEntity
  8
0
  6
Continuous
 62
     7
370
    15
100
AcDbLine
 10
167.2372229252
 20
256.0778327043
 30
0.0
 11
277.2372223292
 21
256.0778327043
 31
0.0
  0
LINE
  5
1FF
330
1F
100
AcDbEntity
  8
0
  6
Continuous
 62
     7
370
    15
100
AcDbLine
 10
189.237222806
 20
231.9778345282
 30
0.0
 11
187.2372224782
 21
231.9778345282
 31
0.0
  0
LINE
  5
200
330
1F
100
AcDbEntity
  8
0
  6
Continuous
 62
     7
370
    15
100
AcDbLine
 10
189.237222806
 20
201.9778343838
 30
0.0
 11
189.237222806
 21
231.9778345282
 31
0.0
  0
LINE
  5
201
330
1F
100
AcDbEntity
  8
0
  6
Continuous
 62
     7
370
    15
100
AcDbLine
 10
189.237222806
 20
201.9778343838
 30
0.0
 11
187.2372224782
 21
201.9778343838
 31
0.0
  0
LINE
  5
202
330
1F
100
AcDbEntity
  8
0
  6
Continuous
 62
     7
370
    15
100
AcDbLine
 10
187.2372224782
 20
201.9778343838
 30
0.0
 11
187.2372224782
 21
231.9778345282
 31
0.0
  0
LINE
  5
203
330
1F
100
AcDbEntity
  8
0
  6
Continuous
 62
     7
370
    15
100
AcDbLine
 10
257.2372227762
 20
231.9778345282
 30
0.0
 11
257.2372227762
 21
201.9778343838
 31
0.0
  0
LINE
  5
204
330
1F
100
AcDbEntity
  8
0
  6
Continuous
 62
     7
370
    15
100
AcDbLine
 10
257.2372227762
 20
201.9778343838
 30
0.0
 11
255.2372224484
 21
201.9778343838
 31
0.0
  0
LINE
  5
205
330
1F
100
AcDbEntity
  8
0
  6
Continuous
 62
     7
370
    15
100
AcDbLine
 10
255.2372224484
 20
231.9778345282
 30
0.0
 11
255.2372224484
 21
201.9778343838
 31
0.0
  0
LINE
  5
206
330
1F
100
AcDbEntity
  8
0
  6
Continuous
 62
     7
370
    15
100
AcDbLine
 10
257.2372227762
 20
231.9778345282
 30
0.0
 11
255.2372224484
 21
231.9778345282
 31
0.0
  0
LINE
  5
207
330
1F
100
AcDbEntity
  8
0
  6
Continuous
 62
     7
370
    15
100
AcDbLine
 10
187.7372234915
 20
232.5778335089
 30
0.0
 11
187.7372234915
 21
233.5778355355
 31
0.0
  0
LINE
  5
208
330
1F
100
AcDbEntity
  8
0
  6
Continuous
 62
     7
370
    15
100
AcDbLine
 10
256.7372217629
 20
233.5778355355
 30
0.0
 11
256.7372217629
 21
232.5778335089
 31
0.0
  0
LINE
  5
209
330
1F
100
AcDbEntity
  8
0
  6
Continuous
 62
     7
370
    15
100
AcDbLine
 10
187.7372234915
 20
202.3778344028
 30
0.0
 11
189.237222806
 21
202.3778344028
 31
0.0
  0
LINE
  5
20A
330
1F
100
AcDbEntity
  8
0
  6
Continuous
 62
     7
370
    15
100
AcDbLine
 10
189.237222806
 20
202.3778344028
 30
0.0
 11
189.237222806
 21
232.5778335089
 31
0.0
  0
LINE
  5
20B
330
1F
100
AcDbEntity
  8
0
  6
Continuous
 62
     7
370
    15
100
AcDbLine
 10
189.237222806
 20
232.5778335089
 30
0.0
 11
187.7372234915
 21
232.5778335089
 31
0.0
  0
LINE
  5
20C
330
1F
100
AcDbEntity
  8
0
  6
Continuous
 62
     7
370
    15
100
AcDbLine
 10
187.7372234915
 20
233.5778355355
 30
0.0
 11
190.2372211073
 21
233.5778355355
 31
0.0
  0
LINE
  5
20D
330
1F
100
AcDbEntity
  8
0
  6
Continuous
 62
     7
370
    15
100
AcDbLine
 10
190.2372211073
 20
233.5778355355
 30
0.0
 11
190.2372211073
 21
201.3778343553
 31
0.0
  0
LINE
  5
20E
330
1F
100
AcDbEntity
  8
0
  6
Continuous
 62
     7
370
    15
100
AcDbLine
 10
190.2372211073
 20
201.3778343553
 30
0.0
 11
187.7372234915
 21
201.3778343553
 31
0.0
  0
LINE
  5
20F
330
1F
100
AcDbEntity
  8
0
  6
Continuous
 62
     7
370
    15
100
AcDbLine
 10
187.7372234915
 20
201.3778343553
 30
0.0
 11
187.7372234915
 21
202.3778344028
 31
0.0
  0
LINE
  5
210
330
1F
100
AcDbEntity
  8
0
  6
Continuous
 62
     7
370
    15
100
AcDbLine
 10
256.7372217629
 20
202.3778344028
 30
0.0
 11
256.7372217629
 21
201.3778343553
 31
0.0
  0
LINE
  5
211
330
1F
100
AcDbEntity
  8
0
  6
Continuous
 62
     7
370
    15
100
AcDbLine
 10
255.2372224484
 20
232.5778335089
 30
0.0
 11
255.2372224484
 21
202.3778344028
 31
0.0
  0
LINE
  5
212
330
1F
100
AcDbEntity
  8
0
  6
Continuous
 62
     7
370
    15
100
AcDbLine
 10
254.2372241471
 20
201.3778343553
 30
0.0
 11
254.2372241471
 21
233.5778355355
 31
0.0
  0
LINE
  5
213
330
1F
100
AcDbEntity
  8
0
  6
Continuous
 62
     7
370
    15
100
AcDbLine
 10
190.2372211073
 20
201.3778343553
 30
0.0
 11
254.2372241471
 21
201.3778343553
 31
0.0
  0
LINE
  5
214
330
1F
100
AcDbEntity
  8
0
  6
Continuous
 62
     7
370
    15
100
AcDbLine
 10
254.2372241471
 20
233.5778355355
 30
0.0
 11
256.7372217629
 21
233.5778355355
 31
0.0
  0
LINE
  5
215
330
1F
100
AcDbEntity
  8
0
  6
Continuous
 62
     7
370
    15
100
AcDbLine
 10
255.2372224484
 20
202.3778344028
 30
0.0
 11
256.7372217629
 21
202.3778344028
 31
0.0
  0
LINE
  5
216
330
1F
100
AcDbEntity
  8
0
  6
Continuous
 62
     7
370
    15
100
AcDbLine
 10
256.7372217629
 20
232.5778335089
 30
0.0
 11
255.2372224484
 21
232.5778335089
 31
0.0
  0
LINE
  5
217
330
1F
100
AcDbEntity
  8
0
  6
Continuous
 62
     7
370
    15
100
AcDbLine
 10
256.7372217629
 20
201.3778343553
 30
0.0
 11
254.2372241471
 21
201.3778343553
 31
0.0
  0
LINE
  5
218
330
1F
100
AcDbEntity
  8
0
  6
Continuous
 62
     8
370
     0
100
AcDbLine
 10
167.2372229252
 20
255.7849429304
 30
0.0
 11
155.3585462127
 21
255.7849429304
 31
0.0
  0
LINE
  5
219
330
1F
100
AcDbEntity
  8
0
  6
Continuous
 62
     8
370
     0
100
AcDbLine
 10
167.2372229252
 20
256.0778327043
 30
0.0
 11
167.2372229252
 21
255.7849429304
 31
0.0
  0
LINE
  5
21A
330
1F
100
AcDbEntity
  8
0
  6
Continuous
 62
     8
370
     0
100
AcDbLine
 10
163.1011821184
 20
248.0422995741
 30
0.0
 11
167.2372229252
 21
248.0422995741
 31
0.0
  0
LINE
  5
21B
330
1F
100
AcDbEntity
  8
0
  6
Continuous
 62
     8
370
     0
100
AcDbLine
 10
167.2372229252
 20
248.0422995741
 30
0.0
 11
167.2372229252
 21
255.7849429304
 31
0.0
  0
LINE
  5
21C
330
1F
100
AcDbEntity
  8
0
  6
Continuous
 62
     8
370
     0
100
AcDbLine
 10
167.2372229252
 20
246.5778358037
 30
0.0
 11
167.2372229252
 21
248.0422995741
 31
0.0
  0
LINE
  5
21D
330
1F
100
AcDbEntity
  8
0
  6
Continuous
 62
     8
370
     0
100
AcDbLine
 10
277.2372223292
 20
246.5778358037
 30
0.0
 11
277.2372223292
 21
248.0422995741
 31
0.0
  0
LINE
  5
21E
330
1F
100
AcDbEntity
  8
0
  6
Continuous
 62
     8
370
     0
100
AcDbLine
 10
277.2372223292
 20
248.0422995741
 30
0.0
 11
281.3732631359
 21
248.0422995741
 31
0.0
  0
LINE
  5
21F
330
1F
100
AcDbEntity
  8
0
  6
Continuous
 62
     8
370
     0
100
AcDbLine
 10
289.1158990417
 20
255.7849429304
 30
0.0
 11
277.2372223292
 21
255.7849429304
 31
0.0
  0
LINE
  5
220
330
1F
100
AcDbEntity
  8
0
  6
Continuous
 62
     8
370
     0
100
AcDbLine
 10
277.2372223292
 20
256.0778327043
 30
0.0
 11
277.2372223292
 21
255.7849429304
 31
0.0
  0
LINE
  5
221
330
1F
100
AcDbEntity
  8
0
  6
Continuous
 62
     8
370
     0
100
AcDbLine
 10
277.2372223292
 20
248.0422995741
 30
0.0
 11
277.2372223292
 21
255.7849429304
 31
0.0
  0
LINE
  5
222
330
1F
100
AcDbEntity
  8
0
  6
Continuous
 62
     8
370
     0
100
AcDbLine
 10
167.2372229252
 20
248.0422995741
 30
0.0
 11
171.430536345
 21
248.0422995741
 31
0.0
  0
LINE
  5
223
330
1F
100
AcDbEntity
  8
0
  6
Continuous
 62
     8
370
     0
100
AcDbLine
 10
273.0640403781
 20
248.0422995741
 30
0.0
 11
277.2372223292
 21
248.0422995741
 31
0.0
  0
LINE
  5
224
330
1F
100
AcDbEntity
  8
0
  6
Continuous
 62
     8
370
     0
100
AcDbLine
 10
277.2372223292
 20
255.7849429304
 30
0.0
 11
167.2372229252
 21
255.7849429304
 31
0.0
  0
HATCH
  5
225
330
1F
100
AcDbEntity
  8
0
  6
Continuous
 62
     7
370
     0
100
AcDbHatch
 10
0.0
 20
0.0
 30
0.0
210
0.0
220
0.0
230
1.0
  2
ANSI34
 70
     0
 71
     0
 91
        1
 92
        0
 93
        8
 72
     1
 10
256.7372226271866
 20
201.3778343553007
 11
256.7372226271866
 21
202.3778343553007
 72
     1
 10
256.7372226271866
 20
202.3778343553007
 11
255.2372226271865
 21
202.3778343553007
 72
     1
 10
255.2372226271865
 20
202.3778343553007
 11
255.2372226271865
 21
232.5778343553007
 72
     1
 10
255.2372226271865
 20
232.5778343553007
 11
256.7372226271866
 21
232.5778343553007
 72
     1
 10
256.7372226271866
 20
232.5778343553007
 11
256.7372226271866
 21
233.5778343553007
 72
     1
 10
256.7372226271866
 20
233.5778343553007
 11
254.2372226271865
 21
233.5778343553007
 72
     1
 10
254.2372226271865
 20
233.5778343553007
 11
254.2372226271865
 21
201.3778343553007
 72
     1
 10
254.2372226271865
 20
201.3778343553007
 11
256.7372226271866
 21
201.3778343553007
 97
        0
 75
     0
 76
     1
 52
0.0
 41
1.0
 77
     0
 78
     4
 53
45.0
 43
0.0
 44
0.0
 45
-13.47038418160373
 46
13.47038418160373
 79
     0
 53
45.0
 43
4.49013
 44
0.0
 45
-13.47038418160373
 46
13.47038418160373
 79
     0
 53
45.0
 43
8.98026
 44
0.0
 45
-13.47038418160373
 46
13.47038418160373
 79
     0
 53
45.0
 43
13.4704
 44
0.0
 45
-13.47038418160373
 46
13.47038418160373
 79
     0
 98
        1
 10
0.0
 20
0.0
  0
HATCH
  5
226
330
1F
100
AcDbEntity
  8
0
  6
Continuous
 62
     7
370
     0
100
AcDbHatch
 10
0.0
 20
0.0
 30
0.0
210
0.0
220
0.0
230
1.0
  2
ANSI34
 70
     0
 71
     0
 91
        1
 92
        0
 93
        8
 72
     1
 10
187.7372226271865
 20
202.3778343553007
 11
187.7372226271865
 21
201.3778343553007
 72
     1
 10
187.7372226271865
 20
201.3778343553007
 11
190.2372226271865
 21
201.3778343553007
 72
     1
 10
190.2372226271865
 20
201.3778343553007
 11
190.2372226271865
 21
233.5778343553007
 72
     1
 10
190.2372226271865
 20
233.5778343553007
 11
187.7372226271865
 21
233.5778343553007
 72
     1
 10
187.7372226271865
 20
233.5778343553007
 11
187.7372226271865
 21
232.5778343553007
 72
     1
 10
187.7372226271865
 20
232.5778343553007
 11
189.2372226271865
 21
232.5778343553007
 72
     1
 10
189.2372226271865
 20
232.5778343553007
 11
189.2372226271865
 21
202.3778343553007
 72
     1
 10
189.2372226271865
 20
202.3778343553007
 11
187.7372226271865
 21
202.3778343553007
 97
        0
 75
     0
 76
     1
 52
0.0
 41
1.0
 77
     0
 78
     4
 53
45.0
 43
0.0
 44
0.0
 45
-13.47038418160373
 46
13.47038418160373
 79
     0
 53
45.0
 43
4.49013
 44
0.0
 45
-13.47038418160373
 46
13.47038418160373
 79
     0
 53
45.0
 43
8.98026
 44
0.0
 45
-13.47038418160373
 46
13.47038418160373
 79
     0
 53
45.0
 43
13.4704
 44
0.0
 45
-13.47038418160373
 46
13.47038418160373
 79
     0
 98
        1
 10
0.0
 20
0.0
  0
HATCH
  5
227
330
1F
100
AcDbEntity
  8
0
  6
Continuous
 62
     7
370
     0
100
AcDbHatch
 10
0.0
 20
0.0
 30
0.0
210
0.0
220
0.0
230
1.0
  2
ANSI33
 70
     0
 71
     0
 91
        1
 92
        0
 93
        4
 72
     1
 10
187.2372226271865
 20
231.9778343553007
 11
187.2372226271865
 21
201.9778343553007
 72
     1
 10
187.2372226271865
 20
201.9778343553007
 11
189.2372226271865
 21
201.9778343553007
 72
     1
 10
189.2372226271865
 20
201.9778343553007
 11
189.2372226271865
 21
231.9778343553007
 72
     1
 10
189.2372226271865
 20
231.9778343553007
 11
187.2372226271865
 21
231.9778343553007
 97
        0
 75
     0
 76
     1
 52
90.0
 41
1.0
 77
     0
 78
     2
 53
135.0000000000002
 43
0.0
 44
0.0
 45
-4.490128060534562
 46
-4.490128060534592
 79
     0
 53
135.0000000000002
 43
-0.0000000000000157
 44
4.49013
 45
-4.490128060534562
 46
-4.490128060534592
 79
     2
 49
3.175
 49
-1.5875
 98
        1
 10
0.0
 20
0.0
  0
HATCH
  5
228
330
1F
100
AcDbEntity
  8
0
  6
Continuous
 62
     7
370
     0
100
AcDbHatch
 10
0.0
 20
0.0
 30
0.0
210
0.0
220
0.0
230
1.0
  2
ANSI33
 70
     0
 71
     0
 91
        1
 92
        0
 93
        4
 72
     1
 10
257.2372226271866
 20
201.9778343553007
 11
257.2372226271866
 21
231.9778343553007
 72
     1
 10
257.2372226271866
 20
231.9778343553007
 11
255.2372226271865
 21
231.9778343553007
 72
     1
 10
255.2372226271865
 20
231.9778343553007
 11
255.2372226271865
 21
201.9778343553007
 72
     1
 10
255.2372226271865
 20
201.9778343553007
 11
257.2372226271866
 21
201.9778343553007
 97
        0
 75
     0
 76
     1
 52
90.0
 41
1.0
 77
     0
 78
     2
 53
135.0000000000002
 43
0.0
 44
0.0
 45
-4.490128060534562
 46
-4.490128060534592
 79
     0
 53
135.0000000000002
 43
-0.0000000000000157
 44
4.49013
 45
-4.490128060534562
 46
-4.490128060534592
 79
     2
 49
3.175
 49
-1.5875
 98
        1
 10
0.0
 20
0.0
  0
HATCH
  5
229
330
1F
100
AcDbEntity
  8
0
  6
Continuous
 62
     7
370
     0
100
AcDbHatch
 10
0.0
 20
0.0
 30
0.0
210
0.0
220
0.0
230
1.0
  2
ANSI35
 70
     0
 71
     0
 91
        1
 92
        0
 93
       38
 72
     1
 10
271.2592244998452
 20
248.5778343553007
 11
173.2152207545277
 21
248.5778343553007
 72
     4
 94
        3
 73
     1
 74
     0
 95
       20
 96
       16
 40
0.0
 40
0.0
 40
0.0
 40
0.0
 40
0.0011876702985221
 40
0.0011876702985221
 40
0.0011876702985221
 40
0.0016966587216903
 40
0.0016966587216903
 40
0.0016966587216903
 40
0.0022111939553218
 40
0.0022111939553218
 40
0.0022111939553218
 40
0.0026895555172705
 40
0.0026895555172705
 40
0.0026895555172705
 40
0.0029902802455921
 40
0.0029902802455921
 40
0.0029902802455921
 40
0.0029902802455921
 10
173.2152207545277
 20
248.5778343553007
 42
1.0
 10
172.8193306550203
 20
248.5778343553007
 42
1.0
 10
172.4134211804642
 20
248.5452488078123
 42
1.0
 10
172.038231602598
 20
248.4189089821494
 42
1.0
 10
171.8759974997447
 20
248.3642789244926
 42
1.0
 10
171.7182017770859
 20
248.2890504446648
 42
1.0
 10
171.5783520163417
 20
248.1903266291593
 42
1.0
 10
171.4375683878012
 20
248.0909435705381
 42
1.0
 10
171.3118310436815
 20
247.96492696972
 42
1.0
 10
171.2156096116807
 20
247.821963833109
 42
1.0
 10
171.1260573902389
 20
247.6889096246902
 42
1.0
 10
171.0593593969728
 20
247.5373469533512
 42
1.0
 10
171.022542508082
 20
247.3812458981481
 42
1.0
 10
170.9991692231765
 20
247.2821447913671
 42
1.0
 10
170.9872226271874
 20
247.1796544899247
 42
1.0
 10
170.9872226271866
 20
247.0778343553123
 42
1.0
 72
     2
 10
170.4872226271865
 20
247.0778343553007
 40
0.5
 50
359.9999999999976
 51
450.0000000000008
 73
     0
 72
     1
 10
170.4872226271865
 20
246.5778343553007
 11
166.6367175637982
 21
246.5778343553007
 72
     2
 10
166.6367175637982
 20
251.5778343553007
 40
5.0
 50
90.0
 51
135.0
 73
     0
 72
     1
 10
163.1011836578654
 20
248.0423004493679
 11
155.3585429707461
 21
255.7849411364872
 72
     2
 10
154.6514361895596
 20
255.0778343553007
 40
1.0
 50
45.0
 51
90.0
 73
     1
 72
     1
 10
154.6514361895596
 20
256.0778343553007
 11
153.5404480000277
 21
256.0778343553007
 72
     2
 10
153.5404480000277
 20
255.0778343553007
 40
1.0
 50
90.0
 51
195.000000000004
 73
     1
 72
     1
 10
152.5745221737387
 20
254.8190153101981
 11
153.5313178526991
 21
251.2482052238553
 72
     1
 10
153.5313178526991
 20
251.2482052238553
 11
161.2372226271864
 21
243.542300449368
 72
     2
 10
164.7727565331192
 20
247.0778343553007
 40
5.0
 50
225.0000000000004
 51
270.0000000000008
 73
     1
 72
     1
 10
164.7727565331192
 20
242.0778343553007
 11
187.2372226271865
 21
242.0778343553007
 72
     1
 10
187.2372226271865
 20
242.0778343553007
 11
187.4088020524168
 21
235.5254804586849
 72
     2
 10
189.4081167023679
 20
235.5778343553007
 40
2.0
 50
181.5000000000003
 51
270.0000000000008
 73
     1
 72
     1
 10
189.4081167023679
 20
233.5778343553007
 11
190.2372226271865
 21
233.5778343553007
 72
     1
 10
190.2372226271865
 20
233.5778343553007
 11
190.8086238121601
 21
220.49059558057
 72
     2
 10
192.8067202553238
 20
220.5778343553007
 40
2.0
 50
182.500000000001
 51
270.0000000000008
 73
     1
 72
     1
 10
192.8067202553238
 20
218.5778343553007
 11
196.6198457122875
 21
218.5778343553007
 72
     2
 10
222.2372226271865
 20
208.5778343553007
 40
27.5
 50
201.3236862634988
 51
338.6763137365029
 73
     0
 72
     1
 10
247.8545995420855
 20
218.5778343553007
 11
251.6677249990492
 21
218.5778343553007
 72
     2
 10
251.6677249990492
 20
220.5778343553007
 40
2.0
 50
270.0000000000008
 51
357.5000000000006
 73
     1
 72
     1
 10
253.6658214422129
 20
220.49059558057
 11
254.2372226271865
 21
233.5778343553007
 72
     1
 10
254.2372226271865
 20
233.5778343553007
 11
255.0663285520051
 21
233.5778343553007
 72
     2
 10
255.0663285520051
 20
235.5778343553007
 40
2.0
 50
270.0000000000008
 51
358.5000000000013
 73
     1
 72
     1
 10
257.0656432019562
 20
235.5254804586849
 11
257.2372226271865
 21
242.0778343553007
 72
     1
 10
257.2372226271865
 20
242.0778343553007
 11
279.7016887212538
 21
242.0778343553007
 72
     2
 10
279.7016887212538
 20
247.0778343553007
 40
5.0
 50
270.0000000000008
 51
315.0000000000013
 73
     1
 72
     1
 10
283.2372226271866
 20
243.542300449368
 11
290.943127401674
 21
251.2482052238553
 72
     1
 10
290.943127401674
 20
251.2482052238553
 11
291.8999230806344
 21
254.8190153101981
 72
     2
 10
290.9339972543453
 20
255.0778343553007
 40
1.0
 50
344.9999999999977
 51
450.0000000000008
 73
     1
 72
     1
 10
290.9339972543453
 20
256.0778343553007
 11
289.8230090648135
 21
256.0778343553007
 72
     2
 10
289.8230090648135
 20
255.0778343553007
 40
1.0
 50
90.0
 51
135.0000000000023
 73
     1
 72
     1
 10
289.115902283627
 20
255.7849411364872
 11
281.3732615965077
 21
248.042300449368
 72
     2
 10
277.8377276905749
 20
251.5778343553007
 40
5.0
 50
44.99999999999954
 51
90.0
 73
     0
 72
     1
 10
277.8377276905749
 20
246.5778343553007
 11
273.9872226271865
 21
246.5778343553007
 72
     2
 10
273.9872226271865
 20
247.0778343553007
 40
0.5
 50
90.0
 51
180.0000000000041
 73
     0
 72
     4
 94
        3
 73
     1
 74
     0
 95
       20
 96
       16
 40
0.0000000000000116
 40
0.0000000000000116
 40
0.0000000000000116
 40
0.0000000000000116
 40
0.0004457050421781
 40
0.0004457050421781
 40
0.0004457050421781
 40
0.0008910051360646
 40
0.0008910051360646
 40
0.0008910051360646
 40
0.0013438891962214
 40
0.0013438891962214
 40
0.0013438891962214
 40
0.0019524916492037
 40
0.0019524916492037
 40
0.0019524916492037
 40
0.0030096994300143
 40
0.0030096994300143
 40
0.0030096994300143
 40
0.0030096994300143
 10
273.4872226271891
 20
247.0778343553129
 42
1.0
 10
273.4872226271877
 20
247.2264027027057
 42
1.0
 10
273.4613889231931
 20
247.3770118077391
 42
1.0
 10
273.4120837041504
 20
247.5171601192599
 42
1.0
 10
273.3628030034212
 20
247.6572387383564
 42
1.0
 10
273.2887691710168
 20
247.7906192618627
 42
1.0
 10
273.1966555920622
 20
247.9070911278411
 42
1.0
 10
273.1029022500721
 20
248.025636371737
 42
1.0
 10
272.9881277443064
 20
248.1295768232843
 42
1.0
 10
272.8623985281598
 20
248.2134507059405
 42
1.0
 10
272.6939880603015
 20
248.3257972253266
 42
1.0
 10
272.5018934292397
 20
248.404930197933
 42
1.0
 10
272.3066143445708
 20
248.45831470124
 42
1.0
 10
271.9676563183811
 20
248.5509774966478
 42
1.0
 10
271.6106201986966
 20
248.5778343553007
 42
1.0
 10
271.2592244998452
 20
248.5778343553007
 42
1.0
 97
        0
 75
     0
 76
     1
 52
90.0
 41
1.0
 77
     0
 78
     2
 53
135.0000000000002
 43
0.0
 44
0.0
 45
-4.490128060534562
 46
-4.490128060534592
 79
     0
 53
135.0000000000002
 43
-0.0000000000000157
 44
4.49013
 45
-4.490128060534562
 46
-4.490128060534592
 79
     4
 49
7.9375
 49
-1.5875
 49
0.0
 49
-1.5875
 98
        1
 10
0.0
 20
0.0
  0
DIMENSION
  5
22A
330
1F
100
AcDbEntity
  8
0
  6
Continuous
 62
     7
370
     0
100
AcDbDimension
  2
*D3
 10
291.8999230806
 20
264.0497708152
 30
0.0
 11
223.3736887965
 21
264.0497708152
 31
0.0
 70
   160
  1
(<>)
 71
     2
 42
-1.0
  3
SLDDIMSTYLE0
100
AcDbAlignedDimension
 13
152.5745221737
 23
254.8190153102
 33
0.0
 14
291.8999230806
 24
254.8190153102
 34
0.0
100
AcDbRotatedDimension
  0
DIMENSION
  5
236
330
1F
100
AcDbEntity
  8
0
  6
Continuous
 62
     7
370
     0
100
AcDbDimension
  2
*D4
 10
307.9339972543
 20
201.3778343553
 30
0.0
 11
307.9339972543
 21
229.9932600868
 31
0.0
 70
   160
  1
(<>)
 71
     2
 42
-1.0
  3
SLDDIMSTYLE0
100
AcDbAlignedDimension
 13
289.1159022836
 23
255.7849411365
 33
0.0
 14
256.7372226272
 24
201.3778343553
 34
0.0
 50
90.0
100
AcDbRotatedDimension
  0
DIMENSION
  5
242
330
1F
100
AcDbEntity
  8
0
  6
Continuous
 62
     7
370
     0
100
AcDbDimension
  2
*D5
 10
153.5422031193
 20
201.3778343553
 30
0.0
 11
153.5422031193
 21
219.1950291957
 31
0.0
 70
   160
  1
(<>)
 71
     2
 42
-1.0
  3
SLDDIMSTYLE1
100
AcDbAlignedDimension
 13
187.7372226272
 23
233.5778343553
 33
0.0
 14
187.7372226272
 24
201.3778343553
 34
0.0
 50
90.0
100
AcDbRotatedDimension
  0
MTEXT
  5
251
330
1F
100
AcDbEntity
  8
0
  6
Continuous
 62
     7
370
     0
100
AcDbMText
 10
224.2848920796
 20
277.3869480184
 30
0.0
 40
3.5
 41
0.0
 71
     2
 72
     1
  1
A-A
  7
SLDTEXTSTYLE0
 73
     1
 44
1.0
  0
LINE
  5
252
330
1F
100
AcDbEntity
  8
0
  6
CENTERX2
 62
     7
370
     0
100
AcDbLine
 10
194.6198457123
 20
208.5778343553
 30
0.0
 11
249.8545995421
 21
208.5778343553
 31
0.0
  0
LINE
  5
253
330
1F
100
AcDbEntity
  8
0
  6
CENTERX2
 62
     7
370
     0
100
AcDbLine
 10
222.2372226272
 20
199.3778343553
 30
0.0
 11
222.2372226272
 21
244.0778343553
 31
0.0
  0
ENDSEC
  0
SECTION
  2
OBJECTS
  0
DICTIONARY
  5
C
330
0
100
AcDbDictionary
281
     1
  3
ACAD_GROUP
350
D
  3
ACAD_LAYOUT
350
1A
  3
ACAD_MLINESTYLE
350
17
  3
ACAD_PLOTSETTINGS
350
19
  3
ACAD_PLOTSTYLENAME
350
E
  0
DICTIONARY
  5
D
102
{ACAD_REACTORS
330
C
102
}
330
C
100
AcDbDictionary
281
     1
  0
DICTIONARY
  5
1A
102
{ACAD_REACTORS
330
C
102
}
330
C
100
AcDbDictionary
281
     1
  3
Layout1
350
1E
  3
Layout2
350
26
  3
Model
350
22
  0
DICTIONARY
  5
17
102
{ACAD_REACTORS
330
C
102
}
330
C
100
AcDbDictionary
281
     1
  3
Standard
350
18
  0
DICTIONARY
  5
19
102
{ACAD_REACTORS
330
C
102
}
330
C
100
AcDbDictionary
281
     1
  0
ACDBDICTIONARYWDFLT
  5
E
102
{ACAD_REACTORS
330
C
102
}
330
C
100
AcDbDictionary
281
     1
  3
Normal
350
F
100
AcDbDictionaryWithDefault
340
F
  0
LAYOUT
  5
1E
102
{ACAD_REACTORS
330
1A
102
}
330
1A
100
AcDbPlotSettings
  1

  2
none_device
  4

  6

 40
0.0
 41
0.0
 42
0.0
 43
0.0
 44
0.0
 45
0.0
 46
0.0
 47
0.0
 48
0.0
 49
0.0
140
0.0
141
0.0
142
1.0
143
1.0
 70
   688
 72
     0
 73
     0
 74
     5
  7

 75
    16
147
1.0
148
0.0
149
0.0
100
AcDbLayout
  1
Layout1
 70
     1
 71
     1
 10
0.0
 20
0.0
 11
420.0
 21
297.0
 12
0.0
 22
0.0
 32
0.0
 14
1.0000000000E+20
 24
1.0000000000E+20
 34
1.0000000000E+20
 15
-1.0000000000E+20
 25
-1.0000000000E+20
 35
-1.0000000000E+20
146
0.0
 13
0.0
 23
0.0
 33
0.0
 16
1.0
 26
0.0
 36
0.0
 17
0.0
 27
1.0
 37
0.0
 76
     0
330
1B
  0
LAYOUT
  5
26
102
{ACAD_REACTORS
330
1A
102
}
330
1A
100
AcDbPlotSettings
  1

  2
none_device
  4

  6

 40
0.0
 41
0.0
 42
0.0
 43
0.0
 44
0.0
 45
0.0
 46
0.0
 47
0.0
 48
0.0
 49
0.0
140
0.0
141
0.0
142
1.0
143
1.0
 70
   688
 72
     0
 73
     0
 74
     5
  7

 75
    16
147
1.0
148
0.0
149
0.0
100
AcDbLayout
  1
Layout2
 70
     1
 71
     2
 10
0.0
 20
0.0
 11
0.0
 21
0.0
 12
0.0
 22
0.0
 32
0.0
 14
0.0
 24
0.0
 34
0.0
 15
0.0
 25
0.0
 35
0.0
146
0.0
 13
0.0
 23
0.0
 33
0.0
 16
1.0
 26
0.0
 36
0.0
 17
0.0
 27
1.0
 37
0.0
 76
     0
330
23
  0
LAYOUT
  5
22
102
{ACAD_REACTORS
330
1A
102
}
330
1A
100
AcDbPlotSettings
  1

  2
none_device
  4

  6

 40
0.0
 41
0.0
 42
0.0
 43
0.0
 44
0.0
 45
0.0
 46
0.0
 47
0.0
 48
0.0
 49
0.0
140
0.0
141
0.0
142
1.0
143
1.0
 70
  1712
 72
     0
 73
     0
 74
     0
  7

 75
     0
147
1.0
148
0.0
149
0.0
100
AcDbLayout
  1
Model
 70
     1
 71
     0
 10
0.0
 20
0.0
 11
420.0
 21
297.0
 12
0.0
 22
0.0
 32
0.0
 14
0.0
 24
0.0
 34
0.0
 15
420.0
 25
297.0
 35
0.0
146
0.0
 13
0.0
 23
0.0
 33
0.0
 16
1.0
 26
0.0
 36
0.0
 17
0.0
 27
1.0
 37
0.0
 76
     0
330
1F
331
29
  0
MLINESTYLE
  5
18
102
{ACAD_REACTORS
330
17
102
}
330
17
100
AcDbMlineStyle
  2
Standard
 70
     0
  3

 62
   256
 51
90.0
 52
90.0
 71
     2
 49
0.5
 62
   256
  6
BYLAYER
 49
-0.5
 62
   256
  6
BYLAYER
  0
ACDBPLACEHOLDER
  5
F
102
{ACAD_REACTORS
330
E
102
}
330
E
  0
ENDSEC
  0
EOF
