  0
SECTION
  2
HEADER
  9
$ACADVER
  1
AC1032
  9
$ACADMAINTVER
 90
       55
  9
$DWGCODEPAGE
  3
ANSI_1252
  9
$LASTSAVEDBY
  1
f.studer
  9
$REQUIREDVERSIONS
160
                 0
  9
$INSBASE
 10
0.0
 20
0.0
 30
0.0
  9
$EXTMIN
 10
0.0
 20
0.0
 30
0.0
  9
$EXTMAX
 10
1260.0
 20
891.0
 30
0.0
  9
$LIMMIN
 10
0.0
 20
0.0
  9
$LIMMAX
 10
1260.0
 20
891.0
  9
$ORTHOMODE
 70
     0
  9
$REGENMODE
 70
     1
  9
$FILLMODE
 70
     1
  9
$QTEXTMODE
 70
     0
  9
$MIRRTEXT
 70
     1
  9
$LTSCALE
 40
3.0
  9
$ATTMODE
 70
     1
  9
$TEXTSIZE
 40
10.5
  9
$TRACEWID
 40
1.0
  9
$TEXTSTYLE
  7
STANDARD
  9
$CLAYER
  8
0
  9
$CELTYPE
  6
ByLayer
  9
$CECOLOR
 62
   256
  9
$CELTSCALE
 40
1.0
  9
$DISPSILH
 70
     0
  9
$DIMSCALE
 40
1.0
  9
$DIMASZ
 40
9.906
  9
$DIMEXO
 40
3.0
  9
$DIMDLI
 40
3.75
  9
$DIMRND
 40
0.0
  9
$DIMDLE
 40
0.0
  9
$DIMEXE
 40
3.0
  9
$DIMTP
 40
0.0
  9
$DIMTM
 40
0.0
  9
$DIMTXT
 40
10.5
  9
$DIMCEN
 40
2.5
  9
$DIMTSZ
 40
0.0
  9
$DIMTOL
 70
     0
  9
$DIMLIM
 70
     0
  9
$DIMTIH
 70
     1
  9
$DIMTOH
 70
     1
  9
$DIMSE1
 70
     0
  9
$DIMSE2
 70
     0
  9
$DIMTAD
 70
     1
  9
$DIMZIN
 70
     0
  9
$DIMBLK
  1

  9
$DIMASO
 70
     1
  9
$DIMSHO
 70
     1
  9
$DIMPOST
  1

  9
$DIMAPOST
  1

  9
$DIMALT
 70
     0
  9
$DIMALTD
 70
     3
  9
$DIMALTF
 40
0.0393700787
  9
$DIMLFAC
 40
1.0
  9
$DIMTOFL
 70
     1
  9
$DIMTVP
 40
0.0
  9
$DIMTIX
 70
     0
  9
$DIMSOXD
 70
     0
  9
$DIMSAH
 70
     0
  9
$DIMBLK1
  1

  9
$DIMBLK2
  1

  9
$DIMSTYLE
  2
ISO-25
  9
$DIMCLRD
 70
     0
  9
$DIMCLRE
 70
     0
  9
$DIMCLRT
 70
     0
  9
$DIMTFAC
 40
1.0
  9
$DIMGAP
 40
4.572
  9
$DIMJUST
 70
     0
  9
$DIMSD1
 70
     0
  9
$DIMSD2
 70
     0
  9
$DIMTOLJ
 70
     0
  9
$DIMTZIN
 70
     0
  9
$DIMALTZ
 70
     0
  9
$DIMALTTZ
 70
     0
  9
$DIMUPT
 70
     0
  9
$DIMDEC
 70
     2
  9
$DIMTDEC
 70
     2
  9
$DIMALTU
 70
     2
  9
$DIMALTTD
 70
     3
  9
$DIMTXSTY
  7
STANDARD
  9
$DIMAUNIT
 70
     0
  9
$DIMADEC
 70
     2
  9
$DIMALTRND
 40
0.0
  9
$DIMAZIN
 70
     0
  9
$DIMDSEP
 70
    44
  9
$DIMATFIT
 70
     3
  9
$DIMFRAC
 70
     0
  9
$DIMLDRBLK
  1

  9
$DIMLUNIT
 70
     2
  9
$DIMLWD
 70
    -2
  9
$DIMLWE
 70
    -2
  9
$DIMTMOVE
 70
     0
  9
$DIMFXL
 40
1.0
  9
$DIMFXLON
 70
     0
  9
$DIMJOGANG
 40
0.7853981634
  9
$DIMTFILL
 70
     0
  9
$DIMTFILLCLR
 70
     0
  9
$DIMARCSYM
 70
     0
  9
$DIMLTYPE
  6

  9
$DIMLTEX1
  6

  9
$DIMLTEX2
  6

  9
$DIMTXTDIRECTION
 70
     0
  9
$LUNITS
 70
     2
  9
$LUPREC
 70
     2
  9
$SKETCHINC
 40
1.0
  9
$FILLETRAD
 40
0.0
  9
$AUNITS
 70
     0
  9
$AUPREC
 70
     2
  9
$MENU
  1
.
  9
$ELEVATION
 40
0.0
  9
$PELEVATION
 40
0.0
  9
$THICKNESS
 40
0.0
  9
$LIMCHECK
 70
     0
  9
$CHAMFERA
 40
0.0
  9
$CHAMFERB
 40
0.0
  9
$CHAMFERC
 40
0.0
  9
$CHAMFERD
 40
0.0
  9
$SKPOLY
 70
     0
  9
$TDCREATE
 40
2460332.447643704
  9
$TDUCREATE
 40
2460332.405977038
  9
$TDUPDATE
 40
2460332.447644063
  9
$TDUUPDATE
 40
2460332.405977396
  9
$TDINDWG
 40
0.0000000116
  9
$TDUSRTIMER
 40
0.0000000116
  9
$USRTIMER
 70
     1
  9
$ANGBASE
 50
0.0
  9
$ANGDIR
 70
     0
  9
$PDMODE
 70
     0
  9
$PDSIZE
 40
-1.0
  9
$PLINEWID
 40
0.0
  9
$SPLFRAME
 70
     0
  9
$SPLINETYPE
 70
     6
  9
$SPLINESEGS
 70
     8
  9
$HANDSEED
  5
406
  9
$SURFTAB1
 70
     6
  9
$SURFTAB2
 70
     6
  9
$SURFTYPE
 70
     6
  9
$SURFU
 70
     6
  9
$SURFV
 70
     6
  9
$UCSBASE
  2

  9
$UCSNAME
  2

  9
$UCSORG
 10
0.0
 20
0.0
 30
0.0
  9
$UCSXDIR
 10
1.0
 20
0.0
 30
0.0
  9
$UCSYDIR
 10
0.0
 20
1.0
 30
0.0
  9
$UCSORTHOREF
  2

  9
$UCSORTHOVIEW
 70
     0
  9
$UCSORGTOP
 10
0.0
 20
0.0
 30
0.0
  9
$UCSORGBOTTOM
 10
0.0
 20
0.0
 30
0.0
  9
$UCSORGLEFT
 10
0.0
 20
0.0
 30
0.0
  9
$UCSORGRIGHT
 10
0.0
 20
0.0
 30
0.0
  9
$UCSORGFRONT
 10
0.0
 20
0.0
 30
0.0
  9
$UCSORGBACK
 10
0.0
 20
0.0
 30
0.0
  9
$PUCSBASE
  2

  9
$PUCSNAME
  2

  9
$PUCSORG
 10
0.0
 20
0.0
 30
0.0
  9
$PUCSXDIR
 10
1.0
 20
0.0
 30
0.0
  9
$PUCSYDIR
 10
0.0
 20
1.0
 30
0.0
  9
$PUCSORTHOREF
  2

  9
$PUCSORTHOVIEW
 70
     0
  9
$PUCSORGTOP
 10
0.0
 20
0.0
 30
0.0
  9
$PUCSORGBOTTOM
 10
0.0
 20
0.0
 30
0.0
  9
$PUCSORGLEFT
 10
0.0
 20
0.0
 30
0.0
  9
$PUCSORGRIGHT
 10
0.0
 20
0.0
 30
0.0
  9
$PUCSORGFRONT
 10
0.0
 20
0.0
 30
0.0
  9
$PUCSORGBACK
 10
0.0
 20
0.0
 30
0.0
  9
$USERI1
 70
     0
  9
$USERI2
 70
     0
  9
$USERI3
 70
     0
  9
$USERI4
 70
     0
  9
$USERI5
 70
     0
  9
$USERR1
 40
0.0
  9
$USERR2
 40
0.0
  9
$USERR3
 40
0.0
  9
$USERR4
 40
0.0
  9
$USERR5
 40
0.0
  9
$WORLDVIEW
 70
     1
  9
$SHADEDGE
 70
     3
  9
$SHADEDIF
 70
    70
  9
$TILEMODE
 70
     1
  9
$MAXACTVP
 70
    64
  9
$PINSBASE
 10
0.0
 20
0.0
 30
0.0
  9
$PLIMCHECK
 70
     0
  9
$PEXTMIN
 10
1.0000000000E+20
 20
1.0000000000E+20
 30
1.0000000000E+20
  9
$PEXTMAX
 10
-1.0000000000E+20
 20
-1.0000000000E+20
 30
-1.0000000000E+20
  9
$PLIMMIN
 10
0.0
 20
0.0
  9
$PLIMMAX
 10
420.0
 20
297.0
  9
$UNITMODE
 70
     0
  9
$VISRETAIN
 70
     1
  9
$PLINEGEN
 70
     0
  9
$PSLTSCALE
 70
     1
  9
$TREEDEPTH
 70
  3020
  9
$CMLSTYLE
  2
Standard
  9
$CMLJUST
 70
     0
  9
$CMLSCALE
 40
20.0
  9
$PROXYGRAPHICS
 70
     1
  9
$MEASUREMENT
 70
     1
  9
$CELWEIGHT
370
    -1
  9
$ENDCAPS
280
     0
  9
$JOINSTYLE
280
     0
  9
$LWDISPLAY
290
     1
  9
$INSUNITS
 70
     4
  9
$HYPERLINKBASE
  1

  9
$STYLESHEET
  1

  9
$XEDIT
290
     1
  9
$CEPSNTYPE
380
     0
  9
$PSTYLEMODE
290
     1
  9
$FINGERPRINTGUID
  2
{4e7677b6-3a3d-4e4c-9e43-53128bc9732c}
  9
$VERSIONGUID
  2
{FAEB1C32-E019-11D5-929B-00C0DF256EC4}
  9
$EXTNAMES
290
     1
  9
$PSVPSCALE
 40
0.0
  9
$OLESTARTUP
290
     0
  9
$SORTENTS
280
   127
  9
$INDEXCTL
280
     0
  9
$HIDETEXT
280
     1
  9
$XCLIPFRAME
280
     2
  9
$HALOGAP
280
     0
  9
$OBSCOLOR
 70
   257
  9
$OBSLTYPE
280
     0
  9
$INTERSECTIONDISPLAY
280
     0
  9
$INTERSECTIONCOLOR
 70
   257
  9
$DIMASSOC
280
     2
  9
$PROJECTNAME
  1

  9
$CAMERADISPLAY
290
     0
  9
$LENSLENGTH
 40
50.0
  9
$CAMERAHEIGHT
 40
0.0
  9
$STEPSPERSEC
 40
2.0
  9
$STEPSIZE
 40
6.0
  9
$3DDWFPREC
 40
2.0
  9
$PSOLWIDTH
 40
5.0
  9
$PSOLHEIGHT
 40
80.0
  9
$LOFTANG1
 40
1.5707963268
  9
$LOFTANG2
 40
1.5707963268
  9
$LOFTMAG1
 40
0.0
  9
$LOFTMAG2
 40
0.0
  9
$LOFTPARAM
 70
     7
  9
$LOFTNORMALS
280
     1
  9
$LATITUDE
 40
37.795
  9
$LONGITUDE
 40
-122.394
  9
$NORTHDIRECTION
 40
0.0
  9
$TIMEZONE
 70
 -8000
  9
$LIGHTGLYPHDISPLAY
280
     1
  9
$TILEMODELIGHTSYNCH
280
     1
  9
$CMATERIAL
347
44
  9
$SOLIDHIST
280
     0
  9
$SHOWHIST
280
     1
  9
$DWFFRAME
280
     2
  9
$DGNFRAME
280
     2
  9
$REALWORLDSCALE
290
     1
  9
$INTERFERECOLOR
 62
   256
  9
$CSHADOW
280
     0
  9
$SHADOWPLANELOCATION
 40
0.0
  0
ENDSEC
  0
SECTION
  2
CLASSES
  0
CLASS
  1
ACDBDICTIONARYWDFLT
  2
AcDbDictionaryWithDefault
  3
ObjectDBX Classes
 90
        0
 91
        3
280
     0
281
     0
  0
CLASS
  1
VISUALSTYLE
  2
AcDbVisualStyle
  3
ObjectDBX Classes
 90
     4095
 91
        3
280
     0
281
     0
  0
CLASS
  1
MATERIAL
  2
AcDbMaterial
  3
ObjectDBX Classes
 90
     1153
 91
        3
280
     0
281
     0
  0
CLASS
  1
SCALE
  2
AcDbScale
  3
ObjectDBX Classes
 90
     1153
 91
        3
280
     0
281
     0
  0
CLASS
  1
TABLESTYLE
  2
AcDbTableStyle
  3
ObjectDBX Classes
 90
     4095
 91
        3
280
     0
281
     0
  0
CLASS
  1
MLEADERSTYLE
  2
AcDbMLeaderStyle
  3
ACDB_MLEADERSTYLE_CLASS
 90
     4095
 91
        3
280
     0
281
     0
  0
CLASS
  1
SUN
  2
AcDbSun
  3
SCENEOE
 90
     1153
 91
        3
280
     0
281
     0
  0
CLASS
  1
DICTIONARYVAR
  2
AcDbDictionaryVar
  3
ObjectDBX Classes
 90
        0
 91
        3
280
     0
281
     0
  0
CLASS
  1
CELLSTYLEMAP
  2
AcDbCellStyleMap
  3
ObjectDBX Classes
 90
     1152
 91
        3
280
     0
281
     0
  0
ENDSEC
  0
SECTION
  2
TABLES
  0
TABLE
  2
VPORT
  5
8
330
0
100
AcDbSymbolTable
 70
     1
  0
VPORT
  5
29
330
8
100
AcDbSymbolTableRecord
100
AcDbViewportTableRecord
  2
*Active
 70
     0
 10
0.0
 20
0.0
 11
1.0
 21
1.0
 12
630.0
 22
445.5
 13
0.0
 23
0.0
 14
10.0
 24
10.0
 15
10.0
 25
10.0
 16
0.0
 26
0.0
 36
1.0
 17
0.0
 27
0.0
 37
0.0
 40
891.0
 41
1.4141414141
 42
50.0
 43
0.0
 44
0.0
 50
0.0
 51
0.0
 71
     0
 72
  2000
 73
     1
 74
     3
 75
     0
 76
     0
 77
     0
 78
     0
281
     0
 65
     1
110
0.0
120
0.0
130
0.0
111
1.0
121
0.0
131
0.0
112
0.0
122
1.0
132
0.0
 79
     0
146
0.0
348
2F
 60
     3
 61
     5
292
     1
282
     1
141
0.0
142
0.0
 63
   250
361
5D
  0
ENDTAB
  0
TABLE
  2
LTYPE
  5
5
330
0
100
AcDbSymbolTable
 70
     8
  0
LTYPE
  5
14
330
5
100
AcDbSymbolTableRecord
100
AcDbLinetypeTableRecord
  2
ByBlock
 70
     0
  3

 72
    65
 73
     0
 40
0.0
  0
LTYPE
  5
15
330
5
100
AcDbSymbolTableRecord
100
AcDbLinetypeTableRecord
  2
ByLayer
 70
     0
  3

 72
    65
 73
     0
 40
0.0
  0
LTYPE
  5
16
330
5
100
AcDbSymbolTableRecord
100
AcDbLinetypeTableRecord
  2
Continuous
 70
     0
  3
Solid line
 72
    65
 73
     0
 40
0.0
  0
LTYPE
  5
5E
330
5
100
AcDbSymbolTableRecord
100
AcDbLinetypeTableRecord
  2
SLD-Durchgehend
 70
     0
  3
SolidWorks Line Style
 72
    65
 73
     0
 40
0.0
  0
LTYPE
  5
5F
330
5
100
AcDbSymbolTableRecord
100
AcDbLinetypeTableRecord
  2
SLD-Gestrichelt
 70
     0
  3
SolidWorks Line Style
 72
    65
 73
     2
 40
1.905
 49
1.27
 74
     0
 49
-0.635
 74
     0
  0
LTYPE
  5
60
330
5
100
AcDbSymbolTableRecord
100
AcDbLinetypeTableRecord
  2
SLD-Phantom
 70
     0
  3
SolidWorks Line Style
 72
    65
 73
     6
 40
12.7
 49
6.35
 74
     0
 49
-1.27
 74
     0
 49
1.27
 74
     0
 49
-1.27
 74
     0
 49
1.27
 74
     0
 49
-1.27
 74
     0
  0
LTYPE
  5
61
330
5
100
AcDbSymbolTableRecord
100
AcDbLinetypeTableRecord
  2
SLD-Kette
 70
     0
  3
SolidWorks Line Style
 72
    65
 73
     4
 40
10.16
 49
6.35
 74
     0
 49
-1.27
 74
     0
 49
1.27
 74
     0
 49
-1.27
 74
     0
  0
LTYPE
  5
62
330
5
100
AcDbSymbolTableRecord
100
AcDbLinetypeTableRecord
  2
SLD-Punktstrich
 70
     0
  3
SolidWorks Line Style
 72
    65
 73
     4
 40
19.05
 49
15.24
 74
     0
 49
-1.27
 74
     0
 49
1.27
 74
     0
 49
-1.27
 74
     0
  0
LTYPE
  5
63
330
5
100
AcDbSymbolTableRecord
100
AcDbLinetypeTableRecord
  2
SLD-Naht
 70
     0
  3
SolidWorks Line Style
 72
    65
 73
     2
 40
0.635
 49
0.0
 74
     0
 49
-0.635
 74
     0
  0
LTYPE
  5
64
330
5
100
AcDbSymbolTableRecord
100
AcDbLinetypeTableRecord
  2
SLD-Dicke-Dünne-Kette
 70
     0
  3
SolidWorks Line Style
 72
    65
 73
     4
 40
10.16
 49
6.35
 74
     0
 49
-1.27
 74
     0
 49
1.27
 74
     0
 49
-1.27
 74
     0
  0
ENDTAB
  0
TABLE
  2
LAYER
  5
2
330
0
100
AcDbSymbolTable
 70
     4
  0
LAYER
  5
10
330
2
100
AcDbSymbolTableRecord
100
AcDbLayerTableRecord
  2
0
 70
     0
 62
     7
  6
Continuous
370
    -3
390
F
347
46
348
0
  0
LAYER
  5
65
330
2
100
AcDbSymbolTableRecord
100
AcDbLayerTableRecord
  2
RAHMEN
 70
     0
 62
   179
  6
SLD-Durchgehend
370
    -3
390
F
347
46
348
0
  0
LAYER
  5
66
330
2
100
AcDbSymbolTableRecord
100
AcDbLayerTableRecord
  2
KOPF
 70
     0
 62
     7
  6
SLD-Durchgehend
370
    -3
390
F
347
46
348
0
  0
LAYER
  5
67
330
2
100
AcDbSymbolTableRecord
100
AcDbLayerTableRecord
  2
ZEICHNUNG
 70
     0
 62
     7
  6
SLD-Durchgehend
370
    -3
390
F
347
46
348
0
  0
ENDTAB
  0
TABLE
  2
STYLE
  5
3
330
0
100
AcDbSymbolTable
 70
     2
  0
STYLE
  5
11
330
3
100
AcDbSymbolTableRecord
100
AcDbTextStyleTableRecord
  2
STANDARD
 70
     0
 40
0.0
 41
1.0
 50
0.0
 71
     0
 42
10.5
  3
GOTHIC.TTF
  4

1001
ACAD
1000
CENTURY GOTHIC
1071
       34
  0
STYLE
  5
25E
330
3
100
AcDbSymbolTableRecord
100
AcDbTextStyleTableRecord
  2
SLDTEXTSTYLE0
 70
     0
 40
0.0
 41
0.913
 50
0.0
 71
     0
 42
10.5
  3
GOTHIC.TTF
  4

1001
ACAD
1000
Century Gothic
1071
      290
  0
ENDTAB
  0
TABLE
  2
VIEW
  5
6
330
0
100
AcDbSymbolTable
 70
     0
  0
ENDTAB
  0
TABLE
  2
UCS
  5
7
330
0
100
AcDbSymbolTable
 70
     0
  0
ENDTAB
  0
TABLE
  2
APPID
  5
9
330
0
100
AcDbSymbolTable
 70
     1
  0
APPID
  5
12
330
9
100
AcDbSymbolTableRecord
100
AcDbRegAppTableRecord
  2
ACAD
 70
     0
  0
ENDTAB
  0
TABLE
  2
DIMSTYLE
  5
A
330
0
100
AcDbSymbolTable
 70
     3
100
AcDbDimStyleTable
  0
DIMSTYLE
105
27
330
A
100
AcDbSymbolTableRecord
100
AcDbDimStyleTableRecord
  2
ISO-25
 70
     0
 41
2.5
 42
0.625
 43
3.75
 44
1.25
 73
     0
 74
     0
 77
     1
 78
     8
140
2.5
141
2.5
143
0.0393700787
147
0.625
171
     3
172
     1
178
     0
271
     2
272
     2
274
     3
278
    44
283
     0
284
     8
340
11
  0
DIMSTYLE
105
25F
102
{ACAD_REACTORS
330
25D
330
369
330
3E7
330
3F1
102
}
330
A
100
AcDbSymbolTableRecord
100
AcDbDimStyleTableRecord
  2
SLDDIMSTYLE0
 70
     0
 41
9.906
 44
0.0
 45
0.000000001
 73
     0
 74
     0
 77
     1
 78
    12
 79
     3
140
10.5
147
2.625
173
     1
178
     0
271
     2
272
     2
276
     2
284
    12
340
25E
  0
DIMSTYLE
105
3DB
102
{ACAD_REACTORS
330
3DA
102
}
330
A
100
AcDbSymbolTableRecord
100
AcDbDimStyleTableRecord
  2
SLDDIMSTYLE1
 70
     0
 41
9.906
 44
0.0
 45
0.000000001
 73
     0
 74
     0
 77
     1
 78
    12
 79
     3
140
10.5
147
2.625
172
     1
173
     1
178
     0
271
     2
272
     2
276
     2
284
    12
289
     0
340
25E
  0
ENDTAB
  0
TABLE
  2
BLOCK_RECORD
  5
1
330
0
100
AcDbSymbolTable
 70
     7
  0
BLOCK_RECORD
  5
1F
330
1
100
AcDbSymbolTableRecord
100
AcDbBlockTableRecord
  2
*Model_Space
340
22
 70
     0
280
     1
281
     0
  0
BLOCK_RECORD
  5
1B
330
1
100
AcDbSymbolTableRecord
100
AcDbBlockTableRecord
  2
*Paper_Space
340
1E
 70
     0
280
     1
281
     0
  0
BLOCK_RECORD
  5
23
330
1
100
AcDbSymbolTableRecord
100
AcDbBlockTableRecord
  2
*Paper_Space0
340
26
 70
     0
280
     1
281
     0
  0
BLOCK_RECORD
  5
68
330
1
100
AcDbSymbolTableRecord
100
AcDbBlockTableRecord
  2
Logo_Boag
340
0
 70
     0
280
     1
281
     0
  0
BLOCK_RECORD
  5
260
330
1
100
AcDbSymbolTableRecord
100
AcDbBlockTableRecord
  2
_D
340
0
 70
     0
280
     1
281
     0
  0
BLOCK_RECORD
  5
36A
330
1
100
AcDbSymbolTableRecord
100
AcDbBlockTableRecord
  2
_D_1
340
0
 70
     0
280
     1
281
     0
  0
BLOCK_RECORD
  5
3DC
330
1
100
AcDbSymbolTableRecord
100
AcDbBlockTableRecord
  2
_D_2
340
0
 70
     0
280
     1
281
     0
  0
BLOCK_RECORD
  5
3E8
330
1
100
AcDbSymbolTableRecord
100
AcDbBlockTableRecord
  2
_D_3
340
0
 70
     0
280
     1
281
     0
  0
BLOCK_RECORD
  5
3F2
330
1
100
AcDbSymbolTableRecord
100
AcDbBlockTableRecord
  2
_D_4
340
0
 70
     0
280
     1
281
     0
  0
ENDTAB
  0
ENDSEC
  0
SECTION
  2
BLOCKS
  0
BLOCK
  5
20
330
1F
100
AcDbEntity
  8
0
100
AcDbBlockBegin
  2
*Model_Space
 70
     0
 10
0.0
 20
0.0
 30
0.0
  3
*Model_Space
  1

  0
ENDBLK
  5
21
330
1F
100
AcDbEntity
  8
0
100
AcDbBlockEnd
  0
BLOCK
  5
1C
330
1B
100
AcDbEntity
 67
     1
  8
0
100
AcDbBlockBegin
  2
*Paper_Space
 70
     0
 10
0.0
 20
0.0
 30
0.0
  3
*Paper_Space
  1

  0
ENDBLK
  5
1D
330
1B
100
AcDbEntity
 67
     1
  8
0
100
AcDbBlockEnd
  0
BLOCK
  5
24
330
23
100
AcDbEntity
  8
0
100
AcDbBlockBegin
  2
*Paper_Space0
 70
     0
 10
0.0
 20
0.0
 30
0.0
  3
*Paper_Space0
  1

  0
ENDBLK
  5
25
330
23
100
AcDbEntity
  8
0
100
AcDbBlockEnd
  0
BLOCK
  5
69
330
68
100
AcDbEntity
  8
0
100
AcDbBlockBegin
  2
Logo_Boag
 70
     0
 10
0.0
 20
0.0
 30
0.0
  3
Logo_Boag
  1

  0
LINE
  5
6B
330
68
100
AcDbEntity
  8
0
  6
SLD-Durchgehend
 62
     7
370
    18
100
AcDbLine
 10
0.0
 20
7.0288422852
 30
0.0
 11
0.0018138428
 21
7.0288422852
 31
0.0
  0
LINE
  5
6C
330
68
100
AcDbEntity
  8
0
  6
SLD-Durchgehend
 62
     7
370
    18
100
AcDbLine
 10
115.3273481445
 20
0.0640891113
 30
0.0
 11
115.3305727539
 21
0.0640891113
 31
0.0
  0
LINE
  5
6D
330
68
100
AcDbEntity
  8
0
  6
SLD-Durchgehend
 62
     7
370
    18
100
AcDbLine
 10
61.6843588867
 20
0.3917900391
 30
0.0
 11
61.6843588867
 21
8.2167077637
 31
0.0
  0
LINE
  5
6E
330
68
100
AcDbEntity
  8
0
  6
SLD-Durchgehend
 62
     7
370
    18
100
AcDbLine
 10
96.7935026855
 20
17.4197429199
 30
0.0
 11
96.7935026855
 21
0.3917900391
 31
0.0
  0
LINE
  5
6F
330
68
100
AcDbEntity
  8
0
  6
SLD-Durchgehend
 62
     7
370
    18
100
AcDbLine
 10
59.6967902832
 20
0.3917900391
 30
0.0
 11
61.6843588867
 21
0.3917900391
 31
0.0
  0
LINE
  5
70
330
68
100
AcDbEntity
  8
0
  6
SLD-Durchgehend
 62
     7
370
    18
100
AcDbLine
 10
51.5512254639
 20
0.0640891113
 30
0.0
 11
51.5657362061
 21
0.0640891113
 31
0.0
  0
LINE
  5
71
330
68
100
AcDbEntity
  8
0
  6
SLD-Durchgehend
 62
     7
370
    18
100
AcDbLine
 10
81.8841181641
 20
10.8854750977
 30
0.0
 11
81.77609375
 21
11.1295377197
 31
0.0
  0
LINE
  5
72
330
68
100
AcDbEntity
  8
0
  6
SLD-Durchgehend
 62
     7
370
    18
100
AcDbLine
 10
105.3725759277
 20
0.3917900391
 30
0.0
 11
107.3625629883
 21
0.3917900391
 31
0.0
  0
LINE
  5
73
330
68
100
AcDbEntity
  8
0
  6
SLD-Durchgehend
 62
     7
370
    18
100
AcDbLine
 10
119.402045166
 20
13.8569526367
 30
0.0
 11
119.402045166
 21
12.6064088135
 31
0.0
  0
LINE
  5
74
330
68
100
AcDbEntity
  8
0
  6
SLD-Durchgehend
 62
     7
370
    18
100
AcDbLine
 10
98.7806682129
 20
0.3917900391
 30
0.0
 11
98.7806682129
 21
8.2183200684
 31
0.0
  0
LINE
  5
75
330
68
100
AcDbEntity
  8
0
  6
SLD-Durchgehend
 62
     7
370
    18
100
AcDbLine
 10
57.2593886719
 20
4.3665241699
 30
0.0
 11
57.3289193115
 21
4.5902314453
 31
0.0
  0
LINE
  5
76
330
68
100
AcDbEntity
  8
0
  6
SLD-Durchgehend
 62
     7
370
    18
100
AcDbLine
 10
79.9082387695
 20
10.8854750977
 30
0.0
 11
81.8841181641
 21
10.8854750977
 31
0.0
  0
LINE
  5
77
330
68
100
AcDbEntity
  8
0
  6
SLD-Durchgehend
 62
     7
370
    18
100
AcDbLine
 10
130.4862368164
 20
1.7404829102
 30
0.0
 11
130.4862368164
 21
0.3917900391
 31
0.0
  0
LINE
  5
78
330
68
100
AcDbEntity
  8
0
  6
SLD-Durchgehend
 62
     7
370
    18
100
AcDbLine
 10
111.2111342773
 20
7.1247744141
 30
0.0
 11
111.210328125
 21
7.1247744141
 31
0.0
  0
LINE
  5
79
330
68
100
AcDbEntity
  8
0
  6
SLD-Durchgehend
 62
     7
370
    18
100
AcDbLine
 10
125.3054987793
 20
12.1422666016
 30
0.0
 11
125.3054987793
 21
2.5615490723
 31
0.0
  0
LINE
  5
7A
330
68
100
AcDbEntity
  8
0
  6
SLD-Durchgehend
 62
     7
370
    18
100
AcDbLine
 10
105.3725759277
 20
8.9563525391
 30
0.0
 11
105.3725759277
 21
0.3917900391
 31
0.0
  0
LINE
  5
7B
330
68
100
AcDbEntity
  8
0
  6
SLD-Durchgehend
 62
     7
370
    18
100
AcDbLine
 10
2.1782236328
 20
17.4771812744
 30
0.0
 11
0.0
 21
17.4771812744
 31
0.0
  0
LINE
  5
7C
330
68
100
AcDbEntity
  8
0
  6
SLD-Durchgehend
 62
     7
370
    18
100
AcDbLine
 10
68.2776773682
 20
0.3917900391
 30
0.0
 11
70.2654475098
 21
0.3917900391
 31
0.0
  0
LINE
  5
7D
330
68
100
AcDbEntity
  8
0
  6
SLD-Durchgehend
 62
     7
370
    18
100
AcDbLine
 10
22.7919421387
 20
0.0640891113
 30
0.0
 11
22.7975852051
 21
0.0640891113
 31
0.0
  0
LINE
  5
7E
330
68
100
AcDbEntity
  8
0
  6
SLD-Durchgehend
 62
     7
370
    18
100
AcDbLine
 10
43.1156473389
 20
6.9046948242
 30
0.0
 11
43.1192750244
 21
6.9046948242
 31
0.0
  0
LINE
  5
7F
330
68
100
AcDbEntity
  8
0
  6
SLD-Durchgehend
 62
     7
370
    18
100
AcDbLine
 10
61.6843588867
 20
13.8569526367
 30
0.0
 11
59.6967902832
 21
13.8569526367
 31
0.0
  0
LINE
  5
80
330
68
100
AcDbEntity
  8
0
  6
SLD-Durchgehend
 62
     7
370
    18
100
AcDbLine
 10
77.1632900391
 20
14.1451520996
 30
0.0
 11
76.9923857422
 21
14.1435397949
 31
0.0
  0
LINE
  5
81
330
68
100
AcDbEntity
  8
0
  6
SLD-Durchgehend
 62
     7
370
    18
100
AcDbLine
 10
140.2914677734
 20
12.7279362793
 30
0.0
 11
140.2914677734
 21
13.8569526367
 31
0.0
  0
LINE
  5
82
330
68
100
AcDbEntity
  8
0
  6
SLD-Durchgehend
 62
     7
370
    18
100
AcDbLine
 10
93.1952416992
 20
10.6623724365
 30
0.0
 11
95.3488776855
 21
10.6482647705
 31
0.0
  0
LINE
  5
83
330
68
100
AcDbEntity
  8
0
  6
SLD-Durchgehend
 62
     7
370
    18
100
AcDbLine
 10
119.7744875488
 20
0.3917900391
 30
0.0
 11
121.4311306152
 21
0.3917900391
 31
0.0
  0
LINE
  5
84
330
68
100
AcDbEntity
  8
0
  6
SLD-Durchgehend
 62
     7
370
    18
100
AcDbLine
 10
37.0152910156
 20
0.0640891113
 30
0.0
 11
37.0366540527
 21
0.0640891113
 31
0.0
  0
LINE
  5
85
330
68
100
AcDbEntity
  8
0
  6
SLD-Durchgehend
 62
     7
370
    18
100
AcDbLine
 10
127.293470459
 20
17.4205490723
 30
0.0
 11
125.3054987793
 21
17.4205490723
 31
0.0
  0
LINE
  5
86
330
68
100
AcDbEntity
  8
0
  6
SLD-Durchgehend
 62
     7
370
    18
100
AcDbLine
 10
137.4941191406
 20
12.1430727539
 30
0.0
 11
130.4862368164
 21
1.7404829102
 31
0.0
  0
LINE
  5
87
330
68
100
AcDbEntity
  8
0
  6
SLD-Durchgehend
 62
     7
370
    18
100
AcDbLine
 10
95.3488776855
 20
10.6482647705
 30
0.0
 11
95.2412563477
 21
10.8939396973
 31
0.0
  0
LINE
  5
88
330
68
100
AcDbEntity
  8
0
  6
SLD-Durchgehend
 62
     7
370
    18
100
AcDbLine
 10
140.3998952637
 20
2.1072822266
 30
0.0
 11
133.146942627
 21
2.1072822266
 31
0.0
  0
LINE
  5
89
330
68
100
AcDbEntity
  8
0
  6
SLD-Durchgehend
 62
     7
370
    18
100
AcDbLine
 10
127.293470459
 20
12.1422666016
 30
0.0
 11
137.4941191406
 21
12.1430727539
 31
0.0
  0
LINE
  5
8A
330
68
100
AcDbEntity
  8
0
  6
SLD-Durchgehend
 62
     7
370
    18
100
AcDbLine
 10
61.6843588867
 20
12.3252631836
 30
0.0
 11
61.6843588867
 21
13.8569526367
 31
0.0
  0
LINE
  5
8B
330
68
100
AcDbEntity
  8
0
  6
SLD-Durchgehend
 62
     7
370
    18
100
AcDbLine
 10
127.293470459
 20
3.6546916504
 30
0.0
 11
127.293470459
 21
12.1422666016
 31
0.0
  0
LINE
  5
8C
330
68
100
AcDbEntity
  8
0
  6
SLD-Durchgehend
 62
     7
370
    18
100
AcDbLine
 10
96.7935026855
 20
0.3917900391
 30
0.0
 11
98.7806682129
 21
0.3917900391
 31
0.0
  0
LINE
  5
8D
330
68
100
AcDbEntity
  8
0
  6
SLD-Durchgehend
 62
     7
370
    18
100
AcDbLine
 10
95.4476313477
 20
3.8360759277
 30
0.0
 11
95.5411450195
 21
4.0730847168
 31
0.0
  0
LINE
  5
8E
330
68
100
AcDbEntity
  8
0
  6
SLD-Durchgehend
 62
     7
370
    18
100
AcDbLine
 10
129.474515625
 20
0.3289101563
 30
0.0
 11
129.474515625
 21
2.021427002
 31
0.0
  0
LINE
  5
8F
330
68
100
AcDbEntity
  8
0
  6
SLD-Durchgehend
 62
     7
370
    18
100
AcDbLine
 10
79.857854248
 20
10.9709272461
 30
0.0
 11
79.9082387695
 21
10.8854750977
 31
0.0
  0
LINE
  5
90
330
68
100
AcDbEntity
  8
0
  6
SLD-Durchgehend
 62
     7
370
    18
100
AcDbLine
 10
57.452059082
 20
7.0046577148
 30
0.0
 11
57.4458114014
 21
7.1860419922
 31
0.0
  0
LINE
  5
91
330
68
100
AcDbEntity
  8
0
  6
SLD-Durchgehend
 62
     7
370
    18
100
AcDbLine
 10
70.2654475098
 20
0.3917900391
 30
0.0
 11
70.2654475098
 21
9.4470977783
 31
0.0
  0
LINE
  5
92
330
68
100
AcDbEntity
  8
0
  6
SLD-Durchgehend
 62
     7
370
    18
100
AcDbLine
 10
140.2914677734
 20
13.8569526367
 30
0.0
 11
127.293470459
 21
13.8569526367
 31
0.0
  0
LINE
  5
93
330
68
100
AcDbEntity
  8
0
  6
SLD-Durchgehend
 62
     7
370
    18
100
AcDbLine
 10
125.3054987793
 20
17.4205490723
 30
0.0
 11
125.3054987793
 21
13.8569526367
 31
0.0
  0
LINE
  5
94
330
68
100
AcDbEntity
  8
0
  6
SLD-Durchgehend
 62
     7
370
    18
100
AcDbLine
 10
140.3998952637
 20
0.3917900391
 30
0.0
 11
140.3998952637
 21
2.1072822266
 31
0.0
  0
LINE
  5
95
330
68
100
AcDbEntity
  8
0
  6
SLD-Durchgehend
 62
     7
370
    18
100
AcDbLine
 10
51.4837102051
 20
1.9428271484
 30
0.0
 11
51.4448133545
 21
1.9436333008
 31
0.0
  0
LINE
  5
96
330
68
100
AcDbEntity
  8
0
  6
SLD-Durchgehend
 62
     7
370
    18
100
AcDbLine
 10
72.024875
 20
4.1351584473
 30
0.0
 11
72.0954133301
 21
3.9098388672
 31
0.0
  0
LINE
  5
97
330
68
100
AcDbEntity
  8
0
  6
SLD-Durchgehend
 62
     7
370
    18
100
AcDbLine
 10
43.1192750244
 20
6.9046948242
 30
0.0
 11
43.1192750244
 21
17.4197429199
 31
0.0
  0
LINE
  5
98
330
68
100
AcDbEntity
  8
0
  6
SLD-Durchgehend
 62
     7
370
    18
100
AcDbLine
 10
68.2776773682
 20
8.9547402344
 30
0.0
 11
68.2776773682
 21
0.3917900391
 31
0.0
  0
LINE
  5
99
330
68
100
AcDbEntity
  8
0
  6
SLD-Durchgehend
 62
     7
370
    18
100
AcDbLine
 10
93.3641306152
 20
4.0738908691
 30
0.0
 11
93.3185830078
 21
3.9747341309
 31
0.0
  0
LINE
  5
9A
330
68
100
AcDbEntity
  8
0
  6
SLD-Durchgehend
 62
     7
370
    18
100
AcDbLine
 10
98.7806682129
 20
12.3032955322
 30
0.0
 11
98.7806682129
 21
17.4197429199
 31
0.0
  0
LINE
  5
9B
330
68
100
AcDbEntity
  8
0
  6
SLD-Durchgehend
 62
     7
370
    18
100
AcDbLine
 10
119.5128911133
 20
1.7497536621
 30
0.0
 11
119.7744875488
 21
0.3917900391
 31
0.0
  0
LINE
  5
9C
330
68
100
AcDbEntity
  8
0
  6
SLD-Durchgehend
 62
     7
370
    18
100
AcDbLine
 10
55.2000725098
 20
8.71934375
 30
0.0
 11
47.4710869141
 21
8.71934375
 31
0.0
  0
LINE
  5
9D
330
68
100
AcDbEntity
  8
0
  6
SLD-Durchgehend
 62
     7
370
    18
100
AcDbLine
 10
98.7806682129
 20
17.4197429199
 30
0.0
 11
96.7935026855
 21
17.4197429199
 31
0.0
  0
LINE
  5
9E
330
68
100
AcDbEntity
  8
0
  6
SLD-Durchgehend
 62
     7
370
    18
100
AcDbLine
 10
95.5411450195
 20
4.0730847168
 30
0.0
 11
93.3641306152
 21
4.0738908691
 31
0.0
  0
LINE
  5
9F
330
68
100
AcDbEntity
  8
0
  6
SLD-Durchgehend
 62
     7
370
    18
100
AcDbLine
 10
133.146942627
 20
2.1072822266
 30
0.0
 11
140.2914677734
 21
12.7279362793
 31
0.0
  0
LINE
  5
A0
330
68
100
AcDbEntity
  8
0
  6
SLD-Durchgehend
 62
     7
370
    18
100
AcDbLine
 10
125.3054987793
 20
13.8569526367
 30
0.0
 11
119.402045166
 21
13.8569526367
 31
0.0
  0
LINE
  5
A1
330
68
100
AcDbEntity
  8
0
  6
SLD-Durchgehend
 62
     7
370
    18
100
AcDbLine
 10
2.1818513184
 20
6.8547133789
 30
0.0
 11
2.1782236328
 21
6.8547133789
 31
0.0
  0
LINE
  5
A2
330
68
100
AcDbEntity
  8
0
  6
SLD-Durchgehend
 62
     7
370
    18
100
AcDbLine
 10
2.1782236328
 20
6.8547133789
 30
0.0
 11
2.1782236328
 21
17.4771812744
 31
0.0
  0
LINE
  5
A3
330
68
100
AcDbEntity
  8
0
  6
SLD-Durchgehend
 62
     7
370
    18
100
AcDbLine
 10
41.1442017822
 20
17.4197429199
 30
0.0
 11
41.1442017822
 21
12.3504554443
 31
0.0
  0
LINE
  5
A4
330
68
100
AcDbEntity
  8
0
  6
SLD-Durchgehend
 62
     7
370
    18
100
AcDbLine
 10
47.4440808105
 20
7.0046577148
 30
0.0
 11
57.452059082
 21
7.0046577148
 31
0.0
  0
LINE
  5
A5
330
68
100
AcDbEntity
  8
0
  6
SLD-Durchgehend
 62
     7
370
    18
100
AcDbLine
 10
121.4311306152
 20
0.3917900391
 30
0.0
 11
121.4311306152
 21
12.1422666016
 31
0.0
  0
LINE
  5
A6
330
68
100
AcDbEntity
  8
0
  6
SLD-Durchgehend
 62
     7
370
    18
100
AcDbLine
 10
127.293470459
 20
13.8569526367
 30
0.0
 11
127.293470459
 21
17.4205490723
 31
0.0
  0
LINE
  5
A7
330
68
100
AcDbEntity
  8
0
  6
SLD-Durchgehend
 62
     7
370
    18
100
AcDbLine
 10
55.1309449463
 20
4.5902314453
 30
0.0
 11
55.0902342529
 21
4.4749516602
 31
0.0
  0
LINE
  5
A8
330
68
100
AcDbEntity
  8
0
  6
SLD-Durchgehend
 62
     7
370
    18
100
AcDbLine
 10
121.4311306152
 20
12.1422666016
 30
0.0
 11
125.3054987793
 21
12.1422666016
 31
0.0
  0
LINE
  5
A9
330
68
100
AcDbEntity
  8
0
  6
SLD-Durchgehend
 62
     7
370
    18
100
AcDbLine
 10
59.6967902832
 20
13.8569526367
 30
0.0
 11
59.6967902832
 21
0.3917900391
 31
0.0
  0
LINE
  5
AA
330
68
100
AcDbEntity
  8
0
  6
SLD-Durchgehend
 62
     7
370
    18
100
AcDbLine
 10
107.3625629883
 20
0.3917900391
 30
0.0
 11
107.3625629883
 21
9.4470977783
 31
0.0
  0
LINE
  5
AB
330
68
100
AcDbEntity
  8
0
  6
SLD-Durchgehend
 62
     7
370
    18
100
AcDbLine
 10
130.4862368164
 20
0.3917900391
 30
0.0
 11
140.3998952637
 21
0.3917900391
 31
0.0
  0
LINE
  5
AC
330
68
100
AcDbEntity
  8
0
  6
SLD-Durchgehend
 62
     7
370
    18
100
AcDbLine
 10
93.1496940918
 20
10.7637460938
 30
0.0
 11
93.1952416992
 21
10.6623724365
 31
0.0
  0
LINE
  5
AD
330
68
100
AcDbEntity
  8
0
  6
SLD-Durchgehend
 62
     7
370
    18
100
AcDbLine
 10
76.9923857422
 20
14.1435397949
 30
0.0
 11
76.9923857422
 21
14.1397105713
 31
0.0
  0
LINE
  5
AE
330
68
100
AcDbEntity
  8
0
  6
SLD-Durchgehend
 62
     7
370
    18
100
AcDbLine
 10
74.0458989258
 20
4.1351584473
 30
0.0
 11
72.024875
 21
4.1351584473
 31
0.0
  0
LINE
  5
AF
330
68
100
AcDbEntity
  8
0
  6
SLD-Durchgehend
 62
     7
370
    18
100
AcDbLine
 10
74.0809665527
 20
4.0085925293
 30
0.0
 11
74.0458989258
 21
4.1351584473
 31
0.0
  0
LINE
  5
B0
330
68
100
AcDbEntity
  8
0
  6
SLD-Durchgehend
 62
     7
370
    18
100
AcDbLine
 10
0.0
 20
17.4771812744
 30
0.0
 11
0.0
 21
7.0288422852
 31
0.0
  0
LINE
  5
B1
330
68
100
AcDbEntity
  8
0
  6
SLD-Durchgehend
 62
     7
370
    18
100
AcDbLine
 10
89.7598234863
 20
0.0640891113
 30
0.0
 11
89.7973095703
 21
0.0640891113
 31
0.0
  0
LINE
  5
B2
330
68
100
AcDbEntity
  8
0
  6
SLD-Durchgehend
 62
     7
370
    18
100
AcDbLine
 10
43.1192750244
 20
17.4197429199
 30
0.0
 11
41.1442017822
 21
17.4197429199
 31
0.0
  0
LINE
  5
B3
330
68
100
AcDbEntity
  8
0
  6
SLD-Durchgehend
 62
     7
370
    18
100
AcDbLine
 10
77.2342314453
 20
0.0342614746
 30
0.0
 11
77.3841757813
 21
0.0358737793
 31
0.0
  0
LINE
  5
B4
330
68
100
AcDbEntity
  8
0
  6
SLD-Durchgehend
 62
     7
370
    18
100
AcDbLine
 10
47.4444838867
 20
6.8240795898
 30
0.0
 11
47.4440808105
 21
7.0046577148
 31
0.0
  0
LINE
  5
B5
330
68
100
AcDbEntity
  8
0
  6
SLD-Durchgehend
 62
     7
370
    18
100
AcDbLine
 10
57.3289193115
 20
4.5902314453
 30
0.0
 11
55.1309449463
 21
4.5902314453
 31
0.0
  0
SPLINE
  5
B6
330
68
100
AcDbEntity
  8
0
  6
SLD-Durchgehend
 62
     8
420
  8421504
370
     0
100
AcDbSpline
210
0.0
220
0.0
230
1.0
 70
     8
 71
     3
 72
     8
 73
     4
 74
     0
 42
0.00000001
 43
0.00000001
 40
23.0
 40
23.0
 40
23.0
 40
23.0
 40
24.0
 40
24.0
 40
24.0
 40
24.0
 10
82.32306811523443
 20
4.188364501953146
 30
0.0
 10
82.32951733398447
 20
6.941777832031301
 30
0.0
 10
80.24359814453142
 20
7.693917968749978
 30
0.0
 10
78.3064140625
 20
8.12561254882814
 30
0.0
  0
SPLINE
  5
B7
330
68
100
AcDbEntity
  8
0
  6
SLD-Durchgehend
 62
     8
420
  8421504
370
     0
100
AcDbSpline
210
0.0
220
0.0
230
1.0
 70
     8
 71
     3
 72
     8
 73
     4
 74
     0
 42
0.00000001
 43
0.00000001
 40
3.0
 40
3.0
 40
3.0
 40
3.0
 40
4.0
 40
4.0
 40
4.0
 40
4.0
 10
41.13090026855479
 20
7.124774414062535
 30
0.0
 10
41.15165869140635
 20
3.503135009765651
 30
0.0
 10
39.34043591308606
 20
1.949276367187489
 30
0.0
 10
37.01529101562512
 20
1.942827148437534
 30
0.0
  0
SPLINE
  5
B8
330
68
100
AcDbEntity
  8
0
  6
SLD-Durchgehend
 62
     8
420
  8421504
370
     0
100
AcDbSpline
210
0.0
220
0.0
230
1.0
 70
     8
 71
     3
 72
     8
 73
     4
 74
     0
 42
0.00000001
 43
0.00000001
 40
1.0
 40
1.0
 40
1.0
 40
1.0
 40
2.0
 40
2.0
 40
2.0
 40
2.0
 10
51.34081970214852
 20
14.18586279296878
 30
0.0
 10
49.65958898925798
 20
14.18586279296878
 30
0.0
 10
48.12588415527352
 20
13.56653625488287
 30
0.0
 10
47.01883544921889
 20
12.36597387695311
 30
0.0
  0
SPLINE
  5
B9
330
68
100
AcDbEntity
  8
0
  6
SLD-Durchgehend
 62
     8
420
  8421504
370
     0
100
AcDbSpline
210
0.0
220
0.0
230
1.0
 70
     8
 71
     3
 72
     8
 73
     4
 74
     0
 42
0.00000001
 43
0.00000001
 40
12.0
 40
12.0
 40
12.0
 40
12.0
 40
13.0
 40
13.0
 40
13.0
 40
13.0
 10
111.0039531250001
 20
1.882365722656265
 30
0.0
 10
112.1108002929688
 20
0.6844233398437399
 30
0.0
 10
113.6457143554687
 20
0.0632829589843897
 30
0.0
 10
115.3273481445314
 20
0.0640891113281444
 30
0.0
  0
SPLINE
  5
BA
330
68
100
AcDbEntity
  8
0
  6
SLD-Durchgehend
 62
     8
420
  8421504
370
     0
100
AcDbSpline
210
0.0
220
0.0
230
1.0
 70
     8
 71
     3
 72
     8
 73
     4
 74
     0
 42
0.00000001
 43
0.00000001
 40
12.0
 40
12.0
 40
12.0
 40
12.0
 40
13.0
 40
13.0
 40
13.0
 40
13.0
 10
106.2146020507813
 20
12.86216064453127
 30
0.0
 10
105.4241696777344
 20
13.70781445312504
 30
0.0
 10
104.2121196289063
 20
14.18586279296878
 30
0.0
 10
102.5695842285158
 20
14.18586279296878
 30
0.0
  0
SPLINE
  5
BB
330
68
100
AcDbEntity
  8
0
  6
SLD-Durchgehend
 62
     8
420
  8421504
370
     0
100
AcDbSpline
210
0.0
220
0.0
230
1.0
 70
     8
 71
     3
 72
     8
 73
     4
 74
     0
 42
0.00000001
 43
0.00000001
 40
9.0
 40
9.0
 40
9.0
 40
9.0
 40
10.0
 40
10.0
 40
10.0
 40
10.0
 10
83.65563793945324
 20
7.126386718750003
 30
0.0
 10
83.70279785156254
 20
2.925123779296906
 30
0.0
 10
86.3727744140626
 20
0.0612675781249822
 30
0.0
 10
89.75982348632816
 20
0.0640891113281444
 30
0.0
  0
SPLINE
  5
BC
330
68
100
AcDbEntity
  8
0
  6
SLD-Durchgehend
 62
     8
420
  8421504
370
     0
100
AcDbSpline
210
0.0
220
0.0
230
1.0
 70
     8
 71
     3
 72
     8
 73
     4
 74
     0
 42
0.00000001
 43
0.00000001
 40
3.0
 40
3.0
 40
3.0
 40
3.0
 40
4.0
 40
4.0
 40
4.0
 40
4.0
 10
30.91029931640632
 20
7.124774414062535
 30
0.0
 10
30.91029931640632
 20
4.850215576171879
 30
0.0
 10
31.5844442138673
 20
3.08151733398436
 30
0.0
 10
32.69229907226573
 20
1.882365722656265
 30
0.0
  0
SPLINE
  5
BD
330
68
100
AcDbEntity
  8
0
  6
SLD-Durchgehend
 62
     8
420
  8421504
370
     0
100
AcDbSpline
210
0.0
220
0.0
230
1.0
 70
     8
 71
     3
 72
     8
 73
     4
 74
     0
 42
0.00000001
 43
0.00000001
 40
0.0
 40
0.0
 40
0.0
 40
0.0
 40
1.0
 40
1.0
 40
1.0
 40
1.0
 10
41.14420178222664
 20
12.35045544433597
 30
0.0
 10
40.18205895996105
 20
13.520988647461
 30
0.0
 10
38.6036126708986
 20
14.18586279296878
 30
0.0
 10
37.01529101562512
 20
14.18586279296878
 30
0.0
  0
SPLINE
  5
BE
330
68
100
AcDbEntity
  8
0
  6
SLD-Durchgehend
 62
     8
420
  8421504
370
     0
100
AcDbSpline
210
0.0
220
0.0
230
1.0
 70
     8
 71
     3
 72
     8
 73
     4
 74
     0
 42
0.00000001
 43
0.00000001
 40
2.0
 40
2.0
 40
2.0
 40
2.0
 40
3.0
 40
3.0
 40
3.0
 40
3.0
 10
111.210328125
 20
7.124774414062535
 30
0.0
 10
111.2220173339844
 20
10.42616979980475
 30
0.0
 10
113.003614013672
 20
12.30087707519541
 30
0.0
 10
115.3273481445314
 20
12.30631860351568
 30
0.0
  0
SPLINE
  5
BF
330
68
100
AcDbEntity
  8
0
  6
SLD-Durchgehend
 62
     8
420
  8421504
370
     0
100
AcDbSpline
210
0.0
220
0.0
230
1.0
 70
     8
 71
     3
 72
     8
 73
     4
 74
     0
 42
0.00000001
 43
0.00000001
 40
1.0
 40
1.0
 40
1.0
 40
1.0
 40
2.0
 40
2.0
 40
2.0
 40
2.0
 10
51.34081970214852
 20
12.30631860351568
 30
0.0
 10
53.87052575683609
 20
12.30087707519541
 30
0.0
 10
54.80989477539067
 20
10.53842651367187
 30
0.0
 10
55.20007250976577
 20
8.71934375000004
 30
0.0
  0
SPLINE
  5
C0
330
68
100
AcDbEntity
  8
0
  6
SLD-Durchgehend
 62
     8
420
  8421504
370
     0
100
AcDbSpline
210
0.0
220
0.0
230
1.0
 70
     8
 71
     3
 72
     8
 73
     4
 74
     0
 42
0.00000001
 43
0.00000001
 40
5.0
 40
5.0
 40
5.0
 40
5.0
 40
6.0
 40
6.0
 40
6.0
 40
6.0
 10
0.0018138427734793
 20
7.028842285156268
 30
0.0
 10
0.0207584228516522
 20
2.454733886718769
 30
0.0
 10
2.735677978515677
 20
0.0
 30
0.0
 10
6.093504028320429
 20
0.0
 30
0.0
  0
SPLINE
  5
C1
330
68
100
AcDbEntity
  8
0
  6
SLD-Durchgehend
 62
     8
420
  8421504
370
     0
100
AcDbSpline
210
0.0
220
0.0
230
1.0
 70
     8
 71
     3
 72
     8
 73
     4
 74
     0
 42
0.00000001
 43
0.00000001
 40
6.0
 40
6.0
 40
6.0
 40
6.0
 40
7.0
 40
7.0
 40
7.0
 40
7.0
 10
27.11513562011725
 20
1.882365722656265
 30
0.0
 10
28.22258740234382
 20
3.08151733398436
 30
0.0
 10
28.89693383789069
 20
4.850215576171879
 30
0.0
 10
28.89693383789069
 20
7.124774414062535
 30
0.0
  0
SPLINE
  5
C2
330
68
100
AcDbEntity
  8
0
  6
SLD-Durchgehend
 62
     8
420
  8421504
370
     0
100
AcDbSpline
210
0.0
220
0.0
230
1.0
 70
     8
 71
     3
 72
    11
 73
     7
 74
     0
 42
0.00000001
 43
0.00000001
 40
1.0
 40
1.0
 40
1.0
 40
1.0
 40
2.0
 40
2.0
 40
2.0
 40
3.0
 40
3.0
 40
3.0
 40
3.0
 10
8.342064453125131
 20
12.31276782226568
 30
0.0
 10
10.07831506347662
 20
11.65716442871101
 30
0.0
 10
11.2752497558595
 20
9.809060180664131
 30
0.0
 10
11.2752497558595
 20
7.076808349609484
 30
0.0
 10
11.2752497558595
 20
4.324201171875042
 30
0.0
 10
10.08033044433598
 20
2.489398437500012
 30
0.0
 10
8.346095214843864
 20
1.83762426757815
 30
0.0
  0
SPLINE
  5
C3
330
68
100
AcDbEntity
  8
0
  6
SLD-Durchgehend
 62
     8
420
  8421504
370
     0
100
AcDbSpline
210
0.0
220
0.0
230
1.0
 70
     8
 71
     3
 72
     8
 73
     4
 74
     0
 42
0.00000001
 43
0.00000001
 40
0.0
 40
0.0
 40
0.0
 40
0.0
 40
1.0
 40
1.0
 40
1.0
 40
1.0
 10
115.3273481445314
 20
1.942827148437534
 30
0.0
 10
113.0020017089845
 20
1.949276367187489
 30
0.0
 10
111.2220173339844
 20
3.796574462890612
 30
0.0
 10
111.2111342773437
 20
7.124774414062535
 30
0.0
  0
SPLINE
  5
C4
330
68
100
AcDbEntity
  8
0
  6
SLD-Durchgehend
 62
     8
420
  8421504
370
     0
100
AcDbSpline
210
0.0
220
0.0
230
1.0
 70
     8
 71
     3
 72
     8
 73
     4
 74
     0
 42
0.00000001
 43
0.00000001
 40
3.0
 40
3.0
 40
3.0
 40
3.0
 40
4.0
 40
4.0
 40
4.0
 40
4.0
 10
77.19876074218762
 20
12.42099377441407
 30
0.0
 10
78.47288452148449
 20
12.41091687011719
 30
0.0
 10
79.31934448242201
 20
11.87462402343752
 30
0.0
 10
79.85785424804698
 20
10.97092724609375
 30
0.0
  0
SPLINE
  5
C5
330
68
100
AcDbEntity
  8
0
  6
SLD-Durchgehend
 62
     8
420
  8421504
370
     0
100
AcDbSpline
210
0.0
220
0.0
230
1.0
 70
     8
 71
     3
 72
     8
 73
     4
 74
     0
 42
0.00000001
 43
0.00000001
 40
0.0
 40
0.0
 40
0.0
 40
0.0
 40
1.0
 40
1.0
 40
1.0
 40
1.0
 10
65.47327490234389
 20
14.1844520263672
 30
0.0
 10
64.0568652343751
 20
14.18828125000005
 30
0.0
 10
62.58644335937519
 20
13.67718066406252
 30
0.0
 10
61.6843588867188
 20
12.32526318359373
 30
0.0
  0
SPLINE
  5
C6
330
68
100
AcDbEntity
  8
0
  6
SLD-Durchgehend
 62
     8
420
  8421504
370
     0
100
AcDbSpline
210
0.0
220
0.0
230
1.0
 70
     8
 71
     3
 72
     8
 73
     4
 74
     0
 42
0.00000001
 43
0.00000001
 40
21.0
 40
21.0
 40
21.0
 40
21.0
 40
22.0
 40
22.0
 40
22.0
 40
22.0
 10
126.0576389160157
 20
0.7464970703124768
 30
0.0
 10
126.5215795898438
 20
0.4127499999999895
 30
0.0
 10
127.117326171875
 20
0.3305224609374685
 30
0.0
 10
127.7211342773438
 20
0.3297163085937554
 30
0.0
  0
SPLINE
  5
C7
330
68
100
AcDbEntity
  8
0
  6
SLD-Durchgehend
 62
     8
420
  8421504
370
     0
100
AcDbSpline
210
0.0
220
0.0
230
1.0
 70
     8
 71
     3
 72
     8
 73
     4
 74
     0
 42
0.00000001
 43
0.00000001
 40
13.0
 40
13.0
 40
13.0
 40
13.0
 40
14.0
 40
14.0
 40
14.0
 40
14.0
 10
76.59414648437519
 20
6.641889160156262
 30
0.0
 10
77.56757543945325
 20
6.446397216796893
 30
0.0
 10
78.52971826171884
 20
6.290003662109356
 30
0.0
 10
79.22059082031258
 20
5.957062744140623
 30
0.0
  0
SPLINE
  5
C8
330
68
100
AcDbEntity
  8
0
  6
SLD-Durchgehend
 62
     8
420
  8421504
370
     0
100
AcDbSpline
210
0.0
220
0.0
230
1.0
 70
     8
 71
     3
 72
     8
 73
     4
 74
     0
 42
0.00000001
 43
0.00000001
 40
11.0
 40
11.0
 40
11.0
 40
11.0
 40
12.0
 40
12.0
 40
12.0
 40
12.0
 10
70.2654475097656
 20
9.447097778320312
 30
0.0
 10
70.2654475097656
 20
10.82803674316407
 30
0.0
 10
69.90912817382828
 20
12.01832067871095
 30
0.0
 10
69.11849426269534
 20
12.86216064453127
 30
0.0
  0
SPLINE
  5
C9
330
68
100
AcDbEntity
  8
0
  6
SLD-Durchgehend
 62
     8
420
  8421504
370
     0
100
AcDbSpline
210
0.0
220
0.0
230
1.0
 70
     8
 71
     3
 72
     8
 73
     4
 74
     0
 42
0.00000001
 43
0.00000001
 40
0.0
 40
0.0
 40
0.0
 40
0.0
 40
1.0
 40
1.0
 40
1.0
 40
1.0
 10
47.47108691406257
 20
8.71934375000004
 30
0.0
 10
47.80322167968759
 20
10.74963842773435
 30
0.0
 10
49.18577294921886
 20
12.30329553222659
 30
0.0
 10
51.34081970214852
 20
12.30631860351568
 30
0.0
  0
SPLINE
  5
CA
330
68
100
AcDbEntity
  8
0
  6
SLD-Durchgehend
 62
     8
420
  8421504
370
     0
100
AcDbSpline
210
0.0
220
0.0
230
1.0
 70
     8
 71
     3
 72
     8
 73
     4
 74
     0
 42
0.00000001
 43
0.00000001
 40
14.0
 40
14.0
 40
14.0
 40
14.0
 40
15.0
 40
15.0
 40
15.0
 40
15.0
 10
79.22059082031258
 20
5.957062744140623
 30
0.0
 10
79.9114633789063
 20
5.615657226562487
 30
0.0
 10
80.3258256835938
 20
5.15735961914067
 30
0.0
 10
80.33388720703127
 20
4.243182861328131
 30
0.0
  0
SPLINE
  5
CB
330
68
100
AcDbEntity
  8
0
  6
SLD-Durchgehend
 62
     8
420
  8421504
370
     0
100
AcDbSpline
210
0.0
220
0.0
230
1.0
 70
     8
 71
     3
 72
     8
 73
     4
 74
     0
 42
0.00000001
 43
0.00000001
 40
10.0
 40
10.0
 40
10.0
 40
10.0
 40
11.0
 40
11.0
 40
11.0
 40
11.0
 10
111.0039531250001
 20
12.36597387695311
 30
0.0
 10
109.8983151855469
 20
11.16803149414067
 30
0.0
 10
109.2223564453125
 20
9.398325561523466
 30
0.0
 10
109.2223564453125
 20
7.124774414062535
 30
0.0
  0
SPLINE
  5
CC
330
68
100
AcDbEntity
  8
0
  6
SLD-Durchgehend
 62
     8
420
  8421504
370
     0
100
AcDbSpline
210
0.0
220
0.0
230
1.0
 70
     8
 71
     3
 72
     8
 73
     4
 74
     0
 42
0.00000001
 43
0.00000001
 40
7.0
 40
7.0
 40
7.0
 40
7.0
 40
8.0
 40
8.0
 40
8.0
 40
8.0
 10
28.89693383789069
 20
7.124774414062535
 30
0.0
 10
28.89693383789069
 20
9.398325561523466
 30
0.0
 10
28.22258740234382
 20
11.16803149414067
 30
0.0
 10
27.11513562011725
 20
12.36597387695311
 30
0.0
  0
SPLINE
  5
CD
330
68
100
AcDbEntity
  8
0
  6
SLD-Durchgehend
 62
     8
420
  8421504
370
     0
100
AcDbSpline
210
0.0
220
0.0
230
1.0
 70
     8
 71
     3
 72
     8
 73
     4
 74
     0
 42
0.00000001
 43
0.00000001
 40
6.0
 40
6.0
 40
6.0
 40
6.0
 40
7.0
 40
7.0
 40
7.0
 40
7.0
 10
6.093504028320429
 20
0.0
 30
0.0
 10
6.342403564453203
 20
0.0
 30
0.0
 10
6.591303100585977
 20
0.0092707519531582
 30
0.0
 10
6.840202636718917
 20
0.0266030273437384
 30
0.0
  0
SPLINE
  5
CE
330
68
100
AcDbEntity
  8
0
  6
SLD-Durchgehend
 62
     8
420
  8421504
370
     0
100
AcDbSpline
210
0.0
220
0.0
230
1.0
 70
     8
 71
     3
 72
     8
 73
     4
 74
     0
 42
0.00000001
 43
0.00000001
 40
12.0
 40
12.0
 40
12.0
 40
12.0
 40
13.0
 40
13.0
 40
13.0
 40
13.0
 10
55.09023425292975
 20
4.474951660156296
 30
0.0
 10
54.54184912109383
 20
2.936006835937491
 30
0.0
 10
53.41504968261723
 20
1.975073242187514
 30
0.0
 10
51.48371020507819
 20
1.942827148437534
 30
0.0
  0
SPLINE
  5
CF
330
68
100
AcDbEntity
  8
0
  6
SLD-Durchgehend
 62
     8
420
  8421504
370
     0
100
AcDbSpline
210
0.0
220
0.0
230
1.0
 70
     8
 71
     3
 72
     8
 73
     4
 74
     0
 42
0.00000001
 43
0.00000001
 40
5.0
 40
5.0
 40
5.0
 40
5.0
 40
6.0
 40
6.0
 40
6.0
 40
6.0
 10
13.45266723632824
 20
7.076808349609401
 30
0.0
 10
13.44138110351567
 20
10.47091125488282
 30
0.0
 10
11.6102060546876
 20
12.40063842773435
 30
0.0
 10
9.218755126953221
 20
12.40527380371095
 30
0.0
  0
SPLINE
  5
D0
330
68
100
AcDbEntity
  8
0
  6
SLD-Durchgehend
 62
     8
420
  8421504
370
     0
100
AcDbSpline
210
0.0
220
0.0
230
1.0
 70
     8
 71
     3
 72
     8
 73
     4
 74
     0
 42
0.00000001
 43
0.00000001
 40
6.0
 40
6.0
 40
6.0
 40
6.0
 40
7.0
 40
7.0
 40
7.0
 40
7.0
 10
37.03665405273443
 20
0.0640891113281444
 30
0.0
 10
39.87874414062506
 20
0.0640891113281444
 30
0.0
 10
42.31614575195325
 20
1.766279785156255
 30
0.0
 10
42.94776611328133
 20
5.128338134765584
 30
0.0
  0
SPLINE
  5
D1
330
68
100
AcDbEntity
  8
0
  6
SLD-Durchgehend
 62
     8
420
  8421504
370
     0
100
AcDbSpline
210
0.0
220
0.0
230
1.0
 70
     8
 71
     3
 72
     8
 73
     4
 74
     0
 42
0.00000001
 43
0.00000001
 40
7.0
 40
7.0
 40
7.0
 40
7.0
 40
8.0
 40
8.0
 40
8.0
 40
8.0
 10
95.24125634765635
 20
10.89393969726561
 30
0.0
 10
94.04008935546877
 20
13.65682531738281
 30
0.0
 10
91.81027197265634
 20
14.19392431640624
 30
0.0
 10
90.14113354492193
 20
14.1844520263672
 30
0.0
  0
SPLINE
  5
D2
330
68
100
AcDbEntity
  8
0
  6
SLD-Durchgehend
 62
     8
420
  8421504
370
     0
100
AcDbSpline
210
0.0
220
0.0
230
1.0
 70
     8
 71
     3
 72
     8
 73
     4
 74
     0
 42
0.00000001
 43
0.00000001
 40
3.0
 40
3.0
 40
3.0
 40
3.0
 40
4.0
 40
4.0
 40
4.0
 40
4.0
 10
89.92387548828134
 20
12.30631860351568
 30
0.0
 10
91.46040185546889
 20
12.30087707519541
 30
0.0
 10
92.63093505859388
 20
11.84862561035156
 30
0.0
 10
93.14969409179696
 20
10.76374609375004
 30
0.0
  0
SPLINE
  5
D3
330
68
100
AcDbEntity
  8
0
  6
SLD-Durchgehend
 62
     8
420
  8421504
370
     0
100
AcDbSpline
210
0.0
220
0.0
230
1.0
 70
     8
 71
     3
 72
     8
 73
     4
 74
     0
 42
0.00000001
 43
0.00000001
 40
20.0
 40
20.0
 40
20.0
 40
20.0
 40
21.0
 40
21.0
 40
21.0
 40
21.0
 10
72.09541333007819
 20
3.909838867187501
 30
0.0
 10
72.8548088378907
 20
1.462360351562483
 30
0.0
 10
75.09631542968769
 20
0.1060090332031388
 30
0.0
 10
77.23423144531266
 20
0.0342614746093456
 30
0.0
  0
SPLINE
  5
D4
330
68
100
AcDbEntity
  8
0
  6
SLD-Durchgehend
 62
     8
420
  8421504
370
     0
100
AcDbSpline
210
0.0
220
0.0
230
1.0
 70
     8
 71
     3
 72
     8
 73
     4
 74
     0
 42
0.00000001
 43
0.00000001
 40
0.0
 40
0.0
 40
0.0
 40
0.0
 40
1.0
 40
1.0
 40
1.0
 40
1.0
 10
57.44581140136723
 20
7.186041992187516
 30
0.0
 10
57.32267163085952
 20
11.10918237304687
 30
0.0
 10
55.3304676513674
 20
14.19311816406249
 30
0.0
 10
51.34081970214852
 20
14.18586279296878
 30
0.0
  0
SPLINE
  5
D5
330
68
100
AcDbEntity
  8
0
  6
SLD-Durchgehend
 62
     8
420
  8421504
370
     0
100
AcDbSpline
210
0.0
220
0.0
230
1.0
 70
     8
 71
     3
 72
     8
 73
     4
 74
     0
 42
0.00000001
 43
0.00000001
 40
12.0
 40
12.0
 40
12.0
 40
12.0
 40
13.0
 40
13.0
 40
13.0
 40
13.0
 10
72.57386474609379
 20
10.36409606933597
 30
0.0
 10
72.5666093750002
 20
7.632650390625037
 30
0.0
 10
74.66462084960945
 20
7.011510009765604
 30
0.0
 10
76.59414648437519
 20
6.641889160156262
 30
0.0
  0
SPLINE
  5
D6
330
68
100
AcDbEntity
  8
0
  6
SLD-Durchgehend
 62
     8
420
  8421504
370
     0
100
AcDbSpline
210
0.0
220
0.0
230
1.0
 70
     8
 71
     3
 72
     8
 73
     4
 74
     0
 42
0.00000001
 43
0.00000001
 40
15.0
 40
15.0
 40
15.0
 40
15.0
 40
16.0
 40
16.0
 40
16.0
 40
16.0
 10
80.33388720703127
 20
4.243182861328131
 30
0.0
 10
80.33308105468755
 20
2.251583496093751
 30
0.0
 10
78.72279174804703
 20
1.796107421875012
 30
0.0
 10
77.37611425781266
 20
1.74048291015623
 30
0.0
  0
SPLINE
  5
D7
330
68
100
AcDbEntity
  8
0
  6
SLD-Durchgehend
 62
     8
420
  8421504
370
     0
100
AcDbSpline
210
0.0
220
0.0
230
1.0
 70
     8
 71
     3
 72
     8
 73
     4
 74
     0
 42
0.00000001
 43
0.00000001
 40
6.0
 40
6.0
 40
6.0
 40
6.0
 40
7.0
 40
7.0
 40
7.0
 40
7.0
 10
51.4442087402345
 20
0.0665075683593669
 30
0.0
 10
51.47121484375014
 20
0.0665075683593669
 30
0.0
 10
51.50809631347663
 20
0.0640891113281444
 30
0.0
 10
51.55122546386728
 20
0.0640891113281444
 30
0.0
  0
SPLINE
  5
D8
330
68
100
AcDbEntity
  8
0
  6
SLD-Durchgehend
 62
     8
420
  8421504
370
     0
100
AcDbSpline
210
0.0
220
0.0
230
1.0
 70
     8
 71
     3
 72
     8
 73
     4
 74
     0
 42
0.00000001
 43
0.00000001
 40
2.0
 40
2.0
 40
2.0
 40
2.0
 40
3.0
 40
3.0
 40
3.0
 40
3.0
 10
85.64360961914075
 20
7.124774414062535
 30
0.0
 10
85.65288037109386
 20
10.6569309082031
 30
0.0
 10
87.77588256835955
 20
12.29785400390628
 30
0.0
 10
89.92387548828134
 20
12.30631860351568
 30
0.0
  0
SPLINE
  5
D9
330
68
100
AcDbEntity
  8
0
  6
SLD-Durchgehend
 62
     8
420
  8421504
370
     0
100
AcDbSpline
210
0.0
220
0.0
230
1.0
 70
     8
 71
     3
 72
     8
 73
     4
 74
     0
 42
0.00000001
 43
0.00000001
 40
1.0
 40
1.0
 40
1.0
 40
1.0
 40
2.0
 40
2.0
 40
2.0
 40
2.0
 10
75.67029589843754
 20
8.825352783203094
 30
0.0
 10
74.97136181640634
 20
9.142372192382828
 30
0.0
 10
74.5678825683594
 20
9.538192993164094
 30
0.0
 10
74.56143334960952
 20
10.30988232421881
 30
0.0
  0
SPLINE
  5
DA
330
68
100
AcDbEntity
  8
0
  6
SLD-Durchgehend
 62
     8
420
  8421504
370
     0
100
AcDbSpline
210
0.0
220
0.0
230
1.0
 70
     8
 71
     3
 72
     8
 73
     4
 74
     0
 42
0.00000001
 43
0.00000001
 40
7.0
 40
7.0
 40
7.0
 40
7.0
 40
8.0
 40
8.0
 40
8.0
 40
8.0
 10
65.25420300292967
 20
12.30631860351568
 30
0.0
 10
67.27744384765633
 20
12.27346789550783
 30
0.0
 10
68.24381896972653
 20
11.55579077148439
 30
0.0
 10
68.27767736816415
 20
8.954740234374995
 30
0.0
  0
SPLINE
  5
DB
330
68
100
AcDbEntity
  8
0
  6
SLD-Durchgehend
 62
     8
420
  8421504
370
     0
100
AcDbSpline
210
0.0
220
0.0
230
1.0
 70
     8
 71
     3
 72
     8
 73
     4
 74
     0
 42
0.00000001
 43
0.00000001
 40
1.0
 40
1.0
 40
1.0
 40
1.0
 40
2.0
 40
2.0
 40
2.0
 40
2.0
 10
18.67572827148448
 20
7.124774414062535
 30
0.0
 10
18.68701440429696
 20
10.42616979980475
 30
0.0
 10
20.46840954589854
 20
12.30087707519537
 30
0.0
 10
22.79194213867197
 20
12.3063186035156
 30
0.0
  0
SPLINE
  5
DC
330
68
100
AcDbEntity
  8
0
  6
SLD-Durchgehend
 62
     8
420
  8421504
370
     0
100
AcDbSpline
210
0.0
220
0.0
230
1.0
 70
     8
 71
     3
 72
     8
 73
     4
 74
     0
 42
0.00000001
 43
0.00000001
 40
8.0
 40
8.0
 40
8.0
 40
8.0
 40
9.0
 40
9.0
 40
9.0
 40
9.0
 10
51.56573620605479
 20
0.0640891113281444
 30
0.0
 10
54.16577905273445
 20
0.0640891113281444
 30
0.0
 10
56.39882104492205
 20
1.573206298828109
 30
0.0
 10
57.25938867187514
 20
4.366524169921851
 30
0.0
  0
SPLINE
  5
DD
330
68
100
AcDbEntity
  8
0
  6
SLD-Durchgehend
 62
     8
420
  8421504
370
     0
100
AcDbSpline
210
0.0
220
0.0
230
1.0
 70
     8
 71
     3
 72
     8
 73
     4
 74
     0
 42
0.00000001
 43
0.00000001
 40
8.0
 40
8.0
 40
8.0
 40
8.0
 40
9.0
 40
9.0
 40
9.0
 40
9.0
 10
77.28824365234377
 20
14.14837670898438
 30
0.0
 10
77.23947143554705
 20
14.14837670898438
 30
0.0
 10
77.19876074218762
 20
14.1451520996094
 30
0.0
 10
77.16329003906259
 20
14.1451520996094
 30
0.0
  0
SPLINE
  5
DE
330
68
100
AcDbEntity
  8
0
  6
SLD-Durchgehend
 62
     8
420
  8421504
370
     0
100
AcDbSpline
210
0.0
220
0.0
230
1.0
 70
     8
 71
     3
 72
     8
 73
     4
 74
     0
 42
0.00000001
 43
0.00000001
 40
20.0
 40
20.0
 40
20.0
 40
20.0
 40
21.0
 40
21.0
 40
21.0
 40
21.0
 10
125.3054987792969
 20
2.561549072265662
 30
0.0
 10
125.3022741699219
 20
1.667526123046867
 30
0.0
 10
125.5912797851564
 20
1.080244140624964
 30
0.0
 10
126.0576389160157
 20
0.7464970703124768
 30
0.0
  0
SPLINE
  5
DF
330
68
100
AcDbEntity
  8
0
  6
SLD-Durchgehend
 62
     8
420
  8421504
370
     0
100
AcDbSpline
210
0.0
220
0.0
230
1.0
 70
     8
 71
     3
 72
     8
 73
     4
 74
     0
 42
0.00000001
 43
0.00000001
 40
2.0
 40
2.0
 40
2.0
 40
2.0
 40
3.0
 40
3.0
 40
3.0
 40
3.0
 10
16.68815966796883
 20
7.124774414062535
 30
0.0
 10
16.68775659179697
 20
4.850215576171879
 30
0.0
 10
17.36210302734384
 20
3.08151733398436
 30
0.0
 10
18.46915173339847
 20
1.882365722656265
 30
0.0
  0
SPLINE
  5
E0
330
68
100
AcDbEntity
  8
0
  6
SLD-Durchgehend
 62
     8
420
  8421504
370
     0
100
AcDbSpline
210
0.0
220
0.0
230
1.0
 70
     8
 71
     3
 72
     8
 73
     4
 74
     0
 42
0.00000001
 43
0.00000001
 40
8.0
 40
8.0
 40
8.0
 40
8.0
 40
9.0
 40
9.0
 40
9.0
 40
9.0
 10
90.14113354492193
 20
14.1844520263672
 30
0.0
 10
86.27522998046882
 20
14.19392431640624
 30
0.0
 10
83.6979609375001
 20
11.32039428710939
 30
0.0
 10
83.65563793945324
 20
7.126386718750003
 30
0.0
  0
SPLINE
  5
E1
330
68
100
AcDbEntity
  8
0
  6
SLD-Durchgehend
 62
     8
420
  8421504
370
     0
100
AcDbSpline
210
0.0
220
0.0
230
1.0
 70
     8
 71
     3
 72
     8
 73
     4
 74
     0
 42
0.00000001
 43
0.00000001
 40
14.0
 40
14.0
 40
14.0
 40
14.0
 40
15.0
 40
15.0
 40
15.0
 40
15.0
 10
51.44481335449225
 20
1.943633300781247
 30
0.0
 10
48.65391394042981
 20
1.971848632812495
 30
0.0
 10
47.46282385253914
 20
3.952161865234435
 30
0.0
 10
47.44448388671888
 20
6.82407958984374
 30
0.0
  0
SPLINE
  5
E2
330
68
100
AcDbEntity
  8
0
  6
SLD-Durchgehend
 62
     8
420
  8421504
370
     0
100
AcDbSpline
210
0.0
220
0.0
230
1.0
 70
     8
 71
     3
 72
     8
 73
     4
 74
     0
 42
0.00000001
 43
0.00000001
 40
2.0
 40
2.0
 40
2.0
 40
2.0
 40
3.0
 40
3.0
 40
3.0
 40
3.0
 10
47.01883544921889
 20
12.36597387695311
 30
0.0
 10
45.91178674316418
 20
11.16803149414067
 30
0.0
 10
45.23623107910166
 20
9.398325561523466
 30
0.0
 10
45.23744030761731
 20
7.123162109374984
 30
0.0
  0
SPLINE
  5
E3
330
68
100
AcDbEntity
  8
0
  6
SLD-Durchgehend
 62
     8
420
  8421504
370
     0
100
AcDbSpline
210
0.0
220
0.0
230
1.0
 70
     8
 71
     3
 72
     8
 73
     4
 74
     0
 42
0.00000001
 43
0.00000001
 40
3.0
 40
3.0
 40
3.0
 40
3.0
 40
4.0
 40
4.0
 40
4.0
 40
4.0
 10
8.346095214843864
 20
1.83762426757815
 30
0.0
 10
8.626233154296974
 20
1.777968994140594
 30
0.0
 10
8.91806030273451
 20
1.748141357421878
 30
0.0
 10
9.218755126953221
 20
1.746932128906226
 30
0.0
  0
SPLINE
  5
E4
330
68
100
AcDbEntity
  8
0
  6
SLD-Durchgehend
 62
     8
420
  8421504
370
     0
100
AcDbSpline
210
0.0
220
0.0
230
1.0
 70
     8
 71
     3
 72
     8
 73
     4
 74
     0
 42
0.00000001
 43
0.00000001
 40
2.0
 40
2.0
 40
2.0
 40
2.0
 40
3.0
 40
3.0
 40
3.0
 40
3.0
 10
74.56143334960952
 20
10.30988232421881
 30
0.0
 10
74.58843945312516
 20
11.50318933105469
 30
0.0
 10
75.02577709960939
 20
12.31659704589844
 30
0.0
 10
77.19876074218762
 20
12.42099377441407
 30
0.0
  0
SPLINE
  5
E5
330
68
100
AcDbEntity
  8
0
  6
SLD-Durchgehend
 62
     8
420
  8421504
370
     0
100
AcDbSpline
210
0.0
220
0.0
230
1.0
 70
     8
 71
     3
 72
     8
 73
     4
 74
     0
 42
0.00000001
 43
0.00000001
 40
3.0
 40
3.0
 40
3.0
 40
3.0
 40
4.0
 40
4.0
 40
4.0
 40
4.0
 10
26.9079544677735
 20
7.124774414062535
 30
0.0
 10
26.89727294921884
 20
3.796574462890612
 30
0.0
 10
25.11789318847662
 20
1.949276367187489
 30
0.0
 10
22.79194213867197
 20
1.94202099609378
 30
0.0
  0
SPLINE
  5
E6
330
68
100
AcDbEntity
  8
0
  6
SLD-Durchgehend
 62
     8
420
  8421504
370
     0
100
AcDbSpline
210
0.0
220
0.0
230
1.0
 70
     8
 71
     3
 72
     8
 73
     4
 74
     0
 42
0.00000001
 43
0.00000001
 40
0.0
 40
0.0
 40
0.0
 40
0.0
 40
1.0
 40
1.0
 40
1.0
 40
1.0
 10
93.31858300781259
 20
3.974734130859359
 30
0.0
 10
92.76032250976573
 20
2.823145507812458
 30
0.0
 10
91.74537670898452
 20
1.950082519531285
 30
0.0
 10
89.75982348632816
 20
1.94202099609378
 30
0.0
  0
SPLINE
  5
E7
330
68
100
AcDbEntity
  8
0
  6
SLD-Durchgehend
 62
     8
420
  8421504
370
     0
100
AcDbSpline
210
0.0
220
0.0
230
1.0
 70
     8
 71
     3
 72
     8
 73
     4
 74
     0
 42
0.00000001
 43
0.00000001
 40
0.0
 40
0.0
 40
0.0
 40
0.0
 40
1.0
 40
1.0
 40
1.0
 40
1.0
 10
22.79194213867197
 20
1.94202099609378
 30
0.0
 10
20.46699877929692
 20
1.949276367187489
 30
0.0
 10
18.68782055664076
 20
3.796574462890612
 30
0.0
 10
18.67572827148448
 20
7.124774414062535
 30
0.0
  0
SPLINE
  5
E8
330
68
100
AcDbEntity
  8
0
  6
SLD-Durchgehend
 62
     8
420
  8421504
370
     0
100
AcDbSpline
210
0.0
220
0.0
230
1.0
 70
     8
 71
     3
 72
     8
 73
     4
 74
     0
 42
0.00000001
 43
0.00000001
 40
7.0
 40
7.0
 40
7.0
 40
7.0
 40
8.0
 40
8.0
 40
8.0
 40
8.0
 10
42.94776611328133
 20
5.128338134765584
 30
0.0
 10
43.07171203613292
 20
5.787770751953136
 30
0.0
 10
43.11564733886728
 20
6.527415527343802
 30
0.0
 10
43.11564733886728
 20
6.90469482421871
 30
0.0
  0
SPLINE
  5
E9
330
68
100
AcDbEntity
  8
0
  6
SLD-Durchgehend
 62
     8
420
  8421504
370
     0
100
AcDbSpline
210
0.0
220
0.0
230
1.0
 70
     8
 71
     3
 72
     8
 73
     4
 74
     0
 42
0.00000001
 43
0.00000001
 40
7.0
 40
7.0
 40
7.0
 40
7.0
 40
8.0
 40
8.0
 40
8.0
 40
8.0
 10
81.77609375000006
 20
11.12953771972654
 30
0.0
 10
80.90907690429694
 20
13.09614636230473
 30
0.0
 10
79.21656005859384
 20
14.15139978027342
 30
0.0
 10
77.28824365234377
 20
14.14837670898438
 30
0.0
  0
SPLINE
  5
EA
330
68
100
AcDbEntity
  8
0
  6
SLD-Durchgehend
 62
     8
420
  8421504
370
     0
100
AcDbSpline
210
0.0
220
0.0
230
1.0
 70
     8
 71
     3
 72
     8
 73
     4
 74
     0
 42
0.00000001
 43
0.00000001
 40
1.0
 40
1.0
 40
1.0
 40
1.0
 40
2.0
 40
2.0
 40
2.0
 40
2.0
 10
18.46915173339847
 20
12.36597387695311
 30
0.0
 10
17.36210302734384
 20
11.16803149414067
 30
0.0
 10
16.68775659179697
 20
9.398325561523466
 30
0.0
 10
16.68815966796883
 20
7.124774414062535
 30
0.0
  0
SPLINE
  5
EB
330
68
100
AcDbEntity
  8
0
  6
SLD-Durchgehend
 62
     8
420
  8421504
370
     0
100
AcDbSpline
210
0.0
220
0.0
230
1.0
 70
     8
 71
     3
 72
     8
 73
     4
 74
     0
 42
0.00000001
 43
0.00000001
 40
0.0
 40
0.0
 40
0.0
 40
0.0
 40
1.0
 40
1.0
 40
1.0
 40
1.0
 10
78.3064140625
 20
8.12561254882814
 30
0.0
 10
77.3321789550782
 20
8.350125976562511
 30
0.0
 10
76.36640844726567
 20
8.515790283203122
 30
0.0
 10
75.67029589843754
 20
8.825352783203094
 30
0.0
  0
SPLINE
  5
EC
330
68
100
AcDbEntity
  8
0
  6
SLD-Durchgehend
 62
     8
420
  8421504
370
     0
100
AcDbSpline
210
0.0
220
0.0
230
1.0
 70
     8
 71
     3
 72
     8
 73
     4
 74
     0
 42
0.00000001
 43
0.00000001
 40
7.0
 40
7.0
 40
7.0
 40
7.0
 40
8.0
 40
8.0
 40
8.0
 40
8.0
 10
102.3511169433595
 20
12.30631860351568
 30
0.0
 10
104.3729470214845
 20
12.27266174316412
 30
0.0
 10
105.3395236816407
 20
11.55579077148439
 30
0.0
 10
105.3725759277345
 20
8.956352539062545
 30
0.0
  0
SPLINE
  5
ED
330
68
100
AcDbEntity
  8
0
  6
SLD-Durchgehend
 62
     8
420
  8421504
370
     0
100
AcDbSpline
210
0.0
220
0.0
230
1.0
 70
     8
 71
     3
 72
     8
 73
     4
 74
     0
 42
0.00000001
 43
0.00000001
 40
4.0
 40
4.0
 40
4.0
 40
4.0
 40
5.0
 40
5.0
 40
5.0
 40
5.0
 10
9.218755126953221
 20
1.746932128906226
 30
0.0
 10
11.61161682128922
 20
1.752978271484365
 30
0.0
 10
13.4401718750001
 20
3.655497802734373
 30
0.0
 10
13.45266723632824
 20
7.076808349609401
 30
0.0
  0
SPLINE
  5
EE
330
68
100
AcDbEntity
  8
0
  6
SLD-Durchgehend
 62
     8
420
  8421504
370
     0
100
AcDbSpline
210
0.0
220
0.0
230
1.0
 70
     8
 71
     3
 72
     8
 73
     4
 74
     0
 42
0.00000001
 43
0.00000001
 40
4.0
 40
4.0
 40
4.0
 40
4.0
 40
5.0
 40
5.0
 40
5.0
 40
5.0
 10
47.01883544921889
 20
1.882365722656265
 30
0.0
 10
48.12507800292981
 20
0.6844233398437399
 30
0.0
 10
49.65958898925798
 20
0.0632829589843897
 30
0.0
 10
51.34081970214852
 20
0.0640891113281444
 30
0.0
  0
SPLINE
  5
EF
330
68
100
AcDbEntity
  8
0
  6
SLD-Durchgehend
 62
     8
420
  8421504
370
     0
100
AcDbSpline
210
0.0
220
0.0
230
1.0
 70
     8
 71
     3
 72
     8
 73
     4
 74
     0
 42
0.00000001
 43
0.00000001
 40
1.0
 40
1.0
 40
1.0
 40
1.0
 40
2.0
 40
2.0
 40
2.0
 40
2.0
 10
37.01529101562512
 20
14.18586279296878
 30
0.0
 10
35.33285107421885
 20
14.18586279296878
 30
0.0
 10
33.79874316406261
 20
13.56653625488287
 30
0.0
 10
32.69229907226573
 20
12.36597387695311
 30
0.0
  0
SPLINE
  5
F0
330
68
100
AcDbEntity
  8
0
  6
SLD-Durchgehend
 62
     8
420
  8421504
370
     0
100
AcDbSpline
210
0.0
220
0.0
230
1.0
 70
     8
 71
     3
 72
     8
 73
     4
 74
     0
 42
0.00000001
 43
0.00000001
 40
1.0
 40
1.0
 40
1.0
 40
1.0
 40
2.0
 40
2.0
 40
2.0
 40
2.0
 10
89.75982348632816
 20
1.94202099609378
 30
0.0
 10
87.78273486328136
 20
1.948470214843776
 30
0.0
 10
85.65046191406256
 20
3.591811767578085
 30
0.0
 10
85.64360961914075
 20
7.124774414062535
 30
0.0
  0
SPLINE
  5
F1
330
68
100
AcDbEntity
  8
0
  6
SLD-Durchgehend
 62
     8
420
  8421504
370
     0
100
AcDbSpline
210
0.0
220
0.0
230
1.0
 70
    24
 71
     2
 72
     6
 73
     3
 74
     0
 42
0.00000001
 43
0.00000001
 40
24.0
 40
24.0
 40
24.0
 40
25.0
 40
25.0
 40
25.0
 10
129.4745156250001
 20
2.02142700195318
 30
0.0
 10
128.829996826172
 20
2.02142700195318
 30
0.0
 10
128.0770505371095
 20
2.02142700195318
 30
0.0
  0
SPLINE
  5
F2
330
68
100
AcDbEntity
  8
0
  6
SLD-Durchgehend
 62
     8
420
  8421504
370
     0
100
AcDbSpline
210
0.0
220
0.0
230
1.0
 70
     8
 71
     3
 72
     8
 73
     4
 74
     0
 42
0.00000001
 43
0.00000001
 40
7.0
 40
7.0
 40
7.0
 40
7.0
 40
8.0
 40
8.0
 40
8.0
 40
8.0
 10
6.840202636718917
 20
0.0266030273437384
 30
0.0
 10
4.205293701171953
 20
0.694097167968713
 30
0.0
 10
2.243723510742257
 20
3.060960449218802
 30
0.0
 10
2.18185131835949
 20
6.854713378906252
 30
0.0
  0
SPLINE
  5
F3
330
68
100
AcDbEntity
  8
0
  6
SLD-Durchgehend
 62
     8
420
  8421504
370
     0
100
AcDbSpline
210
0.0
220
0.0
230
1.0
 70
     8
 71
     3
 72
     8
 73
     4
 74
     0
 42
0.00000001
 43
0.00000001
 40
12.0
 40
12.0
 40
12.0
 40
12.0
 40
13.0
 40
13.0
 40
13.0
 40
13.0
 10
69.11849426269534
 20
12.86216064453127
 30
0.0
 10
68.32866650390629
 20
13.70862060546875
 30
0.0
 10
67.11641491699227
 20
14.18666894531249
 30
0.0
 10
65.47327490234389
 20
14.1844520263672
 30
0.0
  0
SPLINE
  5
F4
330
68
100
AcDbEntity
  8
0
  6
SLD-Durchgehend
 62
     8
420
  8421504
370
     0
100
AcDbSpline
210
0.0
220
0.0
230
1.0
 70
     8
 71
     3
 72
     8
 73
     4
 74
     0
 42
0.00000001
 43
0.00000001
 40
3.0
 40
3.0
 40
3.0
 40
3.0
 40
4.0
 40
4.0
 40
4.0
 40
4.0
 10
45.23744030761731
 20
7.123162109374984
 30
0.0
 10
45.23623107910166
 20
4.850215576171879
 30
0.0
 10
45.91178674316418
 20
3.08151733398436
 30
0.0
 10
47.01883544921889
 20
1.882365722656265
 30
0.0
  0
SPLINE
  5
F5
330
68
100
AcDbEntity
  8
0
  6
SLD-Durchgehend
 62
     8
420
  8421504
370
     0
100
AcDbSpline
210
0.0
220
0.0
230
1.0
 70
     8
 71
     3
 72
     8
 73
     4
 74
     0
 42
0.00000001
 43
0.00000001
 40
0.0
 40
0.0
 40
0.0
 40
0.0
 40
1.0
 40
1.0
 40
1.0
 40
1.0
 10
37.01529101562503
 20
1.942827148437555
 30
0.0
 10
34.68873535156256
 20
1.949276367187509
 30
0.0
 10
32.91036328125011
 20
3.796574462890653
 30
0.0
 10
32.89907714843754
 20
7.124774414062535
 30
0.0
  0
SPLINE
  5
F6
330
68
100
AcDbEntity
  8
0
  6
SLD-Durchgehend
 62
     8
420
  8421504
370
     0
100
AcDbSpline
210
0.0
220
0.0
230
1.0
 70
     8
 71
     3
 72
     8
 73
     4
 74
     0
 42
0.00000001
 43
0.00000001
 40
1.0
 40
1.0
 40
1.0
 40
1.0
 40
2.0
 40
2.0
 40
2.0
 40
2.0
 10
32.89907714843762
 20
7.124774414062514
 30
0.0
 10
32.90975866699236
 20
10.42616979980477
 30
0.0
 10
34.6899445800782
 20
12.30087707519539
 30
0.0
 10
37.01529101562512
 20
12.30631860351568
 30
0.0
  0
SPLINE
  5
F7
330
68
100
AcDbEntity
  8
0
  6
SLD-Durchgehend
 62
     8
420
  8421504
370
     0
100
AcDbSpline
210
0.0
220
0.0
230
1.0
 70
     8
 71
     3
 72
     8
 73
     4
 74
     0
 42
0.00000001
 43
0.00000001
 40
0.0
 40
0.0
 40
0.0
 40
0.0
 40
1.0
 40
1.0
 40
1.0
 40
1.0
 10
22.79194213867197
 20
14.1844520263672
 30
0.0
 10
21.1103083496095
 20
14.18586279296878
 30
0.0
 10
19.57539428710947
 20
13.56653625488287
 30
0.0
 10
18.46915173339847
 20
12.36597387695311
 30
0.0
  0
SPLINE
  5
F8
330
68
100
AcDbEntity
  8
0
  6
SLD-Durchgehend
 62
     8
420
  8421504
370
     0
100
AcDbSpline
210
0.0
220
0.0
230
1.0
 70
     8
 71
     3
 72
     8
 73
     4
 74
     0
 42
0.00000001
 43
0.00000001
 40
8.0
 40
8.0
 40
8.0
 40
8.0
 40
9.0
 40
9.0
 40
9.0
 40
9.0
 10
119.4020451660157
 20
12.60640881347656
 30
0.0
 10
118.3193825683594
 20
13.64412841796875
 30
0.0
 10
116.8892683105469
 20
14.18586279296878
 30
0.0
 10
115.3273481445314
 20
14.1844520263672
 30
0.0
  0
SPLINE
  5
F9
330
68
100
AcDbEntity
  8
0
  6
SLD-Durchgehend
 62
     8
420
  8421504
370
     0
100
AcDbSpline
210
0.0
220
0.0
230
1.0
 70
     8
 71
     3
 72
     8
 73
     4
 74
     0
 42
0.00000001
 43
0.00000001
 40
9.0
 40
9.0
 40
9.0
 40
9.0
 40
10.0
 40
10.0
 40
10.0
 40
10.0
 10
115.3273481445314
 20
14.1844520263672
 30
0.0
 10
113.6457143554687
 20
14.18586279296878
 30
0.0
 10
112.1108002929688
 20
13.56653625488287
 30
0.0
 10
111.0039531250001
 20
12.36597387695311
 30
0.0
  0
SPLINE
  5
FA
330
68
100
AcDbEntity
  8
0
  6
SLD-Durchgehend
 62
     8
420
  8421504
370
     0
100
AcDbSpline
210
0.0
220
0.0
230
1.0
 70
     8
 71
     3
 72
     8
 73
     4
 74
     0
 42
0.00000001
 43
0.00000001
 40
0.0
 40
0.0
 40
0.0
 40
0.0
 40
1.0
 40
1.0
 40
1.0
 40
1.0
 10
9.218755126953221
 20
12.40527380371095
 30
0.0
 10
8.916447998047
 20
12.4044676513672
 30
0.0
 10
8.6236131591797
 20
12.3732292480469
 30
0.0
 10
8.342064453125131
 20
12.31276782226568
 30
0.0
  0
SPLINE
  5
FB
330
68
100
AcDbEntity
  8
0
  6
SLD-Durchgehend
 62
     8
420
  8421504
370
     0
100
AcDbSpline
210
0.0
220
0.0
230
1.0
 70
     8
 71
     3
 72
     8
 73
     4
 74
     0
 42
0.00000001
 43
0.00000001
 40
8.0
 40
8.0
 40
8.0
 40
8.0
 40
9.0
 40
9.0
 40
9.0
 40
9.0
 10
27.11513562011725
 20
12.36597387695311
 30
0.0
 10
26.00788537597665
 20
13.56653625488287
 30
0.0
 10
24.47377746582041
 20
14.18586279296878
 30
0.0
 10
22.79194213867197
 20
14.1844520263672
 30
0.0
  0
SPLINE
  5
FC
330
68
100
AcDbEntity
  8
0
  6
SLD-Durchgehend
 62
     8
420
  8421504
370
     0
100
AcDbSpline
210
0.0
220
0.0
230
1.0
 70
     8
 71
     3
 72
     8
 73
     4
 74
     0
 42
0.00000001
 43
0.00000001
 40
3.0
 40
3.0
 40
3.0
 40
3.0
 40
4.0
 40
4.0
 40
4.0
 40
4.0
 10
115.3273481445314
 20
12.30631860351568
 30
0.0
 10
117.6506791992189
 20
12.30087707519541
 30
0.0
 10
119.4318728027344
 20
10.42616979980475
 30
0.0
 10
119.4439650878906
 20
7.124774414062535
 30
0.0
  0
SPLINE
  5
FD
330
68
100
AcDbEntity
  8
0
  6
SLD-Durchgehend
 62
     8
420
  8421504
370
     0
100
AcDbSpline
210
0.0
220
0.0
230
1.0
 70
     8
 71
     3
 72
     8
 73
     4
 74
     0
 42
0.00000001
 43
0.00000001
 40
2.0
 40
2.0
 40
2.0
 40
2.0
 40
3.0
 40
3.0
 40
3.0
 40
3.0
 10
32.69229907226573
 20
12.36597387695311
 30
0.0
 10
31.5844442138673
 20
11.16803149414067
 30
0.0
 10
30.91029931640632
 20
9.398325561523466
 30
0.0
 10
30.91029931640632
 20
7.124774414062535
 30
0.0
  0
SPLINE
  5
FE
330
68
100
AcDbEntity
  8
0
  6
SLD-Durchgehend
 62
     8
420
  8421504
370
     0
100
AcDbSpline
210
0.0
220
0.0
230
1.0
 70
     8
 71
     3
 72
     8
 73
     4
 74
     0
 42
0.00000001
 43
0.00000001
 40
4.0
 40
4.0
 40
4.0
 40
4.0
 40
5.0
 40
5.0
 40
5.0
 40
5.0
 10
119.4439650878906
 20
7.124774414062535
 30
0.0
 10
119.4318728027344
 20
3.796574462890612
 30
0.0
 10
117.6522915039063
 20
1.949276367187489
 30
0.0
 10
115.3273481445314
 20
1.942827148437534
 30
0.0
  0
SPLINE
  5
FF
330
68
100
AcDbEntity
  8
0
  6
SLD-Durchgehend
 62
     8
420
  8421504
370
     0
100
AcDbSpline
210
0.0
220
0.0
230
1.0
 70
     8
 71
     3
 72
     8
 73
     4
 74
     0
 42
0.00000001
 43
0.00000001
 40
5.0
 40
5.0
 40
5.0
 40
5.0
 40
6.0
 40
6.0
 40
6.0
 40
6.0
 10
22.79758520507813
 20
0.0640891113281444
 30
0.0
 10
24.47720361328132
 20
0.0640891113281444
 30
0.0
 10
26.00848999023447
 20
0.6844233398437399
 30
0.0
 10
27.11513562011725
 20
1.882365722656265
 30
0.0
  0
SPLINE
  5
100
330
68
100
AcDbEntity
  8
0
  6
SLD-Durchgehend
 62
     8
420
  8421504
370
     0
100
AcDbSpline
210
0.0
220
0.0
230
1.0
 70
     8
 71
     3
 72
     8
 73
     4
 74
     0
 42
0.00000001
 43
0.00000001
 40
0.0
 40
0.0
 40
0.0
 40
0.0
 40
1.0
 40
1.0
 40
1.0
 40
1.0
 10
102.5695842285158
 20
14.18586279296878
 30
0.0
 10
101.1539807128907
 20
14.18828125000005
 30
0.0
 10
99.68033422851575
 20
13.67637451171877
 30
0.0
 10
98.78066821289066
 20
12.30329553222659
 30
0.0
  0
SPLINE
  5
101
330
68
100
AcDbEntity
  8
0
  6
SLD-Durchgehend
 62
     8
420
  8421504
370
     0
100
AcDbSpline
210
0.0
220
0.0
230
1.0
 70
     8
 71
     3
 72
     8
 73
     4
 74
     0
 42
0.00000001
 43
0.00000001
 40
5.0
 40
5.0
 40
5.0
 40
5.0
 40
6.0
 40
6.0
 40
6.0
 40
6.0
 10
51.34081970214852
 20
0.0640891113281444
 30
0.0
 10
51.38515808105482
 20
0.0640891113281444
 30
0.0
 10
51.41780725097661
 20
0.0665075683593669
 30
0.0
 10
51.4442087402345
 20
0.0665075683593669
 30
0.0
  0
SPLINE
  5
102
330
68
100
AcDbEntity
  8
0
  6
SLD-Durchgehend
 62
     8
420
  8421504
370
     0
100
AcDbSpline
210
0.0
220
0.0
230
1.0
 70
     8
 71
     3
 72
     8
 73
     4
 74
     0
 42
0.00000001
 43
0.00000001
 40
3.0
 40
3.0
 40
3.0
 40
3.0
 40
4.0
 40
4.0
 40
4.0
 40
4.0
 10
18.46915173339847
 20
1.882365722656265
 30
0.0
 10
19.57539428710947
 20
0.6844233398437399
 30
0.0
 10
21.1103083496095
 20
0.0632829589843897
 30
0.0
 10
22.79194213867197
 20
0.0640891113281444
 30
0.0
  0
SPLINE
  5
103
330
68
100
AcDbEntity
  8
0
  6
SLD-Durchgehend
 62
     8
420
  8421504
370
     0
100
AcDbSpline
210
0.0
220
0.0
230
1.0
 70
     8
 71
     3
 72
     8
 73
     4
 74
     0
 42
0.00000001
 43
0.00000001
 40
16.0
 40
16.0
 40
16.0
 40
16.0
 40
17.0
 40
17.0
 40
17.0
 40
17.0
 10
77.37611425781266
 20
1.74048291015623
 30
0.0
 10
76.24347021484384
 20
1.764667480468746
 30
0.0
 10
74.62189477539066
 20
2.146380615234408
 30
0.0
 10
74.08096655273438
 20
4.008592529296889
 30
0.0
  0
SPLINE
  5
104
330
68
100
AcDbEntity
  8
0
  6
SLD-Durchgehend
 62
     8
420
  8421504
370
     0
100
AcDbSpline
210
0.0
220
0.0
230
1.0
 70
     8
 71
     3
 72
     8
 73
     4
 74
     0
 42
0.00000001
 43
0.00000001
 40
2.0
 40
2.0
 40
2.0
 40
2.0
 40
3.0
 40
3.0
 40
3.0
 40
3.0
 10
37.01529101562512
 20
12.30631860351568
 30
0.0
 10
39.33902514648444
 20
12.30087707519541
 30
0.0
 10
41.13090026855479
 20
10.63093249511715
 30
0.0
 10
41.13090026855479
 20
7.124774414062535
 30
0.0
  0
SPLINE
  5
105
330
68
100
AcDbEntity
  8
0
  6
SLD-Durchgehend
 62
     8
420
  8421504
370
     0
100
AcDbSpline
210
0.0
220
0.0
230
1.0
 70
     8
 71
     3
 72
     8
 73
     4
 74
     0
 42
0.00000001
 43
0.00000001
 40
6.0
 40
6.0
 40
6.0
 40
6.0
 40
7.0
 40
7.0
 40
7.0
 40
7.0
 10
61.6843588867188
 20
8.216707763671838
 30
0.0
 10
61.69846655273453
 20
11.09265625000004
 30
0.0
 10
63.36720190429701
 20
12.29221093750003
 30
0.0
 10
65.25420300292967
 20
12.30631860351568
 30
0.0
  0
SPLINE
  5
106
330
68
100
AcDbEntity
  8
0
  6
SLD-Durchgehend
 62
     8
420
  8421504
370
     0
100
AcDbSpline
210
0.0
220
0.0
230
1.0
 70
     8
 71
     3
 72
     8
 73
     4
 74
     0
 42
0.00000001
 43
0.00000001
 40
14.0
 40
14.0
 40
14.0
 40
14.0
 40
15.0
 40
15.0
 40
15.0
 40
15.0
 10
115.3305727539063
 20
0.0640891113281444
 30
0.0
 10
116.9448928222657
 20
0.0640891113281444
 30
0.0
 10
118.4185393066407
 20
0.6429064941406021
 30
0.0
 10
119.5128911132813
 20
1.749753662109388
 30
0.0
  0
SPLINE
  5
107
330
68
100
AcDbEntity
  8
0
  6
SLD-Durchgehend
 62
     8
420
  8421504
370
     0
100
AcDbSpline
210
0.0
220
0.0
230
1.0
 70
     8
 71
     3
 72
     8
 73
     4
 74
     0
 42
0.00000001
 43
0.00000001
 40
25.0
 40
25.0
 40
25.0
 40
25.0
 40
26.0
 40
26.0
 40
26.0
 40
26.0
 10
128.0770505371095
 20
2.02142700195318
 30
0.0
 10
127.6638974609375
 20
2.032310058593847
 30
0.0
 10
127.5280607910157
 20
2.166937500000091
 30
0.0
 10
127.4135871582032
 20
2.443850830078101
 30
0.0
  0
SPLINE
  5
108
330
68
100
AcDbEntity
  8
0
  6
SLD-Durchgehend
 62
     8
420
  8421504
370
     0
100
AcDbSpline
210
0.0
220
0.0
230
1.0
 70
     8
 71
     3
 72
     8
 73
     4
 74
     0
 42
0.00000001
 43
0.00000001
 40
11.0
 40
11.0
 40
11.0
 40
11.0
 40
12.0
 40
12.0
 40
12.0
 40
12.0
 10
109.2223564453125
 20
7.124774414062535
 30
0.0
 10
109.2223564453125
 20
4.850215576171879
 30
0.0
 10
109.8983151855469
 20
3.08151733398436
 30
0.0
 10
111.0039531250001
 20
1.882365722656265
 30
0.0
  0
SPLINE
  5
109
330
68
100
AcDbEntity
  8
0
  6
SLD-Durchgehend
 62
     8
420
  8421504
370
     0
100
AcDbSpline
210
0.0
220
0.0
230
1.0
 70
     8
 71
     3
 72
     8
 73
     4
 74
     0
 42
0.00000001
 43
0.00000001
 40
11.0
 40
11.0
 40
11.0
 40
11.0
 40
12.0
 40
12.0
 40
12.0
 40
12.0
 10
89.79730957031256
 20
0.0640891113281444
 30
0.0
 10
92.6607626953126
 20
0.0640891113281444
 30
0.0
 10
94.47903930664076
 20
1.340631347656274
 30
0.0
 10
95.44763134765638
 20
3.836075927734384
 30
0.0
  0
SPLINE
  5
10A
330
68
100
AcDbEntity
  8
0
  6
SLD-Durchgehend
 62
     8
420
  8421504
370
     0
100
AcDbSpline
210
0.0
220
0.0
230
1.0
 70
     8
 71
     2
 72
     6
 73
     3
 74
     0
 42
0.00000001
 43
0.00000001
 40
22.0
 40
22.0
 40
22.0
 40
23.0
 40
23.0
 40
23.0
 10
127.7211342773438
 20
0.3297163085937554
 30
0.0
 10
127.8311740722657
 20
0.3297163085937554
 30
0.0
 10
129.4745156250001
 20
0.3289101562500008
 30
0.0
  0
SPLINE
  5
10B
330
68
100
AcDbEntity
  8
0
  6
SLD-Durchgehend
 62
     8
420
  8421504
370
     0
100
AcDbSpline
210
0.0
220
0.0
230
1.0
 70
     8
 71
     3
 72
     8
 73
     4
 74
     0
 42
0.00000001
 43
0.00000001
 40
22.0
 40
22.0
 40
22.0
 40
22.0
 40
23.0
 40
23.0
 40
23.0
 40
23.0
 10
77.38417578125012
 20
0.0358737792968966
 30
0.0
 10
80.52615454101574
 20
0.1443012695312162
 30
0.0
 10
82.32790502929704
 20
1.998048583984419
 30
0.0
 10
82.32306811523443
 20
4.188364501953146
 30
0.0
  0
SPLINE
  5
10C
330
68
100
AcDbEntity
  8
0
  6
SLD-Durchgehend
 62
     8
420
  8421504
370
     0
100
AcDbSpline
210
0.0
220
0.0
230
1.0
 70
     8
 71
     3
 72
     8
 73
     4
 74
     0
 42
0.00000001
 43
0.00000001
 40
2.0
 40
2.0
 40
2.0
 40
2.0
 40
3.0
 40
3.0
 40
3.0
 40
3.0
 10
22.79194213867197
 20
12.3063186035156
 30
0.0
 10
25.11668395996105
 20
12.30087707519541
 30
0.0
 10
26.89727294921884
 20
10.42616979980475
 30
0.0
 10
26.9079544677735
 20
7.124774414062535
 30
0.0
  0
SPLINE
  5
10D
330
68
100
AcDbEntity
  8
0
  6
SLD-Durchgehend
 62
     8
420
  8421504
370
     0
100
AcDbSpline
210
0.0
220
0.0
230
1.0
 70
     8
 71
     3
 72
     8
 73
     4
 74
     0
 42
0.00000001
 43
0.00000001
 40
6.0
 40
6.0
 40
6.0
 40
6.0
 40
7.0
 40
7.0
 40
7.0
 40
7.0
 10
98.78066821289066
 20
8.21832006835939
 30
0.0
 10
98.79477587890622
 20
11.09265625000004
 30
0.0
 10
100.4631081542969
 20
12.29221093750003
 30
0.0
 10
102.3511169433595
 20
12.30631860351568
 30
0.0
  0
SPLINE
  5
10E
330
68
100
AcDbEntity
  8
0
  6
SLD-Durchgehend
 62
     8
420
  8421504
370
     0
100
AcDbSpline
210
0.0
220
0.0
230
1.0
 70
     8
 71
     3
 72
     8
 73
     4
 74
     0
 42
0.00000001
 43
0.00000001
 40
11.0
 40
11.0
 40
11.0
 40
11.0
 40
12.0
 40
12.0
 40
12.0
 40
12.0
 10
76.99238574218758
 20
14.13971057128908
 30
0.0
 10
74.14948950195316
 20
14.05647534179688
 30
0.0
 10
72.56741552734391
 20
12.30007092285157
 30
0.0
 10
72.57386474609379
 20
10.36409606933597
 30
0.0
  0
SPLINE
  5
10F
330
68
100
AcDbEntity
  8
0
  6
SLD-Durchgehend
 62
     8
420
  8421504
370
     0
100
AcDbSpline
210
0.0
220
0.0
230
1.0
 70
     8
 71
     3
 72
     8
 73
     4
 74
     0
 42
0.00000001
 43
0.00000001
 40
4.0
 40
4.0
 40
4.0
 40
4.0
 40
5.0
 40
5.0
 40
5.0
 40
5.0
 10
32.69229907226573
 20
1.882365722656265
 30
0.0
 10
33.79874316406261
 20
0.6844233398437399
 30
0.0
 10
35.33285107421885
 20
0.0632829589843897
 30
0.0
 10
37.01529101562512
 20
0.0640891113281444
 30
0.0
  0
SPLINE
  5
110
330
68
100
AcDbEntity
  8
0
  6
SLD-Durchgehend
 62
     8
420
  8421504
370
     0
100
AcDbSpline
210
0.0
220
0.0
230
1.0
 70
     8
 71
     3
 72
     8
 73
     4
 74
     0
 42
0.00000001
 43
0.00000001
 40
26.0
 40
26.0
 40
26.0
 40
26.0
 40
27.0
 40
27.0
 40
27.0
 40
27.0
 10
127.4135871582032
 20
2.443850830078101
 30
0.0
 10
127.3051596679689
 20
2.724794921875009
 30
0.0
 10
127.2926643066407
 20
3.16535717773439
 30
0.0
 10
127.2934704589844
 20
3.65469165039066
 30
0.0
  0
SPLINE
  5
111
330
68
100
AcDbEntity
  8
0
  6
SLD-Durchgehend
 62
     8
420
  8421504
370
     0
100
AcDbSpline
210
0.0
220
0.0
230
1.0
 70
     8
 71
     3
 72
     8
 73
     4
 74
     0
 42
0.00000001
 43
0.00000001
 40
11.0
 40
11.0
 40
11.0
 40
11.0
 40
12.0
 40
12.0
 40
12.0
 40
12.0
 10
107.3625629882813
 20
9.447097778320312
 30
0.0
 10
107.3625629882813
 20
10.82803674316407
 30
0.0
 10
107.0062436523438
 20
12.01832067871095
 30
0.0
 10
106.2146020507813
 20
12.86216064453127
 30
0.0
  0
HATCH
  5
112
330
68
100
AcDbEntity
  8
0
  6
Continuous
 62
     7
100
AcDbHatch
 10
0.0
 20
0.0
 30
0.0
210
0.0
220
0.0
230
1.0
  2
SOLID
 70
     1
 71
     0
 91
        2
 92
        0
 93
       12
 72
     4
 94
        3
 73
     1
 74
     0
 95
        8
 96
        4
 40
4.0
 40
4.0
 40
4.0
 40
4.0
 40
5.0
 40
5.0
 40
5.0
 40
5.0
 10
32.69229907226573
 20
1.882365722656265
 42
1.0
 10
33.79874316406261
 20
0.6844233398437399
 42
1.0
 10
35.33285107421885
 20
0.0632829589843897
 42
1.0
 10
37.01529101562512
 20
0.0640891113281444
 42
1.0
 97
        0
 72
     1
 10
37.01529101562512
 20
0.0640891113281444
 11
37.03665405273443
 21
0.0640891113281444
 72
     4
 94
        3
 73
     1
 74
     0
 95
        8
 96
        4
 40
6.0
 40
6.0
 40
6.0
 40
6.0
 40
7.0
 40
7.0
 40
7.0
 40
7.0
 10
37.03665405273443
 20
0.0640891113281444
 42
1.0
 10
39.87874414062506
 20
0.0640891113281444
 42
1.0
 10
42.31614575195325
 20
1.766279785156255
 42
1.0
 10
42.94776611328133
 20
5.128338134765584
 42
1.0
 97
        0
 72
     4
 94
        3
 73
     1
 74
     0
 95
        8
 96
        4
 40
7.0
 40
7.0
 40
7.0
 40
7.0
 40
8.0
 40
8.0
 40
8.0
 40
8.0
 10
42.94776611328133
 20
5.128338134765584
 42
1.0
 10
43.07171203613292
 20
5.787770751953136
 42
1.0
 10
43.11564733886728
 20
6.527415527343802
 42
1.0
 10
43.11564733886728
 20
6.90469482421871
 42
1.0
 97
        0
 72
     1
 10
43.11564733886728
 20
6.90469482421871
 11
43.11927502441415
 21
6.90469482421871
 72
     1
 10
43.11927502441415
 20
6.90469482421871
 11
43.11927502441415
 21
17.41974291992195
 72
     1
 10
43.11927502441415
 20
17.41974291992195
 11
41.14420178222664
 21
17.41974291992195
 72
     1
 10
41.14420178222664
 20
17.41974291992195
 11
41.14420178222664
 21
12.35045544433597
 72
     4
 94
        3
 73
     1
 74
     0
 95
        8
 96
        4
 40
0.0
 40
0.0
 40
0.0
 40
0.0
 40
1.0
 40
1.0
 40
1.0
 40
1.0
 10
41.14420178222664
 20
12.35045544433597
 42
1.0
 10
40.18205895996105
 20
13.520988647461
 42
1.0
 10
38.6036126708986
 20
14.18586279296878
 42
1.0
 10
37.01529101562512
 20
14.18586279296878
 42
1.0
 97
        0
 72
     4
 94
        3
 73
     1
 74
     0
 95
        8
 96
        4
 40
1.0
 40
1.0
 40
1.0
 40
1.0
 40
2.0
 40
2.0
 40
2.0
 40
2.0
 10
37.01529101562512
 20
14.18586279296878
 42
1.0
 10
35.33285107421885
 20
14.18586279296878
 42
1.0
 10
33.79874316406261
 20
13.56653625488287
 42
1.0
 10
32.69229907226573
 20
12.36597387695311
 42
1.0
 97
        0
 72
     4
 94
        3
 73
     1
 74
     0
 95
        8
 96
        4
 40
2.0
 40
2.0
 40
2.0
 40
2.0
 40
3.0
 40
3.0
 40
3.0
 40
3.0
 10
32.69229907226573
 20
12.36597387695311
 42
1.0
 10
31.5844442138673
 20
11.16803149414067
 42
1.0
 10
30.91029931640632
 20
9.398325561523466
 42
1.0
 10
30.91029931640632
 20
7.124774414062535
 42
1.0
 97
        0
 72
     4
 94
        3
 73
     1
 74
     0
 95
        8
 96
        4
 40
3.0
 40
3.0
 40
3.0
 40
3.0
 40
4.0
 40
4.0
 40
4.0
 40
4.0
 10
30.91029931640632
 20
7.124774414062535
 42
1.0
 10
30.91029931640632
 20
4.850215576171879
 42
1.0
 10
31.5844442138673
 20
3.08151733398436
 42
1.0
 10
32.69229907226573
 20
1.882365722656265
 42
1.0
 97
        0
 97
        0
 92
        0
 93
        4
 72
     4
 94
        3
 73
     1
 74
     0
 95
        8
 96
        4
 40
1.0
 40
1.0
 40
1.0
 40
1.0
 40
2.0
 40
2.0
 40
2.0
 40
2.0
 10
32.89907714843762
 20
7.124774414062514
 42
1.0
 10
32.90975866699236
 20
10.42616979980477
 42
1.0
 10
34.6899445800782
 20
12.30087707519539
 42
1.0
 10
37.01529101562512
 20
12.30631860351568
 42
1.0
 97
        0
 72
     4
 94
        3
 73
     1
 74
     0
 95
        8
 96
        4
 40
2.0
 40
2.0
 40
2.0
 40
2.0
 40
3.0
 40
3.0
 40
3.0
 40
3.0
 10
37.01529101562512
 20
12.30631860351568
 42
1.0
 10
39.33902514648444
 20
12.30087707519541
 42
1.0
 10
41.13090026855479
 20
10.63093249511715
 42
1.0
 10
41.13090026855479
 20
7.124774414062535
 42
1.0
 97
        0
 72
     4
 94
        3
 73
     1
 74
     0
 95
        8
 96
        4
 40
3.0
 40
3.0
 40
3.0
 40
3.0
 40
4.0
 40
4.0
 40
4.0
 40
4.0
 10
41.13090026855479
 20
7.124774414062535
 42
1.0
 10
41.15165869140635
 20
3.503135009765651
 42
1.0
 10
39.34043591308606
 20
1.949276367187489
 42
1.0
 10
37.01529101562512
 20
1.942827148437534
 42
1.0
 97
        0
 72
     4
 94
        3
 73
     1
 74
     0
 95
        8
 96
        4
 40
0.0
 40
0.0
 40
0.0
 40
0.0
 40
1.0
 40
1.0
 40
1.0
 40
1.0
 10
37.01529101562503
 20
1.942827148437555
 42
1.0
 10
34.68873535156256
 20
1.949276367187509
 42
1.0
 10
32.91036328125011
 20
3.796574462890653
 42
1.0
 10
32.89907714843754
 20
7.124774414062535
 42
1.0
 97
        0
 97
        0
 75
     0
 76
     1
 98
        1
 10
0.0
 20
0.0
  0
HATCH
  5
113
330
68
100
AcDbEntity
  8
0
  6
Continuous
 62
     7
100
AcDbHatch
 10
0.0
 20
0.0
 30
0.0
210
0.0
220
0.0
230
1.0
  2
SOLID
 70
     1
 71
     0
 91
        1
 92
        0
 93
        8
 72
     4
 94
        3
 73
     1
 74
     0
 95
        8
 96
        4
 40
7.0
 40
7.0
 40
7.0
 40
7.0
 40
8.0
 40
8.0
 40
8.0
 40
8.0
 10
6.840202636718917
 20
0.0266030273437384
 42
1.0
 10
4.205293701171953
 20
0.694097167968713
 42
1.0
 10
2.243723510742257
 20
3.060960449218802
 42
1.0
 10
2.18185131835949
 20
6.854713378906252
 42
1.0
 97
        0
 72
     1
 10
2.18185131835949
 20
6.854713378906252
 11
2.178223632812615
 21
6.854713378906252
 72
     1
 10
2.178223632812615
 20
6.854713378906252
 11
2.178223632812615
 21
17.47718127441408
 72
     1
 10
2.178223632812615
 20
17.47718127441408
 11
0.0000000000000835
 21
17.47718127441408
 72
     1
 10
0.0000000000000833
 20
17.47718127441408
 11
0.0000000000000833
 21
7.028842285156268
 72
     1
 10
0.0000000000000833
 20
7.028842285156268
 11
0.0018138427734793
 21
7.028842285156268
 72
     4
 94
        3
 73
     1
 74
     0
 95
        8
 96
        4
 40
5.0
 40
5.0
 40
5.0
 40
5.0
 40
6.0
 40
6.0
 40
6.0
 40
6.0
 10
0.0018138427734793
 20
7.028842285156268
 42
1.0
 10
0.0207584228516522
 20
2.454733886718769
 42
1.0
 10
2.735677978515677
 20
0.0
 42
1.0
 10
6.093504028320429
 20
0.0
 42
1.0
 97
        0
 72
     4
 94
        3
 73
     1
 74
     0
 95
        8
 96
        4
 40
6.0
 40
6.0
 40
6.0
 40
6.0
 40
7.0
 40
7.0
 40
7.0
 40
7.0
 10
6.093504028320429
 20
0.0
 42
1.0
 10
6.342403564453203
 20
0.0
 42
1.0
 10
6.591303100585977
 20
0.0092707519531582
 42
1.0
 10
6.840202636718917
 20
0.0266030273437384
 42
1.0
 97
        0
 97
        0
 75
     0
 76
     1
 98
        1
 10
0.0
 20
0.0
  0
HATCH
  5
114
330
68
100
AcDbEntity
  8
0
  6
Continuous
 62
     7
100
AcDbHatch
 10
0.0
 20
0.0
 30
0.0
210
0.0
220
0.0
230
1.0
  2
SOLID
 70
     1
 71
     0
 91
        2
 92
        0
 93
        9
 72
     4
 94
        3
 73
     1
 74
     0
 95
        8
 96
        4
 40
3.0
 40
3.0
 40
3.0
 40
3.0
 40
4.0
 40
4.0
 40
4.0
 40
4.0
 10
18.46915173339847
 20
1.882365722656265
 42
1.0
 10
19.57539428710947
 20
0.6844233398437399
 42
1.0
 10
21.1103083496095
 20
0.0632829589843897
 42
1.0
 10
22.79194213867197
 20
0.0640891113281444
 42
1.0
 97
        0
 72
     1
 10
22.79194213867197
 20
0.0640891113281444
 11
22.79758520507813
 21
0.0640891113281444
 72
     4
 94
        3
 73
     1
 74
     0
 95
        8
 96
        4
 40
5.0
 40
5.0
 40
5.0
 40
5.0
 40
6.0
 40
6.0
 40
6.0
 40
6.0
 10
22.79758520507813
 20
0.0640891113281444
 42
1.0
 10
24.47720361328132
 20
0.0640891113281444
 42
1.0
 10
26.00848999023447
 20
0.6844233398437399
 42
1.0
 10
27.11513562011725
 20
1.882365722656265
 42
1.0
 97
        0
 72
     4
 94
        3
 73
     1
 74
     0
 95
        8
 96
        4
 40
6.0
 40
6.0
 40
6.0
 40
6.0
 40
7.0
 40
7.0
 40
7.0
 40
7.0
 10
27.11513562011725
 20
1.882365722656265
 42
1.0
 10
28.22258740234382
 20
3.08151733398436
 42
1.0
 10
28.89693383789069
 20
4.850215576171879
 42
1.0
 10
28.89693383789069
 20
7.124774414062535
 42
1.0
 97
        0
 72
     4
 94
        3
 73
     1
 74
     0
 95
        8
 96
        4
 40
7.0
 40
7.0
 40
7.0
 40
7.0
 40
8.0
 40
8.0
 40
8.0
 40
8.0
 10
28.89693383789069
 20
7.124774414062535
 42
1.0
 10
28.89693383789069
 20
9.398325561523466
 42
1.0
 10
28.22258740234382
 20
11.16803149414067
 42
1.0
 10
27.11513562011725
 20
12.36597387695311
 42
1.0
 97
        0
 72
     4
 94
        3
 73
     1
 74
     0
 95
        8
 96
        4
 40
8.0
 40
8.0
 40
8.0
 40
8.0
 40
9.0
 40
9.0
 40
9.0
 40
9.0
 10
27.11513562011725
 20
12.36597387695311
 42
1.0
 10
26.00788537597665
 20
13.56653625488287
 42
1.0
 10
24.47377746582041
 20
14.18586279296878
 42
1.0
 10
22.79194213867197
 20
14.1844520263672
 42
1.0
 97
        0
 72
     4
 94
        3
 73
     1
 74
     0
 95
        8
 96
        4
 40
0.0
 40
0.0
 40
0.0
 40
0.0
 40
1.0
 40
1.0
 40
1.0
 40
1.0
 10
22.79194213867197
 20
14.1844520263672
 42
1.0
 10
21.1103083496095
 20
14.18586279296878
 42
1.0
 10
19.57539428710947
 20
13.56653625488287
 42
1.0
 10
18.46915173339847
 20
12.36597387695311
 42
1.0
 97
        0
 72
     4
 94
        3
 73
     1
 74
     0
 95
        8
 96
        4
 40
1.0
 40
1.0
 40
1.0
 40
1.0
 40
2.0
 40
2.0
 40
2.0
 40
2.0
 10
18.46915173339847
 20
12.36597387695311
 42
1.0
 10
17.36210302734384
 20
11.16803149414067
 42
1.0
 10
16.68775659179697
 20
9.398325561523466
 42
1.0
 10
16.68815966796883
 20
7.124774414062535
 42
1.0
 97
        0
 72
     4
 94
        3
 73
     1
 74
     0
 95
        8
 96
        4
 40
2.0
 40
2.0
 40
2.0
 40
2.0
 40
3.0
 40
3.0
 40
3.0
 40
3.0
 10
16.68815966796883
 20
7.124774414062535
 42
1.0
 10
16.68775659179697
 20
4.850215576171879
 42
1.0
 10
17.36210302734384
 20
3.08151733398436
 42
1.0
 10
18.46915173339847
 20
1.882365722656265
 42
1.0
 97
        0
 97
        0
 92
        0
 93
        4
 72
     4
 94
        3
 73
     1
 74
     0
 95
        8
 96
        4
 40
1.0
 40
1.0
 40
1.0
 40
1.0
 40
2.0
 40
2.0
 40
2.0
 40
2.0
 10
18.67572827148448
 20
7.124774414062535
 42
1.0
 10
18.68701440429696
 20
10.42616979980475
 42
1.0
 10
20.46840954589854
 20
12.30087707519537
 42
1.0
 10
22.79194213867197
 20
12.3063186035156
 42
1.0
 97
        0
 72
     4
 94
        3
 73
     1
 74
     0
 95
        8
 96
        4
 40
2.0
 40
2.0
 40
2.0
 40
2.0
 40
3.0
 40
3.0
 40
3.0
 40
3.0
 10
22.79194213867197
 20
12.3063186035156
 42
1.0
 10
25.11668395996105
 20
12.30087707519541
 42
1.0
 10
26.89727294921884
 20
10.42616979980475
 42
1.0
 10
26.9079544677735
 20
7.124774414062535
 42
1.0
 97
        0
 72
     4
 94
        3
 73
     1
 74
     0
 95
        8
 96
        4
 40
3.0
 40
3.0
 40
3.0
 40
3.0
 40
4.0
 40
4.0
 40
4.0
 40
4.0
 10
26.9079544677735
 20
7.124774414062535
 42
1.0
 10
26.89727294921884
 20
3.796574462890612
 42
1.0
 10
25.11789318847662
 20
1.949276367187489
 42
1.0
 10
22.79194213867197
 20
1.94202099609378
 42
1.0
 97
        0
 72
     4
 94
        3
 73
     1
 74
     0
 95
        8
 96
        4
 40
0.0
 40
0.0
 40
0.0
 40
0.0
 40
1.0
 40
1.0
 40
1.0
 40
1.0
 10
22.79194213867197
 20
1.94202099609378
 42
1.0
 10
20.46699877929692
 20
1.949276367187489
 42
1.0
 10
18.68782055664076
 20
3.796574462890612
 42
1.0
 10
18.67572827148448
 20
7.124774414062535
 42
1.0
 97
        0
 97
        0
 75
     0
 76
     1
 98
        1
 10
0.0
 20
0.0
  0
HATCH
  5
115
330
68
100
AcDbEntity
  8
0
  6
Continuous
 62
     7
100
AcDbHatch
 10
0.0
 20
0.0
 30
0.0
210
0.0
220
0.0
230
1.0
  2
SOLID
 70
     1
 71
     0
 91
        1
 92
        0
 93
        5
 72
     4
 94
        3
 73
     1
 74
     0
 95
        8
 96
        4
 40
0.0
 40
0.0
 40
0.0
 40
0.0
 40
1.0
 40
1.0
 40
1.0
 40
1.0
 10
9.218755126953221
 20
12.40527380371095
 42
1.0
 10
8.916447998047
 20
12.4044676513672
 42
1.0
 10
8.6236131591797
 20
12.3732292480469
 42
1.0
 10
8.342064453125131
 20
12.31276782226568
 42
1.0
 97
        0
 72
     4
 94
        3
 73
     1
 74
     0
 95
       11
 96
        7
 40
1.0
 40
1.0
 40
1.0
 40
1.0
 40
2.0
 40
2.0
 40
2.0
 40
3.0
 40
3.0
 40
3.0
 40
3.0
 10
8.342064453125131
 20
12.31276782226568
 42
1.0
 10
10.07831506347662
 20
11.65716442871101
 42
1.0
 10
11.2752497558595
 20
9.809060180664131
 42
1.0
 10
11.2752497558595
 20
7.076808349609484
 42
1.0
 10
11.2752497558595
 20
4.324201171875042
 42
1.0
 10
10.08033044433598
 20
2.489398437500012
 42
1.0
 10
8.346095214843864
 20
1.83762426757815
 42
1.0
 97
        0
 72
     4
 94
        3
 73
     1
 74
     0
 95
        8
 96
        4
 40
3.0
 40
3.0
 40
3.0
 40
3.0
 40
4.0
 40
4.0
 40
4.0
 40
4.0
 10
8.346095214843864
 20
1.83762426757815
 42
1.0
 10
8.626233154296974
 20
1.777968994140594
 42
1.0
 10
8.91806030273451
 20
1.748141357421878
 42
1.0
 10
9.218755126953221
 20
1.746932128906226
 42
1.0
 97
        0
 72
     4
 94
        3
 73
     1
 74
     0
 95
        8
 96
        4
 40
4.0
 40
4.0
 40
4.0
 40
4.0
 40
5.0
 40
5.0
 40
5.0
 40
5.0
 10
9.218755126953221
 20
1.746932128906226
 42
1.0
 10
11.61161682128922
 20
1.752978271484365
 42
1.0
 10
13.4401718750001
 20
3.655497802734373
 42
1.0
 10
13.45266723632824
 20
7.076808349609401
 42
1.0
 97
        0
 72
     4
 94
        3
 73
     1
 74
     0
 95
        8
 96
        4
 40
5.0
 40
5.0
 40
5.0
 40
5.0
 40
6.0
 40
6.0
 40
6.0
 40
6.0
 10
13.45266723632824
 20
7.076808349609401
 42
1.0
 10
13.44138110351567
 20
10.47091125488282
 42
1.0
 10
11.6102060546876
 20
12.40063842773435
 42
1.0
 10
9.218755126953221
 20
12.40527380371095
 42
1.0
 97
        0
 97
        0
 75
     0
 76
     1
 98
        1
 10
0.0
 20
0.0
  0
HATCH
  5
116
330
68
100
AcDbEntity
  8
0
  6
Continuous
 62
     7
100
AcDbHatch
 10
0.0
 20
0.0
 30
0.0
210
0.0
220
0.0
230
1.0
  2
SOLID
 70
     1
 71
     0
 91
        2
 92
        0
 93
       18
 72
     4
 94
        3
 73
     1
 74
     0
 95
        8
 96
        4
 40
5.0
 40
5.0
 40
5.0
 40
5.0
 40
6.0
 40
6.0
 40
6.0
 40
6.0
 10
51.34081970214852
 20
0.0640891113281444
 42
1.0
 10
51.38515808105482
 20
0.0640891113281444
 42
1.0
 10
51.41780725097661
 20
0.0665075683593669
 42
1.0
 10
51.4442087402345
 20
0.0665075683593669
 42
1.0
 97
        0
 72
     4
 94
        3
 73
     1
 74
     0
 95
        8
 96
        4
 40
6.0
 40
6.0
 40
6.0
 40
6.0
 40
7.0
 40
7.0
 40
7.0
 40
7.0
 10
51.4442087402345
 20
0.0665075683593669
 42
1.0
 10
51.47121484375014
 20
0.0665075683593669
 42
1.0
 10
51.50809631347663
 20
0.0640891113281444
 42
1.0
 10
51.55122546386728
 20
0.0640891113281444
 42
1.0
 97
        0
 72
     1
 10
51.55122546386728
 20
0.0640891113281444
 11
51.56573620605479
 21
0.0640891113281444
 72
     4
 94
        3
 73
     1
 74
     0
 95
        8
 96
        4
 40
8.0
 40
8.0
 40
8.0
 40
8.0
 40
9.0
 40
9.0
 40
9.0
 40
9.0
 10
51.56573620605479
 20
0.0640891113281444
 42
1.0
 10
54.16577905273445
 20
0.0640891113281444
 42
1.0
 10
56.39882104492205
 20
1.573206298828109
 42
1.0
 10
57.25938867187514
 20
4.366524169921851
 42
1.0
 97
        0
 72
     1
 10
57.25938867187514
 20
4.366524169921851
 11
57.32891931152351
 21
4.59023144531251
 72
     1
 10
57.32891931152351
 20
4.59023144531251
 11
55.13094494628918
 21
4.59023144531251
 72
     1
 10
55.13094494628918
 20
4.59023144531251
 11
55.09023425292975
 21
4.474951660156296
 72
     4
 94
        3
 73
     1
 74
     0
 95
        8
 96
        4
 40
12.0
 40
12.0
 40
12.0
 40
12.0
 40
13.0
 40
13.0
 40
13.0
 40
13.0
 10
55.09023425292975
 20
4.474951660156296
 42
1.0
 10
54.54184912109383
 20
2.936006835937491
 42
1.0
 10
53.41504968261723
 20
1.975073242187514
 42
1.0
 10
51.48371020507819
 20
1.942827148437534
 42
1.0
 97
        0
 72
     1
 10
51.48371020507819
 20
1.942827148437534
 11
51.44481335449225
 21
1.943633300781247
 72
     4
 94
        3
 73
     1
 74
     0
 95
        8
 96
        4
 40
14.0
 40
14.0
 40
14.0
 40
14.0
 40
15.0
 40
15.0
 40
15.0
 40
15.0
 10
51.44481335449225
 20
1.943633300781247
 42
1.0
 10
48.65391394042981
 20
1.971848632812495
 42
1.0
 10
47.46282385253914
 20
3.952161865234435
 42
1.0
 10
47.44448388671888
 20
6.82407958984374
 42
1.0
 97
        0
 72
     1
 10
47.44448388671888
 20
6.82407958984374
 11
47.44408081054702
 21
7.004657714843709
 72
     1
 10
47.44408081054702
 20
7.004657714843709
 11
57.45205908203138
 21
7.004657714843709
 72
     1
 10
57.45205908203138
 20
7.004657714843709
 11
57.44581140136723
 21
7.186041992187516
 72
     4
 94
        3
 73
     1
 74
     0
 95
        8
 96
        4
 40
0.0
 40
0.0
 40
0.0
 40
0.0
 40
1.0
 40
1.0
 40
1.0
 40
1.0
 10
57.44581140136723
 20
7.186041992187516
 42
1.0
 10
57.32267163085952
 20
11.10918237304687
 42
1.0
 10
55.3304676513674
 20
14.19311816406249
 42
1.0
 10
51.34081970214852
 20
14.18586279296878
 42
1.0
 97
        0
 72
     4
 94
        3
 73
     1
 74
     0
 95
        8
 96
        4
 40
1.0
 40
1.0
 40
1.0
 40
1.0
 40
2.0
 40
2.0
 40
2.0
 40
2.0
 10
51.34081970214852
 20
14.18586279296878
 42
1.0
 10
49.65958898925798
 20
14.18586279296878
 42
1.0
 10
48.12588415527352
 20
13.56653625488287
 42
1.0
 10
47.01883544921889
 20
12.36597387695311
 42
1.0
 97
        0
 72
     4
 94
        3
 73
     1
 74
     0
 95
        8
 96
        4
 40
2.0
 40
2.0
 40
2.0
 40
2.0
 40
3.0
 40
3.0
 40
3.0
 40
3.0
 10
47.01883544921889
 20
12.36597387695311
 42
1.0
 10
45.91178674316418
 20
11.16803149414067
 42
1.0
 10
45.23623107910166
 20
9.398325561523466
 42
1.0
 10
45.23744030761731
 20
7.123162109374984
 42
1.0
 97
        0
 72
     4
 94
        3
 73
     1
 74
     0
 95
        8
 96
        4
 40
3.0
 40
3.0
 40
3.0
 40
3.0
 40
4.0
 40
4.0
 40
4.0
 40
4.0
 10
45.23744030761731
 20
7.123162109374984
 42
1.0
 10
45.23623107910166
 20
4.850215576171879
 42
1.0
 10
45.91178674316418
 20
3.08151733398436
 42
1.0
 10
47.01883544921889
 20
1.882365722656265
 42
1.0
 97
        0
 72
     4
 94
        3
 73
     1
 74
     0
 95
        8
 96
        4
 40
4.0
 40
4.0
 40
4.0
 40
4.0
 40
5.0
 40
5.0
 40
5.0
 40
5.0
 10
47.01883544921889
 20
1.882365722656265
 42
1.0
 10
48.12507800292981
 20
0.6844233398437399
 42
1.0
 10
49.65958898925798
 20
0.0632829589843897
 42
1.0
 10
51.34081970214852
 20
0.0640891113281444
 42
1.0
 97
        0
 97
        0
 92
        0
 93
        3
 72
     1
 10
55.20007250976577
 20
8.71934375000004
 11
47.47108691406257
 21
8.71934375000004
 72
     4
 94
        3
 73
     1
 74
     0
 95
        8
 96
        4
 40
0.0
 40
0.0
 40
0.0
 40
0.0
 40
1.0
 40
1.0
 40
1.0
 40
1.0
 10
47.47108691406257
 20
8.71934375000004
 42
1.0
 10
47.80322167968759
 20
10.74963842773435
 42
1.0
 10
49.18577294921886
 20
12.30329553222659
 42
1.0
 10
51.34081970214852
 20
12.30631860351568
 42
1.0
 97
        0
 72
     4
 94
        3
 73
     1
 74
     0
 95
        8
 96
        4
 40
1.0
 40
1.0
 40
1.0
 40
1.0
 40
2.0
 40
2.0
 40
2.0
 40
2.0
 10
51.34081970214852
 20
12.30631860351568
 42
1.0
 10
53.87052575683609
 20
12.30087707519541
 42
1.0
 10
54.80989477539067
 20
10.53842651367187
 42
1.0
 10
55.20007250976577
 20
8.71934375000004
 42
1.0
 97
        0
 97
        0
 75
     0
 76
     1
 98
        1
 10
0.0
 20
0.0
  0
HATCH
  5
117
330
68
100
AcDbEntity
  8
0
  6
Continuous
 62
     7
100
AcDbHatch
 10
0.0
 20
0.0
 30
0.0
210
0.0
220
0.0
230
1.0
  2
SOLID
 70
     1
 71
     0
 91
        1
 92
        0
 93
       13
 72
     4
 94
        3
 73
     1
 74
     0
 95
        8
 96
        4
 40
6.0
 40
6.0
 40
6.0
 40
6.0
 40
7.0
 40
7.0
 40
7.0
 40
7.0
 10
61.6843588867188
 20
8.216707763671838
 42
1.0
 10
61.69846655273453
 20
11.09265625000004
 42
1.0
 10
63.36720190429701
 20
12.29221093750003
 42
1.0
 10
65.25420300292967
 20
12.30631860351568
 42
1.0
 97
        0
 72
     4
 94
        3
 73
     1
 74
     0
 95
        8
 96
        4
 40
7.0
 40
7.0
 40
7.0
 40
7.0
 40
8.0
 40
8.0
 40
8.0
 40
8.0
 10
65.25420300292967
 20
12.30631860351568
 42
1.0
 10
67.27744384765633
 20
12.27346789550783
 42
1.0
 10
68.24381896972653
 20
11.55579077148439
 42
1.0
 10
68.27767736816415
 20
8.954740234374995
 42
1.0
 97
        0
 72
     1
 10
68.27767736816415
 20
8.954740234374995
 11
68.27767736816415
 21
0.3917900390624922
 72
     1
 10
68.27767736816415
 20
0.3917900390624923
 11
70.2654475097656
 21
0.3917900390624923
 72
     1
 10
70.2654475097656
 20
0.3917900390624923
 11
70.2654475097656
 21
9.447097778320312
 72
     4
 94
        3
 73
     1
 74
     0
 95
        8
 96
        4
 40
11.0
 40
11.0
 40
11.0
 40
11.0
 40
12.0
 40
12.0
 40
12.0
 40
12.0
 10
70.2654475097656
 20
9.447097778320312
 42
1.0
 10
70.2654475097656
 20
10.82803674316407
 42
1.0
 10
69.90912817382828
 20
12.01832067871095
 42
1.0
 10
69.11849426269534
 20
12.86216064453127
 42
1.0
 97
        0
 72
     4
 94
        3
 73
     1
 74
     0
 95
        8
 96
        4
 40
12.0
 40
12.0
 40
12.0
 40
12.0
 40
13.0
 40
13.0
 40
13.0
 40
13.0
 10
69.11849426269534
 20
12.86216064453127
 42
1.0
 10
68.32866650390629
 20
13.70862060546875
 42
1.0
 10
67.11641491699227
 20
14.18666894531249
 42
1.0
 10
65.47327490234389
 20
14.1844520263672
 42
1.0
 97
        0
 72
     4
 94
        3
 73
     1
 74
     0
 95
        8
 96
        4
 40
0.0
 40
0.0
 40
0.0
 40
0.0
 40
1.0
 40
1.0
 40
1.0
 40
1.0
 10
65.47327490234389
 20
14.1844520263672
 42
1.0
 10
64.0568652343751
 20
14.18828125000005
 42
1.0
 10
62.58644335937519
 20
13.67718066406252
 42
1.0
 10
61.6843588867188
 20
12.32526318359373
 42
1.0
 97
        0
 72
     1
 10
61.6843588867188
 20
12.32526318359373
 11
61.6843588867188
 21
13.85695263671878
 72
     1
 10
61.6843588867188
 20
13.85695263671878
 11
59.69679028320324
 21
13.85695263671878
 72
     1
 10
59.69679028320324
 20
13.85695263671878
 11
59.69679028320324
 21
0.3917900390624922
 72
     1
 10
59.69679028320324
 20
0.3917900390624923
 11
61.6843588867188
 21
0.3917900390624923
 72
     1
 10
61.6843588867188
 20
0.3917900390624923
 11
61.6843588867188
 21
8.216707763671838
 97
        0
 75
     0
 76
     1
 98
        1
 10
0.0
 20
0.0
  0
HATCH
  5
118
330
68
100
AcDbEntity
  8
0
  6
Continuous
 62
     7
100
AcDbHatch
 10
0.0
 20
0.0
 30
0.0
210
0.0
220
0.0
230
1.0
  2
SOLID
 70
     1
 71
     0
 91
        1
 92
        0
 93
       24
 72
     4
 94
        3
 73
     1
 74
     0
 95
        8
 96
        4
 40
11.0
 40
11.0
 40
11.0
 40
11.0
 40
12.0
 40
12.0
 40
12.0
 40
12.0
 10
76.99238574218758
 20
14.13971057128908
 42
1.0
 10
74.14948950195316
 20
14.05647534179688
 42
1.0
 10
72.56741552734391
 20
12.30007092285157
 42
1.0
 10
72.57386474609379
 20
10.36409606933597
 42
1.0
 97
        0
 72
     4
 94
        3
 73
     1
 74
     0
 95
        8
 96
        4
 40
12.0
 40
12.0
 40
12.0
 40
12.0
 40
13.0
 40
13.0
 40
13.0
 40
13.0
 10
72.57386474609379
 20
10.36409606933597
 42
1.0
 10
72.5666093750002
 20
7.632650390625037
 42
1.0
 10
74.66462084960945
 20
7.011510009765604
 42
1.0
 10
76.59414648437519
 20
6.641889160156262
 42
1.0
 97
        0
 72
     4
 94
        3
 73
     1
 74
     0
 95
        8
 96
        4
 40
13.0
 40
13.0
 40
13.0
 40
13.0
 40
14.0
 40
14.0
 40
14.0
 40
14.0
 10
76.59414648437519
 20
6.641889160156262
 42
1.0
 10
77.56757543945325
 20
6.446397216796893
 42
1.0
 10
78.52971826171884
 20
6.290003662109356
 42
1.0
 10
79.22059082031258
 20
5.957062744140623
 42
1.0
 97
        0
 72
     4
 94
        3
 73
     1
 74
     0
 95
        8
 96
        4
 40
14.0
 40
14.0
 40
14.0
 40
14.0
 40
15.0
 40
15.0
 40
15.0
 40
15.0
 10
79.22059082031258
 20
5.957062744140623
 42
1.0
 10
79.9114633789063
 20
5.615657226562487
 42
1.0
 10
80.3258256835938
 20
5.15735961914067
 42
1.0
 10
80.33388720703127
 20
4.243182861328131
 42
1.0
 97
        0
 72
     4
 94
        3
 73
     1
 74
     0
 95
        8
 96
        4
 40
15.0
 40
15.0
 40
15.0
 40
15.0
 40
16.0
 40
16.0
 40
16.0
 40
16.0
 10
80.33388720703127
 20
4.243182861328131
 42
1.0
 10
80.33308105468755
 20
2.251583496093751
 42
1.0
 10
78.72279174804703
 20
1.796107421875012
 42
1.0
 10
77.37611425781266
 20
1.74048291015623
 42
1.0
 97
        0
 72
     4
 94
        3
 73
     1
 74
     0
 95
        8
 96
        4
 40
16.0
 40
16.0
 40
16.0
 40
16.0
 40
17.0
 40
17.0
 40
17.0
 40
17.0
 10
77.37611425781266
 20
1.74048291015623
 42
1.0
 10
76.24347021484384
 20
1.764667480468746
 42
1.0
 10
74.62189477539066
 20
2.146380615234408
 42
1.0
 10
74.08096655273438
 20
4.008592529296889
 42
1.0
 97
        0
 72
     1
 10
74.08096655273438
 20
4.008592529296889
 11
74.04589892578144
 21
4.135158447265669
 72
     1
 10
74.04589892578144
 20
4.135158447265669
 11
72.02487500000004
 21
4.135158447265669
 72
     1
 10
72.02487500000004
 20
4.135158447265669
 11
72.09541333007819
 21
3.909838867187501
 72
     4
 94
        3
 73
     1
 74
     0
 95
        8
 96
        4
 40
20.0
 40
20.0
 40
20.0
 40
20.0
 40
21.0
 40
21.0
 40
21.0
 40
21.0
 10
72.09541333007819
 20
3.909838867187501
 42
1.0
 10
72.8548088378907
 20
1.462360351562483
 42
1.0
 10
75.09631542968769
 20
0.1060090332031388
 42
1.0
 10
77.23423144531266
 20
0.0342614746093456
 42
1.0
 97
        0
 72
     1
 10
77.23423144531266
 20
0.0342614746093456
 11
77.38417578125012
 21
0.0358737792968966
 72
     4
 94
        3
 73
     1
 74
     0
 95
        8
 96
        4
 40
22.0
 40
22.0
 40
22.0
 40
22.0
 40
23.0
 40
23.0
 40
23.0
 40
23.0
 10
77.38417578125012
 20
0.0358737792968966
 42
1.0
 10
80.52615454101574
 20
0.1443012695312162
 42
1.0
 10
82.32790502929704
 20
1.998048583984419
 42
1.0
 10
82.32306811523443
 20
4.188364501953146
 42
1.0
 97
        0
 72
     4
 94
        3
 73
     1
 74
     0
 95
        8
 96
        4
 40
23.0
 40
23.0
 40
23.0
 40
23.0
 40
24.0
 40
24.0
 40
24.0
 40
24.0
 10
82.32306811523443
 20
4.188364501953146
 42
1.0
 10
82.32951733398447
 20
6.941777832031301
 42
1.0
 10
80.24359814453142
 20
7.693917968749978
 42
1.0
 10
78.3064140625
 20
8.12561254882814
 42
1.0
 97
        0
 72
     4
 94
        3
 73
     1
 74
     0
 95
        8
 96
        4
 40
0.0
 40
0.0
 40
0.0
 40
0.0
 40
1.0
 40
1.0
 40
1.0
 40
1.0
 10
78.3064140625
 20
8.12561254882814
 42
1.0
 10
77.3321789550782
 20
8.350125976562511
 42
1.0
 10
76.36640844726567
 20
8.515790283203122
 42
1.0
 10
75.67029589843754
 20
8.825352783203094
 42
1.0
 97
        0
 72
     4
 94
        3
 73
     1
 74
     0
 95
        8
 96
        4
 40
1.0
 40
1.0
 40
1.0
 40
1.0
 40
2.0
 40
2.0
 40
2.0
 40
2.0
 10
75.67029589843754
 20
8.825352783203094
 42
1.0
 10
74.97136181640634
 20
9.142372192382828
 42
1.0
 10
74.5678825683594
 20
9.538192993164094
 42
1.0
 10
74.56143334960952
 20
10.30988232421881
 42
1.0
 97
        0
 72
     4
 94
        3
 73
     1
 74
     0
 95
        8
 96
        4
 40
2.0
 40
2.0
 40
2.0
 40
2.0
 40
3.0
 40
3.0
 40
3.0
 40
3.0
 10
74.56143334960952
 20
10.30988232421881
 42
1.0
 10
74.58843945312516
 20
11.50318933105469
 42
1.0
 10
75.02577709960939
 20
12.31659704589844
 42
1.0
 10
77.19876074218762
 20
12.42099377441407
 42
1.0
 97
        0
 72
     4
 94
        3
 73
     1
 74
     0
 95
        8
 96
        4
 40
3.0
 40
3.0
 40
3.0
 40
3.0
 40
4.0
 40
4.0
 40
4.0
 40
4.0
 10
77.19876074218762
 20
12.42099377441407
 42
1.0
 10
78.47288452148449
 20
12.41091687011719
 42
1.0
 10
79.31934448242201
 20
11.87462402343752
 42
1.0
 10
79.85785424804698
 20
10.97092724609375
 42
1.0
 97
        0
 72
     1
 10
79.85785424804698
 20
10.97092724609375
 11
79.9082387695313
 21
10.88547509765633
 72
     1
 10
79.9082387695313
 20
10.88547509765633
 11
81.8841181640626
 21
10.88547509765633
 72
     1
 10
81.8841181640626
 20
10.88547509765633
 11
81.77609375000006
 21
11.12953771972654
 72
     4
 94
        3
 73
     1
 74
     0
 95
        8
 96
        4
 40
7.0
 40
7.0
 40
7.0
 40
7.0
 40
8.0
 40
8.0
 40
8.0
 40
8.0
 10
81.77609375000006
 20
11.12953771972654
 42
1.0
 10
80.90907690429694
 20
13.09614636230473
 42
1.0
 10
79.21656005859384
 20
14.15139978027342
 42
1.0
 10
77.28824365234377
 20
14.14837670898438
 42
1.0
 97
        0
 72
     4
 94
        3
 73
     1
 74
     0
 95
        8
 96
        4
 40
8.0
 40
8.0
 40
8.0
 40
8.0
 40
9.0
 40
9.0
 40
9.0
 40
9.0
 10
77.28824365234377
 20
14.14837670898438
 42
1.0
 10
77.23947143554705
 20
14.14837670898438
 42
1.0
 10
77.19876074218762
 20
14.1451520996094
 42
1.0
 10
77.16329003906259
 20
14.1451520996094
 42
1.0
 97
        0
 72
     1
 10
77.16329003906259
 20
14.1451520996094
 11
76.99238574218758
 21
14.14353979492185
 72
     1
 10
76.99238574218758
 20
14.14353979492185
 11
76.99238574218758
 21
14.13971057128908
 97
        0
 75
     0
 76
     1
 98
        1
 10
0.0
 20
0.0
  0
HATCH
  5
119
330
68
100
AcDbEntity
  8
0
  6
Continuous
 62
     7
100
AcDbHatch
 10
0.0
 20
0.0
 30
0.0
210
0.0
220
0.0
230
1.0
  2
SOLID
 70
     1
 71
     0
 91
        1
 92
        0
 93
       15
 72
     4
 94
        3
 73
     1
 74
     0
 95
        8
 96
        4
 40
11.0
 40
11.0
 40
11.0
 40
11.0
 40
12.0
 40
12.0
 40
12.0
 40
12.0
 10
89.79730957031256
 20
0.0640891113281444
 42
1.0
 10
92.6607626953126
 20
0.0640891113281444
 42
1.0
 10
94.47903930664076
 20
1.340631347656274
 42
1.0
 10
95.44763134765638
 20
3.836075927734384
 42
1.0
 97
        0
 72
     1
 10
95.44763134765638
 20
3.836075927734384
 11
95.54114501953143
 21
4.07308471679689
 72
     1
 10
95.54114501953143
 20
4.07308471679689
 11
93.36413061523446
 21
4.073890869140603
 72
     1
 10
93.36413061523446
 20
4.073890869140603
 11
93.31858300781259
 21
3.974734130859359
 72
     4
 94
        3
 73
     1
 74
     0
 95
        8
 96
        4
 40
0.0
 40
0.0
 40
0.0
 40
0.0
 40
1.0
 40
1.0
 40
1.0
 40
1.0
 10
93.31858300781259
 20
3.974734130859359
 42
1.0
 10
92.76032250976573
 20
2.823145507812458
 42
1.0
 10
91.74537670898452
 20
1.950082519531285
 42
1.0
 10
89.75982348632816
 20
1.94202099609378
 42
1.0
 97
        0
 72
     4
 94
        3
 73
     1
 74
     0
 95
        8
 96
        4
 40
1.0
 40
1.0
 40
1.0
 40
1.0
 40
2.0
 40
2.0
 40
2.0
 40
2.0
 10
89.75982348632816
 20
1.94202099609378
 42
1.0
 10
87.78273486328136
 20
1.948470214843776
 42
1.0
 10
85.65046191406256
 20
3.591811767578085
 42
1.0
 10
85.64360961914075
 20
7.124774414062535
 42
1.0
 97
        0
 72
     4
 94
        3
 73
     1
 74
     0
 95
        8
 96
        4
 40
2.0
 40
2.0
 40
2.0
 40
2.0
 40
3.0
 40
3.0
 40
3.0
 40
3.0
 10
85.64360961914075
 20
7.124774414062535
 42
1.0
 10
85.65288037109386
 20
10.6569309082031
 42
1.0
 10
87.77588256835955
 20
12.29785400390628
 42
1.0
 10
89.92387548828134
 20
12.30631860351568
 42
1.0
 97
        0
 72
     4
 94
        3
 73
     1
 74
     0
 95
        8
 96
        4
 40
3.0
 40
3.0
 40
3.0
 40
3.0
 40
4.0
 40
4.0
 40
4.0
 40
4.0
 10
89.92387548828134
 20
12.30631860351568
 42
1.0
 10
91.46040185546889
 20
12.30087707519541
 42
1.0
 10
92.63093505859388
 20
11.84862561035156
 42
1.0
 10
93.14969409179696
 20
10.76374609375004
 42
1.0
 97
        0
 72
     1
 10
93.14969409179696
 20
10.76374609375004
 11
93.19524169921884
 21
10.66237243652342
 72
     1
 10
93.19524169921884
 20
10.66237243652342
 11
95.34887768554695
 21
10.64826477050782
 72
     1
 10
95.34887768554695
 20
10.64826477050782
 11
95.24125634765635
 21
10.89393969726561
 72
     4
 94
        3
 73
     1
 74
     0
 95
        8
 96
        4
 40
7.0
 40
7.0
 40
7.0
 40
7.0
 40
8.0
 40
8.0
 40
8.0
 40
8.0
 10
95.24125634765635
 20
10.89393969726561
 42
1.0
 10
94.04008935546877
 20
13.65682531738281
 42
1.0
 10
91.81027197265634
 20
14.19392431640624
 42
1.0
 10
90.14113354492193
 20
14.1844520263672
 42
1.0
 97
        0
 72
     4
 94
        3
 73
     1
 74
     0
 95
        8
 96
        4
 40
8.0
 40
8.0
 40
8.0
 40
8.0
 40
9.0
 40
9.0
 40
9.0
 40
9.0
 10
90.14113354492193
 20
14.1844520263672
 42
1.0
 10
86.27522998046882
 20
14.19392431640624
 42
1.0
 10
83.6979609375001
 20
11.32039428710939
 42
1.0
 10
83.65563793945324
 20
7.126386718750003
 42
1.0
 97
        0
 72
     4
 94
        3
 73
     1
 74
     0
 95
        8
 96
        4
 40
9.0
 40
9.0
 40
9.0
 40
9.0
 40
10.0
 40
10.0
 40
10.0
 40
10.0
 10
83.65563793945324
 20
7.126386718750003
 42
1.0
 10
83.70279785156254
 20
2.925123779296906
 42
1.0
 10
86.3727744140626
 20
0.0612675781249822
 42
1.0
 10
89.75982348632816
 20
0.0640891113281444
 42
1.0
 97
        0
 72
     1
 10
89.75982348632816
 20
0.0640891113281444
 11
89.79730957031256
 21
0.0640891113281444
 97
        0
 75
     0
 76
     1
 98
        1
 10
0.0
 20
0.0
  0
HATCH
  5
11A
330
68
100
AcDbEntity
  8
0
  6
Continuous
 62
     7
100
AcDbHatch
 10
0.0
 20
0.0
 30
0.0
210
0.0
220
0.0
230
1.0
  2
SOLID
 70
     1
 71
     0
 91
        1
 92
        0
 93
       13
 72
     4
 94
        3
 73
     1
 74
     0
 95
        8
 96
        4
 40
11.0
 40
11.0
 40
11.0
 40
11.0
 40
12.0
 40
12.0
 40
12.0
 40
12.0
 10
107.3625629882813
 20
9.447097778320312
 42
1.0
 10
107.3625629882813
 20
10.82803674316407
 42
1.0
 10
107.0062436523438
 20
12.01832067871095
 42
1.0
 10
106.2146020507813
 20
12.86216064453127
 42
1.0
 97
        0
 72
     4
 94
        3
 73
     1
 74
     0
 95
        8
 96
        4
 40
12.0
 40
12.0
 40
12.0
 40
12.0
 40
13.0
 40
13.0
 40
13.0
 40
13.0
 10
106.2146020507813
 20
12.86216064453127
 42
1.0
 10
105.4241696777344
 20
13.70781445312504
 42
1.0
 10
104.2121196289063
 20
14.18586279296878
 42
1.0
 10
102.5695842285158
 20
14.18586279296878
 42
1.0
 97
        0
 72
     4
 94
        3
 73
     1
 74
     0
 95
        8
 96
        4
 40
0.0
 40
0.0
 40
0.0
 40
0.0
 40
1.0
 40
1.0
 40
1.0
 40
1.0
 10
102.5695842285158
 20
14.18586279296878
 42
1.0
 10
101.1539807128907
 20
14.18828125000005
 42
1.0
 10
99.68033422851575
 20
13.67637451171877
 42
1.0
 10
98.78066821289066
 20
12.30329553222659
 42
1.0
 97
        0
 72
     1
 10
98.78066821289066
 20
12.30329553222659
 11
98.78066821289066
 21
17.41974291992195
 72
     1
 10
98.78066821289066
 20
17.41974291992195
 11
96.79350268554704
 21
17.41974291992195
 72
     1
 10
96.79350268554704
 20
17.41974291992195
 11
96.79350268554704
 21
0.3917900390624922
 72
     1
 10
96.79350268554704
 20
0.3917900390624923
 11
98.78066821289066
 21
0.3917900390624923
 72
     1
 10
98.78066821289066
 20
0.3917900390624923
 11
98.78066821289066
 21
8.21832006835939
 72
     4
 94
        3
 73
     1
 74
     0
 95
        8
 96
        4
 40
6.0
 40
6.0
 40
6.0
 40
6.0
 40
7.0
 40
7.0
 40
7.0
 40
7.0
 10
98.78066821289066
 20
8.21832006835939
 42
1.0
 10
98.79477587890622
 20
11.09265625000004
 42
1.0
 10
100.4631081542969
 20
12.29221093750003
 42
1.0
 10
102.3511169433595
 20
12.30631860351568
 42
1.0
 97
        0
 72
     4
 94
        3
 73
     1
 74
     0
 95
        8
 96
        4
 40
7.0
 40
7.0
 40
7.0
 40
7.0
 40
8.0
 40
8.0
 40
8.0
 40
8.0
 10
102.3511169433595
 20
12.30631860351568
 42
1.0
 10
104.3729470214845
 20
12.27266174316412
 42
1.0
 10
105.3395236816407
 20
11.55579077148439
 42
1.0
 10
105.3725759277345
 20
8.956352539062545
 42
1.0
 97
        0
 72
     1
 10
105.3725759277345
 20
8.956352539062545
 11
105.3725759277345
 21
0.3917900390624922
 72
     1
 10
105.3725759277345
 20
0.3917900390624923
 11
107.3625629882813
 21
0.3917900390624923
 72
     1
 10
107.3625629882813
 20
0.3917900390624923
 11
107.3625629882813
 21
9.447097778320312
 97
        0
 75
     0
 76
     1
 98
        1
 10
0.0
 20
0.0
  0
HATCH
  5
11B
330
68
100
AcDbEntity
  8
0
  6
Continuous
 62
     7
100
AcDbHatch
 10
0.0
 20
0.0
 30
0.0
210
0.0
220
0.0
230
1.0
  2
SOLID
 70
     1
 71
     0
 91
        2
 92
        0
 93
       34
 72
     4
 94
        3
 73
     1
 74
     0
 95
        8
 96
        4
 40
26.0
 40
26.0
 40
26.0
 40
26.0
 40
27.0
 40
27.0
 40
27.0
 40
27.0
 10
127.4135871582032
 20
2.443850830078101
 42
1.0
 10
127.3051596679689
 20
2.724794921875009
 42
1.0
 10
127.2926643066407
 20
3.16535717773439
 42
1.0
 10
127.2934704589844
 20
3.65469165039066
 42
1.0
 97
        0
 72
     1
 10
127.2934704589844
 20
3.65469165039066
 11
127.2934704589844
 21
12.14226660156253
 72
     1
 10
127.2934704589844
 20
12.14226660156253
 11
137.4941191406252
 21
12.14307275390629
 72
     1
 10
137.4941191406252
 20
12.14307275390629
 11
130.4862368164063
 21
1.74048291015623
 72
     1
 10
130.4862368164063
 20
1.74048291015623
 11
130.4862368164063
 21
0.391790039062534
 72
     1
 10
130.4862368164063
 20
0.391790039062534
 11
140.3998952636719
 21
0.391790039062534
 72
     1
 10
140.3998952636719
 20
0.391790039062534
 11
140.3998952636719
 21
2.107282226562493
 72
     1
 10
140.3998952636719
 20
2.107282226562493
 11
133.1469426269533
 21
2.107282226562493
 72
     1
 10
133.1469426269533
 20
2.107282226562493
 11
140.2914677734376
 21
12.72793627929689
 72
     1
 10
140.2914677734376
 20
12.72793627929689
 11
140.2914677734376
 21
13.85695263671878
 72
     1
 10
140.2914677734376
 20
13.85695263671878
 11
127.2934704589844
 21
13.85695263671878
 72
     1
 10
127.2934704589844
 20
13.85695263671878
 11
127.2934704589844
 21
17.42054907226562
 72
     1
 10
127.2934704589844
 20
17.42054907226562
 11
125.3054987792969
 21
17.42054907226562
 72
     1
 10
125.3054987792969
 20
17.42054907226562
 11
125.3054987792969
 21
13.85695263671878
 72
     1
 10
125.3054987792969
 20
13.85695263671878
 11
119.4020451660157
 21
13.85695263671878
 72
     1
 10
119.4020451660157
 20
13.85695263671878
 11
119.4020451660157
 21
12.60640881347656
 72
     4
 94
        3
 73
     1
 74
     0
 95
        8
 96
        4
 40
8.0
 40
8.0
 40
8.0
 40
8.0
 40
9.0
 40
9.0
 40
9.0
 40
9.0
 10
119.4020451660157
 20
12.60640881347656
 42
1.0
 10
118.3193825683594
 20
13.64412841796875
 42
1.0
 10
116.8892683105469
 20
14.18586279296878
 42
1.0
 10
115.3273481445314
 20
14.1844520263672
 42
1.0
 97
        0
 72
     4
 94
        3
 73
     1
 74
     0
 95
        8
 96
        4
 40
9.0
 40
9.0
 40
9.0
 40
9.0
 40
10.0
 40
10.0
 40
10.0
 40
10.0
 10
115.3273481445314
 20
14.1844520263672
 42
1.0
 10
113.6457143554687
 20
14.18586279296878
 42
1.0
 10
112.1108002929688
 20
13.56653625488287
 42
1.0
 10
111.0039531250001
 20
12.36597387695311
 42
1.0
 97
        0
 72
     4
 94
        3
 73
     1
 74
     0
 95
        8
 96
        4
 40
10.0
 40
10.0
 40
10.0
 40
10.0
 40
11.0
 40
11.0
 40
11.0
 40
11.0
 10
111.0039531250001
 20
12.36597387695311
 42
1.0
 10
109.8983151855469
 20
11.16803149414067
 42
1.0
 10
109.2223564453125
 20
9.398325561523466
 42
1.0
 10
109.2223564453125
 20
7.124774414062535
 42
1.0
 97
        0
 72
     4
 94
        3
 73
     1
 74
     0
 95
        8
 96
        4
 40
11.0
 40
11.0
 40
11.0
 40
11.0
 40
12.0
 40
12.0
 40
12.0
 40
12.0
 10
109.2223564453125
 20
7.124774414062535
 42
1.0
 10
109.2223564453125
 20
4.850215576171879
 42
1.0
 10
109.8983151855469
 20
3.08151733398436
 42
1.0
 10
111.0039531250001
 20
1.882365722656265
 42
1.0
 97
        0
 72
     4
 94
        3
 73
     1
 74
     0
 95
        8
 96
        4
 40
12.0
 40
12.0
 40
12.0
 40
12.0
 40
13.0
 40
13.0
 40
13.0
 40
13.0
 10
111.0039531250001
 20
1.882365722656265
 42
1.0
 10
112.1108002929688
 20
0.6844233398437399
 42
1.0
 10
113.6457143554687
 20
0.0632829589843897
 42
1.0
 10
115.3273481445314
 20
0.0640891113281444
 42
1.0
 97
        0
 72
     1
 10
115.3273481445314
 20
0.0640891113281444
 11
115.3305727539063
 21
0.0640891113281444
 72
     4
 94
        3
 73
     1
 74
     0
 95
        8
 96
        4
 40
14.0
 40
14.0
 40
14.0
 40
14.0
 40
15.0
 40
15.0
 40
15.0
 40
15.0
 10
115.3305727539063
 20
0.0640891113281444
 42
1.0
 10
116.9448928222657
 20
0.0640891113281444
 42
1.0
 10
118.4185393066407
 20
0.6429064941406021
 42
1.0
 10
119.5128911132813
 20
1.749753662109388
 42
1.0
 97
        0
 72
     1
 10
119.5128911132813
 20
1.749753662109388
 11
119.7744875488283
 21
0.391790039062534
 72
     1
 10
119.7744875488283
 20
0.391790039062534
 11
121.4311306152344
 21
0.391790039062534
 72
     1
 10
121.4311306152344
 20
0.391790039062534
 11
121.4311306152344
 21
12.14226660156254
 72
     1
 10
121.4311306152344
 20
12.14226660156253
 11
125.3054987792969
 21
12.14226660156253
 72
     1
 10
125.3054987792969
 20
12.14226660156253
 11
125.3054987792969
 21
2.561549072265661
 72
     4
 94
        3
 73
     1
 74
     0
 95
        8
 96
        4
 40
20.0
 40
20.0
 40
20.0
 40
20.0
 40
21.0
 40
21.0
 40
21.0
 40
21.0
 10
125.3054987792969
 20
2.561549072265662
 42
1.0
 10
125.3022741699219
 20
1.667526123046867
 42
1.0
 10
125.5912797851564
 20
1.080244140624964
 42
1.0
 10
126.0576389160157
 20
0.7464970703124768
 42
1.0
 97
        0
 72
     4
 94
        3
 73
     1
 74
     0
 95
        8
 96
        4
 40
21.0
 40
21.0
 40
21.0
 40
21.0
 40
22.0
 40
22.0
 40
22.0
 40
22.0
 10
126.0576389160157
 20
0.7464970703124768
 42
1.0
 10
126.5215795898438
 20
0.4127499999999895
 42
1.0
 10
127.117326171875
 20
0.3305224609374685
 42
1.0
 10
127.7211342773438
 20
0.3297163085937554
 42
1.0
 97
        0
 72
     4
 94
        2
 73
     1
 74
     0
 95
        6
 96
        3
 40
22.0
 40
22.0
 40
22.0
 40
23.0
 40
23.0
 40
23.0
 10
127.7211342773438
 20
0.3297163085937554
 42
1.0
 10
127.8311740722657
 20
0.3297163085937554
 42
1.0
 10
129.4745156250001
 20
0.3289101562500008
 42
1.0
 97
        0
 72
     1
 10
129.4745156250001
 20
0.3289101562500008
 11
129.4745156250001
 21
2.02142700195318
 72
     4
 94
        2
 73
     1
 74
     0
 95
        6
 96
        3
 40
24.0
 40
24.0
 40
24.0
 40
25.0
 40
25.0
 40
25.0
 10
129.4745156250001
 20
2.02142700195318
 42
1.0
 10
128.829996826172
 20
2.02142700195318
 42
1.0
 10
128.0770505371095
 20
2.02142700195318
 42
1.0
 97
        0
 72
     4
 94
        3
 73
     1
 74
     0
 95
        8
 96
        4
 40
25.0
 40
25.0
 40
25.0
 40
25.0
 40
26.0
 40
26.0
 40
26.0
 40
26.0
 10
128.0770505371095
 20
2.02142700195318
 42
1.0
 10
127.6638974609375
 20
2.032310058593847
 42
1.0
 10
127.5280607910157
 20
2.166937500000091
 42
1.0
 10
127.4135871582032
 20
2.443850830078101
 42
1.0
 97
        0
 97
        0
 92
        0
 93
        5
 72
     4
 94
        3
 73
     1
 74
     0
 95
        8
 96
        4
 40
3.0
 40
3.0
 40
3.0
 40
3.0
 40
4.0
 40
4.0
 40
4.0
 40
4.0
 10
115.3273481445314
 20
12.30631860351568
 42
1.0
 10
117.6506791992189
 20
12.30087707519541
 42
1.0
 10
119.4318728027344
 20
10.42616979980475
 42
1.0
 10
119.4439650878906
 20
7.124774414062535
 42
1.0
 97
        0
 72
     4
 94
        3
 73
     1
 74
     0
 95
        8
 96
        4
 40
4.0
 40
4.0
 40
4.0
 40
4.0
 40
5.0
 40
5.0
 40
5.0
 40
5.0
 10
119.4439650878906
 20
7.124774414062535
 42
1.0
 10
119.4318728027344
 20
3.796574462890612
 42
1.0
 10
117.6522915039063
 20
1.949276367187489
 42
1.0
 10
115.3273481445314
 20
1.942827148437534
 42
1.0
 97
        0
 72
     4
 94
        3
 73
     1
 74
     0
 95
        8
 96
        4
 40
0.0
 40
0.0
 40
0.0
 40
0.0
 40
1.0
 40
1.0
 40
1.0
 40
1.0
 10
115.3273481445314
 20
1.942827148437534
 42
1.0
 10
113.0020017089845
 20
1.949276367187489
 42
1.0
 10
111.2220173339844
 20
3.796574462890612
 42
1.0
 10
111.2111342773437
 20
7.124774414062535
 42
1.0
 97
        0
 72
     1
 10
111.2111342773437
 20
7.124774414062535
 11
111.210328125
 21
7.124774414062535
 72
     4
 94
        3
 73
     1
 74
     0
 95
        8
 96
        4
 40
2.0
 40
2.0
 40
2.0
 40
2.0
 40
3.0
 40
3.0
 40
3.0
 40
3.0
 10
111.210328125
 20
7.124774414062535
 42
1.0
 10
111.2220173339844
 20
10.42616979980475
 42
1.0
 10
113.003614013672
 20
12.30087707519541
 42
1.0
 10
115.3273481445314
 20
12.30631860351568
 42
1.0
 97
        0
 97
        0
 75
     0
 76
     1
 98
        1
 10
0.0
 20
0.0
  0
ENDBLK
  5
6A
330
68
100
AcDbEntity
  8
0
100
AcDbBlockEnd
  0
BLOCK
  5
261
330
260
100
AcDbEntity
  8
0
100
AcDbBlockBegin
  2
_D
 70
     0
 10
0.0
 20
0.0
 30
0.0
  3
_D
  1

  0
SOLID
  5
263
330
260
100
AcDbEntity
  8
0
  6
SLD-Durchgehend
 62
     7
370
    18
100
AcDbTrace
 10
172.5091487536
 20
750.2386029481
 30
0.0
 11
170.9851487536
 21
740.3326029481
 31
0.0
 12
174.0331487536
 22
740.3326029481
 32
0.0
 13
174.0331487536
 23
740.3326029481
 33
0.0
  0
SOLID
  5
264
330
260
100
AcDbEntity
  8
0
  6
SLD-Durchgehend
 62
     7
370
    18
100
AcDbTrace
 10
172.5091487536
 20
665.2386029481
 30
0.0
 11
174.0331487536
 21
675.1446029481
 31
0.0
 12
170.9851487536
 22
675.1446029481
 32
0.0
 13
170.9851487536
 23
675.1446029481
 33
0.0
  0
LINE
  5
265
330
260
100
AcDbEntity
  8
0
  6
SLD-Durchgehend
 62
     7
370
     0
100
AcDbLine
 10
205.8883849469
 20
750.2386029481
 30
0.0
 11
169.5091487536
 21
750.2386029481
 31
0.0
  0
LINE
  5
266
330
260
100
AcDbEntity
  8
0
  6
SLD-Durchgehend
 62
     7
370
     0
100
AcDbLine
 10
205.8883849469
 20
665.2386029481
 30
0.0
 11
169.5091487536
 21
665.2386029481
 31
0.0
  0
LINE
  5
267
330
260
100
AcDbEntity
  8
0
  6
SLD-Durchgehend
 62
     7
370
     0
100
AcDbLine
 10
172.5091487536
 20
750.2386029481
 30
0.0
 11
172.5091487536
 21
665.2386029481
 31
0.0
  0
MTEXT
  5
268
330
260
100
AcDbEntity
  8
0
  6
SLD-Durchgehend
 62
     7
370
    18
100
AcDbMText
 10
159.0970399025
 20
697.9206235787
 30
0.0
 40
10.5
 41
0.0
 46
0.0
 71
     1
 72
     1
  1
85
  7
SLDTEXTSTYLE0
 11
-7.044195017643634E-15
 21
1.0
 31
0.0
 73
     1
 44
1.0
  0
ENDBLK
  5
262
330
260
100
AcDbEntity
  8
0
100
AcDbBlockEnd
  0
BLOCK
  5
36B
330
36A
100
AcDbEntity
  8
0
100
AcDbBlockBegin
  2
_D_1
 70
     0
 10
0.0
 20
0.0
 30
0.0
  3
_D_1
  1

  0
SOLID
  5
36D
330
36A
100
AcDbEntity
  8
0
  6
SLD-Durchgehend
 62
     7
370
    18
100
AcDbTrace
 10
314.9115826881
 20
469.2386029481
 30
0.0
 11
316.4355826881
 21
479.1446029481
 31
0.0
 12
313.3875826881
 22
479.1446029481
 32
0.0
 13
313.3875826881
 23
479.1446029481
 33
0.0
  0
SOLID
  5
36E
330
36A
100
AcDbEntity
  8
0
  6
SLD-Durchgehend
 62
     7
370
    18
100
AcDbTrace
 10
314.9115826881
 20
752.2386029481
 30
0.0
 11
313.3875826881
 21
742.3326029481
 31
0.0
 12
316.4355826881
 22
742.3326029481
 32
0.0
 13
316.4355826881
 23
742.3326029481
 33
0.0
  0
LINE
  5
36F
330
36A
100
AcDbEntity
  8
0
  6
SLD-Durchgehend
 62
     7
370
     0
100
AcDbLine
 10
343.8548839583
 20
469.2386029481
 30
0.0
 11
311.9115826881
 21
469.2386029481
 31
0.0
  0
LINE
  5
370
330
36A
100
AcDbEntity
  8
0
  6
SLD-Durchgehend
 62
     7
370
     0
100
AcDbLine
 10
343.8548839583
 20
752.2386029481
 30
0.0
 11
311.9115826881
 21
752.2386029481
 31
0.0
  0
LINE
  5
371
330
36A
100
AcDbEntity
  8
0
  6
SLD-Durchgehend
 62
     7
370
     0
100
AcDbLine
 10
314.9115826881
 20
469.2386029481
 30
0.0
 11
314.9115826881
 21
752.2386029481
 31
0.0
  0
MTEXT
  5
372
330
36A
100
AcDbEntity
  8
0
  6
SLD-Durchgehend
 62
     7
370
    18
100
AcDbMText
 10
301.499473837
 20
600.4099149413
 30
0.0
 40
10.5
 41
0.0
 46
0.0
 71
     1
 72
     1
  1
283
  7
SLDTEXTSTYLE0
 11
6.123233995736766E-17
 21
1.0
 31
0.0
 73
     1
 44
1.0
  0
ENDBLK
  5
36C
330
36A
100
AcDbEntity
  8
0
100
AcDbBlockEnd
  0
BLOCK
  5
3DD
330
3DC
100
AcDbEntity
  8
0
100
AcDbBlockBegin
  2
_D_2
 70
     0
 10
0.0
 20
0.0
 30
0.0
  3
_D_2
  1

  0
SOLID
  5
3DF
330
3DC
100
AcDbEntity
  8
ZEICHNUNG
 62
     1
100
AcDbTrace
 10
195.5883849469
 20
412.2030272185
 30
0.0
 11
185.6823849469
 21
413.7270272185
 31
0.0
 12
185.6823849469
 22
410.6790272185
 32
0.0
 13
185.6823849469
 23
410.6790272185
 33
0.0
  0
SOLID
  5
3E0
330
3DC
100
AcDbEntity
  8
ZEICHNUNG
 62
     1
100
AcDbTrace
 10
225.5883849469
 20
412.2030272185
 30
0.0
 11
235.4943849469
 21
410.6790272185
 31
0.0
 12
235.4943849469
 22
413.7270272185
 32
0.0
 13
235.4943849469
 23
413.7270272185
 33
0.0
  0
LINE
  5
3E1
330
3DC
100
AcDbEntity
  8
ZEICHNUNG
 62
     1
100
AcDbLine
 10
195.5883849469
 20
383.3597259483
 30
0.0
 11
195.5883849469
 21
415.2030272185
 31
0.0
  0
LINE
  5
3E2
330
3DC
100
AcDbEntity
  8
ZEICHNUNG
 62
     1
100
AcDbLine
 10
225.5883849469
 20
383.3597259483
 30
0.0
 11
225.5883849469
 21
415.2030272185
 31
0.0
  0
LINE
  5
3E3
330
3DC
100
AcDbEntity
  8
ZEICHNUNG
 62
     1
100
AcDbLine
 10
195.5883849469
 20
412.2030272185
 30
0.0
 11
176.5383849469
 21
412.2030272185
 31
0.0
  0
LINE
  5
3E4
330
3DC
100
AcDbEntity
  8
ZEICHNUNG
 62
     1
100
AcDbLine
 10
195.5883849469
 20
412.2030272185
 30
0.0
 11
225.5883849469
 21
412.2030272185
 31
0.0
  0
LINE
  5
3E5
330
3DC
100
AcDbEntity
  8
ZEICHNUNG
 62
     1
100
AcDbLine
 10
225.5883849469
 20
412.2030272185
 30
0.0
 11
244.6383849469
 21
412.2030272185
 31
0.0
  0
MTEXT
  5
3E6
330
3DC
100
AcDbEntity
  8
ZEICHNUNG
 62
     1
100
AcDbMText
 10
202.8300513663
 20
425.6151360697
 30
0.0
 40
10.5
 41
0.0
 46
0.0
 71
     1
 72
     1
  1
30
  7
SLDTEXTSTYLE0
 73
     1
 44
1.0
  0
ENDBLK
  5
3DE
330
3DC
100
AcDbEntity
  8
0
100
AcDbBlockEnd
  0
BLOCK
  5
3E9
330
3E8
100
AcDbEntity
  8
0
100
AcDbBlockBegin
  2
_D_3
 70
     0
 10
0.0
 20
0.0
 30
0.0
  3
_D_3
  1

  0
SOLID
  5
3EB
330
3E8
100
AcDbEntity
  8
ZEICHNUNG
 62
     1
100
AcDbTrace
 10
165.5883849469
 20
237.3597259483
 30
0.0
 11
167.1123849469
 21
247.2657259483
 31
0.0
 12
164.0643849469
 22
247.2657259483
 32
0.0
 13
164.0643849469
 23
247.2657259483
 33
0.0
  0
SOLID
  5
3EC
330
3E8
100
AcDbEntity
  8
ZEICHNUNG
 62
     1
100
AcDbTrace
 10
165.5883849469
 20
346.3597259483
 30
0.0
 11
164.0643849469
 21
336.4537259483
 31
0.0
 12
167.1123849469
 22
336.4537259483
 32
0.0
 13
167.1123849469
 23
336.4537259483
 33
0.0
  0
LINE
  5
3ED
330
3E8
100
AcDbEntity
  8
ZEICHNUNG
 62
     1
100
AcDbLine
 10
205.8883849469
 20
237.3597259483
 30
0.0
 11
162.5883849469
 21
237.3597259483
 31
0.0
  0
LINE
  5
3EE
330
3E8
100
AcDbEntity
  8
ZEICHNUNG
 62
     1
100
AcDbLine
 10
207.5883849469
 20
346.3597259483
 30
0.0
 11
162.5883849469
 21
346.3597259483
 31
0.0
  0
LINE
  5
3EF
330
3E8
100
AcDbEntity
  8
ZEICHNUNG
 62
     1
100
AcDbLine
 10
165.5883849469
 20
237.3597259483
 30
0.0
 11
165.5883849469
 21
346.3597259483
 31
0.0
  0
MTEXT
  5
3F0
330
3E8
100
AcDbEntity
  8
ZEICHNUNG
 62
     1
100
AcDbMText
 10
152.1762760958
 20
279.3415114257
 30
0.0
 40
10.5
 41
0.0
 46
0.0
 71
     1
 72
     1
  1
109
  7
SLDTEXTSTYLE0
 11
6.123233995736766E-17
 21
1.0
 31
0.0
 73
     1
 44
1.0
  0
ENDBLK
  5
3EA
330
3E8
100
AcDbEntity
  8
0
100
AcDbBlockEnd
  0
BLOCK
  5
3F3
330
3F2
100
AcDbEntity
  8
0
100
AcDbBlockBegin
  2
_D_4
 70
     0
 10
0.0
 20
0.0
 30
0.0
  3
_D_4
  1

  0
SOLID
  5
3F5
330
3F2
100
AcDbEntity
  8
ZEICHNUNG
 62
     1
100
AcDbTrace
 10
147.5883849469
 20
380.3597259483
 30
0.0
 11
146.0643849469
 21
370.4537259483
 31
0.0
 12
149.1123849469
 22
370.4537259483
 32
0.0
 13
149.1123849469
 23
370.4537259483
 33
0.0
  0
SOLID
  5
3F6
330
3F2
100
AcDbEntity
  8
ZEICHNUNG
 62
     1
100
AcDbTrace
 10
147.5883849469
 20
237.3597259483
 30
0.0
 11
149.1123849469
 21
247.2657259483
 31
0.0
 12
146.0643849469
 22
247.2657259483
 32
0.0
 13
146.0643849469
 23
247.2657259483
 33
0.0
  0
LINE
  5
3F7
330
3F2
100
AcDbEntity
  8
ZEICHNUNG
 62
     1
100
AcDbLine
 10
192.5883849469
 20
380.3597259483
 30
0.0
 11
144.5883849469
 21
380.3597259483
 31
0.0
  0
LINE
  5
3F8
330
3F2
100
AcDbEntity
  8
ZEICHNUNG
 62
     1
100
AcDbLine
 10
205.8883849469
 20
237.3597259483
 30
0.0
 11
144.5883849469
 21
237.3597259483
 31
0.0
  0
LINE
  5
3F9
330
3F2
100
AcDbEntity
  8
ZEICHNUNG
 62
     1
100
AcDbLine
 10
147.5883849469
 20
380.3597259483
 30
0.0
 11
147.5883849469
 21
237.3597259483
 31
0.0
  0
MTEXT
  5
3FA
330
3F2
100
AcDbEntity
  8
ZEICHNUNG
 62
     1
100
AcDbMText
 10
134.1762760958
 20
297.2222259267
 30
0.0
 40
10.5
 41
0.0
 46
0.0
 71
     1
 72
     1
  1
143
  7
SLDTEXTSTYLE0
 11
-7.044195017643634E-15
 21
1.0
 31
0.0
 73
     1
 44
1.0
  0
ENDBLK
  5
3F4
330
3F2
100
AcDbEntity
  8
0
100
AcDbBlockEnd
  0
ENDSEC
  0
SECTION
  2
ENTITIES
  0
LINE
  5
11C
330
1F
100
AcDbEntity
  8
0
  6
SLD-Durchgehend
 62
     7
370
    25
100
AcDbLine
 10
212.5946349469
 20
480.4952297978
 30
0.0
 11
212.5883849469
 21
480.4952297978
 31
0.0
  0
LINE
  5
11D
330
1F
100
AcDbEntity
  8
0
  6
SLD-Durchgehend
 62
     7
370
    25
100
AcDbLine
 10
212.5946349469
 20
480.4954588358
 30
0.0
 11
212.5883849469
 21
480.4954588358
 31
0.0
  0
LINE
  5
11E
330
1F
100
AcDbEntity
  8
0
  6
SLD-Durchgehend
 62
     7
370
    25
100
AcDbLine
 10
212.5946349469
 20
480.4908179316
 30
0.0
 11
212.5883849469
 21
480.4908179316
 31
0.0
  0
ARC
  5
11F
330
1F
100
AcDbEntity
  8
0
  6
SLD-Durchgehend
 62
     7
370
    25
100
AcDbCircle
 10
199.8883849469
 20
489.9386029481
 30
0.0
 40
0.3000000000000114
100
AcDbArc
 50
90.0
 51
180.0
  0
ARC
  5
120
330
1F
100
AcDbEntity
  8
0
  6
SLD-Durchgehend
 62
     7
370
    25
100
AcDbCircle
 10
221.2883849469
 20
489.9386029481
 30
0.0
 40
0.3000000000000114
100
AcDbArc
 50
0.0
 51
90.0
  0
LINE
  5
121
330
1F
100
AcDbEntity
  8
0
  6
SLD-Durchgehend
 62
     7
370
    25
100
AcDbLine
 10
221.5883849469
 20
475.1386029481
 30
0.0
 11
221.5883849469
 21
489.9386029481
 31
0.0
  0
LINE
  5
122
330
1F
100
AcDbEntity
  8
0
  6
SLD-Durchgehend
 62
     7
370
    25
100
AcDbLine
 10
199.5883849469
 20
489.9386029481
 30
0.0
 11
199.5883849469
 21
475.1386029481
 31
0.0
  0
ARC
  5
123
330
1F
100
AcDbEntity
  8
0
  6
SLD-Durchgehend
 62
     7
370
    25
100
AcDbCircle
 10
199.8883849469
 20
475.1386029481
 30
0.0
 40
0.3000000000000114
100
AcDbArc
 50
180.0
 51
270.0
  0
ARC
  5
124
330
1F
100
AcDbEntity
  8
0
  6
SLD-Durchgehend
 62
     7
370
    25
100
AcDbCircle
 10
221.2883849469
 20
475.1386029481
 30
0.0
 40
0.2999999999999829
100
AcDbArc
 50
270.0
 51
0.0
  0
LINE
  5
125
330
1F
100
AcDbEntity
  8
0
  6
SLD-Durchgehend
 62
     7
370
    25
100
AcDbLine
 10
215.5883849469
 20
469.1886029481
 30
0.0
 11
215.5883849469
 21
469.2386029481
 31
0.0
  0
LINE
  5
126
330
1F
100
AcDbEntity
  8
0
  6
SLD-Durchgehend
 62
     7
370
    25
100
AcDbLine
 10
205.5883849469
 20
469.2386029481
 30
0.0
 11
205.5883849469
 21
469.1886029481
 31
0.0
  0
LINE
  5
127
330
1F
100
AcDbEntity
  8
0
  6
SLD-Durchgehend
 62
     7
370
    25
100
AcDbLine
 10
205.5883849469
 20
752.2886029481
 30
0.0
 11
205.5883849469
 21
752.2386029481
 31
0.0
  0
LINE
  5
128
330
1F
100
AcDbEntity
  8
0
  6
SLD-Durchgehend
 62
     7
370
    25
100
AcDbLine
 10
215.5883849469
 20
752.2386029481
 30
0.0
 11
215.5883849469
 21
752.2886029481
 31
0.0
  0
LINE
  5
129
330
1F
100
AcDbEntity
  8
0
  6
SLD-Durchgehend
 62
     7
370
    25
100
AcDbLine
 10
221.5883849469
 20
560.1386029481
 30
0.0
 11
221.5883849469
 21
574.9386029481
 31
0.0
  0
LINE
  5
12A
330
1F
100
AcDbEntity
  8
0
  6
SLD-Durchgehend
 62
     7
370
    25
100
AcDbLine
 10
199.5883849469
 20
574.9386029481
 30
0.0
 11
199.5883849469
 21
560.1386029481
 31
0.0
  0
ARC
  5
12B
330
1F
100
AcDbEntity
  8
0
  6
SLD-Durchgehend
 62
     7
370
    25
100
AcDbCircle
 10
199.8883849469
 20
574.9386029481
 30
0.0
 40
0.3000000000000114
100
AcDbArc
 50
90.0
 51
180.0
  0
ARC
  5
12C
330
1F
100
AcDbEntity
  8
0
  6
SLD-Durchgehend
 62
     7
370
    25
100
AcDbCircle
 10
221.2883849469
 20
574.9386029481
 30
0.0
 40
0.2999999999999829
100
AcDbArc
 50
0.0
 51
90.0
  0
ARC
  5
12D
330
1F
100
AcDbEntity
  8
0
  6
SLD-Durchgehend
 62
     7
370
    25
100
AcDbCircle
 10
199.8883849469
 20
560.1386029481
 30
0.0
 40
0.3000000000000114
100
AcDbArc
 50
180.0
 51
270.0
  0
ARC
  5
12E
330
1F
100
AcDbEntity
  8
0
  6
SLD-Durchgehend
 62
     7
370
    25
100
AcDbCircle
 10
221.2883849469
 20
560.1386029481
 30
0.0
 40
0.2999999999999829
100
AcDbArc
 50
270.0
 51
0.0
  0
ARC
  5
12F
330
1F
100
AcDbEntity
  8
0
  6
SLD-Durchgehend
 62
     7
370
    25
100
AcDbCircle
 10
199.8883849469
 20
645.1386029481
 30
0.0
 40
0.3000000000000682
100
AcDbArc
 50
180.0
 51
270.0
  0
ARC
  5
130
330
1F
100
AcDbEntity
  8
0
  6
SLD-Durchgehend
 62
     7
370
    25
100
AcDbCircle
 10
221.2883849469
 20
645.1386029481
 30
0.0
 40
0.3000000000000682
100
AcDbArc
 50
270.0
 51
0.0
  0
LINE
  5
131
330
1F
100
AcDbEntity
  8
0
  6
SLD-Durchgehend
 62
     7
370
    25
100
AcDbLine
 10
221.5883849469
 20
645.1386029481
 30
0.0
 11
221.5883849469
 21
659.9386029481
 31
0.0
  0
LINE
  5
132
330
1F
100
AcDbEntity
  8
0
  6
SLD-Durchgehend
 62
     7
370
    25
100
AcDbLine
 10
199.5883849469
 20
659.9386029481
 30
0.0
 11
199.5883849469
 21
645.1386029481
 31
0.0
  0
ARC
  5
133
330
1F
100
AcDbEntity
  8
0
  6
SLD-Durchgehend
 62
     7
370
    25
100
AcDbCircle
 10
199.8883849469
 20
659.9386029481
 30
0.0
 40
0.3000000000000682
100
AcDbArc
 50
90.0
 51
180.0
  0
ARC
  5
134
330
1F
100
AcDbEntity
  8
0
  6
SLD-Durchgehend
 62
     7
370
    25
100
AcDbCircle
 10
221.2883849469
 20
659.9386029481
 30
0.0
 40
0.3000000000000682
100
AcDbArc
 50
0.0
 51
90.0
  0
ARC
  5
135
330
1F
100
AcDbEntity
  8
0
  6
SLD-Durchgehend
 62
     7
370
    25
100
AcDbCircle
 10
199.8883849469
 20
730.1386029481
 30
0.0
 40
0.3000000000000114
100
AcDbArc
 50
180.0
 51
270.0
  0
ARC
  5
136
330
1F
100
AcDbEntity
  8
0
  6
SLD-Durchgehend
 62
     7
370
    25
100
AcDbCircle
 10
221.2883849469
 20
730.1386029481
 30
0.0
 40
0.2999999999999829
100
AcDbArc
 50
270.0
 51
0.0
  0
ARC
  5
137
330
1F
100
AcDbEntity
  8
0
  6
SLD-Durchgehend
 62
     7
370
    25
100
AcDbCircle
 10
199.8883849469
 20
744.9386029481
 30
0.0
 40
0.3000000000000682
100
AcDbArc
 50
90.0
 51
180.0
  0
ARC
  5
138
330
1F
100
AcDbEntity
  8
0
  6
SLD-Durchgehend
 62
     7
370
    25
100
AcDbCircle
 10
221.2883849469
 20
744.9386029481
 30
0.0
 40
0.3000000000000682
100
AcDbArc
 50
0.0
 51
90.0
  0
LINE
  5
139
330
1F
100
AcDbEntity
  8
0
  6
SLD-Durchgehend
 62
     7
370
    25
100
AcDbLine
 10
221.5883849469
 20
730.1386029481
 30
0.0
 11
221.5883849469
 21
744.9386029481
 31
0.0
  0
LINE
  5
13A
330
1F
100
AcDbEntity
  8
0
  6
SLD-Durchgehend
 62
     7
370
    25
100
AcDbLine
 10
199.5883849469
 20
744.9386029481
 30
0.0
 11
199.5883849469
 21
730.1386029481
 31
0.0
  0
LINE
  5
13B
330
1F
100
AcDbEntity
  8
0
  6
SLD-Durchgehend
 62
     7
370
    25
100
AcDbLine
 10
200.0883849469
 20
747.2386029481
 30
0.0
 11
200.0883849469
 21
746.6386029481
 31
0.0
  0
LINE
  5
13C
330
1F
100
AcDbEntity
  8
0
  6
SLD-Durchgehend
 62
     7
370
    25
100
AcDbLine
 10
221.0883849469
 20
746.6386029481
 30
0.0
 11
221.0883849469
 21
747.2386029481
 31
0.0
  0
LINE
  5
13D
330
1F
100
AcDbEntity
  8
0
  6
SLD-Durchgehend
 62
     7
370
    25
100
AcDbLine
 10
201.4883849469
 20
746.6386029481
 30
0.0
 11
201.4883849469
 21
745.2386029481
 31
0.0
  0
LINE
  5
13E
330
1F
100
AcDbEntity
  8
0
  6
SLD-Durchgehend
 62
     7
370
    25
100
AcDbLine
 10
219.6883849469
 20
745.2386029481
 30
0.0
 11
219.6883849469
 21
746.6386029481
 31
0.0
  0
LINE
  5
13F
330
1F
100
AcDbEntity
  8
0
  6
SLD-Durchgehend
 62
     7
370
    25
100
AcDbLine
 10
200.6383849469
 20
474.4886029481
 30
0.0
 11
200.8883849469
 21
474.2386029481
 31
0.0
  0
LINE
  5
140
330
1F
100
AcDbEntity
  8
0
  6
SLD-Durchgehend
 62
     7
370
    25
100
AcDbLine
 10
220.2883849469
 20
474.2386029481
 30
0.0
 11
220.5383849469
 21
474.4886029481
 31
0.0
  0
LINE
  5
141
330
1F
100
AcDbEntity
  8
0
  6
SLD-Durchgehend
 62
     7
370
    25
100
AcDbLine
 10
220.5383849469
 20
474.4886029481
 30
0.0
 11
220.5383849469
 21
474.8386029481
 31
0.0
  0
LINE
  5
142
330
1F
100
AcDbEntity
  8
0
  6
SLD-Durchgehend
 62
     7
370
    25
100
AcDbLine
 10
200.6383849469
 20
474.8386029481
 30
0.0
 11
200.6383849469
 21
474.4886029481
 31
0.0
  0
LINE
  5
143
330
1F
100
AcDbEntity
  8
0
  6
SLD-Durchgehend
 62
     7
370
    25
100
AcDbLine
 10
201.5883849469
 20
575.4386029481
 30
0.0
 11
201.5883849469
 21
575.2386029481
 31
0.0
  0
LINE
  5
144
330
1F
100
AcDbEntity
  8
0
  6
SLD-Durchgehend
 62
     7
370
    25
100
AcDbLine
 10
219.5883849469
 20
575.2386029481
 30
0.0
 11
219.5883849469
 21
575.4386029481
 31
0.0
  0
LINE
  5
145
330
1F
100
AcDbEntity
  8
0
  6
SLD-Durchgehend
 62
     7
370
    25
100
AcDbLine
 10
201.5883849469
 20
490.4386029481
 30
0.0
 11
201.5883849469
 21
490.2386029481
 31
0.0
  0
LINE
  5
146
330
1F
100
AcDbEntity
  8
0
  6
SLD-Durchgehend
 62
     7
370
    25
100
AcDbLine
 10
219.5883849469
 20
490.2386029481
 30
0.0
 11
219.5883849469
 21
490.4386029481
 31
0.0
  0
LINE
  5
147
330
1F
100
AcDbEntity
  8
0
  6
SLD-Durchgehend
 62
     7
370
    25
100
AcDbLine
 10
201.5883849469
 20
660.4386029481
 30
0.0
 11
201.5883849469
 21
660.2386029481
 31
0.0
  0
LINE
  5
148
330
1F
100
AcDbEntity
  8
0
  6
SLD-Durchgehend
 62
     7
370
    25
100
AcDbLine
 10
219.5883849469
 20
660.2386029481
 30
0.0
 11
219.5883849469
 21
660.4386029481
 31
0.0
  0
LINE
  5
149
330
1F
100
AcDbEntity
  8
0
  6
SLD-Durchgehend
 62
     7
370
    25
100
AcDbLine
 10
221.5883849469
 20
575.4386029481
 30
0.0
 11
221.5883849469
 21
644.8386029481
 31
0.0
  0
LINE
  5
14A
330
1F
100
AcDbEntity
  8
0
  6
SLD-Durchgehend
 62
     7
370
    25
100
AcDbLine
 10
199.5883849469
 20
644.8386029481
 30
0.0
 11
199.5883849469
 21
575.4386029481
 31
0.0
  0
LINE
  5
14B
330
1F
100
AcDbEntity
  8
0
  6
SLD-Durchgehend
 62
     7
370
    25
100
AcDbLine
 10
221.5883849469
 20
660.4386029481
 30
0.0
 11
221.5883849469
 21
729.8386029481
 31
0.0
  0
LINE
  5
14C
330
1F
100
AcDbEntity
  8
0
  6
SLD-Durchgehend
 62
     7
370
    25
100
AcDbLine
 10
199.5883849469
 20
729.8386029481
 30
0.0
 11
199.5883849469
 21
660.4386029481
 31
0.0
  0
LINE
  5
14D
330
1F
100
AcDbEntity
  8
0
  6
SLD-Durchgehend
 62
     7
370
    25
100
AcDbLine
 10
221.5883849469
 20
490.4386029481
 30
0.0
 11
221.5883849469
 21
559.8386029481
 31
0.0
  0
LINE
  5
14E
330
1F
100
AcDbEntity
  8
0
  6
SLD-Durchgehend
 62
     7
370
    25
100
AcDbLine
 10
199.5883849469
 20
559.8386029481
 30
0.0
 11
199.5883849469
 21
490.4386029481
 31
0.0
  0
LINE
  5
14F
330
1F
100
AcDbEntity
  8
0
  6
SLD-Durchgehend
 62
     7
370
    25
100
AcDbLine
 10
212.2883849469
 20
476.8386029481
 30
0.0
 11
212.2883849469
 21
493.2386029481
 31
0.0
  0
LINE
  5
150
330
1F
100
AcDbEntity
  8
0
  6
SLD-Durchgehend
 62
     7
370
    25
100
AcDbLine
 10
212.2883849469
 20
493.2386029481
 30
0.0
 11
212.5883849469
 21
493.2386029481
 31
0.0
  0
LINE
  5
151
330
1F
100
AcDbEntity
  8
0
  6
SLD-Durchgehend
 62
     7
370
    25
100
AcDbLine
 10
212.5883849469
 20
493.2386029481
 30
0.0
 11
212.5883849469
 21
476.8386029481
 31
0.0
  0
LINE
  5
152
330
1F
100
AcDbEntity
  8
0
  6
SLD-Durchgehend
 62
     7
370
    25
100
AcDbLine
 10
212.2883849469
 20
476.8386029481
 30
0.0
 11
212.5883849469
 21
476.8386029481
 31
0.0
  0
LINE
  5
153
330
1F
100
AcDbEntity
  8
0
  6
SLD-Durchgehend
 62
     7
370
    25
100
AcDbLine
 10
208.8883849469
 20
493.2386029481
 30
0.0
 11
208.8883849469
 21
476.8386029481
 31
0.0
  0
LINE
  5
154
330
1F
100
AcDbEntity
  8
0
  6
SLD-Durchgehend
 62
     7
370
    25
100
AcDbLine
 10
212.2883849469
 20
493.2386029481
 30
0.0
 11
208.8883849469
 21
493.2386029481
 31
0.0
  0
LINE
  5
155
330
1F
100
AcDbEntity
  8
0
  6
SLD-Durchgehend
 62
     7
370
    25
100
AcDbLine
 10
208.8883849469
 20
476.8386029481
 30
0.0
 11
212.2883849469
 21
476.8386029481
 31
0.0
  0
LINE
  5
156
330
1F
100
AcDbEntity
  8
0
  6
SLD-Durchgehend
 62
     7
370
    25
100
AcDbLine
 10
208.8883849469
 20
476.8386029481
 30
0.0
 11
208.8883849469
 21
474.8386029481
 31
0.0
  0
LINE
  5
157
330
1F
100
AcDbEntity
  8
0
  6
SLD-Durchgehend
 62
     7
370
    25
100
AcDbLine
 10
212.2883849469
 20
474.8386029481
 30
0.0
 11
212.2883849469
 21
476.8386029481
 31
0.0
  0
LINE
  5
158
330
1F
100
AcDbEntity
  8
0
  6
SLD-Durchgehend
 62
     7
370
    25
100
AcDbLine
 10
212.2883849469
 20
474.8386029481
 30
0.0
 11
208.8883849469
 21
474.8386029481
 31
0.0
  0
LINE
  5
159
330
1F
100
AcDbEntity
  8
0
  6
SLD-Durchgehend
 62
     7
370
    25
100
AcDbLine
 10
208.8883849469
 20
495.2386029481
 30
0.0
 11
208.8883849469
 21
493.2386029481
 31
0.0
  0
LINE
  5
15A
330
1F
100
AcDbEntity
  8
0
  6
SLD-Durchgehend
 62
     7
370
    25
100
AcDbLine
 10
208.8883849469
 20
495.2386029481
 30
0.0
 11
212.2883849469
 21
495.2386029481
 31
0.0
  0
LINE
  5
15B
330
1F
100
AcDbEntity
  8
0
  6
SLD-Durchgehend
 62
     7
370
    25
100
AcDbLine
 10
212.2883849469
 20
493.2386029481
 30
0.0
 11
212.2883849469
 21
495.2386029481
 31
0.0
  0
LINE
  5
15C
330
1F
100
AcDbEntity
  8
0
  6
SLD-Durchgehend
 62
     7
370
    25
100
AcDbLine
 10
208.5883849469
 20
475.1386029481
 30
0.0
 11
208.5883849469
 21
476.8386029481
 31
0.0
  0
LINE
  5
15D
330
1F
100
AcDbEntity
  8
0
  6
SLD-Durchgehend
 62
     7
370
    25
100
AcDbLine
 10
208.5883849469
 20
476.8386029481
 30
0.0
 11
208.8883849469
 21
476.8386029481
 31
0.0
  0
ARC
  5
15E
330
1F
100
AcDbEntity
  8
0
  6
SLD-Durchgehend
 62
     7
370
    25
100
AcDbCircle
 10
208.8883849469
 20
475.1386029481
 30
0.0
 40
0.2999999999999829
100
AcDbArc
 50
180.0
 51
270.0
  0
LINE
  5
15F
330
1F
100
AcDbEntity
  8
0
  6
SLD-Durchgehend
 62
     7
370
    25
100
AcDbLine
 10
208.5883849469
 20
476.8386029481
 30
0.0
 11
208.5883849469
 21
493.2386029481
 31
0.0
  0
LINE
  5
160
330
1F
100
AcDbEntity
  8
0
  6
SLD-Durchgehend
 62
     7
370
    25
100
AcDbLine
 10
208.5883849469
 20
493.2386029481
 30
0.0
 11
208.8883849469
 21
493.2386029481
 31
0.0
  0
LINE
  5
161
330
1F
100
AcDbEntity
  8
0
  6
SLD-Durchgehend
 62
     7
370
    25
100
AcDbLine
 10
208.5883849469
 20
493.2386029481
 30
0.0
 11
208.5883849469
 21
494.9386029481
 31
0.0
  0
ARC
  5
162
330
1F
100
AcDbEntity
  8
0
  6
SLD-Durchgehend
 62
     7
370
    25
100
AcDbCircle
 10
208.8883849469
 20
494.9386029481
 30
0.0
 40
0.3000000000000114
100
AcDbArc
 50
90.0
 51
180.0
  0
LINE
  5
163
330
1F
100
AcDbEntity
  8
0
  6
SLD-Durchgehend
 62
     7
370
    25
100
AcDbLine
 10
212.5883849469
 20
476.8386029481
 30
0.0
 11
212.5883849469
 21
475.1386029481
 31
0.0
  0
ARC
  5
164
330
1F
100
AcDbEntity
  8
0
  6
SLD-Durchgehend
 62
     7
370
    25
100
AcDbCircle
 10
212.2883849469
 20
475.1386029481
 30
0.0
 40
0.3000000000000114
100
AcDbArc
 50
270.0
 51
0.0
  0
ARC
  5
165
330
1F
100
AcDbEntity
  8
0
  6
SLD-Durchgehend
 62
     7
370
    25
100
AcDbCircle
 10
212.2883849469
 20
494.9386029481
 30
0.0
 40
0.3000000000000114
100
AcDbArc
 50
0.0
 51
90.0
  0
LINE
  5
166
330
1F
100
AcDbEntity
  8
0
  6
SLD-Durchgehend
 62
     7
370
    25
100
AcDbLine
 10
212.5883849469
 20
494.9386029481
 30
0.0
 11
212.5883849469
 21
493.2386029481
 31
0.0
  0
LINE
  5
167
330
1F
100
AcDbEntity
  8
0
  6
SLD-Durchgehend
 62
     7
370
    25
100
AcDbLine
 10
212.5883849469
 20
475.1386029481
 30
0.0
 11
213.9730003315
 21
475.1386029481
 31
0.0
  0
LWPOLYLINE
  5
168
330
1F
100
AcDbEntity
  8
0
  6
SLD-Durchgehend
 62
     7
370
    25
100
AcDbPolyline
 90
        9
 70
   128
 43
0.0
 10
213.8806926392
 20
474.8386029481
 10
213.8987009766
 20
474.844367364
 10
213.9160172637
 20
474.8614390883
 10
213.9319760453
 20
474.8891620644
 10
213.9459640344
 20
474.9264709137
 10
213.9574436804
 20
474.9719318782
 10
213.9659738268
 20
475.0237979184
 10
213.9712266651
 20
475.0800758515
 10
213.9730003315
 20
475.1386029481
  0
LINE
  5
169
330
1F
100
AcDbEntity
  8
0
  6
SLD-Durchgehend
 62
     7
370
    25
100
AcDbLine
 10
213.8806926392
 20
474.8386029481
 30
0.0
 11
212.2883849469
 21
474.8386029481
 31
0.0
  0
LWPOLYLINE
  5
16A
330
1F
100
AcDbEntity
  8
0
  6
SLD-Durchgehend
 62
     7
370
    25
100
AcDbPolyline
 90
        9
 70
   128
 43
0.0
 10
207.2960772546
 20
474.8386029481
 10
207.2780689172
 20
474.844367364
 10
207.2607526301
 20
474.8614390883
 10
207.2447938485
 20
474.8891620644
 10
207.2308058594
 20
474.9264709137
 10
207.2193262135
 20
474.9719318782
 10
207.210796067
 20
475.0237979184
 10
207.2055432287
 20
475.0800758515
 10
207.2037695623
 20
475.1386029481
  0
LINE
  5
16B
330
1F
100
AcDbEntity
  8
0
  6
SLD-Durchgehend
 62
     7
370
    25
100
AcDbLine
 10
207.2037695623
 20
475.1386029481
 30
0.0
 11
208.5883849469
 21
475.1386029481
 31
0.0
  0
LINE
  5
16C
330
1F
100
AcDbEntity
  8
0
  6
SLD-Durchgehend
 62
     7
370
    25
100
AcDbLine
 10
208.8883849469
 20
474.8386029481
 30
0.0
 11
207.2960772546
 21
474.8386029481
 31
0.0
  0
LINE
  5
16D
330
1F
100
AcDbEntity
  8
0
  6
SLD-Durchgehend
 62
     7
370
    25
100
AcDbLine
 10
208.5883849469
 20
489.9386029481
 30
0.0
 11
207.2037695623
 21
489.9386029481
 31
0.0
  0
LINE
  5
16E
330
1F
100
AcDbEntity
  8
0
  6
SLD-Durchgehend
 62
     7
370
    25
100
AcDbLine
 10
207.2037695623
 20
475.1386029481
 30
0.0
 11
207.2037695623
 21
489.9386029481
 31
0.0
  0
LINE
  5
16F
330
1F
100
AcDbEntity
  8
0
  6
SLD-Durchgehend
 62
     7
370
    25
100
AcDbLine
 10
213.9730003315
 20
489.9386029481
 30
0.0
 11
212.5883849469
 21
489.9386029481
 31
0.0
  0
LINE
  5
170
330
1F
100
AcDbEntity
  8
0
  6
SLD-Durchgehend
 62
     7
370
    25
100
AcDbLine
 10
213.9730003315
 20
489.9386029481
 30
0.0
 11
213.9730003315
 21
475.1386029481
 31
0.0
  0
LWPOLYLINE
  5
171
330
1F
100
AcDbEntity
  8
0
  6
SLD-Durchgehend
 62
     7
370
    25
100
AcDbPolyline
 90
        9
 70
   128
 43
0.0
 10
213.9730003315
 20
489.9386029481
 10
213.9712266651
 20
489.9971300447
 10
213.9659738268
 20
490.0534079778
 10
213.9574436804
 20
490.105274018
 10
213.9459640344
 20
490.1507349824
 10
213.9319760453
 20
490.1880438318
 10
213.9160172637
 20
490.2157668078
 10
213.8987009766
 20
490.2328385322
 10
213.8806926392
 20
490.2386029481
  0
LINE
  5
172
330
1F
100
AcDbEntity
  8
0
  6
SLD-Durchgehend
 62
     7
370
    25
100
AcDbLine
 10
212.5883849469
 20
490.2386029481
 30
0.0
 11
213.8806926392
 21
490.2386029481
 31
0.0
  0
LWPOLYLINE
  5
173
330
1F
100
AcDbEntity
  8
0
  6
SLD-Durchgehend
 62
     7
370
    25
100
AcDbPolyline
 90
        9
 70
   128
 43
0.0
 10
207.2037695623
 20
489.9386029481
 10
207.2055432287
 20
489.9971300447
 10
207.210796067
 20
490.0534079778
 10
207.2193262135
 20
490.105274018
 10
207.2308058594
 20
490.1507349824
 10
207.2447938485
 20
490.1880438318
 10
207.2607526301
 20
490.2157668078
 10
207.2780689172
 20
490.2328385322
 10
207.2960772546
 20
490.2386029481
  0
LINE
  5
174
330
1F
100
AcDbEntity
  8
0
  6
SLD-Durchgehend
 62
     7
370
    25
100
AcDbLine
 10
207.2960772546
 20
490.2386029481
 30
0.0
 11
208.5883849469
 21
490.2386029481
 31
0.0
  0
LINE
  5
175
330
1F
100
AcDbEntity
  8
0
  6
SLD-Durchgehend
 62
     7
370
    25
100
AcDbLine
 10
213.8806926392
 20
490.2386029481
 30
0.0
 11
221.2883849469
 21
490.2386029481
 31
0.0
  0
LINE
  5
176
330
1F
100
AcDbEntity
  8
0
  6
SLD-Durchgehend
 62
     7
370
    25
100
AcDbLine
 10
199.8883849469
 20
490.2386029481
 30
0.0
 11
207.2960772546
 21
490.2386029481
 31
0.0
  0
LINE
  5
177
330
1F
100
AcDbEntity
  8
0
  6
SLD-Durchgehend
 62
     7
370
    25
100
AcDbLine
 10
207.2960772546
 20
474.8386029481
 30
0.0
 11
199.8883849469
 21
474.8386029481
 31
0.0
  0
LINE
  5
178
330
1F
100
AcDbEntity
  8
0
  6
SLD-Durchgehend
 62
     7
370
    25
100
AcDbLine
 10
221.2883849469
 20
474.8386029481
 30
0.0
 11
213.8806926392
 21
474.8386029481
 31
0.0
  0
LINE
  5
179
330
1F
100
AcDbEntity
  8
0
  6
SLD-Durchgehend
 62
     7
370
    25
100
AcDbLine
 10
219.4650622532
 20
469.2386029481
 30
0.0
 11
201.7117076407
 21
469.2386029481
 31
0.0
  0
ARC
  5
17A
330
1F
100
AcDbEntity
  8
0
  6
SLD-Durchgehend
 62
     7
370
    25
100
AcDbCircle
 10
201.725505346
 20
471.2249943061
 30
0.0
 40
1.986439277676061
100
AcDbArc
 50
179.607476625
 51
269.6020232542
  0
LINE
  5
17B
330
1F
100
AcDbEntity
  8
0
  6
SLD-Durchgehend
 62
     7
370
    25
100
AcDbLine
 10
199.7391126837
 20
471.2386029481
 30
0.0
 11
221.4376572101
 21
471.2386029481
 31
0.0
  0
ARC
  5
17C
330
1F
100
AcDbEntity
  8
0
  6
SLD-Durchgehend
 62
     7
370
    25
100
AcDbCircle
 10
219.4512645478
 20
471.2249943061
 30
0.0
 40
1.986439277676061
100
AcDbArc
 50
270.3979767458
 51
0.392523375
  0
LINE
  5
17D
330
1F
100
AcDbEntity
  8
0
  6
SLD-Durchgehend
 62
     7
370
    25
100
AcDbLine
 10
221.4376572101
 20
472.7386029481
 30
0.0
 11
199.7391126837
 21
472.7386029481
 31
0.0
  0
LINE
  5
17E
330
1F
100
AcDbEntity
  8
0
  6
SLD-Durchgehend
 62
     7
370
    25
100
AcDbLine
 10
221.4376572101
 20
472.7386029481
 30
0.0
 11
221.4376572101
 21
471.2386029481
 31
0.0
  0
LINE
  5
17F
330
1F
100
AcDbEntity
  8
0
  6
SLD-Durchgehend
 62
     7
370
    25
100
AcDbLine
 10
199.7391126837
 20
472.7386029481
 30
0.0
 11
199.7391126837
 21
471.2386029481
 31
0.0
  0
LINE
  5
180
330
1F
100
AcDbEntity
  8
0
  6
SLD-Durchgehend
 62
     7
370
    25
100
AcDbLine
 10
199.7391126837
 20
750.2386029481
 30
0.0
 11
199.7391126837
 21
748.7386029481
 31
0.0
  0
LINE
  5
181
330
1F
100
AcDbEntity
  8
0
  6
SLD-Durchgehend
 62
     7
370
    25
100
AcDbLine
 10
221.4376572101
 20
750.2386029481
 30
0.0
 11
221.4376572101
 21
748.7386029481
 31
0.0
  0
ARC
  5
182
330
1F
100
AcDbEntity
  8
0
  6
SLD-Durchgehend
 62
     7
370
    25
100
AcDbCircle
 10
201.725505346
 20
750.2522115901
 30
0.0
 40
1.986439277676004
100
AcDbArc
 50
90.3979767458
 51
180.392523375
  0
LINE
  5
183
330
1F
100
AcDbEntity
  8
0
  6
SLD-Durchgehend
 62
     7
370
    25
100
AcDbLine
 10
201.7117076407
 20
752.2386029481
 30
0.0
 11
219.4650622532
 21
752.2386029481
 31
0.0
  0
ARC
  5
184
330
1F
100
AcDbEntity
  8
0
  6
SLD-Durchgehend
 62
     7
370
    25
100
AcDbCircle
 10
219.4512645478
 20
750.2522115901
 30
0.0
 40
1.986439277676004
100
AcDbArc
 50
359.607476625
 51
89.6020232542
  0
ARC
  5
185
330
1F
100
AcDbEntity
  8
0
  6
SLD-Durchgehend
 62
     7
370
    25
100
AcDbCircle
 10
219.9478627134
 20
748.7283964666
 30
0.0
 40
1.489829458256803
100
AcDbArc
 50
270.3979767458
 51
0.392523375
  0
ARC
  5
186
330
1F
100
AcDbEntity
  8
0
  6
SLD-Durchgehend
 62
     7
370
    25
100
AcDbCircle
 10
201.2289071804
 20
748.7283964666
 30
0.0
 40
1.489829458256831
100
AcDbArc
 50
179.607476625
 51
269.6020232542
  0
ARC
  5
187
330
1F
100
AcDbEntity
  8
0
  6
SLD-Durchgehend
 62
     7
370
    25
100
AcDbCircle
 10
201.2289071804
 20
472.7488094296
 30
0.0
 40
1.489829458256917
100
AcDbArc
 50
90.3979767458
 51
180.392523375
  0
ARC
  5
188
330
1F
100
AcDbEntity
  8
0
  6
SLD-Durchgehend
 62
     7
370
    25
100
AcDbCircle
 10
219.9478627134
 20
472.7488094296
 30
0.0
 40
1.489829458256971
100
AcDbArc
 50
359.607476625
 51
89.6020232542
  0
LINE
  5
189
330
1F
100
AcDbEntity
  8
0
  6
SLD-Durchgehend
 62
     7
370
    25
100
AcDbLine
 10
221.4376572101
 20
471.2386029481
 30
0.0
 11
225.5883849469
 21
471.2386029481
 31
0.0
  0
ELLIPSE
  5
18A
330
1F
100
AcDbEntity
  8
0
  6
SLD-Durchgehend
 62
     7
370
    25
100
AcDbEllipse
 10
223.5605991686
 20
471.2386029481
 30
0.0
 11
2.027785778278542
 21
0.0
 31
0.0
210
0.0
220
0.0
230
1.0
 40
0.9862974785
 41
4.712388980384704
 42
6.283185307179586
  0
LINE
  5
18B
330
1F
100
AcDbEntity
  8
0
  6
SLD-Durchgehend
 62
     7
370
    25
100
AcDbLine
 10
223.5605991686
 20
469.2386029481
 30
0.0
 11
219.4650622532
 21
469.2386029481
 31
0.0
  0
LINE
  5
18C
330
1F
100
AcDbEntity
  8
0
  6
SLD-Durchgehend
 62
     7
370
    25
100
AcDbLine
 10
225.5883849469
 20
750.2386029481
 30
0.0
 11
221.4376572101
 21
750.2386029481
 31
0.0
  0
ELLIPSE
  5
18D
330
1F
100
AcDbEntity
  8
0
  6
SLD-Durchgehend
 62
     7
370
    25
100
AcDbEllipse
 10
223.5605991686
 20
750.2386029481
 30
0.0
 11
-2.027785778278513
 21
0.0
 31
0.0
210
0.0
220
0.0
230
1.0
 40
0.9862974785
 41
3.141592653589793
 42
4.712388980384704
  0
LINE
  5
18E
330
1F
100
AcDbEntity
  8
0
  6
SLD-Durchgehend
 62
     7
370
    25
100
AcDbLine
 10
219.4650622532
 20
752.2386029481
 30
0.0
 11
223.5605991686
 21
752.2386029481
 31
0.0
  0
LINE
  5
18F
330
1F
100
AcDbEntity
  8
0
  6
SLD-Durchgehend
 62
     7
370
    25
100
AcDbLine
 10
199.7391126837
 20
750.2386029481
 30
0.0
 11
195.5883849469
 21
750.2386029481
 31
0.0
  0
LINE
  5
190
330
1F
100
AcDbEntity
  8
0
  6
SLD-Durchgehend
 62
     7
370
    25
100
AcDbLine
 10
197.5533671726
 20
748.7386029481
 30
0.0
 11
199.7391126837
 21
748.7386029481
 31
0.0
  0
ELLIPSE
  5
191
330
1F
100
AcDbEntity
  8
0
  6
SLD-Durchgehend
 62
     7
370
    25
100
AcDbEllipse
 10
197.5533671726
 20
745.7386029481
 30
0.0
 11
0.0
 21
3.0
 31
0.0
210
0.0
220
0.0
230
1.0
 40
0.1672686182
 41
0.0
 42
1.570796326794897
  0
LINE
  5
192
330
1F
100
AcDbEntity
  8
0
  6
SLD-Durchgehend
 62
     7
370
    25
100
AcDbLine
 10
197.0515613179
 20
475.7386029481
 30
0.0
 11
197.0515613179
 21
745.7386029481
 31
0.0
  0
ELLIPSE
  5
193
330
1F
100
AcDbEntity
  8
0
  6
SLD-Durchgehend
 62
     7
370
    25
100
AcDbEllipse
 10
197.5533671726
 20
475.7386029481
 30
0.0
 11
0.0
 21
3.0
 31
0.0
210
0.0
220
0.0
230
1.0
 40
0.1672686182
 41
1.570796326794897
 42
3.141592653589793
  0
LINE
  5
194
330
1F
100
AcDbEntity
  8
0
  6
SLD-Durchgehend
 62
     7
370
    25
100
AcDbLine
 10
199.7391126837
 20
472.7386029481
 30
0.0
 11
197.5533671726
 21
472.7386029481
 31
0.0
  0
LINE
  5
195
330
1F
100
AcDbEntity
  8
0
  6
SLD-Durchgehend
 62
     7
370
    25
100
AcDbLine
 10
195.5883849469
 20
471.2386029481
 30
0.0
 11
199.7391126837
 21
471.2386029481
 31
0.0
  0
LINE
  5
196
330
1F
100
AcDbEntity
  8
0
  6
SLD-Durchgehend
 62
     7
370
    25
100
AcDbLine
 10
195.5883849469
 20
750.2386029481
 30
0.0
 11
195.5883849469
 21
471.2386029481
 31
0.0
  0
ARC
  5
197
330
1F
100
AcDbEntity
  8
0
  6
SLD-Durchgehend
 62
     7
370
    25
100
AcDbCircle
 10
222.1336082245
 20
472.7488094296
 30
0.0
 40
1.489829458257056
100
AcDbArc
 50
359.607476625
 51
89.6020232542
  0
LINE
  5
198
330
1F
100
AcDbEntity
  8
0
  6
SLD-Durchgehend
 62
     7
370
    25
100
AcDbLine
 10
223.6234027212
 20
472.7386029481
 30
0.0
 11
221.4376572101
 21
472.7386029481
 31
0.0
  0
LINE
  5
199
330
1F
100
AcDbEntity
  8
0
  6
SLD-Durchgehend
 62
     7
370
    25
100
AcDbLine
 10
220.2883849469
 20
474.2386029481
 30
0.0
 11
222.1439565035
 21
474.2386029481
 31
0.0
  0
ARC
  5
19A
330
1F
100
AcDbEntity
  8
0
  6
SLD-Durchgehend
 62
     7
370
    25
100
AcDbCircle
 10
199.0431616694
 20
472.7488094296
 30
0.0
 40
1.489829458256917
100
AcDbArc
 50
90.3979767458
 51
180.392523375
  0
LINE
  5
19B
330
1F
100
AcDbEntity
  8
0
  6
SLD-Durchgehend
 62
     7
370
    25
100
AcDbLine
 10
199.0328133904
 20
474.2386029481
 30
0.0
 11
200.8883849469
 21
474.2386029481
 31
0.0
  0
ARC
  5
19C
330
1F
100
AcDbEntity
  8
0
  6
SLD-Durchgehend
 62
     7
370
    25
100
AcDbCircle
 10
199.0431616694
 20
748.7283964666
 30
0.0
 40
1.489829458256831
100
AcDbArc
 50
179.607476625
 51
269.6020232542
  0
LINE
  5
19D
330
1F
100
AcDbEntity
  8
0
  6
SLD-Durchgehend
 62
     7
370
    25
100
AcDbLine
 10
200.0883849469
 20
747.2386029481
 30
0.0
 11
199.0328133904
 21
747.2386029481
 31
0.0
  0
LINE
  5
19E
330
1F
100
AcDbEntity
  8
0
  6
SLD-Durchgehend
 62
     7
370
    25
100
AcDbLine
 10
221.4376572101
 20
748.7386029481
 30
0.0
 11
223.6234027212
 21
748.7386029481
 31
0.0
  0
ARC
  5
19F
330
1F
100
AcDbEntity
  8
0
  6
SLD-Durchgehend
 62
     7
370
    25
100
AcDbCircle
 10
222.1336082245
 20
748.7283964666
 30
0.0
 40
1.489829458256917
100
AcDbArc
 50
270.3979767458
 51
0.392523375
  0
LINE
  5
1A0
330
1F
100
AcDbEntity
  8
0
  6
SLD-Durchgehend
 62
     7
370
    25
100
AcDbLine
 10
222.1439565035
 20
747.2386029481
 30
0.0
 11
221.0883849469
 21
747.2386029481
 31
0.0
  0
ELLIPSE
  5
1A1
330
1F
100
AcDbEntity
  8
0
  6
SLD-Durchgehend
 62
     7
370
    25
100
AcDbEllipse
 10
223.6234027212
 20
475.7386029481
 30
0.0
 11
0.0
 21
3.0
 31
0.0
210
0.0
220
0.0
230
1.0
 40
0.1672686182
 41
3.141592653589793
 42
4.712388980384691
  0
LINE
  5
1A2
330
1F
100
AcDbEntity
  8
0
  6
SLD-Durchgehend
 62
     7
370
    25
100
AcDbLine
 10
224.1252085759
 20
745.7386029481
 30
0.0
 11
224.1252085759
 21
475.7386029481
 31
0.0
  0
ELLIPSE
  5
1A3
330
1F
100
AcDbEntity
  8
0
  6
SLD-Durchgehend
 62
     7
370
    25
100
AcDbEllipse
 10
223.6234027212
 20
745.7386029481
 30
0.0
 11
0.0
 21
3.0
 31
0.0
210
0.0
220
0.0
230
1.0
 40
0.1672686182
 41
4.712388980384691
 42
6.283185307179586
  0
LINE
  5
1A4
330
1F
100
AcDbEntity
  8
0
  6
SLD-Durchgehend
 62
     7
370
    25
100
AcDbLine
 10
225.5883849469
 20
750.2386029481
 30
0.0
 11
225.5883849469
 21
471.2386029481
 31
0.0
  0
ELLIPSE
  5
1A5
330
1F
100
AcDbEntity
  8
0
  6
SLD-Durchgehend
 62
     7
370
    25
100
AcDbEllipse
 10
197.6161707252
 20
750.2386029481
 30
0.0
 11
-2.027785778278513
 21
0.0
 31
0.0
210
0.0
220
0.0
230
1.0
 40
0.9862974785
 41
4.712388980384704
 42
6.283185307179586
  0
LINE
  5
1A6
330
1F
100
AcDbEntity
  8
0
  6
SLD-Durchgehend
 62
     7
370
    25
100
AcDbLine
 10
197.6161707252
 20
752.2386029481
 30
0.0
 11
201.7117076407
 21
752.2386029481
 31
0.0
  0
ELLIPSE
  5
1A7
330
1F
100
AcDbEntity
  8
0
  6
SLD-Durchgehend
 62
     7
370
    25
100
AcDbEllipse
 10
197.6161707252
 20
471.2386029481
 30
0.0
 11
2.027785778278542
 21
0.0
 31
0.0
210
0.0
220
0.0
230
1.0
 40
0.9862974785
 41
3.141592653589793
 42
4.712388980384704
  0
LINE
  5
1A8
330
1F
100
AcDbEntity
  8
0
  6
SLD-Durchgehend
 62
     7
370
    25
100
AcDbLine
 10
201.7117076407
 20
469.2386029481
 30
0.0
 11
197.6161707252
 21
469.2386029481
 31
0.0
  0
ELLIPSE
  5
1A9
330
1F
100
AcDbEntity
  8
0
  6
SLD-Durchgehend
 62
     7
370
    25
100
AcDbEllipse
 10
222.1439565035
 20
745.7386029481
 30
0.0
 11
0.0
 21
1.5
 31
0.0
210
0.0
220
0.0
230
1.0
 40
0.3345372365
 41
4.712388980384694
 42
6.283185307179586
  0
LINE
  5
1AA
330
1F
100
AcDbEntity
  8
0
  6
SLD-Durchgehend
 62
     7
370
    25
100
AcDbLine
 10
222.6457623582
 20
745.7386029481
 30
0.0
 11
224.1252085759
 21
745.7386029481
 31
0.0
  0
ELLIPSE
  5
1AB
330
1F
100
AcDbEntity
  8
0
  6
SLD-Durchgehend
 62
     7
370
    25
100
AcDbEllipse
 10
199.0328133904
 20
745.7386029481
 30
0.0
 11
0.0
 21
1.5
 31
0.0
210
0.0
220
0.0
230
1.0
 40
0.3345372365
 41
0.0
 42
1.570796326794897
  0
LINE
  5
1AC
330
1F
100
AcDbEntity
  8
0
  6
SLD-Durchgehend
 62
     7
370
    25
100
AcDbLine
 10
197.0515613179
 20
745.7386029481
 30
0.0
 11
198.5310075356
 21
745.7386029481
 31
0.0
  0
ELLIPSE
  5
1AD
330
1F
100
AcDbEntity
  8
0
  6
SLD-Durchgehend
 62
     7
370
    25
100
AcDbEllipse
 10
222.1439565035
 20
475.7386029481
 30
0.0
 11
0.0
 21
1.5
 31
0.0
210
0.0
220
0.0
230
1.0
 40
0.3345372365
 41
3.141592653589793
 42
4.712388980384694
  0
LINE
  5
1AE
330
1F
100
AcDbEntity
  8
0
  6
SLD-Durchgehend
 62
     7
370
    25
100
AcDbLine
 10
222.6457623582
 20
475.7386029481
 30
0.0
 11
224.1252085759
 21
475.7386029481
 31
0.0
  0
LINE
  5
1AF
330
1F
100
AcDbEntity
  8
0
  6
SLD-Durchgehend
 62
     7
370
    25
100
AcDbLine
 10
197.0515613179
 20
475.7386029481
 30
0.0
 11
198.5310075356
 21
475.7386029481
 31
0.0
  0
ELLIPSE
  5
1B0
330
1F
100
AcDbEntity
  8
0
  6
SLD-Durchgehend
 62
     7
370
    25
100
AcDbEllipse
 10
199.0328133904
 20
475.7386029481
 30
0.0
 11
0.0
 21
1.5
 31
0.0
210
0.0
220
0.0
230
1.0
 40
0.3345372365
 41
1.570796326794897
 42
3.141592653589793
  0
LINE
  5
1B1
330
1F
100
AcDbEntity
  8
0
  6
SLD-Durchgehend
 62
     7
370
    25
100
AcDbLine
 10
198.5310075356
 20
745.7386029481
 30
0.0
 11
198.5310075356
 21
475.7386029481
 31
0.0
  0
LINE
  5
1B2
330
1F
100
AcDbEntity
  8
0
  6
SLD-Durchgehend
 62
     7
370
    25
100
AcDbLine
 10
222.6457623582
 20
475.7386029481
 30
0.0
 11
222.6457623582
 21
745.7386029481
 31
0.0
  0
LINE
  5
1B3
330
1F
100
AcDbEntity
  8
0
  6
SLD-Durchgehend
 62
     7
370
    25
100
AcDbLine
 10
215.5883849469
 20
469.1886029481
 30
0.0
 11
205.5883849469
 21
469.1886029481
 31
0.0
  0
LINE
  5
1B4
330
1F
100
AcDbEntity
  8
0
  6
SLD-Durchgehend
 62
     7
370
    25
100
AcDbLine
 10
205.5883849469
 20
752.2886029481
 30
0.0
 11
215.5883849469
 21
752.2886029481
 31
0.0
  0
LINE
  5
1B5
330
1F
100
AcDbEntity
  8
0
  6
SLD-Durchgehend
 62
     7
370
    25
100
AcDbLine
 10
208.5883849469
 20
578.2386029481
 30
0.0
 11
208.5883849469
 21
579.9386029481
 31
0.0
  0
ARC
  5
1B6
330
1F
100
AcDbEntity
  8
0
  6
SLD-Durchgehend
 62
     7
370
    25
100
AcDbCircle
 10
208.8883849469
 20
579.9386029481
 30
0.0
 40
0.3000000000000682
100
AcDbArc
 50
90.0
 51
180.0
  0
LINE
  5
1B7
330
1F
100
AcDbEntity
  8
0
  6
SLD-Durchgehend
 62
     7
370
    25
100
AcDbLine
 10
208.8883849469
 20
580.2386029481
 30
0.0
 11
208.8883849469
 21
578.2386029481
 31
0.0
  0
LINE
  5
1B8
330
1F
100
AcDbEntity
  8
0
  6
SLD-Durchgehend
 62
     7
370
    25
100
AcDbLine
 10
208.5883849469
 20
578.2386029481
 30
0.0
 11
208.8883849469
 21
578.2386029481
 31
0.0
  0
LINE
  5
1B9
330
1F
100
AcDbEntity
  8
0
  6
SLD-Durchgehend
 62
     7
370
    25
100
AcDbLine
 10
208.8883849469
 20
561.8386029481
 30
0.0
 11
208.8883849469
 21
559.8386029481
 31
0.0
  0
LINE
  5
1BA
330
1F
100
AcDbEntity
  8
0
  6
SLD-Durchgehend
 62
     7
370
    25
100
AcDbLine
 10
208.8883849469
 20
561.8386029481
 30
0.0
 11
212.2883849469
 21
561.8386029481
 31
0.0
  0
LINE
  5
1BB
330
1F
100
AcDbEntity
  8
0
  6
SLD-Durchgehend
 62
     7
370
    25
100
AcDbLine
 10
212.2883849469
 20
559.8386029481
 30
0.0
 11
212.2883849469
 21
561.8386029481
 31
0.0
  0
LINE
  5
1BC
330
1F
100
AcDbEntity
  8
0
  6
SLD-Durchgehend
 62
     7
370
    25
100
AcDbLine
 10
212.2883849469
 20
559.8386029481
 30
0.0
 11
208.8883849469
 21
559.8386029481
 31
0.0
  0
LINE
  5
1BD
330
1F
100
AcDbEntity
  8
0
  6
SLD-Durchgehend
 62
     7
370
    25
100
AcDbLine
 10
208.8883849469
 20
580.2386029481
 30
0.0
 11
212.2883849469
 21
580.2386029481
 31
0.0
  0
LINE
  5
1BE
330
1F
100
AcDbEntity
  8
0
  6
SLD-Durchgehend
 62
     7
370
    25
100
AcDbLine
 10
212.2883849469
 20
578.2386029481
 30
0.0
 11
212.2883849469
 21
580.2386029481
 31
0.0
  0
LINE
  5
1BF
330
1F
100
AcDbEntity
  8
0
  6
SLD-Durchgehend
 62
     7
370
    25
100
AcDbLine
 10
212.2883849469
 20
578.2386029481
 30
0.0
 11
208.8883849469
 21
578.2386029481
 31
0.0
  0
LINE
  5
1C0
330
1F
100
AcDbEntity
  8
0
  6
SLD-Durchgehend
 62
     7
370
    25
100
AcDbLine
 10
208.5883849469
 20
561.8386029481
 30
0.0
 11
208.5883849469
 21
578.2386029481
 31
0.0
  0
LINE
  5
1C1
330
1F
100
AcDbEntity
  8
0
  6
SLD-Durchgehend
 62
     7
370
    25
100
AcDbLine
 10
208.8883849469
 20
578.2386029481
 30
0.0
 11
208.8883849469
 21
561.8386029481
 31
0.0
  0
LINE
  5
1C2
330
1F
100
AcDbEntity
  8
0
  6
SLD-Durchgehend
 62
     7
370
    25
100
AcDbLine
 10
208.5883849469
 20
561.8386029481
 30
0.0
 11
208.8883849469
 21
561.8386029481
 31
0.0
  0
LINE
  5
1C3
330
1F
100
AcDbEntity
  8
0
  6
SLD-Durchgehend
 62
     7
370
    25
100
AcDbLine
 10
212.2883849469
 20
561.8386029481
 30
0.0
 11
212.2883849469
 21
578.2386029481
 31
0.0
  0
LINE
  5
1C4
330
1F
100
AcDbEntity
  8
0
  6
SLD-Durchgehend
 62
     7
370
    25
100
AcDbLine
 10
212.2883849469
 20
561.8386029481
 30
0.0
 11
212.5883849469
 21
561.8386029481
 31
0.0
  0
LINE
  5
1C5
330
1F
100
AcDbEntity
  8
0
  6
SLD-Durchgehend
 62
     7
370
    25
100
AcDbLine
 10
212.5883849469
 20
561.8386029481
 30
0.0
 11
212.5883849469
 21
560.1386029481
 31
0.0
  0
ARC
  5
1C6
330
1F
100
AcDbEntity
  8
0
  6
SLD-Durchgehend
 62
     7
370
    25
100
AcDbCircle
 10
212.2883849469
 20
560.1386029481
 30
0.0
 40
0.3000000000000114
100
AcDbArc
 50
270.0
 51
0.0
  0
ARC
  5
1C7
330
1F
100
AcDbEntity
  8
0
  6
SLD-Durchgehend
 62
     7
370
    25
100
AcDbCircle
 10
212.2883849469
 20
579.9386029481
 30
0.0
 40
0.3000000000000682
100
AcDbArc
 50
0.0
 51
90.0
  0
LINE
  5
1C8
330
1F
100
AcDbEntity
  8
0
  6
SLD-Durchgehend
 62
     7
370
    25
100
AcDbLine
 10
212.5883849469
 20
579.9386029481
 30
0.0
 11
212.5883849469
 21
578.2386029481
 31
0.0
  0
LINE
  5
1C9
330
1F
100
AcDbEntity
  8
0
  6
SLD-Durchgehend
 62
     7
370
    25
100
AcDbLine
 10
212.2883849469
 20
578.2386029481
 30
0.0
 11
212.5883849469
 21
578.2386029481
 31
0.0
  0
LINE
  5
1CA
330
1F
100
AcDbEntity
  8
0
  6
SLD-Durchgehend
 62
     7
370
    25
100
AcDbLine
 10
212.5883849469
 20
578.2386029481
 30
0.0
 11
212.5883849469
 21
561.8386029481
 31
0.0
  0
LINE
  5
1CB
330
1F
100
AcDbEntity
  8
0
  6
SLD-Durchgehend
 62
     7
370
    25
100
AcDbLine
 10
208.5883849469
 20
560.1386029481
 30
0.0
 11
208.5883849469
 21
561.8386029481
 31
0.0
  0
ARC
  5
1CC
330
1F
100
AcDbEntity
  8
0
  6
SLD-Durchgehend
 62
     7
370
    25
100
AcDbCircle
 10
208.8883849469
 20
560.1386029481
 30
0.0
 40
0.2999999999999829
100
AcDbArc
 50
180.0
 51
270.0
  0
LINE
  5
1CD
330
1F
100
AcDbEntity
  8
0
  6
SLD-Durchgehend
 62
     7
370
    25
100
AcDbLine
 10
213.9730003315
 20
574.9386029481
 30
0.0
 11
212.5883849469
 21
574.9386029481
 31
0.0
  0
LWPOLYLINE
  5
1CE
330
1F
100
AcDbEntity
  8
0
  6
SLD-Durchgehend
 62
     7
370
    25
100
AcDbPolyline
 90
        9
 70
   128
 43
0.0
 10
213.9730003315
 20
574.9386029481
 10
213.9712266651
 20
574.9971300447
 10
213.9659738268
 20
575.0534079778
 10
213.9574436804
 20
575.105274018
 10
213.9459640344
 20
575.1507349824
 10
213.9319760453
 20
575.1880438318
 10
213.9160172637
 20
575.2157668078
 10
213.8987009766
 20
575.2328385322
 10
213.8806926392
 20
575.2386029481
  0
LINE
  5
1CF
330
1F
100
AcDbEntity
  8
0
  6
SLD-Durchgehend
 62
     7
370
    25
100
AcDbLine
 10
212.5883849469
 20
575.2386029481
 30
0.0
 11
213.8806926392
 21
575.2386029481
 31
0.0
  0
LINE
  5
1D0
330
1F
100
AcDbEntity
  8
0
  6
SLD-Durchgehend
 62
     7
370
    25
100
AcDbLine
 10
213.9730003315
 20
574.9386029481
 30
0.0
 11
213.9730003315
 21
560.1386029481
 31
0.0
  0
LINE
  5
1D1
330
1F
100
AcDbEntity
  8
0
  6
SLD-Durchgehend
 62
     7
370
    25
100
AcDbLine
 10
212.5883849469
 20
560.1386029481
 30
0.0
 11
213.9730003315
 21
560.1386029481
 31
0.0
  0
LWPOLYLINE
  5
1D2
330
1F
100
AcDbEntity
  8
0
  6
SLD-Durchgehend
 62
     7
370
    25
100
AcDbPolyline
 90
        9
 70
   128
 43
0.0
 10
213.8806926392
 20
559.8386029481
 10
213.8987009766
 20
559.844367364
 10
213.9160172637
 20
559.8614390883
 10
213.9319760453
 20
559.8891620644
 10
213.9459640344
 20
559.9264709137
 10
213.9574436804
 20
559.9719318782
 10
213.9659738268
 20
560.0237979184
 10
213.9712266651
 20
560.0800758515
 10
213.9730003315
 20
560.1386029481
  0
LINE
  5
1D3
330
1F
100
AcDbEntity
  8
0
  6
SLD-Durchgehend
 62
     7
370
    25
100
AcDbLine
 10
212.964774385
 20
559.8386029481
 30
0.0
 11
212.2883849469
 21
559.8386029481
 31
0.0
  0
LWPOLYLINE
  5
1D4
330
1F
100
AcDbEntity
  8
0
  6
SLD-Durchgehend
 62
     7
370
    25
100
AcDbPolyline
 90
        9
 70
   128
 43
0.0
 10
207.2960772546
 20
559.8386029481
 10
207.2780689172
 20
559.844367364
 10
207.2607526301
 20
559.8614390883
 10
207.2447938485
 20
559.8891620644
 10
207.2308058594
 20
559.9264709137
 10
207.2193262135
 20
559.9719318782
 10
207.210796067
 20
560.0237979184
 10
207.2055432287
 20
560.0800758515
 10
207.2037695623
 20
560.1386029481
  0
LINE
  5
1D5
330
1F
100
AcDbEntity
  8
0
  6
SLD-Durchgehend
 62
     7
370
    25
100
AcDbLine
 10
207.2037695623
 20
560.1386029481
 30
0.0
 11
208.5883849469
 21
560.1386029481
 31
0.0
  0
LINE
  5
1D6
330
1F
100
AcDbEntity
  8
0
  6
SLD-Durchgehend
 62
     7
370
    25
100
AcDbLine
 10
208.8883849469
 20
559.8386029481
 30
0.0
 11
208.2119955088
 21
559.8386029481
 31
0.0
  0
LINE
  5
1D7
330
1F
100
AcDbEntity
  8
0
  6
SLD-Durchgehend
 62
     7
370
    25
100
AcDbLine
 10
208.5883849469
 20
574.9386029481
 30
0.0
 11
207.2037695623
 21
574.9386029481
 31
0.0
  0
LWPOLYLINE
  5
1D8
330
1F
100
AcDbEntity
  8
0
  6
SLD-Durchgehend
 62
     7
370
    25
100
AcDbPolyline
 90
        9
 70
   128
 43
0.0
 10
207.2037695623
 20
574.9386029481
 10
207.2055432287
 20
574.9971300447
 10
207.210796067
 20
575.0534079778
 10
207.2193262135
 20
575.105274018
 10
207.2308058594
 20
575.1507349824
 10
207.2447938485
 20
575.1880438318
 10
207.2607526301
 20
575.2157668078
 10
207.2780689172
 20
575.2328385322
 10
207.2960772546
 20
575.2386029481
  0
LINE
  5
1D9
330
1F
100
AcDbEntity
  8
0
  6
SLD-Durchgehend
 62
     7
370
    25
100
AcDbLine
 10
207.2960772546
 20
575.2386029481
 30
0.0
 11
208.5883849469
 21
575.2386029481
 31
0.0
  0
LINE
  5
1DA
330
1F
100
AcDbEntity
  8
0
  6
SLD-Durchgehend
 62
     7
370
    25
100
AcDbLine
 10
207.2037695623
 20
560.1386029481
 30
0.0
 11
207.2037695623
 21
574.9386029481
 31
0.0
  0
LINE
  5
1DB
330
1F
100
AcDbEntity
  8
0
  6
SLD-Durchgehend
 62
     7
370
    25
100
AcDbLine
 10
213.8806926392
 20
575.2386029481
 30
0.0
 11
221.2883849469
 21
575.2386029481
 31
0.0
  0
LINE
  5
1DC
330
1F
100
AcDbEntity
  8
0
  6
SLD-Durchgehend
 62
     7
370
    25
100
AcDbLine
 10
199.8883849469
 20
575.2386029481
 30
0.0
 11
207.2960772546
 21
575.2386029481
 31
0.0
  0
LINE
  5
1DD
330
1F
100
AcDbEntity
  8
0
  6
SLD-Durchgehend
 62
     7
370
    25
100
AcDbLine
 10
212.2883849469
 20
646.8386029481
 30
0.0
 11
212.2883849469
 21
663.2386029481
 31
0.0
  0
LINE
  5
1DE
330
1F
100
AcDbEntity
  8
0
  6
SLD-Durchgehend
 62
     7
370
    25
100
AcDbLine
 10
212.2883849469
 20
663.2386029481
 30
0.0
 11
212.5883849469
 21
663.2386029481
 31
0.0
  0
LINE
  5
1DF
330
1F
100
AcDbEntity
  8
0
  6
SLD-Durchgehend
 62
     7
370
    25
100
AcDbLine
 10
212.5883849469
 20
663.2386029481
 30
0.0
 11
212.5883849469
 21
646.8386029481
 31
0.0
  0
LINE
  5
1E0
330
1F
100
AcDbEntity
  8
0
  6
SLD-Durchgehend
 62
     7
370
    25
100
AcDbLine
 10
212.2883849469
 20
646.8386029481
 30
0.0
 11
212.5883849469
 21
646.8386029481
 31
0.0
  0
LINE
  5
1E1
330
1F
100
AcDbEntity
  8
0
  6
SLD-Durchgehend
 62
     7
370
    25
100
AcDbLine
 10
208.8883849469
 20
665.2386029481
 30
0.0
 11
208.8883849469
 21
663.2386029481
 31
0.0
  0
LINE
  5
1E2
330
1F
100
AcDbEntity
  8
0
  6
SLD-Durchgehend
 62
     7
370
    25
100
AcDbLine
 10
208.8883849469
 20
665.2386029481
 30
0.0
 11
212.2883849469
 21
665.2386029481
 31
0.0
  0
LINE
  5
1E3
330
1F
100
AcDbEntity
  8
0
  6
SLD-Durchgehend
 62
     7
370
    25
100
AcDbLine
 10
212.2883849469
 20
663.2386029481
 30
0.0
 11
212.2883849469
 21
665.2386029481
 31
0.0
  0
LINE
  5
1E4
330
1F
100
AcDbEntity
  8
0
  6
SLD-Durchgehend
 62
     7
370
    25
100
AcDbLine
 10
212.2883849469
 20
663.2386029481
 30
0.0
 11
208.8883849469
 21
663.2386029481
 31
0.0
  0
LINE
  5
1E5
330
1F
100
AcDbEntity
  8
0
  6
SLD-Durchgehend
 62
     7
370
    25
100
AcDbLine
 10
208.5883849469
 20
646.8386029481
 30
0.0
 11
208.5883849469
 21
663.2386029481
 31
0.0
  0
LINE
  5
1E6
330
1F
100
AcDbEntity
  8
0
  6
SLD-Durchgehend
 62
     7
370
    25
100
AcDbLine
 10
208.5883849469
 20
663.2386029481
 30
0.0
 11
208.8883849469
 21
663.2386029481
 31
0.0
  0
LINE
  5
1E7
330
1F
100
AcDbEntity
  8
0
  6
SLD-Durchgehend
 62
     7
370
    25
100
AcDbLine
 10
208.8883849469
 20
663.2386029481
 30
0.0
 11
208.8883849469
 21
646.8386029481
 31
0.0
  0
LINE
  5
1E8
330
1F
100
AcDbEntity
  8
0
  6
SLD-Durchgehend
 62
     7
370
    25
100
AcDbLine
 10
208.5883849469
 20
646.8386029481
 30
0.0
 11
208.8883849469
 21
646.8386029481
 31
0.0
  0
LINE
  5
1E9
330
1F
100
AcDbEntity
  8
0
  6
SLD-Durchgehend
 62
     7
370
    25
100
AcDbLine
 10
208.5883849469
 20
663.2386029481
 30
0.0
 11
208.5883849469
 21
664.9386029481
 31
0.0
  0
ARC
  5
1EA
330
1F
100
AcDbEntity
  8
0
  6
SLD-Durchgehend
 62
     7
370
    25
100
AcDbCircle
 10
208.8883849469
 20
664.9386029481
 30
0.0
 40
0.2999999999999829
100
AcDbArc
 50
90.0
 51
180.0
  0
ARC
  5
1EB
330
1F
100
AcDbEntity
  8
0
  6
SLD-Durchgehend
 62
     7
370
    25
100
AcDbCircle
 10
212.2883849469
 20
664.9386029481
 30
0.0
 40
0.3000000000000114
100
AcDbArc
 50
0.0
 51
90.0
  0
LINE
  5
1EC
330
1F
100
AcDbEntity
  8
0
  6
SLD-Durchgehend
 62
     7
370
    25
100
AcDbLine
 10
212.5883849469
 20
664.9386029481
 30
0.0
 11
212.5883849469
 21
663.2386029481
 31
0.0
  0
LINE
  5
1ED
330
1F
100
AcDbEntity
  8
0
  6
SLD-Durchgehend
 62
     7
370
    25
100
AcDbLine
 10
208.8883849469
 20
646.8386029481
 30
0.0
 11
208.8883849469
 21
644.8386029481
 31
0.0
  0
LINE
  5
1EE
330
1F
100
AcDbEntity
  8
0
  6
SLD-Durchgehend
 62
     7
370
    25
100
AcDbLine
 10
208.8883849469
 20
646.8386029481
 30
0.0
 11
212.2883849469
 21
646.8386029481
 31
0.0
  0
LINE
  5
1EF
330
1F
100
AcDbEntity
  8
0
  6
SLD-Durchgehend
 62
     7
370
    25
100
AcDbLine
 10
212.2883849469
 20
644.8386029481
 30
0.0
 11
212.2883849469
 21
646.8386029481
 31
0.0
  0
LINE
  5
1F0
330
1F
100
AcDbEntity
  8
0
  6
SLD-Durchgehend
 62
     7
370
    25
100
AcDbLine
 10
212.2883849469
 20
644.8386029481
 30
0.0
 11
208.8883849469
 21
644.8386029481
 31
0.0
  0
LINE
  5
1F1
330
1F
100
AcDbEntity
  8
0
  6
SLD-Durchgehend
 62
     7
370
    25
100
AcDbLine
 10
212.5883849469
 20
646.8386029481
 30
0.0
 11
212.5883849469
 21
645.1386029481
 31
0.0
  0
ARC
  5
1F2
330
1F
100
AcDbEntity
  8
0
  6
SLD-Durchgehend
 62
     7
370
    25
100
AcDbCircle
 10
212.2883849469
 20
645.1386029481
 30
0.0
 40
0.3000000000000682
100
AcDbArc
 50
270.0
 51
0.0
  0
LINE
  5
1F3
330
1F
100
AcDbEntity
  8
0
  6
SLD-Durchgehend
 62
     7
370
    25
100
AcDbLine
 10
208.5883849469
 20
645.1386029481
 30
0.0
 11
208.5883849469
 21
646.8386029481
 31
0.0
  0
ARC
  5
1F4
330
1F
100
AcDbEntity
  8
0
  6
SLD-Durchgehend
 62
     7
370
    25
100
AcDbCircle
 10
208.8883849469
 20
645.1386029481
 30
0.0
 40
0.3000000000000682
100
AcDbArc
 50
180.0
 51
270.0
  0
LINE
  5
1F5
330
1F
100
AcDbEntity
  8
0
  6
SLD-Durchgehend
 62
     7
370
    25
100
AcDbLine
 10
208.5883849469
 20
659.9386029481
 30
0.0
 11
207.2037695623
 21
659.9386029481
 31
0.0
  0
LINE
  5
1F6
330
1F
100
AcDbEntity
  8
0
  6
SLD-Durchgehend
 62
     7
370
    25
100
AcDbLine
 10
207.2037695623
 20
645.1386029481
 30
0.0
 11
208.5883849469
 21
645.1386029481
 31
0.0
  0
LINE
  5
1F7
330
1F
100
AcDbEntity
  8
0
  6
SLD-Durchgehend
 62
     7
370
    25
100
AcDbLine
 10
207.2037695623
 20
645.1386029481
 30
0.0
 11
207.2037695623
 21
659.9386029481
 31
0.0
  0
LINE
  5
1F8
330
1F
100
AcDbEntity
  8
0
  6
SLD-Durchgehend
 62
     7
370
    25
100
AcDbLine
 10
212.5883849469
 20
645.1386029481
 30
0.0
 11
213.9730003315
 21
645.1386029481
 31
0.0
  0
LWPOLYLINE
  5
1F9
330
1F
100
AcDbEntity
  8
0
  6
SLD-Durchgehend
 62
     7
370
    25
100
AcDbPolyline
 90
        9
 70
   128
 43
0.0
 10
213.8806926392
 20
644.8386029481
 10
213.8987009766
 20
644.844367364
 10
213.9160172637
 20
644.8614390883
 10
213.9319760453
 20
644.8891620644
 10
213.9459640344
 20
644.9264709137
 10
213.9574436804
 20
644.9719318782
 10
213.9659738268
 20
645.0237979184
 10
213.9712266651
 20
645.0800758515
 10
213.9730003315
 20
645.1386029481
  0
LINE
  5
1FA
330
1F
100
AcDbEntity
  8
0
  6
SLD-Durchgehend
 62
     7
370
    25
100
AcDbLine
 10
212.964774385
 20
644.8386029481
 30
0.0
 11
212.2883849469
 21
644.8386029481
 31
0.0
  0
LINE
  5
1FB
330
1F
100
AcDbEntity
  8
0
  6
SLD-Durchgehend
 62
     7
370
    25
100
AcDbLine
 10
213.9730003315
 20
659.9386029481
 30
0.0
 11
212.5883849469
 21
659.9386029481
 31
0.0
  0
LINE
  5
1FC
330
1F
100
AcDbEntity
  8
0
  6
SLD-Durchgehend
 62
     7
370
    25
100
AcDbLine
 10
213.9730003315
 20
659.9386029481
 30
0.0
 11
213.9730003315
 21
645.1386029481
 31
0.0
  0
LWPOLYLINE
  5
1FD
330
1F
100
AcDbEntity
  8
0
  6
SLD-Durchgehend
 62
     7
370
    25
100
AcDbPolyline
 90
        9
 70
   128
 43
0.0
 10
213.9730003315
 20
659.9386029481
 10
213.9712266651
 20
659.9971300447
 10
213.9659738268
 20
660.0534079778
 10
213.9574436804
 20
660.105274018
 10
213.9459640344
 20
660.1507349824
 10
213.9319760453
 20
660.1880438318
 10
213.9160172637
 20
660.2157668078
 10
213.8987009766
 20
660.2328385322
 10
213.8806926392
 20
660.2386029481
  0
LINE
  5
1FE
330
1F
100
AcDbEntity
  8
0
  6
SLD-Durchgehend
 62
     7
370
    25
100
AcDbLine
 10
212.5883849469
 20
660.2386029481
 30
0.0
 11
213.8806926392
 21
660.2386029481
 31
0.0
  0
LWPOLYLINE
  5
1FF
330
1F
100
AcDbEntity
  8
0
  6
SLD-Durchgehend
 62
     7
370
    25
100
AcDbPolyline
 90
        9
 70
   128
 43
0.0
 10
207.2037695623
 20
659.9386029481
 10
207.2055432287
 20
659.9971300447
 10
207.210796067
 20
660.0534079778
 10
207.2193262135
 20
660.105274018
 10
207.2308058594
 20
660.1507349824
 10
207.2447938485
 20
660.1880438318
 10
207.2607526301
 20
660.2157668078
 10
207.2780689172
 20
660.2328385322
 10
207.2960772546
 20
660.2386029481
  0
LINE
  5
200
330
1F
100
AcDbEntity
  8
0
  6
SLD-Durchgehend
 62
     7
370
    25
100
AcDbLine
 10
207.2960772546
 20
660.2386029481
 30
0.0
 11
208.5883849469
 21
660.2386029481
 31
0.0
  0
LWPOLYLINE
  5
201
330
1F
100
AcDbEntity
  8
0
  6
SLD-Durchgehend
 62
     7
370
    25
100
AcDbPolyline
 90
        9
 70
   128
 43
0.0
 10
207.2960772546
 20
644.8386029481
 10
207.2780689172
 20
644.844367364
 10
207.2607526301
 20
644.8614390883
 10
207.2447938485
 20
644.8891620644
 10
207.2308058594
 20
644.9264709137
 10
207.2193262135
 20
644.9719318782
 10
207.210796067
 20
645.0237979184
 10
207.2055432287
 20
645.0800758515
 10
207.2037695623
 20
645.1386029481
  0
LINE
  5
202
330
1F
100
AcDbEntity
  8
0
  6
SLD-Durchgehend
 62
     7
370
    25
100
AcDbLine
 10
208.8883849469
 20
644.8386029481
 30
0.0
 11
208.2119955088
 21
644.8386029481
 31
0.0
  0
LINE
  5
203
330
1F
100
AcDbEntity
  8
0
  6
SLD-Durchgehend
 62
     7
370
    25
100
AcDbLine
 10
213.8806926392
 20
660.2386029481
 30
0.0
 11
221.2883849469
 21
660.2386029481
 31
0.0
  0
LINE
  5
204
330
1F
100
AcDbEntity
  8
0
  6
SLD-Durchgehend
 62
     7
370
    25
100
AcDbLine
 10
199.8883849469
 20
660.2386029481
 30
0.0
 11
207.2960772546
 21
660.2386029481
 31
0.0
  0
LINE
  5
205
330
1F
100
AcDbEntity
  8
0
  6
SLD-Durchgehend
 62
     7
370
    25
100
AcDbLine
 10
208.8883849469
 20
748.2386029481
 30
0.0
 11
208.8883849469
 21
731.8386029481
 31
0.0
  0
LINE
  5
206
330
1F
100
AcDbEntity
  8
0
  6
SLD-Durchgehend
 62
     7
370
    25
100
AcDbLine
 10
212.2883849469
 20
748.2386029481
 30
0.0
 11
208.8883849469
 21
748.2386029481
 31
0.0
  0
LINE
  5
207
330
1F
100
AcDbEntity
  8
0
  6
SLD-Durchgehend
 62
     7
370
    25
100
AcDbLine
 10
212.2883849469
 20
731.8386029481
 30
0.0
 11
212.2883849469
 21
748.2386029481
 31
0.0
  0
LINE
  5
208
330
1F
100
AcDbEntity
  8
0
  6
SLD-Durchgehend
 62
     7
370
    25
100
AcDbLine
 10
208.8883849469
 20
731.8386029481
 30
0.0
 11
212.2883849469
 21
731.8386029481
 31
0.0
  0
LINE
  5
209
330
1F
100
AcDbEntity
  8
0
  6
SLD-Durchgehend
 62
     7
370
    25
100
AcDbLine
 10
212.2883849469
 20
748.2386029481
 30
0.0
 11
212.2883849469
 21
750.2386029481
 31
0.0
  0
ARC
  5
20A
330
1F
100
AcDbEntity
  8
0
  6
SLD-Durchgehend
 62
     7
370
    25
100
AcDbCircle
 10
212.2883849469
 20
749.9386029481
 30
0.0
 40
0.3000000000000114
100
AcDbArc
 50
0.0
 51
90.0
  0
LINE
  5
20B
330
1F
100
AcDbEntity
  8
0
  6
SLD-Durchgehend
 62
     7
370
    25
100
AcDbLine
 10
212.5883849469
 20
749.9386029481
 30
0.0
 11
212.5883849469
 21
748.2386029481
 31
0.0
  0
LINE
  5
20C
330
1F
100
AcDbEntity
  8
0
  6
SLD-Durchgehend
 62
     7
370
    25
100
AcDbLine
 10
212.2883849469
 20
748.2386029481
 30
0.0
 11
212.5883849469
 21
748.2386029481
 31
0.0
  0
LINE
  5
20D
330
1F
100
AcDbEntity
  8
0
  6
SLD-Durchgehend
 62
     7
370
    25
100
AcDbLine
 10
208.8883849469
 20
731.8386029481
 30
0.0
 11
208.8883849469
 21
729.8386029481
 31
0.0
  0
LINE
  5
20E
330
1F
100
AcDbEntity
  8
0
  6
SLD-Durchgehend
 62
     7
370
    25
100
AcDbLine
 10
212.2883849469
 20
729.8386029481
 30
0.0
 11
212.2883849469
 21
731.8386029481
 31
0.0
  0
LINE
  5
20F
330
1F
100
AcDbEntity
  8
0
  6
SLD-Durchgehend
 62
     7
370
    25
100
AcDbLine
 10
212.2883849469
 20
729.8386029481
 30
0.0
 11
208.8883849469
 21
729.8386029481
 31
0.0
  0
LINE
  5
210
330
1F
100
AcDbEntity
  8
0
  6
SLD-Durchgehend
 62
     7
370
    25
100
AcDbLine
 10
208.8883849469
 20
750.2386029481
 30
0.0
 11
208.8883849469
 21
748.2386029481
 31
0.0
  0
LINE
  5
211
330
1F
100
AcDbEntity
  8
0
  6
SLD-Durchgehend
 62
     7
370
    25
100
AcDbLine
 10
208.8883849469
 20
750.2386029481
 30
0.0
 11
212.2883849469
 21
750.2386029481
 31
0.0
  0
LINE
  5
212
330
1F
100
AcDbEntity
  8
0
  6
SLD-Durchgehend
 62
     7
370
    25
100
AcDbLine
 10
208.5883849469
 20
730.1386029481
 30
0.0
 11
208.5883849469
 21
731.8386029481
 31
0.0
  0
LINE
  5
213
330
1F
100
AcDbEntity
  8
0
  6
SLD-Durchgehend
 62
     7
370
    25
100
AcDbLine
 10
208.5883849469
 20
731.8386029481
 30
0.0
 11
208.8883849469
 21
731.8386029481
 31
0.0
  0
ARC
  5
214
330
1F
100
AcDbEntity
  8
0
  6
SLD-Durchgehend
 62
     7
370
    25
100
AcDbCircle
 10
208.8883849469
 20
730.1386029481
 30
0.0
 40
0.2999999999999829
100
AcDbArc
 50
180.0
 51
270.0
  0
LINE
  5
215
330
1F
100
AcDbEntity
  8
0
  6
SLD-Durchgehend
 62
     7
370
    25
100
AcDbLine
 10
208.5883849469
 20
731.8386029481
 30
0.0
 11
208.5883849469
 21
748.2386029481
 31
0.0
  0
LINE
  5
216
330
1F
100
AcDbEntity
  8
0
  6
SLD-Durchgehend
 62
     7
370
    25
100
AcDbLine
 10
208.5883849469
 20
748.2386029481
 30
0.0
 11
208.8883849469
 21
748.2386029481
 31
0.0
  0
LINE
  5
217
330
1F
100
AcDbEntity
  8
0
  6
SLD-Durchgehend
 62
     7
370
    25
100
AcDbLine
 10
208.5883849469
 20
748.2386029481
 30
0.0
 11
208.5883849469
 21
749.9386029481
 31
0.0
  0
ARC
  5
218
330
1F
100
AcDbEntity
  8
0
  6
SLD-Durchgehend
 62
     7
370
    25
100
AcDbCircle
 10
208.8883849469
 20
749.9386029481
 30
0.0
 40
0.2999999999999829
100
AcDbArc
 50
90.0
 51
180.0
  0
LINE
  5
219
330
1F
100
AcDbEntity
  8
0
  6
SLD-Durchgehend
 62
     7
370
    25
100
AcDbLine
 10
212.2883849469
 20
731.8386029481
 30
0.0
 11
212.5883849469
 21
731.8386029481
 31
0.0
  0
LINE
  5
21A
330
1F
100
AcDbEntity
  8
0
  6
SLD-Durchgehend
 62
     7
370
    25
100
AcDbLine
 10
212.5883849469
 20
731.8386029481
 30
0.0
 11
212.5883849469
 21
730.1386029481
 31
0.0
  0
ARC
  5
21B
330
1F
100
AcDbEntity
  8
0
  6
SLD-Durchgehend
 62
     7
370
    25
100
AcDbCircle
 10
212.2883849469
 20
730.1386029481
 30
0.0
 40
0.3000000000000114
100
AcDbArc
 50
270.0
 51
0.0
  0
LINE
  5
21C
330
1F
100
AcDbEntity
  8
0
  6
SLD-Durchgehend
 62
     7
370
    25
100
AcDbLine
 10
212.5883849469
 20
748.2386029481
 30
0.0
 11
212.5883849469
 21
731.8386029481
 31
0.0
  0
LINE
  5
21D
330
1F
100
AcDbEntity
  8
0
  6
SLD-Durchgehend
 62
     7
370
    25
100
AcDbLine
 10
213.9730003315
 20
744.9386029481
 30
0.0
 11
212.5883849469
 21
744.9386029481
 31
0.0
  0
LINE
  5
21E
330
1F
100
AcDbEntity
  8
0
  6
SLD-Durchgehend
 62
     7
370
    25
100
AcDbLine
 10
213.9730003315
 20
744.9386029481
 30
0.0
 11
213.9730003315
 21
730.1386029481
 31
0.0
  0
LINE
  5
21F
330
1F
100
AcDbEntity
  8
0
  6
SLD-Durchgehend
 62
     7
370
    25
100
AcDbLine
 10
212.5883849469
 20
730.1386029481
 30
0.0
 11
213.9730003315
 21
730.1386029481
 31
0.0
  0
LINE
  5
220
330
1F
100
AcDbEntity
  8
0
  6
SLD-Durchgehend
 62
     7
370
    25
100
AcDbLine
 10
208.5883849469
 20
744.9386029481
 30
0.0
 11
207.2037695623
 21
744.9386029481
 31
0.0
  0
LINE
  5
221
330
1F
100
AcDbEntity
  8
0
  6
SLD-Durchgehend
 62
     7
370
    25
100
AcDbLine
 10
207.2037695623
 20
730.1386029481
 30
0.0
 11
208.5883849469
 21
730.1386029481
 31
0.0
  0
LINE
  5
222
330
1F
100
AcDbEntity
  8
0
  6
SLD-Durchgehend
 62
     7
370
    25
100
AcDbLine
 10
207.2037695623
 20
730.1386029481
 30
0.0
 11
207.2037695623
 21
744.9386029481
 31
0.0
  0
LWPOLYLINE
  5
223
330
1F
100
AcDbEntity
  8
0
  6
SLD-Durchgehend
 62
     7
370
    25
100
AcDbPolyline
 90
        9
 70
   128
 43
0.0
 10
207.2960772546
 20
729.8386029481
 10
207.2780689172
 20
729.844367364
 10
207.2607526301
 20
729.8614390883
 10
207.2447938485
 20
729.8891620644
 10
207.2308058594
 20
729.9264709137
 10
207.2193262135
 20
729.9719318782
 10
207.210796067
 20
730.0237979184
 10
207.2055432287
 20
730.0800758515
 10
207.2037695623
 20
730.1386029481
  0
LINE
  5
224
330
1F
100
AcDbEntity
  8
0
  6
SLD-Durchgehend
 62
     7
370
    25
100
AcDbLine
 10
208.8883849469
 20
729.8386029481
 30
0.0
 11
208.2119955088
 21
729.8386029481
 31
0.0
  0
LWPOLYLINE
  5
225
330
1F
100
AcDbEntity
  8
0
  6
SLD-Durchgehend
 62
     7
370
    25
100
AcDbPolyline
 90
        9
 70
   128
 43
0.0
 10
207.2037695623
 20
744.9386029481
 10
207.2055432287
 20
744.9971300447
 10
207.210796067
 20
745.0534079778
 10
207.2193262135
 20
745.105274018
 10
207.2308058594
 20
745.1507349824
 10
207.2447938485
 20
745.1880438318
 10
207.2607526301
 20
745.2157668078
 10
207.2780689172
 20
745.2328385322
 10
207.2960772546
 20
745.2386029481
  0
LINE
  5
226
330
1F
100
AcDbEntity
  8
0
  6
SLD-Durchgehend
 62
     7
370
    25
100
AcDbLine
 10
207.2960772546
 20
745.2386029481
 30
0.0
 11
208.5883849469
 21
745.2386029481
 31
0.0
  0
LWPOLYLINE
  5
227
330
1F
100
AcDbEntity
  8
0
  6
SLD-Durchgehend
 62
     7
370
    25
100
AcDbPolyline
 90
        9
 70
   128
 43
0.0
 10
213.8806926392
 20
729.8386029481
 10
213.8987009766
 20
729.844367364
 10
213.9160172637
 20
729.8614390883
 10
213.9319760453
 20
729.8891620644
 10
213.9459640344
 20
729.9264709137
 10
213.9574436804
 20
729.9719318782
 10
213.9659738268
 20
730.0237979184
 10
213.9712266651
 20
730.0800758515
 10
213.9730003315
 20
730.1386029481
  0
LINE
  5
228
330
1F
100
AcDbEntity
  8
0
  6
SLD-Durchgehend
 62
     7
370
    25
100
AcDbLine
 10
212.964774385
 20
729.8386029481
 30
0.0
 11
212.2883849469
 21
729.8386029481
 31
0.0
  0
LWPOLYLINE
  5
229
330
1F
100
AcDbEntity
  8
0
  6
SLD-Durchgehend
 62
     7
370
    25
100
AcDbPolyline
 90
        9
 70
   128
 43
0.0
 10
213.9730003315
 20
744.9386029481
 10
213.9712266651
 20
744.9971300447
 10
213.9659738268
 20
745.0534079778
 10
213.9574436804
 20
745.105274018
 10
213.9459640344
 20
745.1507349824
 10
213.9319760453
 20
745.1880438318
 10
213.9160172637
 20
745.2157668078
 10
213.8987009766
 20
745.2328385322
 10
213.8806926392
 20
745.2386029481
  0
LINE
  5
22A
330
1F
100
AcDbEntity
  8
0
  6
SLD-Durchgehend
 62
     7
370
    25
100
AcDbLine
 10
212.5883849469
 20
745.2386029481
 30
0.0
 11
213.8806926392
 21
745.2386029481
 31
0.0
  0
LINE
  5
22B
330
1F
100
AcDbEntity
  8
0
  6
SLD-Durchgehend
 62
     7
370
    25
100
AcDbLine
 10
213.8806926392
 20
745.2386029481
 30
0.0
 11
221.2883849469
 21
745.2386029481
 31
0.0
  0
LINE
  5
22C
330
1F
100
AcDbEntity
  8
0
  6
SLD-Durchgehend
 62
     7
370
    25
100
AcDbLine
 10
199.8883849469
 20
745.2386029481
 30
0.0
 11
207.2960772546
 21
745.2386029481
 31
0.0
  0
LINE
  5
22D
330
1F
100
AcDbEntity
  8
0
  6
SLD-Durchgehend
 62
     7
370
    25
100
AcDbLine
 10
207.9048226299
 20
747.2386029481
 30
0.0
 11
208.5883849469
 21
747.2386029481
 31
0.0
  0
LINE
  5
22E
330
1F
100
AcDbEntity
  8
0
  6
SLD-Durchgehend
 62
     7
370
    25
100
AcDbLine
 10
212.5883849469
 20
747.2386029481
 30
0.0
 11
221.0883849469
 21
747.2386029481
 31
0.0
  0
LINE
  5
22F
330
1F
100
AcDbEntity
  8
0
  6
SLD-Durchgehend
 62
     7
370
    25
100
AcDbLine
 10
200.0883849469
 20
747.2386029481
 30
0.0
 11
207.9048226299
 21
747.2386029481
 31
0.0
  0
LINE
  5
230
330
1F
100
AcDbEntity
  8
0
  6
SLD-Durchgehend
 62
     7
370
    25
100
AcDbLine
 10
207.9048226299
 20
746.6386029481
 30
0.0
 11
208.5883849469
 21
746.6386029481
 31
0.0
  0
LINE
  5
231
330
1F
100
AcDbEntity
  8
0
  6
SLD-Durchgehend
 62
     7
370
    25
100
AcDbLine
 10
212.5883849469
 20
746.6386029481
 30
0.0
 11
221.0883849469
 21
746.6386029481
 31
0.0
  0
LINE
  5
232
330
1F
100
AcDbEntity
  8
0
  6
SLD-Durchgehend
 62
     7
370
    25
100
AcDbLine
 10
200.0883849469
 20
746.6386029481
 30
0.0
 11
207.9048226299
 21
746.6386029481
 31
0.0
  0
LINE
  5
233
330
1F
100
AcDbEntity
  8
0
  6
SLD-Durchgehend
 62
     7
370
    25
100
AcDbLine
 10
220.2883849469
 20
474.2386029481
 30
0.0
 11
200.8883849469
 21
474.2386029481
 31
0.0
  0
LINE
  5
234
330
1F
100
AcDbEntity
  8
0
  6
SLD-Durchgehend
 62
     7
370
    25
100
AcDbLine
 10
200.6383849469
 20
474.4886029481
 30
0.0
 11
220.5383849469
 21
474.4886029481
 31
0.0
  0
LINE
  5
235
330
1F
100
AcDbEntity
  8
0
  6
SLD-Durchgehend
 62
     7
370
    25
100
AcDbLine
 10
199.6423166034
 20
575.4386029481
 30
0.0
 11
208.5883849469
 21
575.4386029481
 31
0.0
  0
LINE
  5
236
330
1F
100
AcDbEntity
  8
0
  6
SLD-Durchgehend
 62
     7
370
    25
100
AcDbLine
 10
212.5883849469
 20
575.4386029481
 30
0.0
 11
221.5883849469
 21
575.4386029481
 31
0.0
  0
LINE
  5
237
330
1F
100
AcDbEntity
  8
0
  6
SLD-Durchgehend
 62
     7
370
    25
100
AcDbLine
 10
199.5883849469
 20
575.4386029481
 30
0.0
 11
199.6423166034
 21
575.4386029481
 31
0.0
  0
LINE
  5
238
330
1F
100
AcDbEntity
  8
0
  6
SLD-Durchgehend
 62
     7
370
    25
100
AcDbLine
 10
199.6423166034
 20
644.8386029481
 30
0.0
 11
208.2119955088
 21
644.8386029481
 31
0.0
  0
LINE
  5
239
330
1F
100
AcDbEntity
  8
0
  6
SLD-Durchgehend
 62
     7
370
    25
100
AcDbLine
 10
212.964774385
 20
644.8386029481
 30
0.0
 11
221.5883849469
 21
644.8386029481
 31
0.0
  0
LINE
  5
23A
330
1F
100
AcDbEntity
  8
0
  6
SLD-Durchgehend
 62
     7
370
    25
100
AcDbLine
 10
199.5883849469
 20
644.8386029481
 30
0.0
 11
199.6423166034
 21
644.8386029481
 31
0.0
  0
LINE
  5
23B
330
1F
100
AcDbEntity
  8
0
  6
SLD-Durchgehend
 62
     7
370
    25
100
AcDbLine
 10
199.5883849469
 20
660.4386029481
 30
0.0
 11
208.5883849469
 21
660.4386029481
 31
0.0
  0
LINE
  5
23C
330
1F
100
AcDbEntity
  8
0
  6
SLD-Durchgehend
 62
     7
370
    25
100
AcDbLine
 10
212.5883849469
 20
660.4386029481
 30
0.0
 11
221.5883849469
 21
660.4386029481
 31
0.0
  0
LINE
  5
23D
330
1F
100
AcDbEntity
  8
0
  6
SLD-Durchgehend
 62
     7
370
    25
100
AcDbLine
 10
199.5883849469
 20
729.8386029481
 30
0.0
 11
208.2119955088
 21
729.8386029481
 31
0.0
  0
LINE
  5
23E
330
1F
100
AcDbEntity
  8
0
  6
SLD-Durchgehend
 62
     7
370
    25
100
AcDbLine
 10
212.964774385
 20
729.8386029481
 30
0.0
 11
221.5883849469
 21
729.8386029481
 31
0.0
  0
LINE
  5
23F
330
1F
100
AcDbEntity
  8
0
  6
SLD-Durchgehend
 62
     7
370
    25
100
AcDbLine
 10
221.4372212092
 20
490.4386029481
 30
0.0
 11
221.5883849469
 21
490.4386029481
 31
0.0
  0
LINE
  5
240
330
1F
100
AcDbEntity
  8
0
  6
SLD-Durchgehend
 62
     7
370
    25
100
AcDbLine
 10
199.5883849469
 20
490.4386029481
 30
0.0
 11
208.5883849469
 21
490.4386029481
 31
0.0
  0
LINE
  5
241
330
1F
100
AcDbEntity
  8
0
  6
SLD-Durchgehend
 62
     7
370
    25
100
AcDbLine
 10
212.5883849469
 20
490.4386029481
 30
0.0
 11
221.4372212092
 21
490.4386029481
 31
0.0
  0
LINE
  5
242
330
1F
100
AcDbEntity
  8
0
  6
SLD-Durchgehend
 62
     7
370
    25
100
AcDbLine
 10
221.4372212092
 20
559.8386029481
 30
0.0
 11
221.5883849469
 21
559.8386029481
 31
0.0
  0
LINE
  5
243
330
1F
100
AcDbEntity
  8
0
  6
SLD-Durchgehend
 62
     7
370
    25
100
AcDbLine
 10
199.5883849469
 20
559.8386029481
 30
0.0
 11
208.2119955088
 21
559.8386029481
 31
0.0
  0
LINE
  5
244
330
1F
100
AcDbEntity
  8
0
  6
SLD-Durchgehend
 62
     7
370
    25
100
AcDbLine
 10
212.964774385
 20
559.8386029481
 30
0.0
 11
221.4372212092
 21
559.8386029481
 31
0.0
  0
LINE
  5
245
330
1F
100
AcDbEntity
  8
0
  6
SLD-Durchgehend
 62
     7
370
    25
100
AcDbLine
 10
207.2037695623
 20
489.9386029481
 30
0.0
 11
199.5883849469
 21
489.9386029481
 31
0.0
  0
LINE
  5
246
330
1F
100
AcDbEntity
  8
0
  6
SLD-Durchgehend
 62
     7
370
    25
100
AcDbLine
 10
221.5883849469
 20
489.9386029481
 30
0.0
 11
213.9730003315
 21
489.9386029481
 31
0.0
  0
LINE
  5
247
330
1F
100
AcDbEntity
  8
0
  6
SLD-Durchgehend
 62
     7
370
    25
100
AcDbLine
 10
213.9730003315
 20
475.1386029481
 30
0.0
 11
221.5883849469
 21
475.1386029481
 31
0.0
  0
LINE
  5
248
330
1F
100
AcDbEntity
  8
0
  6
SLD-Durchgehend
 62
     7
370
    25
100
AcDbLine
 10
199.5883849469
 20
475.1386029481
 30
0.0
 11
207.2037695623
 21
475.1386029481
 31
0.0
  0
LINE
  5
249
330
1F
100
AcDbEntity
  8
0
  6
SLD-Durchgehend
 62
     7
370
    25
100
AcDbLine
 10
199.7391126837
 20
748.7386029481
 30
0.0
 11
208.5883849469
 21
748.7386029481
 31
0.0
  0
LINE
  5
24A
330
1F
100
AcDbEntity
  8
0
  6
SLD-Durchgehend
 62
     7
370
    25
100
AcDbLine
 10
212.5883849469
 20
748.7386029481
 30
0.0
 11
221.4376572101
 21
748.7386029481
 31
0.0
  0
LINE
  5
24B
330
1F
100
AcDbEntity
  8
0
  6
SLD-Durchgehend
 62
     7
370
    25
100
AcDbLine
 10
221.4376572101
 20
750.2386029481
 30
0.0
 11
212.2883849469
 21
750.2386029481
 31
0.0
  0
LINE
  5
24C
330
1F
100
AcDbEntity
  8
0
  6
SLD-Durchgehend
 62
     7
370
    25
100
AcDbLine
 10
208.8883849469
 20
750.2386029481
 30
0.0
 11
199.7391126837
 21
750.2386029481
 31
0.0
  0
LINE
  5
24D
330
1F
100
AcDbEntity
  8
0
  6
SLD-Durchgehend
 62
     7
370
    25
100
AcDbLine
 10
222.6457623582
 20
745.7386029481
 30
0.0
 11
219.6883849469
 21
745.7386029481
 31
0.0
  0
LINE
  5
24E
330
1F
100
AcDbEntity
  8
0
  6
SLD-Durchgehend
 62
     7
370
    25
100
AcDbLine
 10
201.4883849469
 20
745.7386029481
 30
0.0
 11
198.5310075356
 21
745.7386029481
 31
0.0
  0
LINE
  5
24F
330
1F
100
AcDbEntity
  8
0
  6
SLD-Durchgehend
 62
     7
370
    25
100
AcDbLine
 10
198.5310075356
 20
475.7386029481
 30
0.0
 11
199.5883849469
 21
475.7386029481
 31
0.0
  0
LINE
  5
250
330
1F
100
AcDbEntity
  8
0
  6
SLD-Durchgehend
 62
     7
370
    25
100
AcDbLine
 10
221.5883849469
 20
475.7386029481
 30
0.0
 11
222.6457623582
 21
475.7386029481
 31
0.0
  0
LINE
  5
251
330
1F
100
AcDbEntity
  8
0
  6
SLD-Durchgehend
 62
     7
370
    25
100
AcDbLine
 10
207.2037695623
 20
574.9386029481
 30
0.0
 11
199.5883849469
 21
574.9386029481
 31
0.0
  0
LINE
  5
252
330
1F
100
AcDbEntity
  8
0
  6
SLD-Durchgehend
 62
     7
370
    25
100
AcDbLine
 10
221.5883849469
 20
574.9386029481
 30
0.0
 11
213.9730003315
 21
574.9386029481
 31
0.0
  0
LINE
  5
253
330
1F
100
AcDbEntity
  8
0
  6
SLD-Durchgehend
 62
     7
370
    25
100
AcDbLine
 10
213.9730003315
 20
560.1386029481
 30
0.0
 11
221.5883849469
 21
560.1386029481
 31
0.0
  0
LINE
  5
254
330
1F
100
AcDbEntity
  8
0
  6
SLD-Durchgehend
 62
     7
370
    25
100
AcDbLine
 10
199.5883849469
 20
560.1386029481
 30
0.0
 11
207.2037695623
 21
560.1386029481
 31
0.0
  0
LINE
  5
255
330
1F
100
AcDbEntity
  8
0
  6
SLD-Durchgehend
 62
     7
370
    25
100
AcDbLine
 10
213.9730003315
 20
645.1386029481
 30
0.0
 11
221.5883849469
 21
645.1386029481
 31
0.0
  0
LINE
  5
256
330
1F
100
AcDbEntity
  8
0
  6
SLD-Durchgehend
 62
     7
370
    25
100
AcDbLine
 10
199.5883849469
 20
645.1386029481
 30
0.0
 11
207.2037695623
 21
645.1386029481
 31
0.0
  0
LINE
  5
257
330
1F
100
AcDbEntity
  8
0
  6
SLD-Durchgehend
 62
     7
370
    25
100
AcDbLine
 10
207.2037695623
 20
659.9386029481
 30
0.0
 11
199.5883849469
 21
659.9386029481
 31
0.0
  0
LINE
  5
258
330
1F
100
AcDbEntity
  8
0
  6
SLD-Durchgehend
 62
     7
370
    25
100
AcDbLine
 10
221.5883849469
 20
659.9386029481
 30
0.0
 11
213.9730003315
 21
659.9386029481
 31
0.0
  0
LINE
  5
259
330
1F
100
AcDbEntity
  8
0
  6
SLD-Durchgehend
 62
     7
370
    25
100
AcDbLine
 10
213.9730003315
 20
730.1386029481
 30
0.0
 11
221.5883849469
 21
730.1386029481
 31
0.0
  0
LINE
  5
25A
330
1F
100
AcDbEntity
  8
0
  6
SLD-Durchgehend
 62
     7
370
    25
100
AcDbLine
 10
199.5883849469
 20
730.1386029481
 30
0.0
 11
207.2037695623
 21
730.1386029481
 31
0.0
  0
LINE
  5
25B
330
1F
100
AcDbEntity
  8
0
  6
SLD-Durchgehend
 62
     7
370
    25
100
AcDbLine
 10
207.2037695623
 20
744.9386029481
 30
0.0
 11
199.5883849469
 21
744.9386029481
 31
0.0
  0
LINE
  5
25C
330
1F
100
AcDbEntity
  8
0
  6
SLD-Durchgehend
 62
     7
370
    25
100
AcDbLine
 10
221.5883849469
 20
744.9386029481
 30
0.0
 11
213.9730003315
 21
744.9386029481
 31
0.0
  0
DIMENSION
  5
25D
330
1F
100
AcDbEntity
  8
0
  6
SLD-Durchgehend
 62
     7
370
    18
100
AcDbDimension
280
     0
  2
_D
 10
172.5091487536
 20
665.2386029481
 30
0.0
 11
172.5091487536
 21
705.6789571592
 31
0.0
 70
   160
  1
<>
 71
     2
 42
-1.0
 73
     0
 74
     0
 75
     0
  3
SLDDIMSTYLE0
100
AcDbAlignedDimension
 13
208.8883849469
 23
750.2386029481
 33
0.0
 14
208.8883849469
 24
665.2386029481
 34
0.0
 50
90.0
100
AcDbRotatedDimension
  0
ARC
  5
269
330
1F
100
AcDbEntity
  8
0
  6
SLD-Durchgehend
 62
     7
370
    25
100
AcDbCircle
 10
359.1548839583
 20
489.9386029481
 30
0.0
 40
0.3000000000000114
100
AcDbArc
 50
90.0
 51
180.0
  0
LINE
  5
26A
330
1F
100
AcDbEntity
  8
0
  6
SLD-Durchgehend
 62
     7
370
    25
100
AcDbLine
 10
358.8548839583
 20
489.9386029481
 30
0.0
 11
358.8548839583
 21
475.1386029481
 31
0.0
  0
ARC
  5
26B
330
1F
100
AcDbEntity
  8
0
  6
SLD-Durchgehend
 62
     7
370
    25
100
AcDbCircle
 10
359.1548839583
 20
475.1386029481
 30
0.0
 40
0.2999999999999545
100
AcDbArc
 50
180.0
 51
270.0
  0
ARC
  5
26C
330
1F
100
AcDbEntity
  8
0
  6
SLD-Durchgehend
 62
     7
370
    25
100
AcDbCircle
 10
379.3548839583
 20
472.7386029481
 30
0.0
 40
1.5
100
AcDbArc
 50
0.0
 51
90.0
  0
ARC
  5
26D
330
1F
100
AcDbEntity
  8
0
  6
SLD-Durchgehend
 62
     7
370
    25
100
AcDbCircle
 10
379.3548839583
 20
748.7386029481
 30
0.0
 40
1.5
100
AcDbArc
 50
270.0
 51
0.0
  0
ARC
  5
26E
330
1F
100
AcDbEntity
  8
0
  6
SLD-Durchgehend
 62
     7
370
    25
100
AcDbCircle
 10
378.8548839583
 20
750.2386029481
 30
0.0
 40
2.0
100
AcDbArc
 50
0.0
 51
90.0
  0
ARC
  5
26F
330
1F
100
AcDbEntity
  8
0
  6
SLD-Durchgehend
 62
     7
370
    25
100
AcDbCircle
 10
378.8548839583
 20
471.2386029481
 30
0.0
 40
1.999999999999943
100
AcDbArc
 50
270.0
 51
0.0
  0
LINE
  5
270
330
1F
100
AcDbEntity
  8
0
  6
SLD-Durchgehend
 62
     7
370
    25
100
AcDbLine
 10
380.8548839583
 20
748.7386029481
 30
0.0
 11
380.8548839583
 21
750.2386029481
 31
0.0
  0
LINE
  5
271
330
1F
100
AcDbEntity
  8
0
  6
SLD-Durchgehend
 62
     7
370
    25
100
AcDbLine
 10
380.8548839583
 20
471.2386029481
 30
0.0
 11
380.8548839583
 21
472.7386029481
 31
0.0
  0
LINE
  5
272
330
1F
100
AcDbEntity
  8
0
  6
SLD-Durchgehend
 62
     7
370
    25
100
AcDbLine
 10
374.8548839583
 20
469.1886029481
 30
0.0
 11
374.8548839583
 21
469.2386029481
 31
0.0
  0
LINE
  5
273
330
1F
100
AcDbEntity
  8
0
  6
SLD-Durchgehend
 62
     7
370
    25
100
AcDbLine
 10
364.8548839583
 20
469.2386029481
 30
0.0
 11
364.8548839583
 21
469.1886029481
 31
0.0
  0
LINE
  5
274
330
1F
100
AcDbEntity
  8
0
  6
SLD-Durchgehend
 62
     7
370
    25
100
AcDbLine
 10
364.8548839583
 20
752.2886029481
 30
0.0
 11
364.8548839583
 21
752.2386029481
 31
0.0
  0
LINE
  5
275
330
1F
100
AcDbEntity
  8
0
  6
SLD-Durchgehend
 62
     7
370
    25
100
AcDbLine
 10
374.8548839583
 20
752.2386029481
 30
0.0
 11
374.8548839583
 21
752.2886029481
 31
0.0
  0
ARC
  5
276
330
1F
100
AcDbEntity
  8
0
  6
SLD-Durchgehend
 62
     7
370
    25
100
AcDbCircle
 10
359.1548839583
 20
560.1386029481
 30
0.0
 40
0.2999999999999545
100
AcDbArc
 50
180.0
 51
270.0
  0
LINE
  5
277
330
1F
100
AcDbEntity
  8
0
  6
SLD-Durchgehend
 62
     7
370
    25
100
AcDbLine
 10
358.8548839583
 20
574.9386029481
 30
0.0
 11
358.8548839583
 21
560.1386029481
 31
0.0
  0
ARC
  5
278
330
1F
100
AcDbEntity
  8
0
  6
SLD-Durchgehend
 62
     7
370
    25
100
AcDbCircle
 10
359.1548839583
 20
574.9386029481
 30
0.0
 40
0.2999999999999545
100
AcDbArc
 50
90.0
 51
180.0
  0
LINE
  5
279
330
1F
100
AcDbEntity
  8
0
  6
SLD-Durchgehend
 62
     7
370
    25
100
AcDbLine
 10
358.8548839583
 20
659.9386029481
 30
0.0
 11
358.8548839583
 21
645.1386029481
 31
0.0
  0
ARC
  5
27A
330
1F
100
AcDbEntity
  8
0
  6
SLD-Durchgehend
 62
     7
370
    25
100
AcDbCircle
 10
359.1548839583
 20
645.1386029481
 30
0.0
 40
0.3000000000000682
100
AcDbArc
 50
180.0
 51
270.0
  0
ARC
  5
27B
330
1F
100
AcDbEntity
  8
0
  6
SLD-Durchgehend
 62
     7
370
    25
100
AcDbCircle
 10
359.1548839583
 20
659.9386029481
 30
0.0
 40
0.2999999999999545
100
AcDbArc
 50
90.0
 51
180.0
  0
LINE
  5
27C
330
1F
100
AcDbEntity
  8
0
  6
SLD-Durchgehend
 62
     7
370
    25
100
AcDbLine
 10
358.8548839583
 20
744.9386029481
 30
0.0
 11
358.8548839583
 21
730.1386029481
 31
0.0
  0
ARC
  5
27D
330
1F
100
AcDbEntity
  8
0
  6
SLD-Durchgehend
 62
     7
370
    25
100
AcDbCircle
 10
359.1548839583
 20
730.1386029481
 30
0.0
 40
0.3000000000000682
100
AcDbArc
 50
180.0
 51
270.0
  0
ARC
  5
27E
330
1F
100
AcDbEntity
  8
0
  6
SLD-Durchgehend
 62
     7
370
    25
100
AcDbCircle
 10
359.1548839583
 20
744.9386029481
 30
0.0
 40
0.3000000000000682
100
AcDbArc
 50
90.0
 51
180.0
  0
LINE
  5
27F
330
1F
100
AcDbEntity
  8
0
  6
SLD-Durchgehend
 62
     7
370
    25
100
AcDbLine
 10
359.3548839583
 20
747.2386029481
 30
0.0
 11
359.3548839583
 21
746.6386029481
 31
0.0
  0
LINE
  5
280
330
1F
100
AcDbEntity
  8
0
  6
SLD-Durchgehend
 62
     7
370
    25
100
AcDbLine
 10
380.3548839583
 20
746.6386029481
 30
0.0
 11
380.3548839583
 21
747.2386029481
 31
0.0
  0
LINE
  5
281
330
1F
100
AcDbEntity
  8
0
  6
SLD-Durchgehend
 62
     7
370
    25
100
AcDbLine
 10
360.7548839583
 20
746.6386029481
 30
0.0
 11
360.7548839583
 21
745.2386029481
 31
0.0
  0
LINE
  5
282
330
1F
100
AcDbEntity
  8
0
  6
SLD-Durchgehend
 62
     7
370
    25
100
AcDbLine
 10
378.9548839583
 20
745.2386029481
 30
0.0
 11
378.9548839583
 21
746.6386029481
 31
0.0
  0
LINE
  5
283
330
1F
100
AcDbEntity
  8
0
  6
SLD-Durchgehend
 62
     7
370
    25
100
AcDbLine
 10
359.9048839583
 20
474.4886029481
 30
0.0
 11
360.1548839583
 21
474.2386029481
 31
0.0
  0
LINE
  5
284
330
1F
100
AcDbEntity
  8
0
  6
SLD-Durchgehend
 62
     7
370
    25
100
AcDbLine
 10
379.5548839583
 20
474.2386029481
 30
0.0
 11
379.8048839583
 21
474.4886029481
 31
0.0
  0
LINE
  5
285
330
1F
100
AcDbEntity
  8
0
  6
SLD-Durchgehend
 62
     7
370
    25
100
AcDbLine
 10
379.8048839583
 20
474.4886029481
 30
0.0
 11
379.8048839583
 21
474.8386029481
 31
0.0
  0
LINE
  5
286
330
1F
100
AcDbEntity
  8
0
  6
SLD-Durchgehend
 62
     7
370
    25
100
AcDbLine
 10
359.9048839583
 20
474.8386029481
 30
0.0
 11
359.9048839583
 21
474.4886029481
 31
0.0
  0
LINE
  5
287
330
1F
100
AcDbEntity
  8
0
  6
SLD-Durchgehend
 62
     7
370
    25
100
AcDbLine
 10
360.8548839583
 20
575.4386029481
 30
0.0
 11
360.8548839583
 21
575.2386029481
 31
0.0
  0
LINE
  5
288
330
1F
100
AcDbEntity
  8
0
  6
SLD-Durchgehend
 62
     7
370
    25
100
AcDbLine
 10
378.8548839583
 20
575.2386029481
 30
0.0
 11
378.8548839583
 21
575.4386029481
 31
0.0
  0
LINE
  5
289
330
1F
100
AcDbEntity
  8
0
  6
SLD-Durchgehend
 62
     7
370
    25
100
AcDbLine
 10
360.8548839583
 20
490.4386029481
 30
0.0
 11
360.8548839583
 21
490.2386029481
 31
0.0
  0
LINE
  5
28A
330
1F
100
AcDbEntity
  8
0
  6
SLD-Durchgehend
 62
     7
370
    25
100
AcDbLine
 10
378.8548839583
 20
490.2386029481
 30
0.0
 11
378.8548839583
 21
490.4386029481
 31
0.0
  0
LINE
  5
28B
330
1F
100
AcDbEntity
  8
0
  6
SLD-Durchgehend
 62
     7
370
    25
100
AcDbLine
 10
360.8548839583
 20
660.4386029481
 30
0.0
 11
360.8548839583
 21
660.2386029481
 31
0.0
  0
LINE
  5
28C
330
1F
100
AcDbEntity
  8
0
  6
SLD-Durchgehend
 62
     7
370
    25
100
AcDbLine
 10
378.8548839583
 20
660.2386029481
 30
0.0
 11
378.8548839583
 21
660.4386029481
 31
0.0
  0
LINE
  5
28D
330
1F
100
AcDbEntity
  8
0
  6
SLD-Durchgehend
 62
     7
370
    25
100
AcDbLine
 10
380.8548839583
 20
575.4386029481
 30
0.0
 11
380.8548839583
 21
644.8386029481
 31
0.0
  0
LINE
  5
28E
330
1F
100
AcDbEntity
  8
0
  6
SLD-Durchgehend
 62
     7
370
    25
100
AcDbLine
 10
358.8548839583
 20
644.8386029481
 30
0.0
 11
358.8548839583
 21
575.4386029481
 31
0.0
  0
LINE
  5
28F
330
1F
100
AcDbEntity
  8
0
  6
SLD-Durchgehend
 62
     7
370
    25
100
AcDbLine
 10
380.8548839583
 20
660.4386029481
 30
0.0
 11
380.8548839583
 21
729.8386029481
 31
0.0
  0
LINE
  5
290
330
1F
100
AcDbEntity
  8
0
  6
SLD-Durchgehend
 62
     7
370
    25
100
AcDbLine
 10
358.8548839583
 20
729.8386029481
 30
0.0
 11
358.8548839583
 21
660.4386029481
 31
0.0
  0
LINE
  5
291
330
1F
100
AcDbEntity
  8
0
  6
SLD-Durchgehend
 62
     7
370
    25
100
AcDbLine
 10
380.8548839583
 20
490.4386029481
 30
0.0
 11
380.8548839583
 21
559.8386029481
 31
0.0
  0
LINE
  5
292
330
1F
100
AcDbEntity
  8
0
  6
SLD-Durchgehend
 62
     7
370
    25
100
AcDbLine
 10
358.8548839583
 20
559.8386029481
 30
0.0
 11
358.8548839583
 21
490.4386029481
 31
0.0
  0
LINE
  5
293
330
1F
100
AcDbEntity
  8
0
  6
SLD-Durchgehend
 62
     7
370
    25
100
AcDbLine
 10
359.1548839583
 20
490.2386029481
 30
0.0
 11
380.0357832339
 21
490.2386029481
 31
0.0
  0
ARC
  5
294
330
1F
100
AcDbEntity
  8
0
  6
SLD-Durchgehend
 62
     7
370
    25
100
AcDbCircle
 10
380.0283205993
 20
489.9457035398
 30
0.0
 40
0.2929944611910272
100
AcDbArc
 50
358.6113260659
 51
88.5405058174
  0
LINE
  5
295
330
1F
100
AcDbEntity
  8
0
  6
SLD-Durchgehend
 62
     7
370
    25
100
AcDbLine
 10
380.321229008
 20
475.1386029481
 30
0.0
 11
380.321229008
 21
489.9386029481
 31
0.0
  0
LINE
  5
296
330
1F
100
AcDbEntity
  8
0
  6
SLD-Durchgehend
 62
     7
370
    25
100
AcDbLine
 10
380.0357832339
 20
474.8386029481
 30
0.0
 11
359.1548839583
 21
474.8386029481
 31
0.0
  0
ARC
  5
297
330
1F
100
AcDbEntity
  8
0
  6
SLD-Durchgehend
 62
     7
370
    25
100
AcDbCircle
 10
380.0283205993
 20
475.1315023564
 30
0.0
 40
0.2929944611909704
100
AcDbArc
 50
271.4594941826
 51
1.3886739341
  0
LINE
  5
298
330
1F
100
AcDbEntity
  8
0
  6
SLD-Durchgehend
 62
     7
370
    25
100
AcDbLine
 10
382.2242008352
 20
489.9386029481
 30
0.0
 11
380.321229008
 21
489.9386029481
 31
0.0
  0
LINE
  5
299
330
1F
100
AcDbEntity
  8
0
  6
SLD-Durchgehend
 62
     7
370
    25
100
AcDbLine
 10
382.2242008352
 20
489.9386029481
 30
0.0
 11
382.2242008352
 21
490.2386029481
 31
0.0
  0
LINE
  5
29A
330
1F
100
AcDbEntity
  8
0
  6
SLD-Durchgehend
 62
     7
370
    25
100
AcDbLine
 10
380.0357832339
 20
490.2386029481
 30
0.0
 11
382.2242008352
 21
490.2386029481
 31
0.0
  0
LINE
  5
29B
330
1F
100
AcDbEntity
  8
0
  6
SLD-Durchgehend
 62
     7
370
    25
100
AcDbLine
 10
380.321229008
 20
475.1386029481
 30
0.0
 11
382.2242008352
 21
475.1386029481
 31
0.0
  0
LINE
  5
29C
330
1F
100
AcDbEntity
  8
0
  6
SLD-Durchgehend
 62
     7
370
    25
100
AcDbLine
 10
382.2242008352
 20
474.8386029481
 30
0.0
 11
382.2242008352
 21
475.1386029481
 31
0.0
  0
LINE
  5
29D
330
1F
100
AcDbEntity
  8
0
  6
SLD-Durchgehend
 62
     7
370
    25
100
AcDbLine
 10
382.2242008352
 20
474.8386029481
 30
0.0
 11
380.0357832339
 21
474.8386029481
 31
0.0
  0
LINE
  5
29E
330
1F
100
AcDbEntity
  8
0
  6
SLD-Durchgehend
 62
     7
370
    25
100
AcDbLine
 10
382.2242008352
 20
489.9386029481
 30
0.0
 11
382.2242008352
 21
475.1386029481
 31
0.0
  0
LINE
  5
29F
330
1F
100
AcDbEntity
  8
0
  6
SLD-Durchgehend
 62
     7
370
    25
100
AcDbLine
 10
382.2242008352
 20
475.1386029481
 30
0.0
 11
487.8548839583
 21
475.1386029481
 31
0.0
  0
LINE
  5
2A0
330
1F
100
AcDbEntity
  8
0
  6
SLD-Durchgehend
 62
     7
370
    25
100
AcDbLine
 10
487.8548839583
 20
474.8386029481
 30
0.0
 11
487.8548839583
 21
475.1386029481
 31
0.0
  0
LINE
  5
2A1
330
1F
100
AcDbEntity
  8
0
  6
SLD-Durchgehend
 62
     7
370
    25
100
AcDbLine
 10
487.8548839583
 20
474.8386029481
 30
0.0
 11
382.2242008352
 21
474.8386029481
 31
0.0
  0
LINE
  5
2A2
330
1F
100
AcDbEntity
  8
0
  6
SLD-Durchgehend
 62
     7
370
    25
100
AcDbLine
 10
479.813432074
 20
489.9386029481
 30
0.0
 11
382.2242008352
 21
489.9386029481
 31
0.0
  0
LINE
  5
2A3
330
1F
100
AcDbEntity
  8
0
  6
SLD-Durchgehend
 62
     7
370
    25
100
AcDbLine
 10
479.813432074
 20
489.9386029481
 30
0.0
 11
479.813432074
 21
490.2386029481
 31
0.0
  0
LINE
  5
2A4
330
1F
100
AcDbEntity
  8
0
  6
SLD-Durchgehend
 62
     7
370
    25
100
AcDbLine
 10
382.2242008352
 20
490.2386029481
 30
0.0
 11
479.813432074
 21
490.2386029481
 31
0.0
  0
ARC
  5
2A5
330
1F
100
AcDbEntity
  8
0
  6
SLD-Durchgehend
 62
     7
370
    25
100
AcDbCircle
 10
479.813432074
 20
492.2386029481
 30
0.0
 40
2.30000000000001
100
AcDbArc
 50
270.0
 51
330.0
  0
LINE
  5
2A6
330
1F
100
AcDbEntity
  8
0
  6
SLD-Durchgehend
 62
     7
370
    25
100
AcDbLine
 10
483.5373413103
 20
494.0886029481
 30
0.0
 11
481.8052905027
 21
491.0886029481
 31
0.0
  0
ARC
  5
2A7
330
1F
100
AcDbEntity
  8
0
  6
SLD-Durchgehend
 62
     7
370
    25
100
AcDbCircle
 10
485.0095844967
 20
493.2386029481
 30
0.0
 40
1.700000000000044
100
AcDbArc
 50
90.0
 51
150.0
  0
LINE
  5
2A8
330
1F
100
AcDbEntity
  8
0
  6
SLD-Durchgehend
 62
     7
370
    25
100
AcDbLine
 10
487.8548839583
 20
494.9386029481
 30
0.0
 11
485.0095844967
 21
494.9386029481
 31
0.0
  0
ARC
  5
2A9
330
1F
100
AcDbEntity
  8
0
  6
SLD-Durchgehend
 62
     7
370
    25
100
AcDbCircle
 10
487.8548839583
 20
493.2386029481
 30
0.0
 40
1.699999999999989
100
AcDbArc
 50
0.0
 51
90.0
  0
LINE
  5
2AA
330
1F
100
AcDbEntity
  8
0
  6
SLD-Durchgehend
 62
     7
370
    25
100
AcDbLine
 10
489.5548839583
 20
476.8386029481
 30
0.0
 11
489.5548839583
 21
493.2386029481
 31
0.0
  0
ARC
  5
2AB
330
1F
100
AcDbEntity
  8
0
  6
SLD-Durchgehend
 62
     7
370
    25
100
AcDbCircle
 10
487.8548839583
 20
476.8386029481
 30
0.0
 40
1.699999999999989
100
AcDbArc
 50
270.0
 51
0.0
  0
ARC
  5
2AC
330
1F
100
AcDbEntity
  8
0
  6
SLD-Durchgehend
 62
     7
370
    25
100
AcDbCircle
 10
479.813432074
 20
492.2386029481
 30
0.0
 40
2.000000000000016
100
AcDbArc
 50
270.0
 51
330.0
  0
LINE
  5
2AD
330
1F
100
AcDbEntity
  8
0
  6
SLD-Durchgehend
 62
     7
370
    25
100
AcDbLine
 10
481.8052905027
 20
491.0886029481
 30
0.0
 11
481.5454828816
 21
491.2386029481
 31
0.0
  0
LINE
  5
2AE
330
1F
100
AcDbEntity
  8
0
  6
SLD-Durchgehend
 62
     7
370
    25
100
AcDbLine
 10
481.5454828816
 20
491.2386029481
 30
0.0
 11
483.2775336891
 21
494.2386029481
 31
0.0
  0
LINE
  5
2AF
330
1F
100
AcDbEntity
  8
0
  6
SLD-Durchgehend
 62
     7
370
    25
100
AcDbLine
 10
483.5373413103
 20
494.0886029481
 30
0.0
 11
483.2775336891
 21
494.2386029481
 31
0.0
  0
ARC
  5
2B0
330
1F
100
AcDbEntity
  8
0
  6
SLD-Durchgehend
 62
     7
370
    25
100
AcDbCircle
 10
485.0095844967
 20
493.2386029481
 30
0.0
 40
2.000000000000037
100
AcDbArc
 50
90.0
 51
150.0
  0
LINE
  5
2B1
330
1F
100
AcDbEntity
  8
0
  6
SLD-Durchgehend
 62
     7
370
    25
100
AcDbLine
 10
485.0095844967
 20
494.9386029481
 30
0.0
 11
485.0095844967
 21
495.2386029481
 31
0.0
  0
LINE
  5
2B2
330
1F
100
AcDbEntity
  8
0
  6
SLD-Durchgehend
 62
     7
370
    25
100
AcDbLine
 10
485.0095844967
 20
495.2386029481
 30
0.0
 11
487.8548839583
 21
495.2386029481
 31
0.0
  0
LINE
  5
2B3
330
1F
100
AcDbEntity
  8
0
  6
SLD-Durchgehend
 62
     7
370
    25
100
AcDbLine
 10
487.8548839583
 20
494.9386029481
 30
0.0
 11
487.8548839583
 21
495.2386029481
 31
0.0
  0
LINE
  5
2B4
330
1F
100
AcDbEntity
  8
0
  6
SLD-Durchgehend
 62
     7
370
    25
100
AcDbLine
 10
489.5548839583
 20
476.8386029481
 30
0.0
 11
489.8548839583
 21
476.8386029481
 31
0.0
  0
ARC
  5
2B5
330
1F
100
AcDbEntity
  8
0
  6
SLD-Durchgehend
 62
     7
370
    25
100
AcDbCircle
 10
487.8548839583
 20
476.8386029481
 30
0.0
 40
2.000000000000057
100
AcDbArc
 50
270.0
 51
0.0
  0
ARC
  5
2B6
330
1F
100
AcDbEntity
  8
0
  6
SLD-Durchgehend
 62
     7
370
    25
100
AcDbCircle
 10
487.8548839583
 20
493.2386029481
 30
0.0
 40
2.000000000000057
100
AcDbArc
 50
0.0
 51
90.0
  0
LINE
  5
2B7
330
1F
100
AcDbEntity
  8
0
  6
SLD-Durchgehend
 62
     7
370
    25
100
AcDbLine
 10
489.5548839583
 20
493.2386029481
 30
0.0
 11
489.8548839583
 21
493.2386029481
 31
0.0
  0
LINE
  5
2B8
330
1F
100
AcDbEntity
  8
0
  6
SLD-Durchgehend
 62
     7
370
    25
100
AcDbLine
 10
489.8548839583
 20
493.2386029481
 30
0.0
 11
489.8548839583
 21
476.8386029481
 31
0.0
  0
LINE
  5
2B9
330
1F
100
AcDbEntity
  8
0
  6
SLD-Durchgehend
 62
     7
370
    25
100
AcDbLine
 10
346.0548839583
 20
726.6443052531
 30
0.0
 11
346.0115826881
 21
726.6193052531
 31
0.0
  0
LINE
  5
2BA
330
1F
100
AcDbEntity
  8
0
  6
SLD-Durchgehend
 62
     7
370
    25
100
AcDbLine
 10
345.0115826881
 20
728.3513560607
 30
0.0
 11
345.0548839583
 21
728.3763560607
 31
0.0
  0
LINE
  5
2BB
330
1F
100
AcDbEntity
  8
0
  6
SLD-Durchgehend
 62
     7
370
    25
100
AcDbLine
 10
346.0115826881
 20
726.6193052531
 30
0.0
 11
345.0115826881
 21
728.3513560607
 31
0.0
  0
LINE
  5
2BC
330
1F
100
AcDbEntity
  8
0
  6
SLD-Durchgehend
 62
     7
370
    25
100
AcDbLine
 10
345.0548839583
 20
728.3763560607
 30
0.0
 11
346.0548839583
 21
726.6443052531
 31
0.0
  0
LINE
  5
2BD
330
1F
100
AcDbEntity
  8
0
  6
SLD-Durchgehend
 62
     7
370
    25
100
AcDbLine
 10
346.0115826881
 20
726.6193052531
 30
0.0
 11
346.8548839583
 21
725.1586646071
 31
0.0
  0
LINE
  5
2BE
330
1F
100
AcDbEntity
  8
0
  6
SLD-Durchgehend
 62
     7
370
    25
100
AcDbLine
 10
346.8548839583
 20
725.2586646071
 30
0.0
 11
346.0548839583
 21
726.6443052531
 31
0.0
  0
LINE
  5
2BF
330
1F
100
AcDbEntity
  8
0
  6
SLD-Durchgehend
 62
     7
370
    25
100
AcDbLine
 10
371.6696267387
 20
750.2386029481
 30
0.0
 11
346.8548839583
 21
750.2386029481
 31
0.0
  0
LINE
  5
2C0
330
1F
100
AcDbEntity
  8
0
  6
SLD-Durchgehend
 62
     7
370
    25
100
AcDbLine
 10
371.6696267387
 20
750.2386029481
 30
0.0
 11
371.6696267387
 21
748.7386029481
 31
0.0
  0
LINE
  5
2C1
330
1F
100
AcDbEntity
  8
0
  6
SLD-Durchgehend
 62
     7
370
    25
100
AcDbLine
 10
358.6023488829
 20
748.7386029481
 30
0.0
 11
371.6696267387
 21
748.7386029481
 31
0.0
  0
ARC
  5
2C2
330
1F
100
AcDbEntity
  8
0
  6
SLD-Durchgehend
 62
     7
370
    25
100
AcDbCircle
 10
358.6023488829
 20
745.7386029481
 30
0.0
 40
3.000000000000057
100
AcDbArc
 50
90.0
 51
180.0
  0
LINE
  5
2C3
330
1F
100
AcDbEntity
  8
0
  6
SLD-Durchgehend
 62
     7
370
    25
100
AcDbLine
 10
355.6023488829
 20
475.7386029481
 30
0.0
 11
355.6023488829
 21
745.7386029481
 31
0.0
  0
ARC
  5
2C4
330
1F
100
AcDbEntity
  8
0
  6
SLD-Durchgehend
 62
     7
370
    25
100
AcDbCircle
 10
358.6023488829
 20
475.7386029481
 30
0.0
 40
3.0
100
AcDbArc
 50
180.0
 51
270.0
  0
LINE
  5
2C5
330
1F
100
AcDbEntity
  8
0
  6
SLD-Durchgehend
 62
     7
370
    25
100
AcDbLine
 10
371.6696267387
 20
472.7386029481
 30
0.0
 11
358.6023488829
 21
472.7386029481
 31
0.0
  0
LINE
  5
2C6
330
1F
100
AcDbEntity
  8
0
  6
SLD-Durchgehend
 62
     7
370
    25
100
AcDbLine
 10
371.6696267387
 20
472.7386029481
 30
0.0
 11
371.6696267387
 21
471.2386029481
 31
0.0
  0
LINE
  5
2C7
330
1F
100
AcDbEntity
  8
0
  6
SLD-Durchgehend
 62
     7
370
    25
100
AcDbLine
 10
346.8548839583
 20
471.2386029481
 30
0.0
 11
371.6696267387
 21
471.2386029481
 31
0.0
  0
LINE
  5
2C8
330
1F
100
AcDbEntity
  8
0
  6
SLD-Durchgehend
 62
     7
370
    25
100
AcDbLine
 10
346.8548839583
 20
750.2386029481
 30
0.0
 11
346.8548839583
 21
471.2386029481
 31
0.0
  0
LINE
  5
2C9
330
1F
100
AcDbEntity
  8
0
  6
SLD-Durchgehend
 62
     7
370
    25
100
AcDbLine
 10
346.8548839583
 20
752.2386029481
 30
0.0
 11
371.3396735059
 21
752.2386029481
 31
0.0
  0
ARC
  5
2CA
330
1F
100
AcDbEntity
  8
0
  6
SLD-Durchgehend
 62
     7
370
    25
100
AcDbCircle
 10
368.391429272
 20
750.7249943061
 30
0.0
 40
3.314084365848846
100
AcDbArc
 50
351.5605042705
 51
27.1756573667
  0
LINE
  5
2CB
330
1F
100
AcDbEntity
  8
0
  6
SLD-Durchgehend
 62
     7
370
    25
100
AcDbLine
 10
346.8548839583
 20
750.2386029481
 30
0.0
 11
346.8548839583
 21
752.2386029481
 31
0.0
  0
ARC
  5
2CC
330
1F
100
AcDbEntity
  8
0
  6
SLD-Durchgehend
 62
     7
370
    25
100
AcDbCircle
 10
368.391429272
 20
470.7522115901
 30
0.0
 40
3.31408436584882
100
AcDbArc
 50
332.8243426333
 51
8.4394957295
  0
LINE
  5
2CD
330
1F
100
AcDbEntity
  8
0
  6
SLD-Durchgehend
 62
     7
370
    25
100
AcDbLine
 10
371.3396735059
 20
469.2386029481
 30
0.0
 11
346.8548839583
 21
469.2386029481
 31
0.0
  0
LINE
  5
2CE
330
1F
100
AcDbEntity
  8
0
  6
SLD-Durchgehend
 62
     7
370
    25
100
AcDbLine
 10
346.8548839583
 20
469.2386029481
 30
0.0
 11
346.8548839583
 21
471.2386029481
 31
0.0
  0
LINE
  5
2CF
330
1F
100
AcDbEntity
  8
0
  6
SLD-Durchgehend
 62
     7
370
    25
100
AcDbLine
 10
355.6023488829
 20
745.7386029481
 30
0.0
 11
356.8548839583
 21
745.7386029481
 31
0.0
  0
LINE
  5
2D0
330
1F
100
AcDbEntity
  8
0
  6
SLD-Durchgehend
 62
     7
370
    25
100
AcDbLine
 10
356.8548839583
 20
745.7386029481
 30
0.0
 11
356.8548839583
 21
475.7386029481
 31
0.0
  0
LINE
  5
2D1
330
1F
100
AcDbEntity
  8
0
  6
SLD-Durchgehend
 62
     7
370
    25
100
AcDbLine
 10
355.6023488829
 20
475.7386029481
 30
0.0
 11
356.8548839583
 21
475.7386029481
 31
0.0
  0
ARC
  5
2D2
330
1F
100
AcDbEntity
  8
0
  6
SLD-Durchgehend
 62
     7
370
    25
100
AcDbCircle
 10
358.3548839583
 20
475.7386029481
 30
0.0
 40
1.500000000000114
100
AcDbArc
 50
180.0
 51
270.0
  0
ARC
  5
2D3
330
1F
100
AcDbEntity
  8
0
  6
SLD-Durchgehend
 62
     7
370
    25
100
AcDbCircle
 10
356.1437007829
 20
473.1033964666
 30
0.0
 40
2.485563274385939
100
AcDbArc
 50
351.5605042705
 51
27.1756573667
  0
ARC
  5
2D4
330
1F
100
AcDbEntity
  8
0
  6
SLD-Durchgehend
 62
     7
370
    25
100
AcDbCircle
 10
356.1437007829
 20
748.3738094296
 30
0.0
 40
2.485563274386504
100
AcDbArc
 50
332.8243426333
 51
8.4394957295
  0
ARC
  5
2D5
330
1F
100
AcDbEntity
  8
0
  6
SLD-Durchgehend
 62
     7
370
    25
100
AcDbCircle
 10
358.3548839583
 20
745.7386029481
 30
0.0
 40
1.5
100
AcDbArc
 50
90.0
 51
180.0
  0
LINE
  5
2D6
330
1F
100
AcDbEntity
  8
0
  6
SLD-Durchgehend
 62
     7
370
    25
100
AcDbLine
 10
358.3548839583
 20
474.2386029481
 30
0.0
 11
369.4894213686
 21
474.2386029481
 31
0.0
  0
ARC
  5
2D7
330
1F
100
AcDbEntity
  8
0
  6
SLD-Durchgehend
 62
     7
370
    25
100
AcDbCircle
 10
369.2109786387
 20
473.1033964666
 30
0.0
 40
2.485563274385565
100
AcDbArc
 50
351.5605042705
 51
27.1756573667
  0
ARC
  5
2D8
330
1F
100
AcDbEntity
  8
0
  6
SLD-Durchgehend
 62
     7
370
    25
100
AcDbCircle
 10
369.2109786387
 20
748.3738094296
 30
0.0
 40
2.485563274386343
100
AcDbArc
 50
332.8243426333
 51
8.4394957295
  0
LINE
  5
2D9
330
1F
100
AcDbEntity
  8
0
  6
SLD-Durchgehend
 62
     7
370
    25
100
AcDbLine
 10
367.0113053983
 20
747.2386029481
 30
0.0
 11
358.3548839583
 21
747.2386029481
 31
0.0
  0
LINE
  5
2DA
330
1F
100
AcDbEntity
  8
0
  6
SLD-Durchgehend
 62
     7
370
    25
100
AcDbLine
 10
371.3396735059
 20
752.2386029481
 30
0.0
 11
378.8548839583
 21
752.2386029481
 31
0.0
  0
LINE
  5
2DB
330
1F
100
AcDbEntity
  8
0
  6
SLD-Durchgehend
 62
     7
370
    25
100
AcDbLine
 10
378.8548839583
 20
469.2386029481
 30
0.0
 11
371.3396735059
 21
469.2386029481
 31
0.0
  0
LINE
  5
2DC
330
1F
100
AcDbEntity
  8
0
  6
SLD-Durchgehend
 62
     7
370
    25
100
AcDbLine
 10
374.8548839583
 20
469.1886029481
 30
0.0
 11
364.8548839583
 21
469.1886029481
 31
0.0
  0
LINE
  5
2DD
330
1F
100
AcDbEntity
  8
0
  6
SLD-Durchgehend
 62
     7
370
    25
100
AcDbLine
 10
364.8548839583
 20
752.2886029481
 30
0.0
 11
374.8548839583
 21
752.2886029481
 31
0.0
  0
ARC
  5
2DE
330
1F
100
AcDbEntity
  8
0
  6
SLD-Durchgehend
 62
     7
370
    25
100
AcDbCircle
 10
380.0283205993
 20
560.1315023564
 30
0.0
 40
0.2929944611909513
100
AcDbArc
 50
271.4594941826
 51
1.3886739341
  0
LINE
  5
2DF
330
1F
100
AcDbEntity
  8
0
  6
SLD-Durchgehend
 62
     7
370
    25
100
AcDbLine
 10
380.321229008
 20
560.1386029481
 30
0.0
 11
380.321229008
 21
574.9386029481
 31
0.0
  0
LINE
  5
2E0
330
1F
100
AcDbEntity
  8
0
  6
SLD-Durchgehend
 62
     7
370
    25
100
AcDbLine
 10
359.1548839583
 20
575.2386029481
 30
0.0
 11
380.0357832339
 21
575.2386029481
 31
0.0
  0
ARC
  5
2E1
330
1F
100
AcDbEntity
  8
0
  6
SLD-Durchgehend
 62
     7
370
    25
100
AcDbCircle
 10
380.0283205993
 20
574.9457035398
 30
0.0
 40
0.2929944611910272
100
AcDbArc
 50
358.6113260659
 51
88.5405058174
  0
LINE
  5
2E2
330
1F
100
AcDbEntity
  8
0
  6
SLD-Durchgehend
 62
     7
370
    25
100
AcDbLine
 10
382.2242008352
 20
574.9386029481
 30
0.0
 11
380.321229008
 21
574.9386029481
 31
0.0
  0
LINE
  5
2E3
330
1F
100
AcDbEntity
  8
0
  6
SLD-Durchgehend
 62
     7
370
    25
100
AcDbLine
 10
382.2242008352
 20
574.9386029481
 30
0.0
 11
382.2242008352
 21
575.2386029481
 31
0.0
  0
LINE
  5
2E4
330
1F
100
AcDbEntity
  8
0
  6
SLD-Durchgehend
 62
     7
370
    25
100
AcDbLine
 10
380.0357832339
 20
575.2386029481
 30
0.0
 11
382.2242008352
 21
575.2386029481
 31
0.0
  0
LINE
  5
2E5
330
1F
100
AcDbEntity
  8
0
  6
SLD-Durchgehend
 62
     7
370
    25
100
AcDbLine
 10
380.321229008
 20
560.1386029481
 30
0.0
 11
382.2242008352
 21
560.1386029481
 31
0.0
  0
LINE
  5
2E6
330
1F
100
AcDbEntity
  8
0
  6
SLD-Durchgehend
 62
     7
370
    25
100
AcDbLine
 10
382.2242008352
 20
559.8386029481
 30
0.0
 11
382.2242008352
 21
560.1386029481
 31
0.0
  0
LINE
  5
2E7
330
1F
100
AcDbEntity
  8
0
  6
SLD-Durchgehend
 62
     7
370
    25
100
AcDbLine
 10
382.2242008352
 20
559.8386029481
 30
0.0
 11
380.5951247954
 21
559.8386029481
 31
0.0
  0
LINE
  5
2E8
330
1F
100
AcDbEntity
  8
0
  6
SLD-Durchgehend
 62
     7
370
    25
100
AcDbLine
 10
382.2242008352
 20
574.9386029481
 30
0.0
 11
382.2242008352
 21
560.1386029481
 31
0.0
  0
LINE
  5
2E9
330
1F
100
AcDbEntity
  8
0
  6
SLD-Durchgehend
 62
     7
370
    25
100
AcDbLine
 10
479.813432074
 20
574.9386029481
 30
0.0
 11
382.2242008352
 21
574.9386029481
 31
0.0
  0
ARC
  5
2EA
330
1F
100
AcDbEntity
  8
0
  6
SLD-Durchgehend
 62
     7
370
    25
100
AcDbCircle
 10
479.813432074
 20
577.2386029481
 30
0.0
 40
2.30000000000001
100
AcDbArc
 50
270.0
 51
330.0
  0
LINE
  5
2EB
330
1F
100
AcDbEntity
  8
0
  6
SLD-Durchgehend
 62
     7
370
    25
100
AcDbLine
 10
483.5373413103
 20
579.0886029481
 30
0.0
 11
481.8052905027
 21
576.0886029481
 31
0.0
  0
ARC
  5
2EC
330
1F
100
AcDbEntity
  8
0
  6
SLD-Durchgehend
 62
     7
370
    25
100
AcDbCircle
 10
485.0095844967
 20
578.2386029481
 30
0.0
 40
1.700000000000072
100
AcDbArc
 50
90.0
 51
150.0
  0
LINE
  5
2ED
330
1F
100
AcDbEntity
  8
0
  6
SLD-Durchgehend
 62
     7
370
    25
100
AcDbLine
 10
487.8548839583
 20
579.9386029481
 30
0.0
 11
485.0095844967
 21
579.9386029481
 31
0.0
  0
ARC
  5
2EE
330
1F
100
AcDbEntity
  8
0
  6
SLD-Durchgehend
 62
     7
370
    25
100
AcDbCircle
 10
487.8548839583
 20
578.2386029481
 30
0.0
 40
1.699999999999989
100
AcDbArc
 50
0.0
 51
90.0
  0
LINE
  5
2EF
330
1F
100
AcDbEntity
  8
0
  6
SLD-Durchgehend
 62
     7
370
    25
100
AcDbLine
 10
489.5548839583
 20
561.8386029481
 30
0.0
 11
489.5548839583
 21
578.2386029481
 31
0.0
  0
ARC
  5
2F0
330
1F
100
AcDbEntity
  8
0
  6
SLD-Durchgehend
 62
     7
370
    25
100
AcDbCircle
 10
487.8548839583
 20
561.8386029481
 30
0.0
 40
1.700000000000045
100
AcDbArc
 50
270.0
 51
0.0
  0
LINE
  5
2F1
330
1F
100
AcDbEntity
  8
0
  6
SLD-Durchgehend
 62
     7
370
    25
100
AcDbLine
 10
382.2242008352
 20
560.1386029481
 30
0.0
 11
487.8548839583
 21
560.1386029481
 31
0.0
  0
LINE
  5
2F2
330
1F
100
AcDbEntity
  8
0
  6
SLD-Durchgehend
 62
     7
370
    25
100
AcDbLine
 10
479.813432074
 20
574.9386029481
 30
0.0
 11
479.813432074
 21
575.2386029481
 31
0.0
  0
LINE
  5
2F3
330
1F
100
AcDbEntity
  8
0
  6
SLD-Durchgehend
 62
     7
370
    25
100
AcDbLine
 10
382.2242008352
 20
575.2386029481
 30
0.0
 11
479.813432074
 21
575.2386029481
 31
0.0
  0
LINE
  5
2F4
330
1F
100
AcDbEntity
  8
0
  6
SLD-Durchgehend
 62
     7
370
    25
100
AcDbLine
 10
487.8548839583
 20
559.8386029481
 30
0.0
 11
487.8548839583
 21
560.1386029481
 31
0.0
  0
LINE
  5
2F5
330
1F
100
AcDbEntity
  8
0
  6
SLD-Durchgehend
 62
     7
370
    25
100
AcDbLine
 10
487.8548839583
 20
559.8386029481
 30
0.0
 11
382.2242008352
 21
559.8386029481
 31
0.0
  0
ARC
  5
2F6
330
1F
100
AcDbEntity
  8
0
  6
SLD-Durchgehend
 62
     7
370
    25
100
AcDbCircle
 10
479.813432074
 20
577.2386029481
 30
0.0
 40
2.000000000000016
100
AcDbArc
 50
270.0
 51
330.0
  0
LINE
  5
2F7
330
1F
100
AcDbEntity
  8
0
  6
SLD-Durchgehend
 62
     7
370
    25
100
AcDbLine
 10
481.8052905027
 20
576.0886029481
 30
0.0
 11
481.5454828816
 21
576.2386029481
 31
0.0
  0
LINE
  5
2F8
330
1F
100
AcDbEntity
  8
0
  6
SLD-Durchgehend
 62
     7
370
    25
100
AcDbLine
 10
481.5454828816
 20
576.2386029481
 30
0.0
 11
483.2775336891
 21
579.2386029481
 31
0.0
  0
LINE
  5
2F9
330
1F
100
AcDbEntity
  8
0
  6
SLD-Durchgehend
 62
     7
370
    25
100
AcDbLine
 10
483.5373413103
 20
579.0886029481
 30
0.0
 11
483.2775336891
 21
579.2386029481
 31
0.0
  0
ARC
  5
2FA
330
1F
100
AcDbEntity
  8
0
  6
SLD-Durchgehend
 62
     7
370
    25
100
AcDbCircle
 10
485.0095844967
 20
578.2386029481
 30
0.0
 40
2.000000000000066
100
AcDbArc
 50
90.0
 51
150.0
  0
LINE
  5
2FB
330
1F
100
AcDbEntity
  8
0
  6
SLD-Durchgehend
 62
     7
370
    25
100
AcDbLine
 10
485.0095844967
 20
579.9386029481
 30
0.0
 11
485.0095844967
 21
580.2386029481
 31
0.0
  0
LINE
  5
2FC
330
1F
100
AcDbEntity
  8
0
  6
SLD-Durchgehend
 62
     7
370
    25
100
AcDbLine
 10
485.0095844967
 20
580.2386029481
 30
0.0
 11
487.8548839583
 21
580.2386029481
 31
0.0
  0
LINE
  5
2FD
330
1F
100
AcDbEntity
  8
0
  6
SLD-Durchgehend
 62
     7
370
    25
100
AcDbLine
 10
487.8548839583
 20
579.9386029481
 30
0.0
 11
487.8548839583
 21
580.2386029481
 31
0.0
  0
ARC
  5
2FE
330
1F
100
AcDbEntity
  8
0
  6
SLD-Durchgehend
 62
     7
370
    25
100
AcDbCircle
 10
487.8548839583
 20
578.2386029481
 30
0.0
 40
2.000000000000057
100
AcDbArc
 50
0.0
 51
90.0
  0
LINE
  5
2FF
330
1F
100
AcDbEntity
  8
0
  6
SLD-Durchgehend
 62
     7
370
    25
100
AcDbLine
 10
489.5548839583
 20
578.2386029481
 30
0.0
 11
489.8548839583
 21
578.2386029481
 31
0.0
  0
LINE
  5
300
330
1F
100
AcDbEntity
  8
0
  6
SLD-Durchgehend
 62
     7
370
    25
100
AcDbLine
 10
489.5548839583
 20
561.8386029481
 30
0.0
 11
489.8548839583
 21
561.8386029481
 31
0.0
  0
ARC
  5
301
330
1F
100
AcDbEntity
  8
0
  6
SLD-Durchgehend
 62
     7
370
    25
100
AcDbCircle
 10
487.8548839583
 20
561.8386029481
 30
0.0
 40
2.000000000000057
100
AcDbArc
 50
270.0
 51
0.0
  0
LINE
  5
302
330
1F
100
AcDbEntity
  8
0
  6
SLD-Durchgehend
 62
     7
370
    25
100
AcDbLine
 10
489.8548839583
 20
578.2386029481
 30
0.0
 11
489.8548839583
 21
561.8386029481
 31
0.0
  0
LINE
  5
303
330
1F
100
AcDbEntity
  8
0
  6
SLD-Durchgehend
 62
     7
370
    25
100
AcDbLine
 10
380.321229008
 20
645.1386029481
 30
0.0
 11
380.321229008
 21
659.9386029481
 31
0.0
  0
ARC
  5
304
330
1F
100
AcDbEntity
  8
0
  6
SLD-Durchgehend
 62
     7
370
    25
100
AcDbCircle
 10
380.0283205993
 20
645.1315023564
 30
0.0
 40
0.2929944611909541
100
AcDbArc
 50
271.4594941826
 51
1.3886739341
  0
LINE
  5
305
330
1F
100
AcDbEntity
  8
0
  6
SLD-Durchgehend
 62
     7
370
    25
100
AcDbLine
 10
359.1548839583
 20
660.2386029481
 30
0.0
 11
380.0357832339
 21
660.2386029481
 31
0.0
  0
ARC
  5
306
330
1F
100
AcDbEntity
  8
0
  6
SLD-Durchgehend
 62
     7
370
    25
100
AcDbCircle
 10
380.0283205993
 20
659.9457035398
 30
0.0
 40
0.2929944611910272
100
AcDbArc
 50
358.6113260659
 51
88.5405058174
  0
LINE
  5
307
330
1F
100
AcDbEntity
  8
0
  6
SLD-Durchgehend
 62
     7
370
    25
100
AcDbLine
 10
382.2242008352
 20
659.9386029481
 30
0.0
 11
380.321229008
 21
659.9386029481
 31
0.0
  0
LINE
  5
308
330
1F
100
AcDbEntity
  8
0
  6
SLD-Durchgehend
 62
     7
370
    25
100
AcDbLine
 10
382.2242008352
 20
659.9386029481
 30
0.0
 11
382.2242008352
 21
660.2386029481
 31
0.0
  0
LINE
  5
309
330
1F
100
AcDbEntity
  8
0
  6
SLD-Durchgehend
 62
     7
370
    25
100
AcDbLine
 10
380.0357832339
 20
660.2386029481
 30
0.0
 11
382.2242008352
 21
660.2386029481
 31
0.0
  0
LINE
  5
30A
330
1F
100
AcDbEntity
  8
0
  6
SLD-Durchgehend
 62
     7
370
    25
100
AcDbLine
 10
380.321229008
 20
645.1386029481
 30
0.0
 11
382.2242008352
 21
645.1386029481
 31
0.0
  0
LINE
  5
30B
330
1F
100
AcDbEntity
  8
0
  6
SLD-Durchgehend
 62
     7
370
    25
100
AcDbLine
 10
382.2242008352
 20
644.8386029481
 30
0.0
 11
382.2242008352
 21
645.1386029481
 31
0.0
  0
LINE
  5
30C
330
1F
100
AcDbEntity
  8
0
  6
SLD-Durchgehend
 62
     7
370
    25
100
AcDbLine
 10
382.2242008352
 20
644.8386029481
 30
0.0
 11
380.5951247954
 21
644.8386029481
 31
0.0
  0
LINE
  5
30D
330
1F
100
AcDbEntity
  8
0
  6
SLD-Durchgehend
 62
     7
370
    25
100
AcDbLine
 10
382.2242008352
 20
659.9386029481
 30
0.0
 11
382.2242008352
 21
645.1386029481
 31
0.0
  0
LINE
  5
30E
330
1F
100
AcDbEntity
  8
0
  6
SLD-Durchgehend
 62
     7
370
    25
100
AcDbLine
 10
479.813432074
 20
659.9386029481
 30
0.0
 11
382.2242008352
 21
659.9386029481
 31
0.0
  0
LINE
  5
30F
330
1F
100
AcDbEntity
  8
0
  6
SLD-Durchgehend
 62
     7
370
    25
100
AcDbLine
 10
479.813432074
 20
659.9386029481
 30
0.0
 11
479.813432074
 21
660.2386029481
 31
0.0
  0
LINE
  5
310
330
1F
100
AcDbEntity
  8
0
  6
SLD-Durchgehend
 62
     7
370
    25
100
AcDbLine
 10
382.2242008352
 20
660.2386029481
 30
0.0
 11
479.813432074
 21
660.2386029481
 31
0.0
  0
ARC
  5
311
330
1F
100
AcDbEntity
  8
0
  6
SLD-Durchgehend
 62
     7
370
    25
100
AcDbCircle
 10
479.813432074
 20
662.2386029481
 30
0.0
 40
2.300000000000068
100
AcDbArc
 50
270.0
 51
330.0
  0
LINE
  5
312
330
1F
100
AcDbEntity
  8
0
  6
SLD-Durchgehend
 62
     7
370
    25
100
AcDbLine
 10
483.5373413103
 20
664.0886029481
 30
0.0
 11
481.8052905027
 21
661.0886029481
 31
0.0
  0
ARC
  5
313
330
1F
100
AcDbEntity
  8
0
  6
SLD-Durchgehend
 62
     7
370
    25
100
AcDbCircle
 10
485.0095844967
 20
663.2386029481
 30
0.0
 40
1.700000000000072
100
AcDbArc
 50
90.0
 51
150.0
  0
LINE
  5
314
330
1F
100
AcDbEntity
  8
0
  6
SLD-Durchgehend
 62
     7
370
    25
100
AcDbLine
 10
487.8548839583
 20
664.9386029481
 30
0.0
 11
485.0095844967
 21
664.9386029481
 31
0.0
  0
ARC
  5
315
330
1F
100
AcDbEntity
  8
0
  6
SLD-Durchgehend
 62
     7
370
    25
100
AcDbCircle
 10
487.8548839583
 20
663.2386029481
 30
0.0
 40
1.700000000000045
100
AcDbArc
 50
0.0
 51
90.0
  0
LINE
  5
316
330
1F
100
AcDbEntity
  8
0
  6
SLD-Durchgehend
 62
     7
370
    25
100
AcDbLine
 10
489.5548839583
 20
646.8386029481
 30
0.0
 11
489.5548839583
 21
663.2386029481
 31
0.0
  0
ARC
  5
317
330
1F
100
AcDbEntity
  8
0
  6
SLD-Durchgehend
 62
     7
370
    25
100
AcDbCircle
 10
487.8548839583
 20
646.8386029481
 30
0.0
 40
1.699999999999989
100
AcDbArc
 50
270.0
 51
0.0
  0
LINE
  5
318
330
1F
100
AcDbEntity
  8
0
  6
SLD-Durchgehend
 62
     7
370
    25
100
AcDbLine
 10
382.2242008352
 20
645.1386029481
 30
0.0
 11
487.8548839583
 21
645.1386029481
 31
0.0
  0
LINE
  5
319
330
1F
100
AcDbEntity
  8
0
  6
SLD-Durchgehend
 62
     7
370
    25
100
AcDbLine
 10
487.8548839583
 20
644.8386029481
 30
0.0
 11
487.8548839583
 21
645.1386029481
 31
0.0
  0
LINE
  5
31A
330
1F
100
AcDbEntity
  8
0
  6
SLD-Durchgehend
 62
     7
370
    25
100
AcDbLine
 10
487.8548839583
 20
644.8386029481
 30
0.0
 11
382.2242008352
 21
644.8386029481
 31
0.0
  0
ARC
  5
31B
330
1F
100
AcDbEntity
  8
0
  6
SLD-Durchgehend
 62
     7
370
    25
100
AcDbCircle
 10
479.813432074
 20
662.2386029481
 30
0.0
 40
2.000000000000114
100
AcDbArc
 50
270.0
 51
330.0
  0
LINE
  5
31C
330
1F
100
AcDbEntity
  8
0
  6
SLD-Durchgehend
 62
     7
370
    25
100
AcDbLine
 10
481.8052905027
 20
661.0886029481
 30
0.0
 11
481.5454828816
 21
661.2386029481
 31
0.0
  0
LINE
  5
31D
330
1F
100
AcDbEntity
  8
0
  6
SLD-Durchgehend
 62
     7
370
    25
100
AcDbLine
 10
481.5454828816
 20
661.2386029481
 30
0.0
 11
483.2775336891
 21
664.2386029481
 31
0.0
  0
LINE
  5
31E
330
1F
100
AcDbEntity
  8
0
  6
SLD-Durchgehend
 62
     7
370
    25
100
AcDbLine
 10
483.5373413103
 20
664.0886029481
 30
0.0
 11
483.2775336891
 21
664.2386029481
 31
0.0
  0
ARC
  5
31F
330
1F
100
AcDbEntity
  8
0
  6
SLD-Durchgehend
 62
     7
370
    25
100
AcDbCircle
 10
485.0095844967
 20
663.2386029481
 30
0.0
 40
2.000000000000066
100
AcDbArc
 50
90.0
 51
150.0
  0
LINE
  5
320
330
1F
100
AcDbEntity
  8
0
  6
SLD-Durchgehend
 62
     7
370
    25
100
AcDbLine
 10
485.0095844967
 20
664.9386029481
 30
0.0
 11
485.0095844967
 21
665.2386029481
 31
0.0
  0
LINE
  5
321
330
1F
100
AcDbEntity
  8
0
  6
SLD-Durchgehend
 62
     7
370
    25
100
AcDbLine
 10
485.0095844967
 20
665.2386029481
 30
0.0
 11
487.8548839583
 21
665.2386029481
 31
0.0
  0
LINE
  5
322
330
1F
100
AcDbEntity
  8
0
  6
SLD-Durchgehend
 62
     7
370
    25
100
AcDbLine
 10
487.8548839583
 20
664.9386029481
 30
0.0
 11
487.8548839583
 21
665.2386029481
 31
0.0
  0
LINE
  5
323
330
1F
100
AcDbEntity
  8
0
  6
SLD-Durchgehend
 62
     7
370
    25
100
AcDbLine
 10
489.5548839583
 20
646.8386029481
 30
0.0
 11
489.8548839583
 21
646.8386029481
 31
0.0
  0
ARC
  5
324
330
1F
100
AcDbEntity
  8
0
  6
SLD-Durchgehend
 62
     7
370
    25
100
AcDbCircle
 10
487.8548839583
 20
646.8386029481
 30
0.0
 40
2.000000000000057
100
AcDbArc
 50
270.0
 51
0.0
  0
ARC
  5
325
330
1F
100
AcDbEntity
  8
0
  6
SLD-Durchgehend
 62
     7
370
    25
100
AcDbCircle
 10
487.8548839583
 20
663.2386029481
 30
0.0
 40
2.000000000000057
100
AcDbArc
 50
0.0
 51
90.0
  0
LINE
  5
326
330
1F
100
AcDbEntity
  8
0
  6
SLD-Durchgehend
 62
     7
370
    25
100
AcDbLine
 10
489.5548839583
 20
663.2386029481
 30
0.0
 11
489.8548839583
 21
663.2386029481
 31
0.0
  0
LINE
  5
327
330
1F
100
AcDbEntity
  8
0
  6
SLD-Durchgehend
 62
     7
370
    25
100
AcDbLine
 10
489.8548839583
 20
663.2386029481
 30
0.0
 11
489.8548839583
 21
646.8386029481
 31
0.0
  0
LINE
  5
328
330
1F
100
AcDbEntity
  8
0
  6
SLD-Durchgehend
 62
     7
370
    25
100
AcDbLine
 10
380.321229008
 20
730.1386029481
 30
0.0
 11
380.321229008
 21
744.9386029481
 31
0.0
  0
ARC
  5
329
330
1F
100
AcDbEntity
  8
0
  6
SLD-Durchgehend
 62
     7
370
    25
100
AcDbCircle
 10
380.0283205993
 20
730.1315023564
 30
0.0
 40
0.2929944611911758
100
AcDbArc
 50
271.4594941826
 51
1.3886739341
  0
LINE
  5
32A
330
1F
100
AcDbEntity
  8
0
  6
SLD-Durchgehend
 62
     7
370
    25
100
AcDbLine
 10
359.1548839583
 20
745.2386029481
 30
0.0
 11
380.0357832339
 21
745.2386029481
 31
0.0
  0
ARC
  5
32B
330
1F
100
AcDbEntity
  8
0
  6
SLD-Durchgehend
 62
     7
370
    25
100
AcDbCircle
 10
380.0283205993
 20
744.9457035398
 30
0.0
 40
0.2929944611911409
100
AcDbArc
 50
358.6113260659
 51
88.5405058174
  0
LINE
  5
32C
330
1F
100
AcDbEntity
  8
0
  6
SLD-Durchgehend
 62
     7
370
    25
100
AcDbLine
 10
382.2242008352
 20
744.9386029481
 30
0.0
 11
380.321229008
 21
744.9386029481
 31
0.0
  0
LINE
  5
32D
330
1F
100
AcDbEntity
  8
0
  6
SLD-Durchgehend
 62
     7
370
    25
100
AcDbLine
 10
382.2242008352
 20
744.9386029481
 30
0.0
 11
382.2242008352
 21
745.2386029481
 31
0.0
  0
LINE
  5
32E
330
1F
100
AcDbEntity
  8
0
  6
SLD-Durchgehend
 62
     7
370
    25
100
AcDbLine
 10
380.0357832339
 20
745.2386029481
 30
0.0
 11
382.2242008352
 21
745.2386029481
 31
0.0
  0
LINE
  5
32F
330
1F
100
AcDbEntity
  8
0
  6
SLD-Durchgehend
 62
     7
370
    25
100
AcDbLine
 10
380.321229008
 20
730.1386029481
 30
0.0
 11
382.2242008352
 21
730.1386029481
 31
0.0
  0
LINE
  5
330
330
1F
100
AcDbEntity
  8
0
  6
SLD-Durchgehend
 62
     7
370
    25
100
AcDbLine
 10
382.2242008352
 20
729.8386029481
 30
0.0
 11
382.2242008352
 21
730.1386029481
 31
0.0
  0
LINE
  5
331
330
1F
100
AcDbEntity
  8
0
  6
SLD-Durchgehend
 62
     7
370
    25
100
AcDbLine
 10
382.2242008352
 20
729.8386029481
 30
0.0
 11
380.5951247954
 21
729.8386029481
 31
0.0
  0
LINE
  5
332
330
1F
100
AcDbEntity
  8
0
  6
SLD-Durchgehend
 62
     7
370
    25
100
AcDbLine
 10
382.2242008352
 20
744.9386029481
 30
0.0
 11
382.2242008352
 21
730.1386029481
 31
0.0
  0
LINE
  5
333
330
1F
100
AcDbEntity
  8
0
  6
SLD-Durchgehend
 62
     7
370
    25
100
AcDbLine
 10
382.2242008352
 20
730.1386029481
 30
0.0
 11
487.8548839583
 21
730.1386029481
 31
0.0
  0
LINE
  5
334
330
1F
100
AcDbEntity
  8
0
  6
SLD-Durchgehend
 62
     7
370
    25
100
AcDbLine
 10
487.8548839583
 20
729.8386029481
 30
0.0
 11
487.8548839583
 21
730.1386029481
 31
0.0
  0
LINE
  5
335
330
1F
100
AcDbEntity
  8
0
  6
SLD-Durchgehend
 62
     7
370
    25
100
AcDbLine
 10
487.8548839583
 20
729.8386029481
 30
0.0
 11
382.2242008352
 21
729.8386029481
 31
0.0
  0
LINE
  5
336
330
1F
100
AcDbEntity
  8
0
  6
SLD-Durchgehend
 62
     7
370
    25
100
AcDbLine
 10
479.813432074
 20
744.9386029481
 30
0.0
 11
382.2242008352
 21
744.9386029481
 31
0.0
  0
ARC
  5
337
330
1F
100
AcDbEntity
  8
0
  6
SLD-Durchgehend
 62
     7
370
    25
100
AcDbCircle
 10
479.813432074
 20
747.2386029481
 30
0.0
 40
2.30000000000001
100
AcDbArc
 50
270.0
 51
330.0
  0
LINE
  5
338
330
1F
100
AcDbEntity
  8
0
  6
SLD-Durchgehend
 62
     7
370
    25
100
AcDbLine
 10
483.5373413103
 20
749.0886029481
 30
0.0
 11
481.8052905027
 21
746.0886029481
 31
0.0
  0
ARC
  5
339
330
1F
100
AcDbEntity
  8
0
  6
SLD-Durchgehend
 62
     7
370
    25
100
AcDbCircle
 10
485.0095844967
 20
748.2386029481
 30
0.0
 40
1.700000000000072
100
AcDbArc
 50
90.0
 51
150.0
  0
LINE
  5
33A
330
1F
100
AcDbEntity
  8
0
  6
SLD-Durchgehend
 62
     7
370
    25
100
AcDbLine
 10
487.8548839583
 20
749.9386029481
 30
0.0
 11
485.0095844967
 21
749.9386029481
 31
0.0
  0
ARC
  5
33B
330
1F
100
AcDbEntity
  8
0
  6
SLD-Durchgehend
 62
     7
370
    25
100
AcDbCircle
 10
487.8548839583
 20
748.2386029481
 30
0.0
 40
1.699999999999989
100
AcDbArc
 50
0.0
 51
90.0
  0
LINE
  5
33C
330
1F
100
AcDbEntity
  8
0
  6
SLD-Durchgehend
 62
     7
370
    25
100
AcDbLine
 10
489.5548839583
 20
731.8386029481
 30
0.0
 11
489.5548839583
 21
748.2386029481
 31
0.0
  0
ARC
  5
33D
330
1F
100
AcDbEntity
  8
0
  6
SLD-Durchgehend
 62
     7
370
    25
100
AcDbCircle
 10
487.8548839583
 20
731.8386029481
 30
0.0
 40
1.699999999999989
100
AcDbArc
 50
270.0
 51
0.0
  0
LINE
  5
33E
330
1F
100
AcDbEntity
  8
0
  6
SLD-Durchgehend
 62
     7
370
    25
100
AcDbLine
 10
479.813432074
 20
744.9386029481
 30
0.0
 11
479.813432074
 21
745.2386029481
 31
0.0
  0
LINE
  5
33F
330
1F
100
AcDbEntity
  8
0
  6
SLD-Durchgehend
 62
     7
370
    25
100
AcDbLine
 10
382.2242008352
 20
745.2386029481
 30
0.0
 11
479.813432074
 21
745.2386029481
 31
0.0
  0
ARC
  5
340
330
1F
100
AcDbEntity
  8
0
  6
SLD-Durchgehend
 62
     7
370
    25
100
AcDbCircle
 10
479.813432074
 20
747.2386029481
 30
0.0
 40
1.99999999999996
100
AcDbArc
 50
270.0
 51
330.0
  0
LINE
  5
341
330
1F
100
AcDbEntity
  8
0
  6
SLD-Durchgehend
 62
     7
370
    25
100
AcDbLine
 10
481.8052905027
 20
746.0886029481
 30
0.0
 11
481.5454828816
 21
746.2386029481
 31
0.0
  0
LINE
  5
342
330
1F
100
AcDbEntity
  8
0
  6
SLD-Durchgehend
 62
     7
370
    25
100
AcDbLine
 10
481.5454828816
 20
746.2386029481
 30
0.0
 11
483.2775336891
 21
749.2386029481
 31
0.0
  0
LINE
  5
343
330
1F
100
AcDbEntity
  8
0
  6
SLD-Durchgehend
 62
     7
370
    25
100
AcDbLine
 10
483.5373413103
 20
749.0886029481
 30
0.0
 11
483.2775336891
 21
749.2386029481
 31
0.0
  0
ARC
  5
344
330
1F
100
AcDbEntity
  8
0
  6
SLD-Durchgehend
 62
     7
370
    25
100
AcDbCircle
 10
485.0095844967
 20
748.2386029481
 30
0.0
 40
2.000000000000066
100
AcDbArc
 50
90.0
 51
150.0
  0
LINE
  5
345
330
1F
100
AcDbEntity
  8
0
  6
SLD-Durchgehend
 62
     7
370
    25
100
AcDbLine
 10
485.0095844967
 20
749.9386029481
 30
0.0
 11
485.0095844967
 21
750.2386029481
 31
0.0
  0
LINE
  5
346
330
1F
100
AcDbEntity
  8
0
  6
SLD-Durchgehend
 62
     7
370
    25
100
AcDbLine
 10
485.0095844967
 20
750.2386029481
 30
0.0
 11
487.8548839583
 21
750.2386029481
 31
0.0
  0
LINE
  5
347
330
1F
100
AcDbEntity
  8
0
  6
SLD-Durchgehend
 62
     7
370
    25
100
AcDbLine
 10
487.8548839583
 20
749.9386029481
 30
0.0
 11
487.8548839583
 21
750.2386029481
 31
0.0
  0
LINE
  5
348
330
1F
100
AcDbEntity
  8
0
  6
SLD-Durchgehend
 62
     7
370
    25
100
AcDbLine
 10
489.5548839583
 20
731.8386029481
 30
0.0
 11
489.8548839583
 21
731.8386029481
 31
0.0
  0
ARC
  5
349
330
1F
100
AcDbEntity
  8
0
  6
SLD-Durchgehend
 62
     7
370
    25
100
AcDbCircle
 10
487.8548839583
 20
731.8386029481
 30
0.0
 40
2.000000000000057
100
AcDbArc
 50
270.0
 51
0.0
  0
ARC
  5
34A
330
1F
100
AcDbEntity
  8
0
  6
SLD-Durchgehend
 62
     7
370
    25
100
AcDbCircle
 10
487.8548839583
 20
748.2386029481
 30
0.0
 40
2.000000000000057
100
AcDbArc
 50
0.0
 51
90.0
  0
LINE
  5
34B
330
1F
100
AcDbEntity
  8
0
  6
SLD-Durchgehend
 62
     7
370
    25
100
AcDbLine
 10
489.5548839583
 20
748.2386029481
 30
0.0
 11
489.8548839583
 21
748.2386029481
 31
0.0
  0
LINE
  5
34C
330
1F
100
AcDbEntity
  8
0
  6
SLD-Durchgehend
 62
     7
370
    25
100
AcDbLine
 10
489.8548839583
 20
748.2386029481
 30
0.0
 11
489.8548839583
 21
731.8386029481
 31
0.0
  0
LINE
  5
34D
330
1F
100
AcDbEntity
  8
0
  6
SLD-Durchgehend
 62
     7
370
    25
100
AcDbLine
 10
380.0061643353
 20
746.6386029481
 30
0.0
 11
380.3548839583
 21
746.6386029481
 31
0.0
  0
LINE
  5
34E
330
1F
100
AcDbEntity
  8
0
  6
SLD-Durchgehend
 62
     7
370
    25
100
AcDbLine
 10
359.3548839583
 20
746.6386029481
 30
0.0
 11
380.0061643353
 21
746.6386029481
 31
0.0
  0
LINE
  5
34F
330
1F
100
AcDbEntity
  8
0
  6
SLD-Durchgehend
 62
     7
370
    25
100
AcDbLine
 10
380.0061643353
 20
747.2386029481
 30
0.0
 11
380.3548839583
 21
747.2386029481
 31
0.0
  0
LINE
  5
350
330
1F
100
AcDbEntity
  8
0
  6
SLD-Durchgehend
 62
     7
370
    25
100
AcDbLine
 10
367.0113053983
 20
747.2386029481
 30
0.0
 11
380.0061643353
 21
747.2386029481
 31
0.0
  0
LINE
  5
351
330
1F
100
AcDbEntity
  8
0
  6
SLD-Durchgehend
 62
     7
370
    25
100
AcDbLine
 10
379.5548839583
 20
474.2386029481
 30
0.0
 11
369.4894213686
 21
474.2386029481
 31
0.0
  0
LINE
  5
352
330
1F
100
AcDbEntity
  8
0
  6
SLD-Durchgehend
 62
     7
370
    25
100
AcDbLine
 10
359.9048839583
 20
474.4886029481
 30
0.0
 11
379.8048839583
 21
474.4886029481
 31
0.0
  0
LINE
  5
353
330
1F
100
AcDbEntity
  8
0
  6
SLD-Durchgehend
 62
     7
370
    25
100
AcDbLine
 10
370.9428121816
 20
575.4386029481
 30
0.0
 11
380.8548839583
 21
575.4386029481
 31
0.0
  0
LINE
  5
354
330
1F
100
AcDbEntity
  8
0
  6
SLD-Durchgehend
 62
     7
370
    25
100
AcDbLine
 10
358.8548839583
 20
575.4386029481
 30
0.0
 11
370.9428121816
 21
575.4386029481
 31
0.0
  0
LINE
  5
355
330
1F
100
AcDbEntity
  8
0
  6
SLD-Durchgehend
 62
     7
370
    25
100
AcDbLine
 10
370.9428121816
 20
644.8386029481
 30
0.0
 11
380.5951247954
 21
644.8386029481
 31
0.0
  0
LINE
  5
356
330
1F
100
AcDbEntity
  8
0
  6
SLD-Durchgehend
 62
     7
370
    25
100
AcDbLine
 10
358.8548839583
 20
644.8386029481
 30
0.0
 11
370.9428121816
 21
644.8386029481
 31
0.0
  0
LINE
  5
357
330
1F
100
AcDbEntity
  8
0
  6
SLD-Durchgehend
 62
     7
370
    25
100
AcDbLine
 10
360.047102468
 20
660.4386029481
 30
0.0
 11
380.8548839583
 21
660.4386029481
 31
0.0
  0
LINE
  5
358
330
1F
100
AcDbEntity
  8
0
  6
SLD-Durchgehend
 62
     7
370
    25
100
AcDbLine
 10
358.8548839583
 20
660.4386029481
 30
0.0
 11
360.047102468
 21
660.4386029481
 31
0.0
  0
LINE
  5
359
330
1F
100
AcDbEntity
  8
0
  6
SLD-Durchgehend
 62
     7
370
    25
100
AcDbLine
 10
360.047102468
 20
729.8386029481
 30
0.0
 11
380.5951247954
 21
729.8386029481
 31
0.0
  0
LINE
  5
35A
330
1F
100
AcDbEntity
  8
0
  6
SLD-Durchgehend
 62
     7
370
    25
100
AcDbLine
 10
358.8548839583
 20
729.8386029481
 30
0.0
 11
360.047102468
 21
729.8386029481
 31
0.0
  0
LINE
  5
35B
330
1F
100
AcDbEntity
  8
0
  6
SLD-Durchgehend
 62
     7
370
    25
100
AcDbLine
 10
358.8548839583
 20
490.4386029481
 30
0.0
 11
380.8548839583
 21
490.4386029481
 31
0.0
  0
LINE
  5
35C
330
1F
100
AcDbEntity
  8
0
  6
SLD-Durchgehend
 62
     7
370
    25
100
AcDbLine
 10
358.8548839583
 20
559.8386029481
 30
0.0
 11
380.5951247954
 21
559.8386029481
 31
0.0
  0
LINE
  5
35D
330
1F
100
AcDbEntity
  8
0
  6
SLD-Durchgehend
 62
     7
370
    25
100
AcDbLine
 10
380.321229008
 20
489.9386029481
 30
0.0
 11
358.8548839583
 21
489.9386029481
 31
0.0
  0
LINE
  5
35E
330
1F
100
AcDbEntity
  8
0
  6
SLD-Durchgehend
 62
     7
370
    25
100
AcDbLine
 10
358.8548839583
 20
475.1386029481
 30
0.0
 11
380.321229008
 21
475.1386029481
 31
0.0
  0
LINE
  5
35F
330
1F
100
AcDbEntity
  8
0
  6
SLD-Durchgehend
 62
     7
370
    25
100
AcDbLine
 10
380.8548839583
 20
472.7386029481
 30
0.0
 11
371.6696267387
 21
472.7386029481
 31
0.0
  0
LINE
  5
360
330
1F
100
AcDbEntity
  8
0
  6
SLD-Durchgehend
 62
     7
370
    25
100
AcDbLine
 10
371.6696267387
 20
748.7386029481
 30
0.0
 11
380.8548839583
 21
748.7386029481
 31
0.0
  0
LINE
  5
361
330
1F
100
AcDbEntity
  8
0
  6
SLD-Durchgehend
 62
     7
370
    25
100
AcDbLine
 10
380.8548839583
 20
750.2386029481
 30
0.0
 11
371.6696267387
 21
750.2386029481
 31
0.0
  0
LINE
  5
362
330
1F
100
AcDbEntity
  8
0
  6
SLD-Durchgehend
 62
     7
370
    25
100
AcDbLine
 10
371.6696267387
 20
471.2386029481
 30
0.0
 11
380.8548839583
 21
471.2386029481
 31
0.0
  0
LINE
  5
363
330
1F
100
AcDbEntity
  8
0
  6
SLD-Durchgehend
 62
     7
370
    25
100
AcDbLine
 10
358.8548839583
 20
560.1386029481
 30
0.0
 11
380.321229008
 21
560.1386029481
 31
0.0
  0
LINE
  5
364
330
1F
100
AcDbEntity
  8
0
  6
SLD-Durchgehend
 62
     7
370
    25
100
AcDbLine
 10
380.321229008
 20
574.9386029481
 30
0.0
 11
358.8548839583
 21
574.9386029481
 31
0.0
  0
LINE
  5
365
330
1F
100
AcDbEntity
  8
0
  6
SLD-Durchgehend
 62
     7
370
    25
100
AcDbLine
 10
380.321229008
 20
659.9386029481
 30
0.0
 11
358.8548839583
 21
659.9386029481
 31
0.0
  0
LINE
  5
366
330
1F
100
AcDbEntity
  8
0
  6
SLD-Durchgehend
 62
     7
370
    25
100
AcDbLine
 10
358.8548839583
 20
645.1386029481
 30
0.0
 11
380.321229008
 21
645.1386029481
 31
0.0
  0
LINE
  5
367
330
1F
100
AcDbEntity
  8
0
  6
SLD-Durchgehend
 62
     7
370
    25
100
AcDbLine
 10
380.321229008
 20
744.9386029481
 30
0.0
 11
358.8548839583
 21
744.9386029481
 31
0.0
  0
LINE
  5
368
330
1F
100
AcDbEntity
  8
0
  6
SLD-Durchgehend
 62
     7
370
    25
100
AcDbLine
 10
358.8548839583
 20
730.1386029481
 30
0.0
 11
380.321229008
 21
730.1386029481
 31
0.0
  0
DIMENSION
  5
369
330
1F
100
AcDbEntity
  8
0
  6
SLD-Durchgehend
 62
     7
370
    18
100
AcDbDimension
280
     0
  2
_D_1
 10
314.9115826881
 20
752.2386029481
 30
0.0
 11
314.9115826881
 21
612.0474149629
 31
0.0
 70
   160
  1
<>
 71
     2
 42
-1.0
 73
     0
 74
     0
 75
     0
  3
SLDDIMSTYLE0
100
AcDbAlignedDimension
 13
346.8548839583
 23
469.2386029481
 33
0.0
 14
346.8548839583
 24
752.2386029481
 34
0.0
 50
90.0
100
AcDbRotatedDimension
  0
LINE
  5
373
330
1F
100
AcDbEntity
  8
0
  6
SLD-Durchgehend
 62
     7
370
    25
100
AcDbLine
 10
212.5883849469
 20
250.9908661701
 30
0.0
 11
212.5946349469
 21
250.9908661701
 31
0.0
  0
LINE
  5
374
330
1F
100
AcDbEntity
  8
0
  6
SLD-Durchgehend
 62
     7
370
    25
100
AcDbLine
 10
212.5883849469
 20
255.2719404833
 30
0.0
 11
212.5946349469
 21
255.2719404833
 31
0.0
  0
LINE
  5
375
330
1F
100
AcDbEntity
  8
0
  6
SLD-Durchgehend
 62
     7
370
    25
100
AcDbLine
 10
212.5946349469
 20
256.7988014764
 30
0.0
 11
212.5883849469
 21
256.7988014764
 31
0.0
  0
LINE
  5
376
330
1F
100
AcDbEntity
  8
0
  6
SLD-Durchgehend
 62
     7
370
    25
100
AcDbLine
 10
212.5883849469
 20
264.0245473272
 30
0.0
 11
212.5946349469
 21
264.0245473272
 31
0.0
  0
LINE
  5
377
330
1F
100
AcDbEntity
  8
0
  6
SLD-Durchgehend
 62
     7
370
    25
100
AcDbLine
 10
212.5883849469
 20
263.7133107439
 30
0.0
 11
212.5946349469
 21
263.7133107439
 31
0.0
  0
ARC
  5
378
330
1F
100
AcDbEntity
  8
0
  6
SLD-Durchgehend
 62
     7
370
    25
100
AcDbCircle
 10
210.5883849469
 20
375.9174739214
 30
0.0
 40
2.052480754772056
100
AcDbArc
 50
137.466586815
 51
42.5334131904
  0
LINE
  5
379
330
1F
100
AcDbEntity
  8
0
  6
SLD-Durchgehend
 62
     7
370
    25
100
AcDbLine
 10
210.6851127769
 20
374.484393359
 30
0.0
 11
211.8839388214
 21
375.285168744
 31
0.0
  0
LINE
  5
37A
330
1F
100
AcDbEntity
  8
0
  6
SLD-Durchgehend
 62
     7
370
    25
100
AcDbLine
 10
211.7872109915
 20
376.7198195288
 30
0.0
 11
211.8839388214
 21
375.285168744
 31
0.0
  0
LINE
  5
37B
330
1F
100
AcDbEntity
  8
0
  6
SLD-Durchgehend
 62
     7
370
    25
100
AcDbLine
 10
210.4916571169
 20
377.3536949286
 30
0.0
 11
211.7872109915
 21
376.7198195288
 31
0.0
  0
LINE
  5
37C
330
1F
100
AcDbEntity
  8
0
  6
SLD-Durchgehend
 62
     7
370
    25
100
AcDbLine
 10
210.4916571169
 20
377.3536949286
 30
0.0
 11
209.2928310724
 21
376.5529195437
 31
0.0
  0
LINE
  5
37D
330
1F
100
AcDbEntity
  8
0
  6
SLD-Durchgehend
 62
     7
370
    25
100
AcDbLine
 10
209.3895589024
 20
375.1182687588
 30
0.0
 11
209.2928310724
 21
376.5529195437
 31
0.0
  0
LINE
  5
37E
330
1F
100
AcDbEntity
  8
0
  6
SLD-Durchgehend
 62
     7
370
    25
100
AcDbLine
 10
209.3895589024
 20
375.1182687588
 30
0.0
 11
210.6851127769
 21
374.484393359
 31
0.0
  0
LINE
  5
37F
330
1F
100
AcDbEntity
  8
0
  6
SLD-Durchgehend
 62
     7
370
    25
100
AcDbLine
 10
209.3895589024
 20
375.3797359871
 30
0.0
 11
209.3097001469
 21
376.5641875168
 31
0.0
  0
LINE
  5
380
330
1F
100
AcDbEntity
  8
0
  6
SLD-Durchgehend
 62
     7
370
    25
100
AcDbLine
 10
209.3895589024
 20
375.3797359871
 30
0.0
 11
209.3895589024
 21
375.1182687588
 31
0.0
  0
LINE
  5
381
330
1F
100
AcDbEntity
  8
0
  6
SLD-Durchgehend
 62
     7
370
    25
100
AcDbLine
 10
210.6851127769
 20
374.7458605873
 30
0.0
 11
210.6851127769
 21
374.484393359
 31
0.0
  0
LINE
  5
382
330
1F
100
AcDbEntity
  8
0
  6
SLD-Durchgehend
 62
     7
370
    25
100
AcDbLine
 10
210.6851127769
 20
374.7458605873
 30
0.0
 11
211.8670697469
 21
375.5353679991
 31
0.0
  0
LINE
  5
383
330
1F
100
AcDbEntity
  8
0
  6
SLD-Durchgehend
 62
     7
370
    25
100
AcDbLine
 10
209.3895589024
 20
375.3797359871
 30
0.0
 11
210.6851127769
 21
374.7458605873
 31
0.0
  0
LINE
  5
384
330
1F
100
AcDbEntity
  8
0
  6
SLD-Durchgehend
 62
     7
370
    25
100
AcDbLine
 10
206.5883849469
 20
381.1597259483
 30
0.0
 11
206.5883849469
 21
381.2030272185
 31
0.0
  0
LWPOLYLINE
  5
385
330
1F
100
AcDbEntity
  8
0
  6
SLD-Durchgehend
 62
     7
370
    25
100
AcDbPolyline
 90
        9
 70
   128
 43
0.0
 10
206.5883849469
 20
381.2030272185
 10
206.6268143861
 20
381.3981175405
 10
206.7406258819
 20
381.5857106509
 10
206.9254457223
 20
381.7585974515
 10
207.1741713845
 20
381.9101339997
 10
207.4772444809
 20
382.0344968308
 10
207.8230180822
 20
382.126906751
 10
208.1982043029
 20
382.1838124989
 10
208.5883849469
 20
382.2030272185
  0
LINE
  5
386
330
1F
100
AcDbEntity
  8
0
  6
SLD-Durchgehend
 62
     7
370
    25
100
AcDbLine
 10
208.5883849469
 20
382.2030272185
 30
0.0
 11
208.5883849469
 21
382.1597259483
 31
0.0
  0
LWPOLYLINE
  5
387
330
1F
100
AcDbEntity
  8
0
  6
SLD-Durchgehend
 62
     7
370
    25
100
AcDbPolyline
 90
        9
 70
   128
 43
0.0
 10
208.5883849469
 20
382.1597259483
 10
208.1982043029
 20
382.1405112287
 10
207.8230180822
 20
382.0836054808
 10
207.4772444809
 20
381.9911955606
 10
207.1741713845
 20
381.8668327295
 10
206.9254457223
 20
381.7152961814
 10
206.7406258819
 20
381.5424093807
 10
206.6268143861
 20
381.3548162703
 10
206.5883849469
 20
381.1597259483
  0
LINE
  5
388
330
1F
100
AcDbEntity
  8
0
  6
SLD-Durchgehend
 62
     7
370
    25
100
AcDbLine
 10
212.5883849469
 20
382.2030272185
 30
0.0
 11
208.5883849469
 21
382.2030272185
 31
0.0
  0
LINE
  5
389
330
1F
100
AcDbEntity
  8
0
  6
SLD-Durchgehend
 62
     7
370
    25
100
AcDbLine
 10
212.5883849469
 20
382.1597259483
 30
0.0
 11
212.5883849469
 21
382.2030272185
 31
0.0
  0
LINE
  5
38A
330
1F
100
AcDbEntity
  8
0
  6
SLD-Durchgehend
 62
     7
370
    25
100
AcDbLine
 10
212.5883849469
 20
382.1597259483
 30
0.0
 11
208.5883849469
 21
382.1597259483
 31
0.0
  0
LINE
  5
38B
330
1F
100
AcDbEntity
  8
0
  6
SLD-Durchgehend
 62
     7
370
    25
100
AcDbLine
 10
206.5883849469
 20
380.3597259483
 30
0.0
 11
206.5883849469
 21
381.1597259483
 31
0.0
  0
LWPOLYLINE
  5
38C
330
1F
100
AcDbEntity
  8
0
  6
SLD-Durchgehend
 62
     7
370
    25
100
AcDbPolyline
 90
        9
 70
   128
 43
0.0
 10
214.5883849469
 20
381.1597259483
 10
214.5499555077
 20
381.3548162703
 10
214.4361440119
 20
381.5424093807
 10
214.2513241715
 20
381.7152961814
 10
214.0025985093
 20
381.8668327295
 10
213.699525413
 20
381.9911955606
 10
213.3537518116
 20
382.0836054808
 10
212.9785655909
 20
382.1405112287
 10
212.5883849469
 20
382.1597259483
  0
LINE
  5
38D
330
1F
100
AcDbEntity
  8
0
  6
SLD-Durchgehend
 62
     7
370
    25
100
AcDbLine
 10
214.5883849469
 20
380.3597259483
 30
0.0
 11
214.5883849469
 21
381.1597259483
 31
0.0
  0
LWPOLYLINE
  5
38E
330
1F
100
AcDbEntity
  8
0
  6
SLD-Durchgehend
 62
     7
370
    25
100
AcDbPolyline
 90
        9
 70
   128
 43
0.0
 10
212.5883849469
 20
382.2030272185
 10
212.9785655909
 20
382.1838124989
 10
213.3537518116
 20
382.126906751
 10
213.699525413
 20
382.0344968308
 10
214.0025985093
 20
381.9101339997
 10
214.2513241715
 20
381.7585974515
 10
214.4361440119
 20
381.5857106509
 10
214.5499555077
 20
381.3981175405
 10
214.5883849469
 20
381.2030272185
  0
LINE
  5
38F
330
1F
100
AcDbEntity
  8
0
  6
SLD-Durchgehend
 62
     7
370
    25
100
AcDbLine
 10
214.5883849469
 20
381.2030272185
 30
0.0
 11
214.5883849469
 21
381.1597259483
 31
0.0
  0
LINE
  5
390
330
1F
100
AcDbEntity
  8
0
  6
SLD-Durchgehend
 62
     7
370
    25
100
AcDbLine
 10
197.6161707252
 20
380.3597259483
 30
0.0
 11
201.7117076407
 21
355.8749364008
 31
0.0
  0
LINE
  5
391
330
1F
100
AcDbEntity
  8
0
  6
SLD-Durchgehend
 62
     7
370
    25
100
AcDbLine
 10
199.7391126837
 20
355.544983168
 30
0.0
 11
201.7117076407
 21
355.8749364008
 31
0.0
  0
LINE
  5
392
330
1F
100
AcDbEntity
  8
0
  6
SLD-Durchgehend
 62
     7
370
    25
100
AcDbLine
 10
199.7391126837
 20
355.544983168
 30
0.0
 11
195.5883849469
 21
380.3597259483
 31
0.0
  0
LINE
  5
393
330
1F
100
AcDbEntity
  8
0
  6
SLD-Durchgehend
 62
     7
370
    25
100
AcDbLine
 10
195.5883849469
 20
380.3597259483
 30
0.0
 11
197.6161707252
 21
380.3597259483
 31
0.0
  0
LINE
  5
394
330
1F
100
AcDbEntity
  8
0
  6
SLD-Durchgehend
 62
     7
370
    25
100
AcDbLine
 10
225.5883849469
 20
380.3597259483
 30
0.0
 11
221.4376572101
 21
355.544983168
 31
0.0
  0
LINE
  5
395
330
1F
100
AcDbEntity
  8
0
  6
SLD-Durchgehend
 62
     7
370
    25
100
AcDbLine
 10
221.4376572101
 20
355.544983168
 30
0.0
 11
219.4650622532
 21
355.8749364008
 31
0.0
  0
LINE
  5
396
330
1F
100
AcDbEntity
  8
0
  6
SLD-Durchgehend
 62
     7
370
    25
100
AcDbLine
 10
219.4650622532
 20
355.8749364008
 30
0.0
 11
223.5605991686
 21
380.3597259483
 31
0.0
  0
LINE
  5
397
330
1F
100
AcDbEntity
  8
0
  6
SLD-Durchgehend
 62
     7
370
    25
100
AcDbLine
 10
223.5605991686
 20
380.3597259483
 30
0.0
 11
225.5883849469
 21
380.3597259483
 31
0.0
  0
ARC
  5
398
330
1F
100
AcDbEntity
  8
0
  6
SLD-Durchgehend
 62
     7
370
    25
100
AcDbCircle
 10
210.5883849469
 20
357.3597259483
 30
0.0
 40
9.000000000000005
100
AcDbArc
 50
189.4958760705
 51
350.5041239295
  0
CIRCLE
  5
399
330
1F
100
AcDbEntity
  8
0
  6
SLD-Durchgehend
 62
     7
370
    25
100
AcDbCircle
 10
210.5883849469
 20
357.3597259483
 30
0.0
 40
5.249999999999943
  0
ELLIPSE
  5
39A
330
1F
100
AcDbEntity
  8
0
  6
SLD-Durchgehend
 62
     7
370
    25
100
AcDbEllipse
 10
210.5883849469
 20
375.8425366794
 30
0.0
 11
0.0
 21
-2.108021658841039
 31
0.0
210
0.0
220
0.0
230
1.0
 40
0.9961946981
 41
0.0
 42
6.283185307179586
  0
LINE
  5
39B
330
1F
100
AcDbEntity
  8
0
  6
SLD-Durchgehend
 62
     7
370
    25
100
AcDbLine
 10
223.5605991686
 20
380.3597259483
 30
0.0
 11
197.6161707252
 21
380.3597259483
 31
0.0
  0
ARC
  5
39C
330
1F
100
AcDbEntity
  8
0
  6
SLD-Durchgehend
 62
     7
370
    25
100
AcDbCircle
 10
210.5883849469
 20
357.3597259483
 30
0.0
 40
11.0
100
AcDbArc
 50
189.4958760705
 51
350.5041239295
  0
LINE
  5
39D
330
1F
100
AcDbEntity
  8
0
  6
SLD-Durchgehend
 62
     7
370
    25
100
AcDbLine
 10
209.8764659923
 20
358.9513618161
 30
0.0
 11
211.6108225647
 21
358.7720837823
 31
0.0
  0
LINE
  5
39E
330
1F
100
AcDbEntity
  8
0
  6
SLD-Durchgehend
 62
     7
370
    25
100
AcDbLine
 10
208.8540283746
 20
357.5390039821
 30
0.0
 11
209.8764659923
 21
358.9513618161
 31
0.0
  0
LINE
  5
39F
330
1F
100
AcDbEntity
  8
0
  6
SLD-Durchgehend
 62
     7
370
    25
100
AcDbLine
 10
209.5659473292
 20
355.9473681144
 30
0.0
 11
208.8540283746
 21
357.5390039821
 31
0.0
  0
LINE
  5
3A0
330
1F
100
AcDbEntity
  8
0
  6
SLD-Durchgehend
 62
     7
370
    25
100
AcDbLine
 10
211.3003039015
 20
355.7680900806
 30
0.0
 11
209.5659473292
 21
355.9473681144
 31
0.0
  0
LINE
  5
3A1
330
1F
100
AcDbEntity
  8
0
  6
SLD-Durchgehend
 62
     7
370
    25
100
AcDbLine
 10
212.3227415192
 20
357.1804479146
 30
0.0
 11
211.3003039015
 21
355.7680900806
 31
0.0
  0
LINE
  5
3A2
330
1F
100
AcDbEntity
  8
0
  6
SLD-Durchgehend
 62
     7
370
    25
100
AcDbLine
 10
211.6108225647
 20
358.7720837823
 30
0.0
 11
212.3227415192
 21
357.1804479146
 31
0.0
  0
CIRCLE
  5
3A3
330
1F
100
AcDbEntity
  8
0
  6
SLD-Durchgehend
 62
     7
370
    25
100
AcDbCircle
 10
210.5883849469
 20
357.3597259483
 30
0.0
 40
4.999999999999996
  0
ARC
  5
3A4
330
1F
100
AcDbEntity
  8
0
  6
SLD-Durchgehend
 62
     7
370
    25
100
AcDbCircle
 10
210.5883849469
 20
357.3597259483
 30
0.0
 40
1.510000000000018
100
AcDbArc
 50
84.0983749258
 51
144.0983749258
  0
ARC
  5
3A5
330
1F
100
AcDbEntity
  8
0
  6
SLD-Durchgehend
 62
     7
370
    25
100
AcDbCircle
 10
210.5883849469
 20
357.3597259483
 30
0.0
 40
1.510000000000022
100
AcDbArc
 50
24.0983749258
 51
84.0983749258
  0
ARC
  5
3A6
330
1F
100
AcDbEntity
  8
0
  6
SLD-Durchgehend
 62
     7
370
    25
100
AcDbCircle
 10
210.5883849469
 20
357.3597259483
 30
0.0
 40
1.510000000000022
100
AcDbArc
 50
324.0983749258
 51
24.0983749258
  0
ARC
  5
3A7
330
1F
100
AcDbEntity
  8
0
  6
SLD-Durchgehend
 62
     7
370
    25
100
AcDbCircle
 10
210.5883849469
 20
357.3597259483
 30
0.0
 40
1.510000000000018
100
AcDbArc
 50
264.0983749258
 51
324.0983749258
  0
ARC
  5
3A8
330
1F
100
AcDbEntity
  8
0
  6
SLD-Durchgehend
 62
     7
370
    25
100
AcDbCircle
 10
210.5883849469
 20
357.3597259483
 30
0.0
 40
1.510000000000018
100
AcDbArc
 50
204.0983749258
 51
264.0983749258
  0
ARC
  5
3A9
330
1F
100
AcDbEntity
  8
0
  6
SLD-Durchgehend
 62
     7
370
    25
100
AcDbCircle
 10
210.5883849469
 20
357.3597259483
 30
0.0
 40
1.510000000000006
100
AcDbArc
 50
144.0983749258
 51
204.0983749258
  0
LINE
  5
3AA
330
1F
100
AcDbEntity
  8
0
  6
SLD-Durchgehend
 62
     7
370
    25
100
AcDbLine
 10
208.8883849469
 20
243.9370762175
 30
0.0
 11
208.8883849469
 21
242.20502541
 31
0.0
  0
LINE
  5
3AB
330
1F
100
AcDbEntity
  8
0
  6
SLD-Durchgehend
 62
     7
370
    25
100
AcDbLine
 10
208.8883849469
 20
243.9370762175
 30
0.0
 11
212.2883849469
 21
243.9370762175
 31
0.0
  0
LINE
  5
3AC
330
1F
100
AcDbEntity
  8
0
  6
SLD-Durchgehend
 62
     7
370
    25
100
AcDbLine
 10
212.2883849469
 20
242.20502541
 30
0.0
 11
212.2883849469
 21
243.9370762175
 31
0.0
  0
LINE
  5
3AD
330
1F
100
AcDbEntity
  8
0
  6
SLD-Durchgehend
 62
     7
370
    25
100
AcDbLine
 10
212.2883849469
 20
242.20502541
 30
0.0
 11
208.8883849469
 21
242.20502541
 31
0.0
  0
ARC
  5
3AE
330
1F
100
AcDbEntity
  8
0
  6
SLD-Durchgehend
 62
     7
370
    25
100
AcDbCircle
 10
212.3071349469
 20
243.6556179613
 30
0.0
 40
0.2820821024098881
100
AcDbArc
 50
4.4019496523
 51
93.8112610495
  0
LINE
  5
3AF
330
1F
100
AcDbEntity
  8
0
  6
SLD-Durchgehend
 62
     7
370
    25
100
AcDbLine
 10
212.5883849469
 20
243.6772685964
 30
0.0
 11
212.5883849469
 21
242.20502541
 31
0.0
  0
LINE
  5
3B0
330
1F
100
AcDbEntity
  8
0
  6
SLD-Durchgehend
 62
     7
370
    25
100
AcDbLine
 10
212.2883849469
 20
242.20502541
 30
0.0
 11
212.5883849469
 21
242.20502541
 31
0.0
  0
LINE
  5
3B1
330
1F
100
AcDbEntity
  8
0
  6
SLD-Durchgehend
 62
     7
370
    25
100
AcDbLine
 10
208.5883849469
 20
242.20502541
 30
0.0
 11
208.5883849469
 21
243.6772685964
 31
0.0
  0
ARC
  5
3B2
330
1F
100
AcDbEntity
  8
0
  6
SLD-Durchgehend
 62
     7
370
    25
100
AcDbCircle
 10
208.8696349469
 20
243.6556179613
 30
0.0
 40
0.2820821024099161
100
AcDbArc
 50
86.1887389505
 51
175.5980503477
  0
LINE
  5
3B3
330
1F
100
AcDbEntity
  8
0
  6
SLD-Durchgehend
 62
     7
370
    25
100
AcDbLine
 10
208.5883849469
 20
242.20502541
 30
0.0
 11
208.8883849469
 21
242.20502541
 31
0.0
  0
LINE
  5
3B4
330
1F
100
AcDbEntity
  8
0
  6
SLD-Durchgehend
 62
     7
370
    25
100
AcDbLine
 10
212.2883849469
 20
239.3597259483
 30
0.0
 11
212.2883849469
 21
242.20502541
 31
0.0
  0
LINE
  5
3B5
330
1F
100
AcDbEntity
  8
0
  6
SLD-Durchgehend
 62
     7
370
    25
100
AcDbLine
 10
212.5883849469
 20
242.20502541
 30
0.0
 11
212.5883849469
 21
239.3597259483
 31
0.0
  0
LINE
  5
3B6
330
1F
100
AcDbEntity
  8
0
  6
SLD-Durchgehend
 62
     7
370
    25
100
AcDbLine
 10
212.2883849469
 20
239.3597259483
 30
0.0
 11
212.5883849469
 21
239.3597259483
 31
0.0
  0
LINE
  5
3B7
330
1F
100
AcDbEntity
  8
0
  6
SLD-Durchgehend
 62
     7
370
    25
100
AcDbLine
 10
208.5883849469
 20
239.3597259483
 30
0.0
 11
208.5883849469
 21
242.20502541
 31
0.0
  0
LINE
  5
3B8
330
1F
100
AcDbEntity
  8
0
  6
SLD-Durchgehend
 62
     7
370
    25
100
AcDbLine
 10
208.8883849469
 20
242.20502541
 30
0.0
 11
208.8883849469
 21
239.3597259483
 31
0.0
  0
LINE
  5
3B9
330
1F
100
AcDbEntity
  8
0
  6
SLD-Durchgehend
 62
     7
370
    25
100
AcDbLine
 10
208.5883849469
 20
239.3597259483
 30
0.0
 11
208.8883849469
 21
239.3597259483
 31
0.0
  0
LINE
  5
3BA
330
1F
100
AcDbEntity
  8
0
  6
SLD-Durchgehend
 62
     7
370
    25
100
AcDbLine
 10
208.8883849469
 20
239.3597259483
 30
0.0
 11
212.2883849469
 21
239.3597259483
 31
0.0
  0
LINE
  5
3BB
330
1F
100
AcDbEntity
  8
0
  6
SLD-Durchgehend
 62
     7
370
    25
100
AcDbLine
 10
208.8883849469
 20
239.3597259483
 30
0.0
 11
208.8883849469
 21
237.3597259483
 31
0.0
  0
LINE
  5
3BC
330
1F
100
AcDbEntity
  8
0
  6
SLD-Durchgehend
 62
     7
370
    25
100
AcDbLine
 10
212.2883849469
 20
237.3597259483
 30
0.0
 11
212.2883849469
 21
239.3597259483
 31
0.0
  0
LINE
  5
3BD
330
1F
100
AcDbEntity
  8
0
  6
SLD-Durchgehend
 62
     7
370
    25
100
AcDbLine
 10
212.2883849469
 20
237.3597259483
 30
0.0
 11
208.8883849469
 21
237.3597259483
 31
0.0
  0
LINE
  5
3BE
330
1F
100
AcDbEntity
  8
0
  6
SLD-Durchgehend
 62
     7
370
    25
100
AcDbLine
 10
208.5883849469
 20
237.6597259483
 30
0.0
 11
208.5883849469
 21
239.3597259483
 31
0.0
  0
ARC
  5
3BF
330
1F
100
AcDbEntity
  8
0
  6
SLD-Durchgehend
 62
     7
370
    25
100
AcDbCircle
 10
208.8883849469
 20
237.6597259483
 30
0.0
 40
0.3000000000000114
100
AcDbArc
 50
180.0
 51
270.0
  0
LINE
  5
3C0
330
1F
100
AcDbEntity
  8
0
  6
SLD-Durchgehend
 62
     7
370
    25
100
AcDbLine
 10
212.5883849469
 20
239.3597259483
 30
0.0
 11
212.5883849469
 21
237.6597259483
 31
0.0
  0
ARC
  5
3C1
330
1F
100
AcDbEntity
  8
0
  6
SLD-Durchgehend
 62
     7
370
    25
100
AcDbCircle
 10
212.2883849469
 20
237.6597259483
 30
0.0
 40
0.3000000000000114
100
AcDbArc
 50
270.0
 51
0.0
  0
LINE
  5
3C2
330
1F
100
AcDbEntity
  8
0
  6
SLD-Durchgehend
 62
     7
370
    25
100
AcDbLine
 10
212.2883849469
 20
243.9370762175
 30
0.0
 11
212.2883849469
 21
245.6691270251
 31
0.0
  0
ARC
  5
3C3
330
1F
100
AcDbEntity
  8
0
  6
SLD-Durchgehend
 62
     7
370
    25
100
AcDbCircle
 10
212.3071349469
 20
245.3876687689
 30
0.0
 40
0.2820821024098572
100
AcDbArc
 50
4.4019496523
 51
93.8112610495
  0
LINE
  5
3C4
330
1F
100
AcDbEntity
  8
0
  6
SLD-Durchgehend
 62
     7
370
    25
100
AcDbLine
 10
212.5883849469
 20
245.409319404
 30
0.0
 11
212.5883849469
 21
243.6772685964
 31
0.0
  0
LINE
  5
3C5
330
1F
100
AcDbEntity
  8
0
  6
SLD-Durchgehend
 62
     7
370
    25
100
AcDbLine
 10
208.8883849469
 20
245.6691270251
 30
0.0
 11
208.8883849469
 21
243.9370762175
 31
0.0
  0
LINE
  5
3C6
330
1F
100
AcDbEntity
  8
0
  6
SLD-Durchgehend
 62
     7
370
    25
100
AcDbLine
 10
212.2883849469
 20
245.6691270251
 30
0.0
 11
208.8883849469
 21
245.6691270251
 31
0.0
  0
ARC
  5
3C7
330
1F
100
AcDbEntity
  8
0
  6
SLD-Durchgehend
 62
     7
370
    25
100
AcDbCircle
 10
208.8696349469
 20
245.3876687689
 30
0.0
 40
0.2820821024098351
100
AcDbArc
 50
86.1887389505
 51
175.5980503477
  0
LINE
  5
3C8
330
1F
100
AcDbEntity
  8
0
  6
SLD-Durchgehend
 62
     7
370
    25
100
AcDbLine
 10
208.5883849469
 20
243.6772685964
 30
0.0
 11
208.5883849469
 21
245.409319404
 31
0.0
  0
LINE
  5
3C9
330
1F
100
AcDbEntity
  8
0
  6
SLD-Durchgehend
 62
     7
370
    25
100
AcDbLine
 10
208.5883849469
 20
247.4011778327
 30
0.0
 11
208.8883849469
 21
247.4011778327
 31
0.0
  0
LINE
  5
3CA
330
1F
100
AcDbEntity
  8
0
  6
SLD-Durchgehend
 62
     7
370
    25
100
AcDbLine
 10
208.8883849469
 20
247.4011778327
 30
0.0
 11
208.8883849469
 21
245.6691270251
 31
0.0
  0
LINE
  5
3CB
330
1F
100
AcDbEntity
  8
0
  6
SLD-Durchgehend
 62
     7
370
    25
100
AcDbLine
 10
208.5883849469
 20
245.409319404
 30
0.0
 11
208.5883849469
 21
247.4011778327
 31
0.0
  0
LINE
  5
3CC
330
1F
100
AcDbEntity
  8
0
  6
SLD-Durchgehend
 62
     7
370
    25
100
AcDbLine
 10
212.2883849469
 20
245.6691270251
 30
0.0
 11
212.2883849469
 21
247.4011778327
 31
0.0
  0
LINE
  5
3CD
330
1F
100
AcDbEntity
  8
0
  6
SLD-Durchgehend
 62
     7
370
    25
100
AcDbLine
 10
212.5883849469
 20
247.4011778327
 30
0.0
 11
212.2883849469
 21
247.4011778327
 31
0.0
  0
LINE
  5
3CE
330
1F
100
AcDbEntity
  8
0
  6
SLD-Durchgehend
 62
     7
370
    25
100
AcDbLine
 10
212.5883849469
 20
247.4011778327
 30
0.0
 11
212.5883849469
 21
245.409319404
 31
0.0
  0
LINE
  5
3CF
330
1F
100
AcDbEntity
  8
0
  6
SLD-Durchgehend
 62
     7
370
    25
100
AcDbLine
 10
208.8883849469
 20
247.4011778327
 30
0.0
 11
212.2883849469
 21
247.4011778327
 31
0.0
  0
LINE
  5
3D0
330
1F
100
AcDbEntity
  8
0
  6
SLD-Durchgehend
 62
     7
370
    25
100
AcDbLine
 10
208.8883849469
 20
344.9904090715
 30
0.0
 11
208.8883849469
 21
247.4011778327
 31
0.0
  0
LINE
  5
3D1
330
1F
100
AcDbEntity
  8
0
  6
SLD-Durchgehend
 62
     7
370
    25
100
AcDbLine
 10
212.2883849469
 20
247.4011778327
 30
0.0
 11
212.2883849469
 21
344.9904090715
 31
0.0
  0
LINE
  5
3D2
330
1F
100
AcDbEntity
  8
0
  6
SLD-Durchgehend
 62
     7
370
    25
100
AcDbLine
 10
212.5883849469
 20
344.9904090715
 30
0.0
 11
212.2883849469
 21
344.9904090715
 31
0.0
  0
LINE
  5
3D3
330
1F
100
AcDbEntity
  8
0
  6
SLD-Durchgehend
 62
     7
370
    25
100
AcDbLine
 10
212.5883849469
 20
344.9904090715
 30
0.0
 11
212.5883849469
 21
247.4011778327
 31
0.0
  0
ARC
  5
3D4
330
1F
100
AcDbEntity
  8
0
  6
SLD-Durchgehend
 62
     7
370
    25
100
AcDbCircle
 10
214.5883849469
 20
344.9904090715
 30
0.0
 40
2.000000000000028
100
AcDbArc
 50
107.9202131394
 51
180.0
  0
LINE
  5
3D5
330
1F
100
AcDbEntity
  8
0
  6
SLD-Durchgehend
 62
     7
370
    25
100
AcDbLine
 10
208.5883849469
 20
344.9904090715
 30
0.0
 11
208.8883849469
 21
344.9904090715
 31
0.0
  0
LINE
  5
3D6
330
1F
100
AcDbEntity
  8
0
  6
SLD-Durchgehend
 62
     7
370
    25
100
AcDbLine
 10
208.5883849469
 20
247.4011778327
 30
0.0
 11
208.5883849469
 21
344.9904090715
 31
0.0
  0
ARC
  5
3D7
330
1F
100
AcDbEntity
  8
0
  6
SLD-Durchgehend
 62
     7
370
    25
100
AcDbCircle
 10
206.5883849469
 20
344.9904090715
 30
0.0
 40
2.000000000000057
100
AcDbArc
 50
0.0
 51
72.0797868606
  0
ARC
  5
3D8
330
1F
100
AcDbEntity
  8
0
  6
SLD-Durchgehend
 62
     7
370
    25
100
AcDbCircle
 10
206.5883849469
 20
344.9904090715
 30
0.0
 40
2.30000000000004
100
AcDbArc
 50
0.0
 51
45.0962738071
  0
ARC
  5
3D9
330
1F
100
AcDbEntity
  8
0
  6
SLD-Durchgehend
 62
     7
370
    25
100
AcDbCircle
 10
214.5883849469
 20
344.9904090715
 30
0.0
 40
2.300000000000016
100
AcDbArc
 50
134.9037261929
 51
180.0
  0
DIMENSION
  5
3DA
330
1F
100
AcDbEntity
  8
ZEICHNUNG
 62
     1
100
AcDbDimension
280
     0
  2
_D_2
 10
225.5883849469
 20
412.2030272185
 30
0.0
 11
210.5883849469
 21
412.2030272185
 31
0.0
 70
   160
  1
<>
 71
     2
 42
-1.0
 73
     0
 74
     0
 75
     0
  3
SLDDIMSTYLE1
100
AcDbAlignedDimension
 13
195.5883849469
 23
380.3597259483
 33
0.0
 14
225.5883849469
 24
380.3597259483
 34
0.0
100
AcDbRotatedDimension
  0
DIMENSION
  5
3E7
330
1F
100
AcDbEntity
  8
ZEICHNUNG
 62
     1
100
AcDbDimension
280
     0
  2
_D_3
 10
165.5883849469
 20
346.3597259483
 30
0.0
 11
165.5883849469
 21
290.9790114473
 31
0.0
 70
   160
  1
<>
 71
     2
 42
-1.0
 73
     0
 74
     0
 75
     0
  3
SLDDIMSTYLE0
100
AcDbAlignedDimension
 13
208.8883849469
 23
237.3597259483
 33
0.0
 14
210.5883849469
 24
346.3597259483
 34
0.0
 50
90.0
100
AcDbRotatedDimension
  0
DIMENSION
  5
3F1
330
1F
100
AcDbEntity
  8
ZEICHNUNG
 62
     1
100
AcDbDimension
280
     0
  2
_D_4
 10
147.5883849469
 20
237.3597259483
 30
0.0
 11
147.5883849469
 21
308.8597259483
 31
0.0
 70
   160
  1
<>
 71
     2
 42
-1.0
 73
     0
 74
     0
 75
     0
  3
SLDDIMSTYLE0
100
AcDbAlignedDimension
 13
195.5883849469
 23
380.3597259483
 33
0.0
 14
208.8883849469
 24
237.3597259483
 34
0.0
 50
90.0
100
AcDbRotatedDimension
  0
ENDSEC
  0
SECTION
  2
OBJECTS
  0
DICTIONARY
  5
C
330
0
100
AcDbDictionary
281
     1
  3
ACAD_DETAILVIEWSTYLE
350
402
  3
ACAD_GROUP
350
D
  3
ACAD_LAYOUT
350
1A
  3
ACAD_MATERIAL
350
43
  3
ACAD_MLEADERSTYLE
350
5B
  3
ACAD_MLINESTYLE
350
17
  3
ACAD_PLOTSETTINGS
350
19
  3
ACAD_PLOTSTYLENAME
350
E
  3
ACAD_SCALELIST
350
47
  3
ACAD_SECTIONVIEWSTYLE
350
403
  3
ACAD_TABLESTYLE
350
59
  3
ACAD_VISUALSTYLE
350
2A
  3
ACDB_RECOMPOSE_DATA
350
3FF
  3
AcDbVariableDictionary
350
3FB
  0
SUN
  5
5D
330
29
100
AcDbSun
 90
        1
290
     0
 63
     7
421
 16777215
 40
1.0
291
     1
 91
  2455826
 92
 54000000
292
     0
 70
     2
 71
   256
280
     1
  0
DICTIONARY
  5
402
102
{ACAD_REACTORS
330
C
102
}
330
C
100
AcDbDictionary
281
     1
  0
DICTIONARY
  5
D
102
{ACAD_REACTORS
330
C
102
}
330
C
100
AcDbDictionary
281
     1
  0
DICTIONARY
  5
1A
102
{ACAD_REACTORS
330
C
102
}
330
C
100
AcDbDictionary
281
     1
  3
Layout1
350
1E
  3
Layout2
350
26
  3
Model
350
22
  0
DICTIONARY
  5
43
102
{ACAD_REACTORS
330
C
102
}
330
C
100
AcDbDictionary
281
     1
  3
ByBlock
350
45
  3
ByLayer
350
44
  3
Global
350
46
  0
DICTIONARY
  5
5B
102
{ACAD_REACTORS
330
C
102
}
330
C
100
AcDbDictionary
281
     1
  3
Standard
350
5C
  0
DICTIONARY
  5
17
102
{ACAD_REACTORS
330
C
102
}
330
C
100
AcDbDictionary
281
     1
  3
Standard
350
18
  0
DICTIONARY
  5
19
102
{ACAD_REACTORS
330
C
102
}
330
C
100
AcDbDictionary
281
     1
  0
ACDBDICTIONARYWDFLT
  5
E
102
{ACAD_REACTORS
330
C
102
}
330
C
100
AcDbDictionary
281
     1
  3
Normal
350
F
100
AcDbDictionaryWithDefault
340
F
  0
DICTIONARY
  5
47
102
{ACAD_REACTORS
330
C
102
}
330
C
100
AcDbDictionary
281
     1
  3
A0
350
48
  3
A1
350
49
  3
A2
350
4A
  3
A3
350
4B
  3
A4
350
4C
  3
A5
350
4D
  3
A6
350
4E
  3
A7
350
4F
  3
A8
350
50
  3
A9
350
51
  3
B0
350
52
  3
B1
350
53
  3
B2
350
54
  3
B3
350
55
  3
B4
350
56
  3
B5
350
57
  3
B6
350
58
  0
DICTIONARY
  5
403
102
{ACAD_REACTORS
330
C
102
}
330
C
100
AcDbDictionary
281
     1
  0
DICTIONARY
  5
59
102
{ACAD_REACTORS
330
C
102
}
330
C
100
AcDbDictionary
281
     1
  3
Standard
350
5A
  0
DICTIONARY
  5
2A
102
{ACAD_REACTORS
330
C
102
}
330
C
100
AcDbDictionary
281
     1
  3
2dWireframe
350
2F
  3
Basic
350
32
  3
Brighten
350
36
  3
ColorChange
350
3A
  3
Conceptual
350
34
  3
Dim
350
35
  3
EdgeColorOff
350
3D
  3
Facepattern
350
39
  3
Flat
350
2B
  3
FlatWithEdges
350
2C
  3
Gouraud
350
2D
  3
GouraudWithEdges
350
2E
  3
Hidden
350
31
  3
JitterOff
350
3B
  3
Linepattern
350
38
  3
OverhangOff
350
3C
  3
Realistic
350
33
  3
Shaded
350
42
  3
Shaded with edges
350
41
  3
Shades of Gray
350
3E
  3
Sketchy
350
3F
  3
Thicken
350
37
  3
Wireframe
350
30
  3
X-Ray
350
40
  0
XRECORD
  5
3FF
102
{ACAD_REACTORS
330
C
102
}
330
C
100
AcDbXrecord
280
     1
 90
        1
330
5A
  0
DICTIONARY
  5
3FB
102
{ACAD_REACTORS
330
C
102
}
330
C
100
AcDbDictionary
281
     1
  3
CANNOSCALE
350
3FC
  3
CENTEREXE
350
404
  3
CENTERLTYPEFILE
350
405
  3
CMLEADERSTYLE
350
401
  3
CTABLESTYLE
350
400
  0
LAYOUT
  5
1E
102
{ACAD_REACTORS
330
1A
102
}
330
1A
100
AcDbPlotSettings
  1

  2
none_device
  4

  6

 40
0.0
 41
0.0
 42
0.0
 43
0.0
 44
0.0
 45
0.0
 46
0.0
 47
0.0
 48
0.0
 49
0.0
140
0.0
141
0.0
142
1.0
143
1.0
 70
   688
 72
     1
 73
     0
 74
     5
  7

 75
    16
 76
     0
 77
     2
 78
   300
147
1.0
148
0.0
149
0.0
100
AcDbLayout
  1
Layout1
 70
     1
 71
     1
 10
0.0
 20
0.0
 11
420.0
 21
297.0
 12
0.0
 22
0.0
 32
0.0
 14
1.0000000000E+20
 24
1.0000000000E+20
 34
1.0000000000E+20
 15
-1.0000000000E+20
 25
-1.0000000000E+20
 35
-1.0000000000E+20
146
0.0
 13
0.0
 23
0.0
 33
0.0
 16
1.0
 26
0.0
 36
0.0
 17
0.0
 27
1.0
 37
0.0
 76
     0
330
1B
  0
LAYOUT
  5
26
102
{ACAD_REACTORS
330
1A
102
}
330
1A
100
AcDbPlotSettings
  1

  2
none_device
  4

  6

 40
0.0
 41
0.0
 42
0.0
 43
0.0
 44
0.0
 45
0.0
 46
0.0
 47
0.0
 48
0.0
 49
0.0
140
0.0
141
0.0
142
1.0
143
1.0
 70
   688
 72
     1
 73
     0
 74
     5
  7

 75
    16
 76
     0
 77
     2
 78
   300
147
1.0
148
0.0
149
0.0
100
AcDbLayout
  1
Layout2
 70
     1
 71
     2
 10
0.0
 20
0.0
 11
0.0
 21
0.0
 12
0.0
 22
0.0
 32
0.0
 14
0.0
 24
0.0
 34
0.0
 15
0.0
 25
0.0
 35
0.0
146
0.0
 13
0.0
 23
0.0
 33
0.0
 16
1.0
 26
0.0
 36
0.0
 17
0.0
 27
1.0
 37
0.0
 76
     0
330
23
  0
LAYOUT
  5
22
102
{ACAD_REACTORS
330
1A
102
}
330
1A
100
AcDbPlotSettings
  1

  2
none_device
  4
Letter_(8.50_x_11.00_Inches)
  6

 40
6.35
 41
6.35
 42
6.35000508
 43
6.35000508
 44
215.9
 45
279.4
 46
0.0
 47
0.0
 48
0.0
 49
0.0
140
0.0
141
0.0
142
1.0
143
1.0
 70
  1712
 72
     1
 73
     0
 74
     0
  7

 75
     0
 76
     0
 77
     2
 78
   300
147
1.0
148
0.0
149
0.0
100
AcDbLayout
  1
Model
 70
     1
 71
     0
 10
0.0
 20
0.0
 11
1260.0
 21
891.0
 12
0.0
 22
0.0
 32
0.0
 14
0.0
 24
0.0
 34
0.0
 15
1260.0
 25
891.0
 35
0.0
146
0.0
 13
0.0
 23
0.0
 33
0.0
 16
1.0
 26
0.0
 36
0.0
 17
0.0
 27
1.0
 37
0.0
 76
     0
330
1F
331
29
  0
MATERIAL
  5
45
102
{ACAD_REACTORS
330
43
102
}
330
43
100
AcDbMaterial
  1
ByBlock
 72
     1
 94
      127
  0
MATERIAL
  5
44
102
{ACAD_REACTORS
330
43
102
}
330
43
100
AcDbMaterial
  1
ByLayer
 72
     1
 94
      127
  0
MATERIAL
  5
46
102
{ACAD_REACTORS
330
43
102
}
330
43
100
AcDbMaterial
  1
Global
 72
     1
 94
      127
  0
MLEADERSTYLE
  5
5C
102
{ACAD_REACTORS
330
5B
102
}
330
5B
100
AcDbMLeaderStyle
179
     2
170
     2
171
     1
172
     0
 90
        2
 40
0.0
 41
0.0
173
     1
 91
-1056964608
340
14
 92
       -2
290
     1
 42
2.0
291
     1
 43
8.0
  3
Standard
341
0
 44
4.0
300

342
11
174
     1
178
     6
175
     1
176
     0
 93
-1056964608
 45
4.0
292
     0
297
     0
 46
4.0
343
0
 94
-1056964608
 47
1.0
 49
1.0
140
1.0
293
     1
141
0.0
294
     1
177
     0
142
1.0
295
     0
296
     0
143
3.75
271
     0
272
     9
273
     9
298
     0
  0
MLINESTYLE
  5
18
102
{ACAD_REACTORS
330
17
102
}
330
17
100
AcDbMlineStyle
  2
Standard
 70
     0
  3

 62
   256
 51
90.0
 52
90.0
 71
     2
 49
0.5
 62
   256
  6
BYLAYER
 49
-0.5
 62
   256
  6
BYLAYER
  0
ACDBPLACEHOLDER
  5
F
102
{ACAD_REACTORS
330
E
102
}
330
E
  0
SCALE
  5
48
102
{ACAD_REACTORS
330
47
102
}
330
47
100
AcDbScale
 70
     0
300
1:1
140
1.0
141
1.0
290
     1
  0
SCALE
  5
49
102
{ACAD_REACTORS
330
47
102
}
330
47
100
AcDbScale
 70
     0
300
1:2
140
1.0
141
2.0
290
     0
  0
SCALE
  5
4A
102
{ACAD_REACTORS
330
47
102
}
330
47
100
AcDbScale
 70
     0
300
1:4
140
1.0
141
4.0
290
     0
  0
SCALE
  5
4B
102
{ACAD_REACTORS
330
47
102
}
330
47
100
AcDbScale
 70
     0
300
1:5
140
1.0
141
5.0
290
     0
  0
SCALE
  5
4C
102
{ACAD_REACTORS
330
47
102
}
330
47
100
AcDbScale
 70
     0
300
1:8
140
1.0
141
8.0
290
     0
  0
SCALE
  5
4D
102
{ACAD_REACTORS
330
47
102
}
330
47
100
AcDbScale
 70
     0
300
1:10
140
1.0
141
10.0
290
     0
  0
SCALE
  5
4E
102
{ACAD_REACTORS
330
47
102
}
330
47
100
AcDbScale
 70
     0
300
1:16
140
1.0
141
16.0
290
     0
  0
SCALE
  5
4F
102
{ACAD_REACTORS
330
47
102
}
330
47
100
AcDbScale
 70
     0
300
1:20
140
1.0
141
20.0
290
     0
  0
SCALE
  5
50
102
{ACAD_REACTORS
330
47
102
}
330
47
100
AcDbScale
 70
     0
300
1:30
140
1.0
141
30.0
290
     0
  0
SCALE
  5
51
102
{ACAD_REACTORS
330
47
102
}
330
47
100
AcDbScale
 70
     0
300
1:40
140
1.0
141
40.0
290
     0
  0
SCALE
  5
52
102
{ACAD_REACTORS
330
47
102
}
330
47
100
AcDbScale
 70
     0
300
1:50
140
1.0
141
50.0
290
     0
  0
SCALE
  5
53
102
{ACAD_REACTORS
330
47
102
}
330
47
100
AcDbScale
 70
     0
300
1:100
140
1.0
141
100.0
290
     0
  0
SCALE
  5
54
102
{ACAD_REACTORS
330
47
102
}
330
47
100
AcDbScale
 70
     0
300
2:1
140
2.0
141
1.0
290
     0
  0
SCALE
  5
55
102
{ACAD_REACTORS
330
47
102
}
330
47
100
AcDbScale
 70
     0
300
4:1
140
4.0
141
1.0
290
     0
  0
SCALE
  5
56
102
{ACAD_REACTORS
330
47
102
}
330
47
100
AcDbScale
 70
     0
300
8:1
140
8.0
141
1.0
290
     0
  0
SCALE
  5
57
102
{ACAD_REACTORS
330
47
102
}
330
47
100
AcDbScale
 70
     0
300
10:1
140
10.0
141
1.0
290
     0
  0
SCALE
  5
58
102
{ACAD_REACTORS
330
47
102
}
330
47
100
AcDbScale
 70
     0
300
100:1
140
100.0
141
1.0
290
     0
  0
TABLESTYLE
  5
5A
102
{ACAD_REACTORS
330
59
102
}
102
{ACAD_XDICTIONARY
360
3FD
102
}
330
59
100
AcDbTableStyle
  3
Standard
 70
     0
 71
     0
 40
0.06
 41
0.06
280
     0
281
     0
  7
STANDARD
140
4.5
170
     2
 62
     0
 63
   257
283
     0
 90
        4
 91
        0
  1

274
    -2
284
     1
 64
     0
275
    -2
285
     1
 65
     0
276
    -2
286
     1
 66
     0
277
    -2
287
     1
 67
     0
278
    -2
288
     1
 68
     0
279
    -2
289
     1
 69
     0
  7
STANDARD
140
6.0
170
     5
 62
     0
 63
   257
283
     0
 90
        4
 91
        0
  1

274
    -2
284
     1
 64
     0
275
    -2
285
     1
 65
     0
276
    -2
286
     1
 66
     0
277
    -2
287
     1
 67
     0
278
    -2
288
     1
 68
     0
279
    -2
289
     1
 69
     0
  7
STANDARD
140
4.5
170
     5
 62
     0
 63
   257
283
     0
 90
        4
 91
        0
  1

274
    -2
284
     1
 64
     0
275
    -2
285
     1
 65
     0
276
    -2
286
     1
 66
     0
277
    -2
287
     1
 67
     0
278
    -2
288
     1
 68
     0
279
    -2
289
     1
 69
     0
  0
VISUALSTYLE
  5
2F
102
{ACAD_REACTORS
330
2A
102
}
330
2A
100
AcDbVisualStyle
  2
2dWireframe
 70
     4
177
     3
291
     0
 70
    58
 90
        0
176
     1
 90
        2
176
     1
 90
        0
176
     1
 90
        0
176
     1
 40
0.6
176
     1
 40
30.0
176
     1
 62
     7
420
 16777215
176
     1
 90
        1
176
     1
 90
        4
176
     1
 62
     7
176
     1
 62
   257
176
     1
 90
        1
176
     1
 90
        1
176
     1
 40
1.0
176
     1
 90
        0
176
     1
 62
   257
176
     1
 40
1.0
176
     1
 90
        1
176
     1
 90
        6
176
     1
 90
        2
176
     1
 62
     7
176
     1
 90
        5
176
     1
 90
        0
176
     1
 90
        0
176
     1
290
     0
176
     1
 90
        1
176
     1
 40
0.0
176
     1
 90
        0
176
     1
290
     1
176
     1
290
     1
176
     1
290
     0
176
     1
290
     0
176
     1
290
     0
176
     1
290
     0
176
     1
290
     0
176
     1
290
     0
176
     1
290
     0
176
     1
 90
       50
176
     1
 40
0.0
176
     1
 40
1.0
176
     1
 90
        0
176
     1
 62
    18
420
        0
176
     1
 90
       50
176
     1
 90
        3
176
     1
 62
     5
420
      255
176
     1
290
     0
176
     1
 90
       50
176
     1
 90
       50
176
     1
 90
       50
176
     1
290
     0
176
     1
 90
       50
176
     1
 62
   256
176
     0
 40
1.0
176
     0
 90
        2
176
     1
  1
strokes_ogs.tif
176
     1
290
     0
176
     1
 40
1.0
176
     1
 40
1.0
176
     1
  0
VISUALSTYLE
  5
32
102
{ACAD_REACTORS
330
2A
102
}
330
2A
100
AcDbVisualStyle
  2
Basic
 70
     7
177
     3
291
     1
 70
    58
 90
        1
176
     1
 90
        0
176
     1
 90
        1
176
     1
 90
        0
176
     1
 40
0.6
176
     1
 40
30.0
176
     1
 62
     7
420
 16777215
176
     1
 90
        0
176
     1
 90
        4
176
     1
 62
     7
176
     1
 62
   257
176
     1
 90
        1
176
     1
 90
        1
176
     1
 40
1.0
176
     1
 90
        8
176
     1
 62
     7
176
     1
 40
1.0
176
     1
 90
        1
176
     1
 90
        6
176
     1
 90
        2
176
     1
 62
     7
176
     1
 90
        5
176
     1
 90
        0
176
     1
 90
        0
176
     1
290
     0
176
     1
 90
        1
176
     1
 40
0.0
176
     1
 90
        0
176
     1
290
     0
176
     1
290
     1
176
     1
290
     1
176
     1
290
     0
176
     1
290
     0
176
     1
290
     0
176
     1
290
     0
176
     1
290
     0
176
     1
290
     0
176
     1
 90
       50
176
     1
 40
0.0
176
     1
 40
1.0
176
     1
 90
        0
176
     1
 62
    18
420
        0
176
     1
 90
       50
176
     1
 90
        3
176
     1
 62
     5
420
      255
176
     1
290
     0
176
     1
 90
       50
176
     1
 90
       50
176
     1
 90
       50
176
     1
290
     0
176
     1
 90
       50
176
     1
 62
   256
176
     0
 40
1.0
176
     0
 90
        2
176
     1
  1
strokes_ogs.tif
176
     1
290
     0
176
     1
 40
1.0
176
     1
 40
1.0
176
     1
  0
VISUALSTYLE
  5
36
102
{ACAD_REACTORS
330
2A
102
}
330
2A
100
AcDbVisualStyle
  2
Brighten
 70
    12
177
     3
291
     1
 70
    58
 90
        2
176
     1
 90
        2
176
     1
 90
        0
176
     1
 90
        0
176
     1
 40
0.6
176
     1
 40
30.0
176
     1
 62
     7
420
 16777215
176
     1
 90
        1
176
     1
 90
        4
176
     1
 62
     7
176
     1
 62
   257
176
     1
 90
        1
176
     1
 90
        1
176
     1
 40
1.0
176
     1
 90
        8
176
     1
 62
     7
176
     1
 40
1.0
176
     1
 90
        1
176
     1
 90
        6
176
     1
 90
        2
176
     1
 62
     7
176
     1
 90
        5
176
     1
 90
        0
176
     1
 90
        0
176
     1
290
     0
176
     1
 90
        1
176
     1
 40
50.0
176
     1
 90
        0
176
     1
290
     0
176
     1
290
     1
176
     1
290
     1
176
     1
290
     0
176
     1
290
     0
176
     1
290
     0
176
     1
290
     0
176
     1
290
     0
176
     1
290
     0
176
     1
 90
       50
176
     1
 40
0.0
176
     1
 40
1.0
176
     1
 90
        0
176
     1
 62
    18
420
        0
176
     1
 90
       50
176
     1
 90
        3
176
     1
 62
     5
420
      255
176
     1
290
     0
176
     1
 90
       50
176
     1
 90
       50
176
     1
 90
       50
176
     1
290
     0
176
     1
 90
       50
176
     1
 62
   256
176
     0
 40
1.0
176
     0
 90
        2
176
     1
  1
strokes_ogs.tif
176
     1
290
     0
176
     1
 40
1.0
176
     1
 40
1.0
176
     1
  0
VISUALSTYLE
  5
3A
102
{ACAD_REACTORS
330
2A
102
}
330
2A
100
AcDbVisualStyle
  2
ColorChange
 70
    16
177
     3
291
     1
 70
    58
 90
        2
176
     1
 90
        2
176
     1
 90
        3
176
     1
 90
        0
176
     1
 40
0.6
176
     1
 40
30.0
176
     1
 62
     8
420
  8421504
176
     1
 90
        1
176
     1
 90
        4
176
     1
 62
     7
176
     1
 62
   257
176
     1
 90
        1
176
     1
 90
        1
176
     1
 40
1.0
176
     1
 90
        8
176
     1
 62
     8
420
  8421504
176
     1
 40
1.0
176
     1
 90
        1
176
     1
 90
        6
176
     1
 90
        2
176
     1
 62
     7
176
     1
 90
        5
176
     1
 90
        0
176
     1
 90
        0
176
     1
290
     0
176
     1
 90
        1
176
     1
 40
0.0
176
     1
 90
        0
176
     1
290
     0
176
     1
290
     1
176
     1
290
     1
176
     1
290
     0
176
     1
290
     0
176
     1
290
     0
176
     1
290
     0
176
     1
290
     0
176
     1
290
     0
176
     1
 90
       50
176
     1
 40
0.0
176
     1
 40
1.0
176
     1
 90
        0
176
     1
 62
    18
420
        0
176
     1
 90
       50
176
     1
 90
        3
176
     1
 62
     5
420
      255
176
     1
290
     0
176
     1
 90
       50
176
     1
 90
       50
176
     1
 90
       50
176
     1
290
     0
176
     1
 90
       50
176
     1
 62
   256
176
     0
 40
1.0
176
     0
 90
        2
176
     1
  1
strokes_ogs.tif
176
     1
290
     0
176
     1
 40
1.0
176
     1
 40
1.0
176
     1
  0
VISUALSTYLE
  5
34
102
{ACAD_REACTORS
330
2A
102
}
330
2A
100
AcDbVisualStyle
  2
Conceptual
 70
     9
177
     3
291
     0
 70
    58
 90
        3
176
     1
 90
        2
176
     1
 90
        0
176
     1
 90
        0
176
     1
 40
0.6
176
     1
 40
30.0
176
     1
 62
     7
420
 16777215
176
     1
 90
        2
176
     1
 90
        2
176
     1
 62
     7
176
     1
 62
   257
176
     1
 90
        1
176
     1
 90
        1
176
     1
 40
179.0
176
     1
 90
        8
176
     1
 62
     7
176
     1
 40
1.0
176
     1
 90
        1
176
     1
 90
        6
176
     1
 90
        2
176
     1
 62
     7
176
     1
 90
        3
176
     1
 90
        0
176
     1
 90
        0
176
     1
290
     0
176
     1
 90
        1
176
     1
 40
0.0
176
     1
 90
        0
176
     1
290
     0
176
     1
290
     1
176
     1
290
     1
176
     1
290
     0
176
     1
290
     0
176
     1
290
     0
176
     1
290
     0
176
     1
290
     0
176
     1
290
     0
176
     1
 90
       50
176
     1
 40
0.0
176
     1
 40
1.0
176
     1
 90
        0
176
     1
 62
    18
420
        0
176
     1
 90
       50
176
     1
 90
        3
176
     1
 62
     5
420
      255
176
     1
290
     0
176
     1
 90
       50
176
     1
 90
       50
176
     1
 90
       50
176
     1
290
     0
176
     1
 90
       50
176
     1
 62
   256
176
     0
 40
1.0
176
     0
 90
        2
176
     1
  1
strokes_ogs.tif
176
     1
290
     0
176
     1
 40
1.0
176
     1
 40
1.0
176
     1
  0
VISUALSTYLE
  5
35
102
{ACAD_REACTORS
330
2A
102
}
330
2A
100
AcDbVisualStyle
  2
Dim
 70
    11
177
     3
291
     1
 70
    58
 90
        2
176
     1
 90
        2
176
     1
 90
        0
176
     1
 90
        0
176
     1
 40
0.6
176
     1
 40
30.0
176
     1
 62
     7
420
 16777215
176
     1
 90
        1
176
     1
 90
        4
176
     1
 62
     7
176
     1
 62
   257
176
     1
 90
        1
176
     1
 90
        1
176
     1
 40
1.0
176
     1
 90
        8
176
     1
 62
     7
176
     1
 40
1.0
176
     1
 90
        1
176
     1
 90
        6
176
     1
 90
        2
176
     1
 62
     7
176
     1
 90
        5
176
     1
 90
        0
176
     1
 90
        0
176
     1
290
     0
176
     1
 90
        1
176
     1
 40
-50.0
176
     1
 90
        0
176
     1
290
     0
176
     1
290
     1
176
     1
290
     1
176
     1
290
     0
176
     1
290
     0
176
     1
290
     0
176
     1
290
     0
176
     1
290
     0
176
     1
290
     0
176
     1
 90
       50
176
     1
 40
0.0
176
     1
 40
1.0
176
     1
 90
        0
176
     1
 62
    18
420
        0
176
     1
 90
       50
176
     1
 90
        3
176
     1
 62
     5
420
      255
176
     1
290
     0
176
     1
 90
       50
176
     1
 90
       50
176
     1
 90
       50
176
     1
290
     0
176
     1
 90
       50
176
     1
 62
   256
176
     0
 40
1.0
176
     0
 90
        2
176
     1
  1
strokes_ogs.tif
176
     1
290
     0
176
     1
 40
1.0
176
     1
 40
1.0
176
     1
  0
VISUALSTYLE
  5
3D
102
{ACAD_REACTORS
330
2A
102
}
330
2A
100
AcDbVisualStyle
  2
EdgeColorOff
 70
    22
177
     3
291
     1
 70
    58
 90
        2
176
     0
 90
        2
176
     0
 90
        0
176
     0
 90
        0
176
     0
 40
0.6
176
     0
 40
30.0
176
     0
 62
     7
420
 16777215
176
     0
 90
        1
176
     0
 90
        4
176
     0
 62
     7
176
     0
 62
   257
176
     0
 90
        1
176
     0
 90
        1
176
     0
 40
1.0
176
     0
 90
        8
176
     2
 62
     7
176
     0
 40
1.0
176
     0
 90
        1
176
     0
 90
        6
176
     0
 90
        2
176
     0
 62
     7
176
     0
 90
        5
176
     0
 90
        0
176
     0
 90
        0
176
     0
290
     0
176
     0
 90
        1
176
     0
 40
0.0
176
     0
 90
        0
176
     0
290
     0
176
     0
290
     1
176
     0
290
     1
176
     0
290
     0
176
     0
290
     0
176
     0
290
     0
176
     0
290
     0
176
     0
290
     0
176
     0
290
     0
176
     0
 90
       50
176
     0
 40
0.0
176
     0
 40
1.0
176
     0
 90
        0
176
     0
 62
    18
420
        0
176
     0
 90
       50
176
     0
 90
        3
176
     0
 62
     5
420
      255
176
     0
290
     0
176
     0
 90
       50
176
     0
 90
       50
176
     0
 90
       50
176
     0
290
     0
176
     0
 90
       50
176
     0
 62
   256
176
     0
 40
1.0
176
     0
 90
        2
176
     0
  1
strokes_ogs.tif
176
     0
290
     0
176
     0
 40
1.0
176
     0
 40
1.0
176
     0
  0
VISUALSTYLE
  5
39
102
{ACAD_REACTORS
330
2A
102
}
330
2A
100
AcDbVisualStyle
  2
Facepattern
 70
    15
177
     3
291
     1
 70
    58
 90
        2
176
     1
 90
        2
176
     1
 90
        0
176
     1
 90
        0
176
     1
 40
0.6
176
     1
 40
30.0
176
     1
 62
     7
420
 16777215
176
     1
 90
        1
176
     1
 90
        4
176
     1
 62
     7
176
     1
 62
   257
176
     1
 90
        1
176
     1
 90
        1
176
     1
 40
1.0
176
     1
 90
        8
176
     1
 62
     7
176
     1
 40
1.0
176
     1
 90
        1
176
     1
 90
        6
176
     1
 90
        2
176
     1
 62
     7
176
     1
 90
        5
176
     1
 90
        0
176
     1
 90
        0
176
     1
290
     0
176
     1
 90
        1
176
     1
 40
0.0
176
     1
 90
        0
176
     1
290
     0
176
     1
290
     1
176
     1
290
     1
176
     1
290
     0
176
     1
290
     0
176
     1
290
     0
176
     1
290
     0
176
     1
290
     0
176
     1
290
     0
176
     1
 90
       50
176
     1
 40
0.0
176
     1
 40
1.0
176
     1
 90
        0
176
     1
 62
    18
420
        0
176
     1
 90
       50
176
     1
 90
        3
176
     1
 62
     5
420
      255
176
     1
290
     0
176
     1
 90
       50
176
     1
 90
       50
176
     1
 90
       50
176
     1
290
     0
176
     1
 90
       50
176
     1
 62
   256
176
     0
 40
1.0
176
     0
 90
        2
176
     1
  1
strokes_ogs.tif
176
     1
290
     0
176
     1
 40
1.0
176
     1
 40
1.0
176
     1
  0
VISUALSTYLE
  5
2B
102
{ACAD_REACTORS
330
2A
102
}
330
2A
100
AcDbVisualStyle
  2
Flat
 70
     0
177
     3
291
     1
 70
    58
 90
        2
176
     1
 90
        1
176
     1
 90
        1
176
     1
 90
        2
176
     1
 40
0.6
176
     1
 40
30.0
176
     1
 62
     7
420
 16777215
176
     1
 90
        0
176
     1
 90
        0
176
     1
 62
     7
176
     1
 62
   257
176
     1
 90
        1
176
     1
 90
        1
176
     1
 40
1.0
176
     1
 90
        8
176
     1
 62
     7
176
     1
 40
1.0
176
     1
 90
        1
176
     1
 90
        6
176
     1
 90
        2
176
     1
 62
     7
176
     1
 90
        5
176
     1
 90
        0
176
     1
 90
        0
176
     1
290
     0
176
     1
 90
       13
176
     1
 40
0.0
176
     1
 90
        0
176
     1
290
     0
176
     1
290
     1
176
     1
290
     1
176
     1
290
     0
176
     1
290
     0
176
     1
290
     0
176
     1
290
     0
176
     1
290
     0
176
     1
290
     0
176
     1
 90
       50
176
     1
 40
0.0
176
     1
 40
1.0
176
     1
 90
        0
176
     1
 62
    18
420
        0
176
     1
 90
       50
176
     1
 90
        3
176
     1
 62
     5
420
      255
176
     1
290
     0
176
     1
 90
       50
176
     1
 90
       50
176
     1
 90
       50
176
     1
290
     0
176
     1
 90
       50
176
     1
 62
   256
176
     0
 40
1.0
176
     0
 90
        2
176
     1
  1
strokes_ogs.tif
176
     1
290
     0
176
     1
 40
1.0
176
     1
 40
1.0
176
     1
  0
VISUALSTYLE
  5
2C
102
{ACAD_REACTORS
330
2A
102
}
330
2A
100
AcDbVisualStyle
  2
FlatWithEdges
 70
     1
177
     3
291
     1
 70
    58
 90
        2
176
     1
 90
        1
176
     1
 90
        1
176
     1
 90
        2
176
     1
 40
0.6
176
     1
 40
30.0
176
     1
 62
     7
420
 16777215
176
     1
 90
        1
176
     1
 90
        0
176
     1
 62
     7
176
     1
 62
   257
176
     1
 90
        1
176
     1
 90
        1
176
     1
 40
1.0
176
     1
 90
        0
176
     1
 62
   257
176
     1
 40
1.0
176
     1
 90
        1
176
     1
 90
        6
176
     1
 90
        2
176
     1
 62
     7
176
     1
 90
        5
176
     1
 90
        0
176
     1
 90
        0
176
     1
290
     0
176
     1
 90
       13
176
     1
 40
0.0
176
     1
 90
        0
176
     1
290
     0
176
     1
290
     1
176
     1
290
     1
176
     1
290
     0
176
     1
290
     0
176
     1
290
     0
176
     1
290
     0
176
     1
290
     0
176
     1
290
     0
176
     1
 90
       50
176
     1
 40
0.0
176
     1
 40
1.0
176
     1
 90
        0
176
     1
 62
    18
420
        0
176
     1
 90
       50
176
     1
 90
        3
176
     1
 62
     5
420
      255
176
     1
290
     0
176
     1
 90
       50
176
     1
 90
       50
176
     1
 90
       50
176
     1
290
     0
176
     1
 90
       50
176
     1
 62
   256
176
     0
 40
1.0
176
     0
 90
        2
176
     1
  1
strokes_ogs.tif
176
     1
290
     0
176
     1
 40
1.0
176
     1
 40
1.0
176
     1
  0
VISUALSTYLE
  5
2D
102
{ACAD_REACTORS
330
2A
102
}
330
2A
100
AcDbVisualStyle
  2
Gouraud
 70
     2
177
     3
291
     1
 70
    58
 90
        2
176
     1
 90
        2
176
     1
 90
        1
176
     1
 90
        2
176
     1
 40
0.6
176
     1
 40
30.0
176
     1
 62
     7
420
 16777215
176
     1
 90
        0
176
     1
 90
        0
176
     1
 62
     7
176
     1
 62
   257
176
     1
 90
        1
176
     1
 90
        1
176
     1
 40
1.0
176
     1
 90
        0
176
     1
 62
     7
176
     1
 40
1.0
176
     1
 90
        1
176
     1
 90
        6
176
     1
 90
        2
176
     1
 62
     7
176
     1
 90
        5
176
     1
 90
        0
176
     1
 90
        0
176
     1
290
     0
176
     1
 90
       13
176
     1
 40
0.0
176
     1
 90
        0
176
     1
290
     0
176
     1
290
     1
176
     1
290
     1
176
     1
290
     0
176
     1
290
     0
176
     1
290
     0
176
     1
290
     0
176
     1
290
     0
176
     1
290
     0
176
     1
 90
       50
176
     1
 40
0.0
176
     1
 40
1.0
176
     1
 90
        0
176
     1
 62
    18
420
        0
176
     1
 90
       50
176
     1
 90
        3
176
     1
 62
     5
420
      255
176
     1
290
     0
176
     1
 90
       50
176
     1
 90
       50
176
     1
 90
       50
176
     1
290
     0
176
     1
 90
       50
176
     1
 62
   256
176
     0
 40
1.0
176
     0
 90
        2
176
     1
  1
strokes_ogs.tif
176
     1
290
     0
176
     1
 40
1.0
176
     1
 40
1.0
176
     1
  0
VISUALSTYLE
  5
2E
102
{ACAD_REACTORS
330
2A
102
}
330
2A
100
AcDbVisualStyle
  2
GouraudWithEdges
 70
     3
177
     3
291
     1
 70
    58
 90
        2
176
     1
 90
        2
176
     1
 90
        1
176
     1
 90
        2
176
     1
 40
0.6
176
     1
 40
30.0
176
     1
 62
     7
420
 16777215
176
     1
 90
        1
176
     1
 90
        0
176
     1
 62
     7
176
     1
 62
   257
176
     1
 90
        1
176
     1
 90
        1
176
     1
 40
1.0
176
     1
 90
        0
176
     1
 62
   257
176
     1
 40
1.0
176
     1
 90
        1
176
     1
 90
        6
176
     1
 90
        2
176
     1
 62
     7
176
     1
 90
        5
176
     1
 90
        0
176
     1
 90
        0
176
     1
290
     0
176
     1
 90
       13
176
     1
 40
0.0
176
     1
 90
        0
176
     1
290
     0
176
     1
290
     1
176
     1
290
     1
176
     1
290
     0
176
     1
290
     0
176
     1
290
     0
176
     1
290
     0
176
     1
290
     0
176
     1
290
     0
176
     1
 90
       50
176
     1
 40
0.0
176
     1
 40
1.0
176
     1
 90
        0
176
     1
 62
    18
420
        0
176
     1
 90
       50
176
     1
 90
        3
176
     1
 62
     5
420
      255
176
     1
290
     0
176
     1
 90
       50
176
     1
 90
       50
176
     1
 90
       50
176
     1
290
     0
176
     1
 90
       50
176
     1
 62
   256
176
     0
 40
1.0
176
     0
 90
        2
176
     1
  1
strokes_ogs.tif
176
     1
290
     0
176
     1
 40
1.0
176
     1
 40
1.0
176
     1
  0
VISUALSTYLE
  5
31
102
{ACAD_REACTORS
330
2A
102
}
330
2A
100
AcDbVisualStyle
  2
Hidden
 70
     6
177
     3
291
     0
 70
    58
 90
        1
176
     1
 90
        2
176
     1
 90
        2
176
     1
 90
        0
176
     1
 40
0.6
176
     1
 40
30.0
176
     1
 62
     7
420
 16777215
176
     1
 90
        2
176
     1
 90
        2
176
     1
 62
     7
176
     1
 62
   257
176
     1
 90
        2
176
     1
 90
        1
176
     1
 40
40.0
176
     1
 90
        0
176
     1
 62
   257
176
     1
 40
1.0
176
     1
 90
        1
176
     1
 90
        6
176
     1
 90
        2
176
     1
 62
     7
176
     1
 90
        3
176
     1
 90
        0
176
     1
 90
        0
176
     1
290
     0
176
     1
 90
        1
176
     1
 40
0.0
176
     1
 90
        0
176
     1
290
     0
176
     1
290
     1
176
     1
290
     1
176
     1
290
     0
176
     1
290
     0
176
     1
290
     0
176
     1
290
     0
176
     1
290
     0
176
     1
290
     0
176
     1
 90
       50
176
     1
 40
0.0
176
     1
 40
1.0
176
     1
 90
        0
176
     1
 62
    18
420
        0
176
     1
 90
       50
176
     1
 90
        3
176
     1
 62
     5
420
      255
176
     1
290
     0
176
     1
 90
       50
176
     1
 90
       50
176
     1
 90
       50
176
     1
290
     0
176
     1
 90
       50
176
     1
 62
   256
176
     0
 40
1.0
176
     0
 90
        2
176
     1
  1
strokes_ogs.tif
176
     1
290
     0
176
     1
 40
1.0
176
     1
 40
1.0
176
     1
  0
VISUALSTYLE
  5
3B
102
{ACAD_REACTORS
330
2A
102
}
330
2A
100
AcDbVisualStyle
  2
JitterOff
 70
    20
177
     3
291
     1
 70
    58
 90
        2
176
     0
 90
        2
176
     0
 90
        0
176
     0
 90
        0
176
     0
 40
0.6
176
     0
 40
30.0
176
     0
 62
     7
420
 16777215
176
     0
 90
        1
176
     0
 90
        4
176
     0
 62
     7
176
     0
 62
   257
176
     0
 90
        1
176
     0
 90
        1
176
     0
 40
1.0
176
     0
 90
       10
176
     2
 62
     7
176
     0
 40
1.0
176
     0
 90
        1
176
     0
 90
        6
176
     0
 90
        2
176
     0
 62
     7
176
     0
 90
        5
176
     0
 90
        0
176
     0
 90
        0
176
     0
290
     0
176
     0
 90
        1
176
     0
 40
0.0
176
     0
 90
        0
176
     0
290
     0
176
     0
290
     1
176
     0
290
     1
176
     0
290
     0
176
     0
290
     0
176
     0
290
     0
176
     0
290
     0
176
     0
290
     0
176
     0
290
     0
176
     0
 90
       50
176
     0
 40
0.0
176
     0
 40
1.0
176
     0
 90
        0
176
     0
 62
    18
420
        0
176
     0
 90
       50
176
     0
 90
        3
176
     0
 62
     5
420
      255
176
     0
290
     0
176
     0
 90
       50
176
     0
 90
       50
176
     0
 90
       50
176
     0
290
     0
176
     0
 90
       50
176
     0
 62
   256
176
     0
 40
1.0
176
     0
 90
        2
176
     0
  1
strokes_ogs.tif
176
     0
290
     0
176
     0
 40
1.0
176
     0
 40
1.0
176
     0
  0
VISUALSTYLE
  5
38
102
{ACAD_REACTORS
330
2A
102
}
330
2A
100
AcDbVisualStyle
  2
Linepattern
 70
    14
177
     3
291
     1
 70
    58
 90
        2
176
     1
 90
        2
176
     1
 90
        0
176
     1
 90
        0
176
     1
 40
0.6
176
     1
 40
30.0
176
     1
 62
     7
420
 16777215
176
     1
 90
        1
176
     1
 90
        4
176
     1
 62
     7
176
     1
 62
   257
176
     1
 90
        7
176
     1
 90
        7
176
     1
 40
1.0
176
     1
 90
        8
176
     1
 62
     7
176
     1
 40
1.0
176
     1
 90
        1
176
     1
 90
        6
176
     1
 90
        2
176
     1
 62
     7
176
     1
 90
        5
176
     1
 90
        0
176
     1
 90
        0
176
     1
290
     0
176
     1
 90
        1
176
     1
 40
0.0
176
     1
 90
        0
176
     1
290
     0
176
     1
290
     1
176
     1
290
     1
176
     1
290
     0
176
     1
290
     0
176
     1
290
     0
176
     1
290
     0
176
     1
290
     0
176
     1
290
     0
176
     1
 90
       50
176
     1
 40
0.0
176
     1
 40
1.0
176
     1
 90
        0
176
     1
 62
    18
420
        0
176
     1
 90
       50
176
     1
 90
        3
176
     1
 62
     5
420
      255
176
     1
290
     0
176
     1
 90
       50
176
     1
 90
       50
176
     1
 90
       50
176
     1
290
     0
176
     1
 90
       50
176
     1
 62
   256
176
     0
 40
1.0
176
     0
 90
        2
176
     1
  1
strokes_ogs.tif
176
     1
290
     0
176
     1
 40
1.0
176
     1
 40
1.0
176
     1
  0
VISUALSTYLE
  5
3C
102
{ACAD_REACTORS
330
2A
102
}
330
2A
100
AcDbVisualStyle
  2
OverhangOff
 70
    21
177
     3
291
     1
 70
    58
 90
        2
176
     0
 90
        2
176
     0
 90
        0
176
     0
 90
        0
176
     0
 40
0.6
176
     0
 40
30.0
176
     0
 62
     7
420
 16777215
176
     0
 90
        1
176
     0
 90
        4
176
     0
 62
     7
176
     0
 62
   257
176
     0
 90
        1
176
     0
 90
        1
176
     0
 40
1.0
176
     0
 90
        9
176
     2
 62
     7
176
     0
 40
1.0
176
     0
 90
        1
176
     0
 90
        6
176
     0
 90
        2
176
     0
 62
     7
176
     0
 90
        5
176
     0
 90
        0
176
     0
 90
        0
176
     0
290
     0
176
     0
 90
        1
176
     0
 40
0.0
176
     0
 90
        0
176
     0
290
     0
176
     0
290
     1
176
     0
290
     1
176
     0
290
     0
176
     0
290
     0
176
     0
290
     0
176
     0
290
     0
176
     0
290
     0
176
     0
290
     0
176
     0
 90
       50
176
     0
 40
0.0
176
     0
 40
1.0
176
     0
 90
        0
176
     0
 62
    18
420
        0
176
     0
 90
       50
176
     0
 90
        3
176
     0
 62
     5
420
      255
176
     0
290
     0
176
     0
 90
       50
176
     0
 90
       50
176
     0
 90
       50
176
     0
290
     0
176
     0
 90
       50
176
     0
 62
   256
176
     0
 40
1.0
176
     0
 90
        2
176
     0
  1
strokes_ogs.tif
176
     0
290
     0
176
     0
 40
1.0
176
     0
 40
1.0
176
     0
  0
VISUALSTYLE
  5
33
102
{ACAD_REACTORS
330
2A
102
}
330
2A
100
AcDbVisualStyle
  2
Realistic
 70
     8
177
     3
291
     0
 70
    58
 90
        2
176
     1
 90
        3
176
     1
 90
        0
176
     1
 90
        2
176
     1
 40
0.6
176
     1
 40
30.0
176
     1
 62
     7
420
 16777215
176
     1
 90
        0
176
     1
 90
        0
176
     1
 62
     7
176
     1
 62
   257
176
     1
 90
        1
176
     1
 90
        1
176
     1
 40
1.0
176
     1
 90
        8
176
     1
 62
   257
176
     1
 40
1.0
176
     1
 90
        1
176
     1
 90
        6
176
     1
 90
        2
176
     1
 62
     7
176
     1
 90
        3
176
     1
 90
        0
176
     1
 90
        0
176
     1
290
     0
176
     1
 90
       13
176
     1
 40
0.0
176
     1
 90
        0
176
     1
290
     0
176
     1
290
     1
176
     1
290
     1
176
     1
290
     0
176
     1
290
     0
176
     1
290
     0
176
     1
290
     0
176
     1
290
     0
176
     1
290
     0
176
     1
 90
       50
176
     1
 40
0.0
176
     1
 40
1.0
176
     1
 90
        0
176
     1
 62
    18
420
        0
176
     1
 90
       50
176
     1
 90
        3
176
     1
 62
     5
420
      255
176
     1
290
     0
176
     1
 90
       50
176
     1
 90
       50
176
     1
 90
       50
176
     1
290
     0
176
     1
 90
       50
176
     1
 62
   256
176
     0
 40
1.0
176
     0
 90
        2
176
     1
  1
strokes_ogs.tif
176
     1
290
     0
176
     1
 40
1.0
176
     1
 40
1.0
176
     1
  0
VISUALSTYLE
  5
42
102
{ACAD_REACTORS
330
2A
102
}
330
2A
100
AcDbVisualStyle
  2
Shaded
 70
    27
177
     3
291
     0
 70
    58
 90
        2
176
     1
 90
        2
176
     1
 90
        1
176
     1
 90
        2
176
     1
 40
0.6
176
     1
 40
30.0
176
     1
 62
     7
420
 16777215
176
     1
 90
        0
176
     1
 90
        4
176
     1
 62
     7
176
     1
 62
   257
176
     1
 90
        1
176
     1
 90
        1
176
     1
 40
1.0
176
     1
 90
        8
176
     1
 62
   257
176
     1
 40
1.0
176
     1
 90
        1
176
     1
 90
        6
176
     1
 90
        2
176
     1
 62
     8
420
  7895160
176
     1
 90
        3
176
     1
 90
        0
176
     1
 90
        0
176
     1
290
     0
176
     1
 90
        5
176
     1
 40
0.0
176
     1
 90
        0
176
     1
290
     0
176
     1
290
     1
176
     1
290
     1
176
     1
290
     0
176
     1
290
     0
176
     1
290
     0
176
     1
290
     0
176
     1
290
     0
176
     1
290
     0
176
     1
 90
       50
176
     1
 40
0.0
176
     1
 40
1.0
176
     1
 90
        0
176
     1
 62
    18
420
        0
176
     1
 90
       50
176
     1
 90
        3
176
     1
 62
     5
420
      255
176
     1
290
     0
176
     1
 90
       50
176
     1
 90
       50
176
     1
 90
       50
176
     1
290
     0
176
     1
 90
       50
176
     1
 62
   256
176
     0
 40
1.0
176
     0
 90
        2
176
     1
  1
strokes_ogs.tif
176
     1
290
     0
176
     1
 40
1.0
176
     1
 40
1.0
176
     1
  0
VISUALSTYLE
  5
41
102
{ACAD_REACTORS
330
2A
102
}
330
2A
100
AcDbVisualStyle
  2
Shaded with edges
 70
    26
177
     3
291
     0
 70
    58
 90
        2
176
     1
 90
        2
176
     1
 90
        1
176
     1
 90
        2
176
     1
 40
0.6
176
     1
 40
30.0
176
     1
 62
     7
420
 16777215
176
     1
 90
        1
176
     1
 90
       10
176
     1
 62
     7
176
     1
 62
   257
176
     1
 90
        2
176
     1
 90
        1
176
     1
 40
1.0
176
     1
 90
        8
176
     1
 62
   257
176
     1
 40
1.0
176
     1
 90
        1
176
     1
 90
        6
176
     1
 90
        2
176
     1
 62
     7
176
     1
 90
        3
176
     1
 90
        0
176
     1
 90
        0
176
     1
290
     0
176
     1
 90
        5
176
     1
 40
0.0
176
     1
 90
        0
176
     1
290
     0
176
     1
290
     1
176
     1
290
     1
176
     1
290
     0
176
     1
290
     0
176
     1
290
     0
176
     1
290
     0
176
     1
290
     0
176
     1
290
     0
176
     1
 90
       50
176
     1
 40
0.0
176
     1
 40
1.0
176
     1
 90
        0
176
     1
 62
    18
420
        0
176
     1
 90
       50
176
     1
 90
        3
176
     1
 62
     5
420
      255
176
     1
290
     0
176
     1
 90
       50
176
     1
 90
       50
176
     1
 90
       50
176
     1
290
     0
176
     1
 90
       50
176
     1
 62
   256
176
     0
 40
1.0
176
     0
 90
        2
176
     1
  1
strokes_ogs.tif
176
     1
290
     0
176
     1
 40
1.0
176
     1
 40
1.0
176
     1
  0
VISUALSTYLE
  5
3E
102
{ACAD_REACTORS
330
2A
102
}
330
2A
100
AcDbVisualStyle
  2
Shades of Gray
 70
    23
177
     3
291
     0
 70
    58
 90
        2
176
     1
 90
        2
176
     1
 90
        3
176
     1
 90
        0
176
     1
 40
0.6
176
     1
 40
30.0
176
     1
 62
     7
420
 16777215
176
     1
 90
        2
176
     1
 90
        2
176
     1
 62
     7
176
     1
 62
     7
176
     1
 90
        1
176
     1
 90
        1
176
     1
 40
40.0
176
     1
 90
        8
176
     1
 62
     7
176
     1
 40
1.0
176
     1
 90
        1
176
     1
 90
        6
176
     1
 90
        2
176
     1
 62
     7
176
     1
 90
        3
176
     1
 90
        0
176
     1
 90
        0
176
     1
290
     0
176
     1
 90
        1
176
     1
 40
0.0
176
     1
 90
        0
176
     1
290
     0
176
     1
290
     1
176
     1
290
     1
176
     1
290
     0
176
     1
290
     0
176
     1
290
     0
176
     1
290
     0
176
     1
290
     0
176
     1
290
     0
176
     1
 90
       50
176
     1
 40
0.0
176
     1
 40
1.0
176
     1
 90
        0
176
     1
 62
    18
420
        0
176
     1
 90
       50
176
     1
 90
        3
176
     1
 62
     5
420
      255
176
     1
290
     0
176
     1
 90
       50
176
     1
 90
       50
176
     1
 90
       50
176
     1
290
     0
176
     1
 90
       50
176
     1
 62
   256
176
     0
 40
1.0
176
     0
 90
        2
176
     1
  1
strokes_ogs.tif
176
     1
290
     0
176
     1
 40
1.0
176
     1
 40
1.0
176
     1
  0
VISUALSTYLE
  5
3F
102
{ACAD_REACTORS
330
2A
102
}
330
2A
100
AcDbVisualStyle
  2
Sketchy
 70
    24
177
     3
291
     0
 70
    58
 90
        1
176
     1
 90
        2
176
     1
 90
        2
176
     1
 90
        0
176
     1
 40
0.6
176
     1
 40
30.0
176
     1
 62
     7
420
 16777215
176
     1
 90
        2
176
     1
 90
        2
176
     1
 62
     7
176
     1
 62
     7
176
     1
 90
        1
176
     1
 90
        1
176
     1
 40
40.0
176
     1
 90
       11
176
     1
 62
     7
176
     1
 40
1.0
176
     1
 90
        1
176
     1
 90
        6
176
     1
 90
        2
176
     1
 62
     7
176
     1
 90
        6
176
     1
 90
        0
176
     1
 90
        0
176
     1
290
     0
176
     1
 90
        1
176
     1
 40
0.0
176
     1
 90
        0
176
     1
290
     0
176
     1
290
     1
176
     1
290
     1
176
     1
290
     0
176
     1
290
     0
176
     1
290
     0
176
     1
290
     0
176
     1
290
     0
176
     1
290
     0
176
     1
 90
       50
176
     1
 40
0.0
176
     1
 40
1.0
176
     1
 90
        0
176
     1
 62
    18
420
        0
176
     1
 90
       50
176
     1
 90
        3
176
     1
 62
     5
420
      255
176
     1
290
     0
176
     1
 90
       50
176
     1
 90
       50
176
     1
 90
       50
176
     1
290
     0
176
     1
 90
       50
176
     1
 62
   256
176
     0
 40
1.0
176
     0
 90
        2
176
     1
  1
strokes_ogs.tif
176
     1
290
     0
176
     1
 40
1.0
176
     1
 40
1.0
176
     1
  0
VISUALSTYLE
  5
37
102
{ACAD_REACTORS
330
2A
102
}
330
2A
100
AcDbVisualStyle
  2
Thicken
 70
    13
177
     3
291
     1
 70
    58
 90
        2
176
     1
 90
        2
176
     1
 90
        0
176
     1
 90
        0
176
     1
 40
0.6
176
     1
 40
30.0
176
     1
 62
     7
420
 16777215
176
     1
 90
        1
176
     1
 90
        4
176
     1
 62
     7
176
     1
 62
   257
176
     1
 90
        1
176
     1
 90
        1
176
     1
 40
1.0
176
     1
 90
       12
176
     1
 62
     7
176
     1
 40
1.0
176
     1
 90
        1
176
     1
 90
        6
176
     1
 90
        2
176
     1
 62
     7
176
     1
 90
        5
176
     1
 90
        0
176
     1
 90
        0
176
     1
290
     0
176
     1
 90
        1
176
     1
 40
0.0
176
     1
 90
        0
176
     1
290
     0
176
     1
290
     1
176
     1
290
     1
176
     1
290
     0
176
     1
290
     0
176
     1
290
     0
176
     1
290
     0
176
     1
290
     0
176
     1
290
     0
176
     1
 90
       50
176
     1
 40
0.0
176
     1
 40
1.0
176
     1
 90
        0
176
     1
 62
    18
420
        0
176
     1
 90
       50
176
     1
 90
        3
176
     1
 62
     5
420
      255
176
     1
290
     0
176
     1
 90
       50
176
     1
 90
       50
176
     1
 90
       50
176
     1
290
     0
176
     1
 90
       50
176
     1
 62
   256
176
     0
 40
1.0
176
     0
 90
        2
176
     1
  1
strokes_ogs.tif
176
     1
290
     0
176
     1
 40
1.0
176
     1
 40
1.0
176
     1
  0
VISUALSTYLE
  5
30
102
{ACAD_REACTORS
330
2A
102
}
330
2A
100
AcDbVisualStyle
  2
Wireframe
 70
     5
177
     3
291
     0
 70
    58
 90
        0
176
     1
 90
        2
176
     1
 90
        0
176
     1
 90
        0
176
     1
 40
0.6
176
     1
 40
30.0
176
     1
 62
     7
420
 16777215
176
     1
 90
        1
176
     1
 90
        4
176
     1
 62
     7
176
     1
 62
   257
176
     1
 90
        1
176
     1
 90
        1
176
     1
 40
1.0
176
     1
 90
        0
176
     1
 62
   257
176
     1
 40
1.0
176
     1
 90
        1
176
     1
 90
        6
176
     1
 90
        2
176
     1
 62
     7
176
     1
 90
        3
176
     1
 90
        0
176
     1
 90
        0
176
     1
290
     0
176
     1
 90
        1
176
     1
 40
0.0
176
     1
 90
        0
176
     1
290
     0
176
     1
290
     1
176
     1
290
     1
176
     1
290
     0
176
     1
290
     0
176
     1
290
     0
176
     1
290
     0
176
     1
290
     0
176
     1
290
     0
176
     1
 90
       50
176
     1
 40
0.0
176
     1
 40
1.0
176
     1
 90
        0
176
     1
 62
    18
420
        0
176
     1
 90
       50
176
     1
 90
        3
176
     1
 62
     5
420
      255
176
     1
290
     0
176
     1
 90
       50
176
     1
 90
       50
176
     1
 90
       50
176
     1
290
     0
176
     1
 90
       50
176
     1
 62
   256
176
     0
 40
1.0
176
     0
 90
        2
176
     1
  1
strokes_ogs.tif
176
     1
290
     0
176
     1
 40
1.0
176
     1
 40
1.0
176
     1
  0
VISUALSTYLE
  5
40
102
{ACAD_REACTORS
330
2A
102
}
330
2A
100
AcDbVisualStyle
  2
X-Ray
 70
    25
177
     3
291
     0
 70
    58
 90
        2
176
     1
 90
        2
176
     1
 90
        1
176
     1
 90
        1
176
     1
 40
0.5
176
     1
 40
30.0
176
     1
 62
     7
420
 16777215
176
     1
 90
        1
176
     1
 90
        0
176
     1
 62
     7
176
     1
 62
   257
176
     1
 90
        1
176
     1
 90
        1
176
     1
 40
1.0
176
     1
 90
        8
176
     1
 62
     7
176
     1
 40
1.0
176
     1
 90
        1
176
     1
 90
        6
176
     1
 90
        2
176
     1
 62
     7
176
     1
 90
        3
176
     1
 90
        0
176
     1
 90
        0
176
     1
290
     0
176
     1
 90
       13
176
     1
 40
0.0
176
     1
 90
        0
176
     1
290
     0
176
     1
290
     1
176
     1
290
     1
176
     1
290
     0
176
     1
290
     0
176
     1
290
     0
176
     1
290
     0
176
     1
290
     0
176
     1
290
     0
176
     1
 90
       50
176
     1
 40
0.0
176
     1
 40
1.0
176
     1
 90
        0
176
     1
 62
    18
420
        0
176
     1
 90
       50
176
     1
 90
        3
176
     1
 62
     5
420
      255
176
     1
290
     0
176
     1
 90
       50
176
     1
 90
       50
176
     1
 90
       50
176
     1
290
     0
176
     1
 90
       50
176
     1
 62
   256
176
     0
 40
1.0
176
     0
 90
        2
176
     1
  1
strokes_ogs.tif
176
     1
290
     0
176
     1
 40
1.0
176
     1
 40
1.0
176
     1
  0
DICTIONARYVAR
  5
3FC
102
{ACAD_REACTORS
330
3FB
102
}
330
3FB
100
DictionaryVariables
280
     0
  1
1:1
  0
DICTIONARYVAR
  5
404
102
{ACAD_REACTORS
330
3FB
102
}
330
3FB
100
DictionaryVariables
280
     0
  1
3.500000
  0
DICTIONARYVAR
  5
405
102
{ACAD_REACTORS
330
3FB
102
}
330
3FB
100
DictionaryVariables
280
     0
  1
acadiso.lin
  0
DICTIONARYVAR
  5
401
102
{ACAD_REACTORS
330
3FB
102
}
330
3FB
100
DictionaryVariables
280
     0
  1
Standard
  0
DICTIONARYVAR
  5
400
102
{ACAD_REACTORS
330
3FB
102
}
330
3FB
100
DictionaryVariables
280
     0
  1
Standard
  0
DICTIONARY
  5
3FD
330
5A
100
AcDbDictionary
280
     1
281
     1
  3
ACAD_ROUNDTRIP_2008_TABLESTYLE_CELLSTYLEMAP
360
3FE
  0
CELLSTYLEMAP
  5
3FE
102
{ACAD_REACTORS
330
3FD
102
}
330
3FD
100
AcDbCellStyleMap
 90
        3
300
CELLSTYLE
  1
TABLEFORMAT_BEGIN
 90
        5
170
     1
 91
        0
 92
    32768
 62
   257
 93
        1
300
CONTENTFORMAT
  1
CONTENTFORMAT_BEGIN
 90
        0
 91
        0
 92
        4
 93
        0
300

 40
0.0
140
1.0
 94
        5
 62
     0
340
11
144
6.0
309
CONTENTFORMAT_END
171
     1
301
MARGIN
  1
CELLMARGIN_BEGIN
 40
1.5
 40
1.5
 40
1.5
 40
1.5
 40
1.5
 40
1.5
309
CELLMARGIN_END
 94
        6
 95
        1
302
GRIDFORMAT
  1
GRIDFORMAT_BEGIN
 90
        0
 91
        1
 62
     0
 92
       -2
340
14
 93
        0
 40
0.045
309
GRIDFORMAT_END
 95
        2
302
GRIDFORMAT
  1
GRIDFORMAT_BEGIN
 90
        0
 91
        1
 62
     0
 92
       -2
340
14
 93
        0
 40
0.045
309
GRIDFORMAT_END
 95
        4
302
GRIDFORMAT
  1
GRIDFORMAT_BEGIN
 90
        0
 91
        1
 62
     0
 92
       -2
340
14
 93
        0
 40
0.045
309
GRIDFORMAT_END
 95
        8
302
GRIDFORMAT
  1
GRIDFORMAT_BEGIN
 90
        0
 91
        1
 62
     0
 92
       -2
340
14
 93
        0
 40
0.045
309
GRIDFORMAT_END
 95
       16
302
GRIDFORMAT
  1
GRIDFORMAT_BEGIN
 90
        0
 91
        1
 62
     0
 92
       -2
340
14
 93
        0
 40
0.045
309
GRIDFORMAT_END
 95
       32
302
GRIDFORMAT
  1
GRIDFORMAT_BEGIN
 90
        0
 91
        1
 62
     0
 92
       -2
340
14
 93
        0
 40
0.045
309
GRIDFORMAT_END
309
TABLEFORMAT_END
  1
CELLSTYLE_BEGIN
 90
        1
 91
        1
300
_TITLE
309
CELLSTYLE_END
300
CELLSTYLE
  1
TABLEFORMAT_BEGIN
 90
        5
170
     1
 91
        0
 92
        0
 62
   257
 93
        1
300
CONTENTFORMAT
  1
CONTENTFORMAT_BEGIN
 90
        0
 91
        0
 92
        4
 93
        0
300

 40
0.0
140
1.0
 94
        5
 62
     0
340
11
144
4.5
309
CONTENTFORMAT_END
171
     1
301
MARGIN
  1
CELLMARGIN_BEGIN
 40
1.5
 40
1.5
 40
1.5
 40
1.5
 40
1.5
 40
1.5
309
CELLMARGIN_END
 94
        6
 95
        1
302
GRIDFORMAT
  1
GRIDFORMAT_BEGIN
 90
        0
 91
        1
 62
     0
 92
       -2
340
14
 93
        0
 40
0.045
309
GRIDFORMAT_END
 95
        2
302
GRIDFORMAT
  1
GRIDFORMAT_BEGIN
 90
        0
 91
        1
 62
     0
 92
       -2
340
14
 93
        0
 40
0.045
309
GRIDFORMAT_END
 95
        4
302
GRIDFORMAT
  1
GRIDFORMAT_BEGIN
 90
        0
 91
        1
 62
     0
 92
       -2
340
14
 93
        0
 40
0.045
309
GRIDFORMAT_END
 95
        8
302
GRIDFORMAT
  1
GRIDFORMAT_BEGIN
 90
        0
 91
        1
 62
     0
 92
       -2
340
14
 93
        0
 40
0.045
309
GRIDFORMAT_END
 95
       16
302
GRIDFORMAT
  1
GRIDFORMAT_BEGIN
 90
        0
 91
        1
 62
     0
 92
       -2
340
14
 93
        0
 40
0.045
309
GRIDFORMAT_END
 95
       32
302
GRIDFORMAT
  1
GRIDFORMAT_BEGIN
 90
        0
 91
        1
 62
     0
 92
       -2
340
14
 93
        0
 40
0.045
309
GRIDFORMAT_END
309
TABLEFORMAT_END
  1
CELLSTYLE_BEGIN
 90
        2
 91
        1
300
_HEADER
309
CELLSTYLE_END
300
CELLSTYLE
  1
TABLEFORMAT_BEGIN
 90
        5
170
     1
 91
        0
 92
        0
 62
   257
 93
        1
300
CONTENTFORMAT
  1
CONTENTFORMAT_BEGIN
 90
        0
 91
        0
 92
        4
 93
        0
300

 40
0.0
140
1.0
 94
        2
 62
     0
340
11
144
4.5
309
CONTENTFORMAT_END
171
     1
301
MARGIN
  1
CELLMARGIN_BEGIN
 40
1.5
 40
1.5
 40
1.5
 40
1.5
 40
1.5
 40
1.5
309
CELLMARGIN_END
 94
        6
 95
        1
302
GRIDFORMAT
  1
GRIDFORMAT_BEGIN
 90
        0
 91
        1
 62
     0
 92
       -2
340
14
 93
        0
 40
0.045
309
GRIDFORMAT_END
 95
        2
302
GRIDFORMAT
  1
GRIDFORMAT_BEGIN
 90
        0
 91
        1
 62
     0
 92
       -2
340
14
 93
        0
 40
0.045
309
GRIDFORMAT_END
 95
        4
302
GRIDFORMAT
  1
GRIDFORMAT_BEGIN
 90
        0
 91
        1
 62
     0
 92
       -2
340
14
 93
        0
 40
0.045
309
GRIDFORMAT_END
 95
        8
302
GRIDFORMAT
  1
GRIDFORMAT_BEGIN
 90
        0
 91
        1
 62
     0
 92
       -2
340
14
 93
        0
 40
0.045
309
GRIDFORMAT_END
 95
       16
302
GRIDFORMAT
  1
GRIDFORMAT_BEGIN
 90
        0
 91
        1
 62
     0
 92
       -2
340
14
 93
        0
 40
0.045
309
GRIDFORMAT_END
 95
       32
302
GRIDFORMAT
  1
GRIDFORMAT_BEGIN
 90
        0
 91
        1
 62
     0
 92
       -2
340
14
 93
        0
 40
0.045
309
GRIDFORMAT_END
309
TABLEFORMAT_END
  1
CELLSTYLE_BEGIN
 90
        3
 91
        2
300
_DATA
309
CELLSTYLE_END
  0
ENDSEC
  0
EOF
