  0
SECTION
  2
HEADER
  9
$ACADVER
  1
AC1015
  9
$ACADMAINTVER
 70
     6
  9
$DWGCODEPAGE
  3
ANSI_1252
  9
$INSBASE
 10
0.0
 20
0.0
 30
0.0
  9
$EXTMIN
 10
0.0
 20
0.0
 30
0.0
  9
$EXTMAX
 10
594.0
 20
420.0
 30
0.0
  9
$LIMMIN
 10
0.0
 20
0.0
  9
$LIMMAX
 10
594.0
 20
420.0
  9
$ORTHOMODE
 70
     0
  9
$REGENMODE
 70
     1
  9
$FILLMODE
 70
     1
  9
$QTEXTMODE
 70
     0
  9
$MIRRTEXT
 70
     1
  9
$LTSCALE
 40
1.0
  9
$ATTMODE
 70
     1
  9
$TEXTSIZE
 40
3.5
  9
$TRACEWID
 40
1.0
  9
$TEXTSTYLE
  7
Standard
  9
$CLAYER
  8
0
  9
$CELTYPE
  6
ByLayer
  9
$CECOLOR
 62
   256
  9
$CELTSCALE
 40
1.0
  9
$DISPSILH
 70
     0
  9
$DIMSCALE
 40
1.0
  9
$DIMASZ
 40
6.0
  9
$DIMEXO
 40
1.0
  9
$DIMDLI
 40
3.75
  9
$DIMRND
 40
0.0
  9
$DIMDLE
 40
0.0
  9
$DIMEXE
 40
1.0
  9
$DIMTP
 40
0.0
  9
$DIMTM
 40
0.0
  9
$DIMTXT
 40
3.5
  9
$DIMCEN
 40
2.5
  9
$DIMTSZ
 40
0.0
  9
$DIMTOL
 70
     0
  9
$DIMLIM
 70
     0
  9
$DIMTIH
 70
     1
  9
$DIMTOH
 70
     1
  9
$DIMSE1
 70
     0
  9
$DIMSE2
 70
     0
  9
$DIMTAD
 70
     1
  9
$DIMZIN
 70
     0
  9
$DIMBLK
  1

  9
$DIMASO
 70
     1
  9
$DIMSHO
 70
     1
  9
$DIMPOST
  1

  9
$DIMAPOST
  1

  9
$DIMALT
 70
     0
  9
$DIMALTD
 70
     3
  9
$DIMALTF
 40
0.0393700787
  9
$DIMLFAC
 40
1.0
  9
$DIMTOFL
 70
     1
  9
$DIMTVP
 40
0.0
  9
$DIMTIX
 70
     0
  9
$DIMSOXD
 70
     0
  9
$DIMSAH
 70
     0
  9
$DIMBLK1
  1

  9
$DIMBLK2
  1

  9
$DIMSTYLE
  2
ISO-25
  9
$DIMCLRD
 70
     0
  9
$DIMCLRE
 70
     0
  9
$DIMCLRT
 70
     0
  9
$DIMTFAC
 40
1.0
  9
$DIMGAP
 40
1.524
  9
$DIMJUST
 70
     0
  9
$DIMSD1
 70
     0
  9
$DIMSD2
 70
     0
  9
$DIMTOLJ
 70
     0
  9
$DIMTZIN
 70
     0
  9
$DIMALTZ
 70
     0
  9
$DIMALTTZ
 70
     0
  9
$DIMUPT
 70
     0
  9
$DIMDEC
 70
     2
  9
$DIMTDEC
 70
     2
  9
$DIMALTU
 70
     2
  9
$DIMALTTD
 70
     3
  9
$DIMTXSTY
  7
Standard
  9
$DIMAUNIT
 70
     0
  9
$DIMADEC
 70
     2
  9
$DIMALTRND
 40
0.0
  9
$DIMAZIN
 70
     0
  9
$DIMDSEP
 70
    44
  9
$DIMATFIT
 70
     3
  9
$DIMFRAC
 70
     0
  9
$DIMLDRBLK
  1

  9
$DIMLUNIT
 70
     2
  9
$DIMLWD
 70
    -2
  9
$DIMLWE
 70
    -2
  9
$DIMTMOVE
 70
     0
  9
$LUNITS
 70
     2
  9
$LUPREC
 70
     2
  9
$SKETCHINC
 40
1.0
  9
$FILLETRAD
 40
10.0
  9
$AUNITS
 70
     0
  9
$AUPREC
 70
     2
  9
$MENU
  1
.
  9
$ELEVATION
 40
0.0
  9
$PELEVATION
 40
0.0
  9
$THICKNESS
 40
0.0
  9
$LIMCHECK
 70
     0
  9
$CHAMFERA
 40
10.0
  9
$CHAMFERB
 40
10.0
  9
$CHAMFERC
 40
20.0
  9
$CHAMFERD
 40
0.0
  9
$SKPOLY
 70
     0
  9
$TDCREATE
 40
2455959.347189317
  9
$TDUCREATE
 40
2455959.30552265
  9
$TDUPDATE
 40
2455959.347189329
  9
$TDUUPDATE
 40
2455959.305522662
  9
$TDINDWG
 40
0.0000000116
  9
$TDUSRTIMER
 40
0.0000000116
  9
$USRTIMER
 70
     1
  9
$ANGBASE
 50
0.0
  9
$ANGDIR
 70
     0
  9
$PDMODE
 70
     0
  9
$PDSIZE
 40
-1.0
  9
$PLINEWID
 40
0.0
  9
$SPLFRAME
 70
     0
  9
$SPLINETYPE
 70
     6
  9
$SPLINESEGS
 70
     8
  9
$HANDSEED
  5
2D8
  9
$SURFTAB1
 70
     6
  9
$SURFTAB2
 70
     6
  9
$SURFTYPE
 70
     6
  9
$SURFU
 70
     6
  9
$SURFV
 70
     6
  9
$UCSBASE
  2

  9
$UCSNAME
  2

  9
$UCSORG
 10
0.0
 20
0.0
 30
0.0
  9
$UCSXDIR
 10
1.0
 20
0.0
 30
0.0
  9
$UCSYDIR
 10
0.0
 20
1.0
 30
0.0
  9
$UCSORTHOREF
  2

  9
$UCSORTHOVIEW
 70
     0
  9
$UCSORGTOP
 10
0.0
 20
0.0
 30
0.0
  9
$UCSORGBOTTOM
 10
0.0
 20
0.0
 30
0.0
  9
$UCSORGLEFT
 10
0.0
 20
0.0
 30
0.0
  9
$UCSORGRIGHT
 10
0.0
 20
0.0
 30
0.0
  9
$UCSORGFRONT
 10
0.0
 20
0.0
 30
0.0
  9
$UCSORGBACK
 10
0.0
 20
0.0
 30
0.0
  9
$PUCSBASE
  2

  9
$PUCSNAME
  2

  9
$PUCSORG
 10
0.0
 20
0.0
 30
0.0
  9
$PUCSXDIR
 10
1.0
 20
0.0
 30
0.0
  9
$PUCSYDIR
 10
0.0
 20
1.0
 30
0.0
  9
$PUCSORTHOREF
  2

  9
$PUCSORTHOVIEW
 70
     0
  9
$PUCSORGTOP
 10
0.0
 20
0.0
 30
0.0
  9
$PUCSORGBOTTOM
 10
0.0
 20
0.0
 30
0.0
  9
$PUCSORGLEFT
 10
0.0
 20
0.0
 30
0.0
  9
$PUCSORGRIGHT
 10
0.0
 20
0.0
 30
0.0
  9
$PUCSORGFRONT
 10
0.0
 20
0.0
 30
0.0
  9
$PUCSORGBACK
 10
0.0
 20
0.0
 30
0.0
  9
$USERI1
 70
     0
  9
$USERI2
 70
     0
  9
$USERI3
 70
     0
  9
$USERI4
 70
     0
  9
$USERI5
 70
     0
  9
$USERR1
 40
0.0
  9
$USERR2
 40
0.0
  9
$USERR3
 40
0.0
  9
$USERR4
 40
0.0
  9
$USERR5
 40
0.0
  9
$WORLDVIEW
 70
     1
  9
$SHADEDGE
 70
     3
  9
$SHADEDIF
 70
    70
  9
$TILEMODE
 70
     1
  9
$MAXACTVP
 70
    64
  9
$PINSBASE
 10
0.0
 20
0.0
 30
0.0
  9
$PLIMCHECK
 70
     0
  9
$PEXTMIN
 10
1.0000000000E+20
 20
1.0000000000E+20
 30
1.0000000000E+20
  9
$PEXTMAX
 10
-1.0000000000E+20
 20
-1.0000000000E+20
 30
-1.0000000000E+20
  9
$PLIMMIN
 10
0.0
 20
0.0
  9
$PLIMMAX
 10
420.0
 20
297.0
  9
$UNITMODE
 70
     0
  9
$VISRETAIN
 70
     1
  9
$PLINEGEN
 70
     0
  9
$PSLTSCALE
 70
     1
  9
$TREEDEPTH
 70
  3020
  9
$CMLSTYLE
  2
Standard
  9
$CMLJUST
 70
     0
  9
$CMLSCALE
 40
20.0
  9
$PROXYGRAPHICS
 70
     1
  9
$MEASUREMENT
 70
     1
  9
$CELWEIGHT
370
    -1
  9
$ENDCAPS
280
     0
  9
$JOINSTYLE
280
     0
  9
$LWDISPLAY
290
     1
  9
$INSUNITS
 70
     4
  9
$HYPERLINKBASE
  1

  9
$STYLESHEET
  1

  9
$XEDIT
290
     1
  9
$CEPSNTYPE
380
     0
  9
$PSTYLEMODE
290
     1
  9
$FINGERPRINTGUID
  2
{B155160F-6FD1-4F0F-BE0D-7640B1A4F45A}
  9
$VERSIONGUID
  2
{FAEB1C32-E019-11D5-929B-00C0DF256EC4}
  9
$EXTNAMES
290
     1
  9
$PSVPSCALE
 40
0.0
  9
$OLESTARTUP
290
     0
  0
ENDSEC
  0
SECTION
  2
CLASSES
  0
CLASS
  1
ACDBDICTIONARYWDFLT
  2
AcDbDictionaryWithDefault
  3
ObjectDBX Classes
 90
        0
280
     0
281
     0
  0
CLASS
  1
VISUALSTYLE
  2
AcDbVisualStyle
  3
ObjectDBX Classes
 90
     4095
280
     0
281
     0
  0
CLASS
  1
MATERIAL
  2
AcDbMaterial
  3
ObjectDBX Classes
 90
     1153
280
     0
281
     0
  0
CLASS
  1
ACDBPLACEHOLDER
  2
AcDbPlaceHolder
  3
ObjectDBX Classes
 90
        0
280
     0
281
     0
  0
CLASS
  1
LAYOUT
  2
AcDbLayout
  3
ObjectDBX Classes
 90
        0
280
     0
281
     0
  0
ENDSEC
  0
SECTION
  2
TABLES
  0
TABLE
  2
VPORT
  5
8
330
0
100
AcDbSymbolTable
 70
     1
  0
VPORT
  5
29
330
8
100
AcDbSymbolTableRecord
100
AcDbViewportTableRecord
  2
*Active
 70
     0
 10
0.0
 20
0.0
 11
1.0
 21
1.0
 12
297.0
 22
210.0
 13
0.0
 23
0.0
 14
10.0
 24
10.0
 15
10.0
 25
10.0
 16
0.0
 26
0.0
 36
1.0
 17
0.0
 27
0.0
 37
0.0
 40
420.0
 41
1.4142857143
 42
50.0
 43
0.0
 44
0.0
 50
0.0
 51
0.0
 71
     0
 72
  2000
 73
     1
 74
     3
 75
     0
 76
     0
 77
     0
 78
     0
281
     0
 65
     1
110
0.0
120
0.0
130
0.0
111
1.0
121
0.0
131
0.0
112
0.0
122
1.0
132
0.0
 79
     0
146
0.0
  0
ENDTAB
  0
TABLE
  2
LTYPE
  5
5
330
0
100
AcDbSymbolTable
 70
     6
  0
LTYPE
  5
14
330
5
100
AcDbSymbolTableRecord
100
AcDbLinetypeTableRecord
  2
ByBlock
 70
     0
  3

 72
    65
 73
     0
 40
0.0
  0
LTYPE
  5
15
330
5
100
AcDbSymbolTableRecord
100
AcDbLinetypeTableRecord
  2
ByLayer
 70
     0
  3

 72
    65
 73
     0
 40
0.0
  0
LTYPE
  5
16
330
5
100
AcDbSymbolTableRecord
100
AcDbLinetypeTableRecord
  2
Continuous
 70
     0
  3
Solid line
 72
    65
 73
     0
 40
0.0
  0
LTYPE
  5
3F
330
5
100
AcDbSymbolTableRecord
100
AcDbLinetypeTableRecord
  2
HIDDEN
 70
     0
  3
Hidden __ __ __ __ __ __ __ __ __ __ __ __ __ __
 72
    65
 73
     2
 40
1.905
 49
1.27
 74
     0
 49
-0.635
 74
     0
  0
LTYPE
  5
40
330
5
100
AcDbSymbolTableRecord
100
AcDbLinetypeTableRecord
  2
PHANTOM
 70
     0
  3
Phantom ______  __  __  ______  __  __  ______
 72
    65
 73
     6
 40
12.7
 49
6.35
 74
     0
 49
-1.27
 74
     0
 49
1.27
 74
     0
 49
-1.27
 74
     0
 49
1.27
 74
     0
 49
-1.27
 74
     0
  0
LTYPE
  5
41
330
5
100
AcDbSymbolTableRecord
100
AcDbLinetypeTableRecord
  2
CENTER
 70
     0
  3
Center ____ _ ____ _ ____ _ ____ _ ____ _ ____
 72
    65
 73
     4
 40
10.16
 49
6.35
 74
     0
 49
-1.27
 74
     0
 49
1.27
 74
     0
 49
-1.27
 74
     0
  0
LTYPE
  5
42
330
5
100
AcDbSymbolTableRecord
100
AcDbLinetypeTableRecord
  2
CENTERX2
 70
     0
  3
Center (2x) ________  __  ________  __  _____
 72
    65
 73
     4
 40
20.32
 49
12.7
 74
     0
 49
-2.54
 74
     0
 49
2.54
 74
     0
 49
-2.54
 74
     0
  0
LTYPE
  5
43
330
5
100
AcDbSymbolTableRecord
100
AcDbLinetypeTableRecord
  2
DOT2
 70
     0
  3
Dot (.5x) ........................................
 72
    65
 73
     2
 40
0.635
 49
0.0
 74
     0
 49
-0.635
 74
     0
  0
ENDTAB
  0
TABLE
  2
LAYER
  5
2
330
0
100
AcDbSymbolTable
 70
     3
  0
LAYER
  5
10
330
2
100
AcDbSymbolTableRecord
100
AcDbLayerTableRecord
  2
0
 70
     0
 62
     7
  6
Continuous
370
    -3
390
F
  0
LAYER
  5
44
330
2
100
AcDbSymbolTableRecord
100
AcDbLayerTableRecord
  2
RAHMEN
 70
     0
 62
   179
  6
Continuous
370
    -3
390
F
  0
LAYER
  5
45
330
2
100
AcDbSymbolTableRecord
100
AcDbLayerTableRecord
  2
KOPF
 70
     0
 62
     7
  6
Continuous
370
    -3
390
F
  0
ENDTAB
  0
TABLE
  2
STYLE
  5
3
330
0
100
AcDbSymbolTable
 70
     2
  0
STYLE
  5
11
330
3
100
AcDbSymbolTableRecord
100
AcDbTextStyleTableRecord
  2
Standard
 70
     0
 40
0.0
 41
1.0
 50
0.0
 71
     0
 42
2.5
  3
txt
  4

  0
STYLE
  5
EB
330
3
100
AcDbSymbolTableRecord
100
AcDbTextStyleTableRecord
  2
SLDTEXTSTYLE0
 70
     0
 40
0.0
 41
0.75
 50
0.0
 71
     0
 42
0.2
  3
TXT
  4

  0
ENDTAB
  0
TABLE
  2
VIEW
  5
6
330
0
100
AcDbSymbolTable
 70
     0
  0
ENDTAB
  0
TABLE
  2
UCS
  5
7
330
0
100
AcDbSymbolTable
 70
     0
  0
ENDTAB
  0
TABLE
  2
APPID
  5
9
330
0
100
AcDbSymbolTable
 70
     1
  0
APPID
  5
12
330
9
100
AcDbSymbolTableRecord
100
AcDbRegAppTableRecord
  2
ACAD
 70
     0
  0
ENDTAB
  0
TABLE
  2
DIMSTYLE
  5
A
330
0
100
AcDbSymbolTable
 70
     4
100
AcDbDimStyleTable
  0
DIMSTYLE
105
27
330
A
100
AcDbSymbolTableRecord
100
AcDbDimStyleTableRecord
  2
ISO-25
 70
     0
 41
2.5
 42
0.625
 43
3.75
 44
1.25
 73
     0
 74
     0
 77
     1
 78
     8
140
2.5
141
2.5
143
0.0393700787
147
0.625
171
     3
172
     1
178
     0
271
     2
272
     2
274
     3
278
    44
283
     0
284
     8
340
11
  0
DIMSTYLE
105
EC
102
{ACAD_REACTORS
330
EA
330
1B5
102
}
330
A
100
AcDbSymbolTableRecord
100
AcDbDimStyleTableRecord
  2
SLDDIMSTYLE0
 70
     0
 41
6.0
 44
0.0
 45
0.000000001
 73
     0
 74
     0
 77
     1
 78
    12
 79
     3
140
3.5
147
0.875
173
     1
178
     0
271
     2
272
     2
276
     2
284
    12
340
EB
  0
DIMSTYLE
105
F9
102
{ACAD_REACTORS
330
F8
330
1D0
330
2BA
102
}
330
A
100
AcDbSymbolTableRecord
100
AcDbDimStyleTableRecord
  2
SLDDIMSTYLE1
 70
     0
 41
6.0
 44
0.0
 45
0.000000001
 73
     0
 74
     0
 77
     1
 78
    12
 79
     3
140
3.5
147
0.875
173
     1
178
     0
271
     0
272
     0
276
     2
284
    12
340
EB
  0
DIMSTYLE
105
1C2
102
{ACAD_REACTORS
330
1C1
330
2C6
102
}
330
A
100
AcDbSymbolTableRecord
100
AcDbDimStyleTableRecord
  2
SLDDIMSTYLE2
 70
     0
 41
6.0
 44
0.0
 45
0.000000001
 73
     0
 74
     0
 77
     1
 78
    12
 79
     3
140
3.5
147
0.875
172
     1
173
     1
178
     0
271
     0
272
     0
276
     2
284
    12
289
     0
340
EB
  0
ENDTAB
  0
TABLE
  2
BLOCK_RECORD
  5
1
330
0
100
AcDbSymbolTable
 70
    10
  0
BLOCK_RECORD
  5
1F
330
1
100
AcDbSymbolTableRecord
100
AcDbBlockTableRecord
  2
*Model_Space
340
22
  0
BLOCK_RECORD
  5
1B
330
1
100
AcDbSymbolTableRecord
100
AcDbBlockTableRecord
  2
*Paper_Space
340
1E
  0
BLOCK_RECORD
  5
23
330
1
100
AcDbSymbolTableRecord
100
AcDbBlockTableRecord
  2
*Paper_Space0
340
26
  0
BLOCK_RECORD
  5
ED
330
1
100
AcDbSymbolTableRecord
100
AcDbBlockTableRecord
  2
*D1
340
0
  0
BLOCK_RECORD
  5
FA
330
1
100
AcDbSymbolTableRecord
100
AcDbBlockTableRecord
  2
*D2
340
0
  0
BLOCK_RECORD
  5
1B6
330
1
100
AcDbSymbolTableRecord
100
AcDbBlockTableRecord
  2
*D3
340
0
  0
BLOCK_RECORD
  5
1C3
330
1
100
AcDbSymbolTableRecord
100
AcDbBlockTableRecord
  2
*D4
340
0
  0
BLOCK_RECORD
  5
1D1
330
1
100
AcDbSymbolTableRecord
100
AcDbBlockTableRecord
  2
*D5
340
0
  0
BLOCK_RECORD
  5
1DC
330
1
100
AcDbSymbolTableRecord
100
AcDbBlockTableRecord
  2
SW_CENTERMARKSYMBOL_0
340
0
102
{BLKREFS
331
1E7
102
}
  0
BLOCK_RECORD
  5
1E8
330
1
100
AcDbSymbolTableRecord
100
AcDbBlockTableRecord
  2
SW_CENTERMARKSYMBOL_1
340
0
102
{BLKREFS
331
1F3
102
}
  0
BLOCK_RECORD
  5
2BB
330
1
100
AcDbSymbolTableRecord
100
AcDbBlockTableRecord
  2
*D8
340
0
  0
BLOCK_RECORD
  5
2C7
330
1
100
AcDbSymbolTableRecord
100
AcDbBlockTableRecord
  2
*D9
340
0
  0
ENDTAB
  0
ENDSEC
  0
SECTION
  2
BLOCKS
  0
BLOCK
  5
20
330
1F
100
AcDbEntity
  8
0
100
AcDbBlockBegin
  2
*Model_Space
 70
     0
 10
0.0
 20
0.0
 30
0.0
  3
*Model_Space
  1

  0
ENDBLK
  5
21
330
1F
100
AcDbEntity
  8
0
100
AcDbBlockEnd
  0
BLOCK
  5
1C
330
1B
100
AcDbEntity
 67
     1
  8
0
100
AcDbBlockBegin
  2
*Paper_Space
 70
     0
 10
0.0
 20
0.0
 30
0.0
  3
*Paper_Space
  1

  0
ENDBLK
  5
1D
330
1B
100
AcDbEntity
 67
     1
  8
0
100
AcDbBlockEnd
  0
BLOCK
  5
24
330
23
100
AcDbEntity
  8
0
100
AcDbBlockBegin
  2
*Paper_Space0
 70
     0
 10
0.0
 20
0.0
 30
0.0
  3
*Paper_Space0
  1

  0
ENDBLK
  5
25
330
23
100
AcDbEntity
  8
0
100
AcDbBlockEnd
  0
BLOCK
  5
EE
330
ED
100
AcDbEntity
  8
0
100
AcDbBlockBegin
  2
*D1
 70
     1
 10
0.0
 20
0.0
 30
0.0
  3
*D1
  1

  0
ARC
  5
F0
330
ED
100
AcDbEntity
  8
0
  6
Continuous
 62
     7
370
     0
100
AcDbCircle
 10
314.7243626272
 20
302.8696943974
 30
0.0
 40
6.209701602896271
100
AcDbArc
 50
243.4349488229
 51
296.5650511771
  0
ARC
  5
F1
330
ED
100
AcDbEntity
  8
0
  6
Continuous
 62
     7
370
     0
100
AcDbCircle
 10
314.7243626272
 20
300.1053356137
 30
0.0
 40
6.209701602896271
100
AcDbArc
 50
63.4349488229
 51
116.5650511771
  0
SOLID
  5
F2
330
ED
100
AcDbEntity
  8
0
  6
Continuous
 62
     7
370
     0
100
AcDbTrace
 10
317.501425608
 20
349.4461020432
 30
0.0
 11
316.601425608
 21
343.4461020432
 31
0.0
 12
318.401425608
 22
343.4461020432
 32
0.0
 13
318.401425608
 23
343.4461020432
 33
0.0
  0
SOLID
  5
F3
330
ED
100
AcDbEntity
  8
0
  6
Continuous
 62
     7
370
     0
100
AcDbTrace
 10
317.501425608
 20
254.4461020432
 30
0.0
 11
318.401425608
 21
260.4461020432
 31
0.0
 12
316.601425608
 22
260.4461020432
 32
0.0
 13
316.601425608
 23
260.4461020432
 33
0.0
  0
LINE
  5
F4
330
ED
100
AcDbEntity
  8
0
  6
Continuous
 62
     7
370
     0
100
AcDbLine
 10
290.2218889672
 20
349.4461020432
 30
0.0
 11
318.501425608
 21
349.4461020432
 31
0.0
  0
LINE
  5
F5
330
ED
100
AcDbEntity
  8
0
  6
Continuous
 62
     7
370
     0
100
AcDbLine
 10
279.6108921693
 20
254.4461020432
 30
0.0
 11
318.501425608
 21
254.4461020432
 31
0.0
  0
LINE
  5
F6
330
ED
100
AcDbEntity
  8
0
  6
Continuous
 62
     7
370
     0
100
AcDbLine
 10
317.501425608
 20
349.4461020432
 30
0.0
 11
317.501425608
 21
254.4461020432
 31
0.0
  0
MTEXT
  5
F7
330
ED
100
AcDbEntity
  8
0
  6
Continuous
 62
     7
370
     0
100
AcDbMText
 10
312.9896886934
 20
298.9030684358
 30
0.0
 40
3.5
 41
0.0
 71
     1
 72
     1
  1
95
  7
SLDTEXTSTYLE0
 11
-7.044195017643634E-15
 21
1.0
 31
0.0
 73
     1
 44
1.0
  0
ENDBLK
  5
EF
330
ED
100
AcDbEntity
  8
0
100
AcDbBlockEnd
  0
BLOCK
  5
FB
330
FA
100
AcDbEntity
  8
0
100
AcDbBlockBegin
  2
*D2
 70
     1
 10
0.0
 20
0.0
 30
0.0
  3
*D2
  1

  0
ARC
  5
FD
330
FA
100
AcDbEntity
  8
0
  6
Continuous
 62
     7
370
     0
100
AcDbCircle
 10
225.6958862644
 20
369.7899922448
 30
0.0
 40
6.209701602896297
100
AcDbArc
 50
153.4349488229
 51
206.5650511771
  0
ARC
  5
FE
330
FA
100
AcDbEntity
  8
0
  6
Continuous
 62
     7
370
     0
100
AcDbCircle
 10
225.5180907144
 20
369.7899922448
 30
0.0
 40
6.209701602896246
100
AcDbArc
 50
333.4349488229
 51
26.5650511771
  0
SOLID
  5
FF
330
FA
100
AcDbEntity
  8
0
  6
Continuous
 62
     7
370
     0
100
AcDbTrace
 10
133.2079004076
 20
367.012929264
 30
0.0
 11
139.2079004076
 21
366.112929264
 31
0.0
 12
139.2079004076
 22
367.912929264
 32
0.0
 13
139.2079004076
 23
367.912929264
 33
0.0
  0
SOLID
  5
100
330
FA
100
AcDbEntity
  8
0
  6
Continuous
 62
     7
370
     0
100
AcDbTrace
 10
290.2218642481
 20
367.012929264
 30
0.0
 11
284.2218642481
 21
367.912929264
 31
0.0
 12
284.2218642481
 22
366.112929264
 32
0.0
 13
284.2218642481
 23
366.112929264
 33
0.0
  0
LINE
  5
101
330
FA
100
AcDbEntity
  8
0
  6
Continuous
 62
     7
370
     0
100
AcDbLine
 10
133.2079004076
 20
349.4531332284
 30
0.0
 11
133.2079004076
 21
368.012929264
 31
0.0
  0
LINE
  5
102
330
FA
100
AcDbEntity
  8
0
  6
Continuous
 62
     7
370
     0
100
AcDbLine
 10
290.2218642481
 20
349.4531332284
 30
0.0
 11
290.2218642481
 21
368.012929264
 31
0.0
  0
LINE
  5
103
330
FA
100
AcDbEntity
  8
0
  6
Continuous
 62
     7
370
     0
100
AcDbLine
 10
133.2079004076
 20
367.012929264
 30
0.0
 11
290.2218642481
 21
367.012929264
 31
0.0
  0
MTEXT
  5
104
330
FA
100
AcDbEntity
  8
0
  6
Continuous
 62
     7
370
     0
100
AcDbMText
 10
221.7292603027
 20
371.5246661785
 30
0.0
 40
3.5
 41
0.0
 71
     1
 72
     1
  1
157
  7
SLDTEXTSTYLE0
 73
     1
 44
1.0
  0
ENDBLK
  5
FC
330
FA
100
AcDbEntity
  8
0
100
AcDbBlockEnd
  0
BLOCK
  5
1B7
330
1B6
100
AcDbEntity
  8
0
100
AcDbBlockBegin
  2
*D3
 70
     1
 10
0.0
 20
0.0
 30
0.0
  3
*D3
  1

  0
ARC
  5
1B9
330
1B6
100
AcDbEntity
  8
0
  6
Continuous
 62
     7
370
     0
100
AcDbCircle
 10
213.4973314937
 20
69.0329928971
 30
0.0
 40
6.209701602896258
100
AcDbArc
 50
153.4349488229
 51
206.5650511771
  0
ARC
  5
1BA
330
1B6
100
AcDbEntity
  8
0
  6
Continuous
 62
     7
370
     0
100
AcDbCircle
 10
210.7329727101
 20
69.0329928971
 30
0.0
 40
6.209701602896232
100
AcDbArc
 50
333.4349488229
 51
26.5650511771
  0
SOLID
  5
1BB
330
1B6
100
AcDbEntity
  8
0
  6
Continuous
 62
     7
370
     0
100
AcDbTrace
 10
170.2148823278
 20
66.2559299163
 30
0.0
 11
176.2148823278
 21
65.3559299163
 31
0.0
 12
176.2148823278
 22
67.1559299163
 32
0.0
 13
176.2148823278
 23
67.1559299163
 33
0.0
  0
SOLID
  5
1BC
330
1B6
100
AcDbEntity
  8
0
  6
Continuous
 62
     7
370
     0
100
AcDbTrace
 10
253.2148823278
 20
66.2559299163
 30
0.0
 11
247.2148823278
 21
67.1559299163
 31
0.0
 12
247.2148823278
 22
65.3559299163
 32
0.0
 13
247.2148823278
 23
65.3559299163
 33
0.0
  0
LINE
  5
1BD
330
1B6
100
AcDbEntity
  8
0
  6
Continuous
 62
     7
370
     0
100
AcDbLine
 10
170.2148823278
 20
120.1592633919
 30
0.0
 11
170.2148823278
 21
65.2559299163
 31
0.0
  0
LINE
  5
1BE
330
1B6
100
AcDbEntity
  8
0
  6
Continuous
 62
     7
370
     0
100
AcDbLine
 10
253.2148823278
 20
120.1592633919
 30
0.0
 11
253.2148823278
 21
65.2559299163
 31
0.0
  0
LINE
  5
1BF
330
1B6
100
AcDbEntity
  8
0
  6
Continuous
 62
     7
370
     0
100
AcDbLine
 10
170.2148823278
 20
66.2559299163
 30
0.0
 11
253.2148823278
 21
66.2559299163
 31
0.0
  0
MTEXT
  5
1C0
330
1B6
100
AcDbEntity
  8
0
  6
Continuous
 62
     7
370
     0
100
AcDbMText
 10
209.5307055321
 20
70.7676668309
 30
0.0
 40
3.5
 41
0.0
 71
     1
 72
     1
  1
83
  7
SLDTEXTSTYLE0
 73
     1
 44
1.0
  0
ENDBLK
  5
1B8
330
1B6
100
AcDbEntity
  8
0
100
AcDbBlockEnd
  0
BLOCK
  5
1C4
330
1C3
100
AcDbEntity
  8
0
100
AcDbBlockBegin
  2
*D4
 70
     1
 10
0.0
 20
0.0
 30
0.0
  3
*D4
  1

  0
ARC
  5
1C6
330
1C3
100
AcDbEntity
  8
0
  6
Continuous
 62
     7
370
     0
100
AcDbCircle
 10
275.1385223162
 20
198.8859754984
 30
0.0
 40
6.209701602896232
100
AcDbArc
 50
153.4349488229
 51
206.5650511771
  0
ARC
  5
1C7
330
1C3
100
AcDbEntity
  8
0
  6
Continuous
 62
     7
370
     0
100
AcDbCircle
 10
272.3741635326
 20
198.8859754984
 30
0.0
 40
6.209701602896284
100
AcDbArc
 50
333.4349488229
 51
26.5650511771
  0
SOLID
  5
1C8
330
1C3
100
AcDbEntity
  8
0
  6
Continuous
 62
     7
370
     0
100
AcDbTrace
 10
256.7148823278
 20
196.1089125175
 30
0.0
 11
250.7148823278
 21
197.0089125175
 31
0.0
 12
250.7148823278
 22
195.2089125175
 32
0.0
 13
250.7148823278
 23
195.2089125175
 33
0.0
  0
SOLID
  5
1C9
330
1C3
100
AcDbEntity
  8
0
  6
Continuous
 62
     7
370
     0
100
AcDbTrace
 10
290.2218642481
 20
196.1089125175
 30
0.0
 11
296.2218642481
 21
195.2089125175
 31
0.0
 12
296.2218642481
 22
197.0089125175
 32
0.0
 13
296.2218642481
 23
197.0089125175
 33
0.0
  0
LINE
  5
1CA
330
1C3
100
AcDbEntity
  8
0
  6
Continuous
 62
     7
370
     0
100
AcDbLine
 10
256.7148823278
 20
192.6592633919
 30
0.0
 11
256.7148823278
 21
197.1089125175
 31
0.0
  0
LINE
  5
1CB
330
1C3
100
AcDbEntity
  8
0
  6
Continuous
 62
     7
370
     0
100
AcDbLine
 10
290.2218642481
 20
122.1592633919
 30
0.0
 11
290.2218642481
 21
197.1089125175
 31
0.0
  0
LINE
  5
1CC
330
1C3
100
AcDbEntity
  8
0
  6
Continuous
 62
     7
370
     0
100
AcDbLine
 10
256.7148823278
 20
196.1089125175
 30
0.0
 11
244.7148823278
 21
196.1089125175
 31
0.0
  0
LINE
  5
1CD
330
1C3
100
AcDbEntity
  8
0
  6
Continuous
 62
     7
370
     0
100
AcDbLine
 10
256.7148823278
 20
196.1089125175
 30
0.0
 11
290.2218642481
 21
196.1089125175
 31
0.0
  0
LINE
  5
1CE
330
1C3
100
AcDbEntity
  8
0
  6
Continuous
 62
     7
370
     0
100
AcDbLine
 10
290.2218642481
 20
196.1089125175
 30
0.0
 11
302.2218642481
 21
196.1089125175
 31
0.0
  0
MTEXT
  5
1CF
330
1C3
100
AcDbEntity
  8
0
  6
Continuous
 62
     7
370
     0
100
AcDbMText
 10
271.1718963546
 20
200.6206494321
 30
0.0
 40
3.5
 41
0.0
 71
     1
 72
     1
  1
34
  7
SLDTEXTSTYLE0
 73
     1
 44
1.0
  0
ENDBLK
  5
1C5
330
1C3
100
AcDbEntity
  8
0
100
AcDbBlockEnd
  0
BLOCK
  5
1D2
330
1D1
100
AcDbEntity
  8
0
100
AcDbBlockBegin
  2
*D5
 70
     1
 10
0.0
 20
0.0
 30
0.0
  3
*D5
  1

  0
ARC
  5
1D4
330
1D1
100
AcDbEntity
  8
0
  6
Continuous
 62
     7
370
     0
100
AcDbCircle
 10
114.71172029
 20
132.9461583175
 30
0.0
 40
6.209701602896284
100
AcDbArc
 50
243.4349488229
 51
296.5650511771
  0
ARC
  5
1D5
330
1D1
100
AcDbEntity
  8
0
  6
Continuous
 62
     7
370
     0
100
AcDbCircle
 10
114.71172029
 20
132.7683627675
 30
0.0
 40
6.209701602896296
100
AcDbArc
 50
63.4349488229
 51
116.5650511771
  0
SOLID
  5
1D6
330
1D1
100
AcDbEntity
  8
0
  6
Continuous
 62
     7
370
     0
100
AcDbTrace
 10
117.4887832708
 20
191.6592633919
 30
0.0
 11
116.5887832708
 21
185.6592633919
 31
0.0
 12
118.3887832708
 22
185.6592633919
 32
0.0
 13
118.3887832708
 23
185.6592633919
 33
0.0
  0
SOLID
  5
1D7
330
1D1
100
AcDbEntity
  8
0
  6
Continuous
 62
     7
370
     0
100
AcDbTrace
 10
117.4887832708
 20
83.8602700061
 30
0.0
 11
118.3887832708
 21
89.8602700061
 31
0.0
 12
116.5887832708
 22
89.8602700061
 32
0.0
 13
116.5887832708
 23
89.8602700061
 33
0.0
  0
LINE
  5
1D8
330
1D1
100
AcDbEntity
  8
0
  6
Continuous
 62
     7
370
     0
100
AcDbLine
 10
165.7148823278
 20
191.6592633919
 30
0.0
 11
116.4887832708
 21
191.6592633919
 31
0.0
  0
LINE
  5
1D9
330
1D1
100
AcDbEntity
  8
0
  6
Continuous
 62
     7
370
     0
100
AcDbLine
 10
169.2148823278
 20
83.8602700061
 30
0.0
 11
116.4887832708
 21
83.8602700061
 31
0.0
  0
LINE
  5
1DA
330
1D1
100
AcDbEntity
  8
0
  6
Continuous
 62
     7
370
     0
100
AcDbLine
 10
117.4887832708
 20
191.6592633919
 30
0.0
 11
117.4887832708
 21
83.8602700061
 31
0.0
  0
MTEXT
  5
1DB
330
1D1
100
AcDbEntity
  8
0
  6
Continuous
 62
     7
370
     0
100
AcDbMText
 10
112.9770463562
 20
128.9795323559
 30
0.0
 40
3.5
 41
0.0
 71
     1
 72
     1
  1
108
  7
SLDTEXTSTYLE0
 11
-7.044195017643634E-15
 21
1.0
 31
0.0
 73
     1
 44
1.0
  0
ENDBLK
  5
1D3
330
1D1
100
AcDbEntity
  8
0
100
AcDbBlockEnd
  0
BLOCK
  5
1DD
330
1DC
100
AcDbEntity
  8
0
100
AcDbBlockBegin
  2
SW_CENTERMARKSYMBOL_0
 70
     0
 10
0.0
 20
0.0
 30
0.0
  3
SW_CENTERMARKSYMBOL_0
  1

  0
LINE
  5
1DF
330
1DC
100
AcDbEntity
  8
0
  6
Continuous
 62
     0
370
     0
100
AcDbLine
 10
0.0
 20
0.0
 30
0.0
 11
0.0
 21
2.5
 31
0.0
  0
LINE
  5
1E0
330
1DC
100
AcDbEntity
  8
0
  6
Continuous
 62
     0
370
     0
100
AcDbLine
 10
0.0
 20
0.0
 30
0.0
 11
-2.5
 21
0.0
 31
0.0
  0
LINE
  5
1E1
330
1DC
100
AcDbEntity
  8
0
  6
Continuous
 62
     0
370
     0
100
AcDbLine
 10
0.0
 20
0.0
 30
0.0
 11
0.0
 21
-2.5
 31
0.0
  0
LINE
  5
1E2
330
1DC
100
AcDbEntity
  8
0
  6
Continuous
 62
     0
370
     0
100
AcDbLine
 10
0.0
 20
0.0
 30
0.0
 11
2.5
 21
0.0
 31
0.0
  0
LINE
  5
1E3
330
1DC
100
AcDbEntity
  8
0
  6
Continuous
 62
     0
370
     0
100
AcDbLine
 10
0.0
 20
5.0
 30
0.0
 11
0.0
 21
39.5069819202
 31
0.0
  0
LINE
  5
1E4
330
1DC
100
AcDbEntity
  8
0
  6
Continuous
 62
     0
370
     0
100
AcDbLine
 10
-5.0
 20
0.0
 30
0.0
 11
-39.5069819202
 21
0.0
 31
0.0
  0
LINE
  5
1E5
330
1DC
100
AcDbEntity
  8
0
  6
Continuous
 62
     0
370
     0
100
AcDbLine
 10
0.0
 20
-5.0
 30
0.0
 11
0.0
 21
-39.5069819202
 31
0.0
  0
LINE
  5
1E6
330
1DC
100
AcDbEntity
  8
0
  6
Continuous
 62
     0
370
     0
100
AcDbLine
 10
5.0
 20
0.0
 30
0.0
 11
39.5069819202
 21
0.0
 31
0.0
  0
ENDBLK
  5
1DE
330
1DC
100
AcDbEntity
  8
0
100
AcDbBlockEnd
  0
BLOCK
  5
1E9
330
1E8
100
AcDbEntity
  8
0
100
AcDbBlockBegin
  2
SW_CENTERMARKSYMBOL_1
 70
     0
 10
0.0
 20
0.0
 30
0.0
  3
SW_CENTERMARKSYMBOL_1
  1

  0
LINE
  5
1EB
330
1E8
100
AcDbEntity
  8
0
  6
Continuous
 62
     0
370
     0
100
AcDbLine
 10
0.0
 20
0.0
 30
0.0
 11
0.0
 21
2.5
 31
0.0
  0
LINE
  5
1EC
330
1E8
100
AcDbEntity
  8
0
  6
Continuous
 62
     0
370
     0
100
AcDbLine
 10
0.0
 20
0.0
 30
0.0
 11
-2.5
 21
0.0
 31
0.0
  0
LINE
  5
1ED
330
1E8
100
AcDbEntity
  8
0
  6
Continuous
 62
     0
370
     0
100
AcDbLine
 10
0.0
 20
0.0
 30
0.0
 11
0.0
 21
-2.5
 31
0.0
  0
LINE
  5
1EE
330
1E8
100
AcDbEntity
  8
0
  6
Continuous
 62
     0
370
     0
100
AcDbLine
 10
0.0
 20
0.0
 30
0.0
 11
2.5
 21
0.0
 31
0.0
  0
LINE
  5
1EF
330
1E8
100
AcDbEntity
  8
0
  6
Continuous
 62
     0
370
     0
100
AcDbLine
 10
0.0
 20
5.0
 30
0.0
 11
0.0
 21
39.5069819202
 31
0.0
  0
LINE
  5
1F0
330
1E8
100
AcDbEntity
  8
0
  6
Continuous
 62
     0
370
     0
100
AcDbLine
 10
-5.0
 20
0.0
 30
0.0
 11
-39.5069819202
 21
0.0
 31
0.0
  0
LINE
  5
1F1
330
1E8
100
AcDbEntity
  8
0
  6
Continuous
 62
     0
370
     0
100
AcDbLine
 10
0.0
 20
-5.0
 30
0.0
 11
0.0
 21
-39.5069819202
 31
0.0
  0
LINE
  5
1F2
330
1E8
100
AcDbEntity
  8
0
  6
Continuous
 62
     0
370
     0
100
AcDbLine
 10
5.0
 20
0.0
 30
0.0
 11
39.5069819202
 21
0.0
 31
0.0
  0
ENDBLK
  5
1EA
330
1E8
100
AcDbEntity
  8
0
100
AcDbBlockEnd
  0
BLOCK
  5
2BC
330
2BB
100
AcDbEntity
  8
0
100
AcDbBlockBegin
  2
*D8
 70
     1
 10
0.0
 20
0.0
 30
0.0
  3
*D8
  1

  0
ARC
  5
2BE
330
2BB
100
AcDbEntity
  8
0
  6
Continuous
 62
     7
370
     0
100
AcDbCircle
 10
397.4346226348
 20
324.661216981
 30
0.0
 40
6.209701602896246
100
AcDbArc
 50
243.4349488229
 51
296.5650511771
  0
ARC
  5
2BF
330
2BB
100
AcDbEntity
  8
0
  6
Continuous
 62
     7
370
     0
100
AcDbCircle
 10
397.4346226348
 20
321.8968581973
 30
0.0
 40
6.209701602896246
100
AcDbArc
 50
63.4349488229
 51
116.5650511771
  0
SOLID
  5
2C0
330
2BB
100
AcDbEntity
  8
0
  6
Continuous
 62
     7
370
     0
100
AcDbTrace
 10
400.2116856156
 20
349.4461020432
 30
0.0
 11
399.3116856156
 21
343.4461020432
 31
0.0
 12
401.1116856156
 22
343.4461020432
 32
0.0
 13
401.1116856156
 23
343.4461020432
 33
0.0
  0
SOLID
  5
2C1
330
2BB
100
AcDbEntity
  8
0
  6
Continuous
 62
     7
370
     0
100
AcDbTrace
 10
400.2116856156
 20
301.6461020432
 30
0.0
 11
401.1116856156
 21
307.6461020432
 31
0.0
 12
399.3116856156
 22
307.6461020432
 32
0.0
 13
399.3116856156
 23
307.6461020432
 33
0.0
  0
LINE
  5
2C2
330
2BB
100
AcDbEntity
  8
0
  6
Continuous
 62
     7
370
     0
100
AcDbLine
 10
413.9878435995
 20
349.4461020432
 30
0.0
 11
399.2116856156
 21
349.4461020432
 31
0.0
  0
LINE
  5
2C3
330
2BB
100
AcDbEntity
  8
0
  6
Continuous
 62
     7
370
     0
100
AcDbLine
 10
389.6613240896
 20
301.6461020432
 30
0.0
 11
401.2116856156
 21
301.6461020432
 31
0.0
  0
LINE
  5
2C4
330
2BB
100
AcDbEntity
  8
0
  6
Continuous
 62
     7
370
     0
100
AcDbLine
 10
400.2116856156
 20
349.4461020432
 30
0.0
 11
400.2116856156
 21
301.6461020432
 31
0.0
  0
MTEXT
  5
2C5
330
2BB
100
AcDbEntity
  8
0
  6
Continuous
 62
     7
370
     0
100
AcDbMText
 10
395.699948701
 20
320.6945910193
 30
0.0
 40
3.5
 41
0.0
 71
     1
 72
     1
  1
48
  7
SLDTEXTSTYLE0
 11
-7.044195017643634E-15
 21
1.0
 31
0.0
 73
     1
 44
1.0
  0
ENDBLK
  5
2BD
330
2BB
100
AcDbEntity
  8
0
100
AcDbBlockEnd
  0
BLOCK
  5
2C8
330
2C7
100
AcDbEntity
  8
0
100
AcDbBlockBegin
  2
*D9
 70
     1
 10
0.0
 20
0.0
 30
0.0
  3
*D9
  1

  0
ARC
  5
2CA
330
2C7
100
AcDbEntity
  8
0
  6
Continuous
 62
     7
370
     0
100
AcDbCircle
 10
369.93628678
 20
264.2573498418
 30
0.0
 40
6.20970160289622
100
AcDbArc
 50
243.4349488229
 51
296.5650511771
  0
ARC
  5
2CB
330
2C7
100
AcDbEntity
  8
0
  6
Continuous
 62
     7
370
     0
100
AcDbCircle
 10
369.93628678
 20
261.4929910582
 30
0.0
 40
6.20970160289622
100
AcDbArc
 50
63.4349488229
 51
116.5650511771
  0
SOLID
  5
2CC
330
2C7
100
AcDbEntity
  8
0
  6
Continuous
 62
     7
370
     0
100
AcDbTrace
 10
372.7133497608
 20
254.4461020432
 30
0.0
 11
371.8133497608
 21
248.4461020432
 31
0.0
 12
373.6133497608
 22
248.4461020432
 32
0.0
 13
373.6133497608
 23
248.4461020432
 33
0.0
  0
SOLID
  5
2CD
330
2C7
100
AcDbEntity
  8
0
  6
Continuous
 62
     7
370
     0
100
AcDbTrace
 10
372.7133497608
 20
271.6461020432
 30
0.0
 11
373.6133497608
 21
277.6461020432
 31
0.0
 12
371.8133497608
 22
277.6461020432
 32
0.0
 13
371.8133497608
 23
277.6461020432
 33
0.0
  0
LINE
  5
2CE
330
2C7
100
AcDbEntity
  8
0
  6
Continuous
 62
     7
370
     0
100
AcDbLine
 10
424.0908049869
 20
254.4461020432
 30
0.0
 11
371.7133497608
 21
254.4461020432
 31
0.0
  0
LINE
  5
2CF
330
2C7
100
AcDbEntity
  8
0
  6
Continuous
 62
     7
370
     0
100
AcDbLine
 10
378.6868148284
 20
271.6461020432
 30
0.0
 11
371.7133497608
 21
271.6461020432
 31
0.0
  0
LINE
  5
2D0
330
2C7
100
AcDbEntity
  8
0
  6
Continuous
 62
     7
370
     0
100
AcDbLine
 10
372.7133497608
 20
254.4461020432
 30
0.0
 11
372.7133497608
 21
242.4461020432
 31
0.0
  0
LINE
  5
2D1
330
2C7
100
AcDbEntity
  8
0
  6
Continuous
 62
     7
370
     0
100
AcDbLine
 10
372.7133497608
 20
254.4461020432
 30
0.0
 11
372.7133497608
 21
271.6461020432
 31
0.0
  0
LINE
  5
2D2
330
2C7
100
AcDbEntity
  8
0
  6
Continuous
 62
     7
370
     0
100
AcDbLine
 10
372.7133497608
 20
271.6461020432
 30
0.0
 11
372.7133497608
 21
283.6461020432
 31
0.0
  0
MTEXT
  5
2D3
330
2C7
100
AcDbEntity
  8
0
  6
Continuous
 62
     7
370
     0
100
AcDbMText
 10
368.2016128462
 20
260.2907238802
 30
0.0
 40
3.5
 41
0.0
 71
     1
 72
     1
  1
17
  7
SLDTEXTSTYLE0
 11
-3.828568698926949E-16
 21
1.0
 31
0.0
 73
     1
 44
1.0
  0
ENDBLK
  5
2C9
330
2C7
100
AcDbEntity
  8
0
100
AcDbBlockEnd
  0
ENDSEC
  0
SECTION
  2
ENTITIES
  0
ARC
  5
46
330
1F
100
AcDbEntity
  8
0
  6
Continuous
 62
     7
370
    15
100
AcDbCircle
 10
272.7148823278
 20
278.6461020432
 30
0.0
 40
17.00000000000003
100
AcDbArc
 50
343.398450401
 51
16.601549599
  0
ARC
  5
47
330
1F
100
AcDbEntity
  8
0
  6
Continuous
 62
     7
370
    15
100
AcDbCircle
 10
150.7148823278
 20
278.6461020432
 30
0.0
 40
17.00000000000001
100
AcDbArc
 50
163.398450401
 51
196.601549599
  0
ARC
  5
48
330
1F
100
AcDbEntity
  8
0
  6
Continuous
 62
     7
370
    15
100
AcDbCircle
 10
288.8145717658
 20
273.8461020432
 30
0.0
 40
0.2000000000000108
100
AcDbArc
 50
270.0
 51
343.398450401
  0
ARC
  5
49
330
1F
100
AcDbEntity
  8
0
  6
Continuous
 62
     7
370
    15
100
AcDbCircle
 10
288.8145717658
 20
283.4461020432
 30
0.0
 40
0.1999999999999946
100
AcDbArc
 50
16.601549599
 51
90.0
  0
ARC
  5
4A
330
1F
100
AcDbEntity
  8
0
  6
Continuous
 62
     7
370
    15
100
AcDbCircle
 10
134.6151928898
 20
273.8461020432
 30
0.0
 40
0.1999999999999886
100
AcDbArc
 50
196.601549599
 51
270.0
  0
ARC
  5
4B
330
1F
100
AcDbEntity
  8
0
  6
Continuous
 62
     7
370
    15
100
AcDbCircle
 10
134.6151928898
 20
283.4461020432
 30
0.0
 40
0.1999999999999886
100
AcDbArc
 50
90.0
 51
163.398450401
  0
ARC
  5
4C
330
1F
100
AcDbEntity
  8
0
  6
Continuous
 62
     7
370
    15
100
AcDbCircle
 10
137.9157613178
 20
306.8881017495
 30
0.0
 40
4.999995971225199
100
AcDbArc
 50
179.5971394425
 51
190.5
  0
ARC
  5
4D
330
1F
100
AcDbEntity
  8
0
  6
Continuous
 62
     7
370
    15
100
AcDbCircle
 10
202.5140033378
 20
306.8881017495
 30
0.0
 40
4.999995971225199
100
AcDbArc
 50
349.5
 51
0.4028605575
  0
LINE
  5
4E
330
1F
100
AcDbEntity
  8
0
  6
Continuous
 62
     7
370
    15
100
AcDbLine
 10
207.5138748779
 20
306.9232563398
 30
0.0
 11
207.2218642726
 21
348.4531315885
 31
0.0
  0
LINE
  5
4F
330
1F
100
AcDbEntity
  8
0
  6
Continuous
 62
     7
370
    15
100
AcDbLine
 10
133.2078990682
 20
348.4531315885
 30
0.0
 11
132.9158884629
 21
306.9232563398
 31
0.0
  0
LINE
  5
50
330
1F
100
AcDbEntity
  8
0
  6
Continuous
 62
     7
370
    15
100
AcDbLine
 10
132.9994914278
 20
305.9769245706
 30
0.0
 11
136.2148826166
 21
288.6282234363
 31
0.0
  0
LINE
  5
51
330
1F
100
AcDbEntity
  8
0
  6
Continuous
 62
     7
370
    15
100
AcDbLine
 10
204.2148825868
 20
288.6282234363
 30
0.0
 11
207.4302737757
 21
305.9769245706
 31
0.0
  0
ARC
  5
52
330
1F
100
AcDbEntity
  8
0
  6
Continuous
 62
     7
370
    15
100
AcDbCircle
 10
134.2078756885
 20
348.4461020432
 30
0.0
 40
1.000000000000058
100
AcDbArc
 50
90.0
 51
179.5971394425
  0
ARC
  5
53
330
1F
100
AcDbEntity
  8
0
  6
Continuous
 62
     7
370
    15
100
AcDbCircle
 10
206.2218889672
 20
348.4461020432
 30
0.0
 40
1.000000000000058
100
AcDbArc
 50
0.4028605575
 51
90.0
  0
ARC
  5
54
330
1F
100
AcDbEntity
  8
0
  6
Continuous
 62
     7
370
    15
100
AcDbCircle
 10
141.1311568657
 20
289.5394019565
 30
0.0
 40
5.000000000000017
100
AcDbArc
 50
190.5
 51
226.2545161039
  0
ARC
  5
55
330
1F
100
AcDbEntity
  8
0
  6
Continuous
 62
     7
370
    15
100
AcDbCircle
 10
199.29860779
 20
289.5394019565
 30
0.0
 40
5.000000000000017
100
AcDbArc
 50
313.7454838961
 51
349.5
  0
ARC
  5
56
330
1F
100
AcDbEntity
  8
0
  6
Continuous
 62
     7
370
    15
100
AcDbCircle
 10
134.216595703
 20
282.3152173017
 30
0.0
 40
5.000000000000004
100
AcDbArc
 50
27.7864187472
 51
46.2545161039
  0
ARC
  5
57
330
1F
100
AcDbEntity
  8
0
  6
Continuous
 62
     7
370
    15
100
AcDbCircle
 10
206.2131689527
 20
282.3152173017
 30
0.0
 40
5.000000000000004
100
AcDbArc
 50
133.7454838961
 51
152.2135812528
  0
LINE
  5
58
330
1F
100
AcDbEntity
  8
0
  6
Continuous
 62
     7
370
    15
100
AcDbLine
 10
139.4767430767
 20
272.446102023
 30
0.0
 11
139.8205873712
 21
259.315216998
 31
0.0
  0
LINE
  5
59
330
1F
100
AcDbEntity
  8
0
  6
Continuous
 62
     7
370
    15
100
AcDbLine
 10
200.6091787636
 20
259.315216998
 30
0.0
 11
200.9530230581
 21
272.446102023
 31
0.0
  0
ARC
  5
5A
330
1F
100
AcDbEntity
  8
0
  6
Continuous
 62
     7
370
    15
100
AcDbCircle
 10
144.8188724864
 20
259.4461020432
 30
0.0
 40
5.000000000000019
100
AcDbArc
 50
181.5
 51
270.0
  0
ARC
  5
5B
330
1F
100
AcDbEntity
  8
0
  6
Continuous
 62
     7
370
    15
100
AcDbCircle
 10
195.6108921693
 20
259.4461020432
 30
0.0
 40
5.000000000000019
100
AcDbArc
 50
270.0
 51
358.5
  0
ARC
  5
5C
330
1F
100
AcDbEntity
  8
0
  6
Continuous
 62
     7
370
    15
100
AcDbCircle
 10
220.9157613178
 20
306.8881017495
 30
0.0
 40
4.999995971225199
100
AcDbArc
 50
179.5971394425
 51
190.5
  0
ARC
  5
5D
330
1F
100
AcDbEntity
  8
0
  6
Continuous
 62
     7
370
    15
100
AcDbCircle
 10
285.5140033378
 20
306.8881017495
 30
0.0
 40
4.999995971225268
100
AcDbArc
 50
349.5
 51
0.4028605575
  0
LINE
  5
5E
330
1F
100
AcDbEntity
  8
0
  6
Continuous
 62
     7
370
    15
100
AcDbLine
 10
290.5138773068
 20
306.9232563398
 30
0.0
 11
290.2218667015
 21
348.4531315885
 31
0.0
  0
LINE
  5
5F
330
1F
100
AcDbEntity
  8
0
  6
Continuous
 62
     7
370
    15
100
AcDbLine
 10
216.2078996345
 20
348.4531315885
 30
0.0
 11
215.9158890291
 21
306.9232563398
 31
0.0
  0
LINE
  5
60
330
1F
100
AcDbEntity
  8
0
  6
Continuous
 62
     7
370
    15
100
AcDbLine
 10
215.9994901314
 20
305.9769245706
 30
0.0
 11
219.2148831829
 21
288.6282234363
 31
0.0
  0
LINE
  5
61
330
1F
100
AcDbEntity
  8
0
  6
Continuous
 62
     7
370
    15
100
AcDbLine
 10
287.2148794278
 20
288.6282234363
 30
0.0
 11
290.4302743419
 21
305.9769245706
 31
0.0
  0
ARC
  5
62
330
1F
100
AcDbEntity
  8
0
  6
Continuous
 62
     7
370
    15
100
AcDbCircle
 10
217.2078756885
 20
348.4461020432
 30
0.0
 40
1.000000000000029
100
AcDbArc
 50
90.0
 51
179.5971394425
  0
ARC
  5
63
330
1F
100
AcDbEntity
  8
0
  6
Continuous
 62
     7
370
    15
100
AcDbCircle
 10
289.2218889672
 20
348.4461020432
 30
0.0
 40
1.000000000000086
100
AcDbArc
 50
0.4028605575
 51
90.0
  0
ARC
  5
64
330
1F
100
AcDbEntity
  8
0
  6
Continuous
 62
     7
370
    15
100
AcDbCircle
 10
224.1311568657
 20
289.5394019565
 30
0.0
 40
5.000000000000011
100
AcDbArc
 50
190.5
 51
226.2545161039
  0
ARC
  5
65
330
1F
100
AcDbEntity
  8
0
  6
Continuous
 62
     7
370
    15
100
AcDbCircle
 10
282.29860779
 20
289.5394019565
 30
0.0
 40
5.000000000000011
100
AcDbArc
 50
313.7454838961
 51
349.5
  0
ARC
  5
66
330
1F
100
AcDbEntity
  8
0
  6
Continuous
 62
     7
370
    15
100
AcDbCircle
 10
217.216595703
 20
282.3152173017
 30
0.0
 40
5.000000000000004
100
AcDbArc
 50
27.7864187472
 51
46.2545161039
  0
ARC
  5
67
330
1F
100
AcDbEntity
  8
0
  6
Continuous
 62
     7
370
    15
100
AcDbCircle
 10
289.2131689527
 20
282.3152173017
 30
0.0
 40
4.999999999999979
100
AcDbArc
 50
133.7454838961
 51
152.2135812528
  0
LINE
  5
68
330
1F
100
AcDbEntity
  8
0
  6
Continuous
 62
     7
370
    15
100
AcDbLine
 10
222.4767399176
 20
272.446102023
 30
0.0
 11
222.8205842122
 21
259.315216998
 31
0.0
  0
LINE
  5
69
330
1F
100
AcDbEntity
  8
0
  6
Continuous
 62
     7
370
    15
100
AcDbLine
 10
283.6091783985
 20
259.315216998
 30
0.0
 11
283.953022693
 21
272.446102023
 31
0.0
  0
ARC
  5
6A
330
1F
100
AcDbEntity
  8
0
  6
Continuous
 62
     7
370
    15
100
AcDbCircle
 10
227.8188724864
 20
259.4461020432
 30
0.0
 40
5.000000000000047
100
AcDbArc
 50
181.5
 51
270.0
  0
ARC
  5
6B
330
1F
100
AcDbEntity
  8
0
  6
Continuous
 62
     7
370
    15
100
AcDbCircle
 10
278.6108921693
 20
259.4461020432
 30
0.0
 40
5.000000000000047
100
AcDbArc
 50
270.0
 51
358.5
  0
LINE
  5
6C
330
1F
100
AcDbEntity
  8
0
  6
Continuous
 62
     7
370
    15
100
AcDbLine
 10
218.214883019
 20
284.6461023114
 30
0.0
 11
218.214883019
 21
283.6461021475
 31
0.0
  0
LINE
  5
6D
330
1F
100
AcDbEntity
  8
0
  6
Continuous
 62
     7
370
    15
100
AcDbLine
 10
288.2148814543
 20
283.6461021475
 30
0.0
 11
288.2148814543
 21
284.6461023114
 31
0.0
  0
LINE
  5
6E
330
1F
100
AcDbEntity
  8
0
  6
Continuous
 62
     7
370
    15
100
AcDbLine
 10
219.7148804709
 20
273.6461021382
 30
0.0
 11
219.7148804709
 21
273.4461020123
 31
0.0
  0
LINE
  5
6F
330
1F
100
AcDbEntity
  8
0
  6
Continuous
 62
     7
370
    15
100
AcDbLine
 10
286.7148858651
 20
273.4461020123
 30
0.0
 11
286.7148858651
 21
273.6461021382
 31
0.0
  0
LINE
  5
70
330
1F
100
AcDbEntity
  8
0
  6
Continuous
 62
     7
370
    15
100
AcDbLine
 10
218.7148821696
 20
273.4461020123
 30
0.0
 11
218.7148821696
 21
272.446102023
 31
0.0
  0
LINE
  5
71
330
1F
100
AcDbEntity
  8
0
  6
Continuous
 62
     7
370
    15
100
AcDbLine
 10
287.7148804411
 20
272.446102023
 30
0.0
 11
287.7148804411
 21
273.4461020123
 31
0.0
  0
LINE
  5
72
330
1F
100
AcDbEntity
  8
0
  6
Continuous
 62
     7
370
    15
100
AcDbLine
 10
135.2148805901
 20
284.6461023114
 30
0.0
 11
135.2148805901
 21
283.6461021475
 31
0.0
  0
LINE
  5
73
330
1F
100
AcDbEntity
  8
0
  6
Continuous
 62
     7
370
    15
100
AcDbLine
 10
205.2148827507
 20
283.6461021475
 30
0.0
 11
205.2148827507
 21
284.6461023114
 31
0.0
  0
LINE
  5
74
330
1F
100
AcDbEntity
  8
0
  6
Continuous
 62
     7
370
    15
100
AcDbLine
 10
136.7148836299
 20
273.6461021382
 30
0.0
 11
136.7148836299
 21
273.4461020123
 31
0.0
  0
LINE
  5
75
330
1F
100
AcDbEntity
  8
0
  6
Continuous
 62
     7
370
    15
100
AcDbLine
 10
203.7148825049
 20
273.4461020123
 30
0.0
 11
203.7148825049
 21
273.6461021382
 31
0.0
  0
LINE
  5
76
330
1F
100
AcDbEntity
  8
0
  6
Continuous
 62
     7
370
    15
100
AcDbLine
 10
204.7148817375
 20
272.446102023
 30
0.0
 11
204.7148817375
 21
273.4461020123
 31
0.0
  0
LINE
  5
77
330
1F
100
AcDbEntity
  8
0
  6
Continuous
 62
     7
370
    15
100
AcDbLine
 10
135.7148816033
 20
273.4461020123
 30
0.0
 11
135.7148816033
 21
272.446102023
 31
0.0
  0
LINE
  5
78
330
1F
100
AcDbEntity
  8
0
  6
Continuous
 62
     7
370
    15
100
AcDbLine
 10
223.2571211799
 20
273.6461021382
 30
0.0
 11
288.814571236
 21
273.6461021382
 31
0.0
  0
LINE
  5
79
330
1F
100
AcDbEntity
  8
0
  6
Continuous
 62
     7
370
    15
100
AcDbLine
 10
223.2571211799
 20
283.6461021475
 30
0.0
 11
288.814571236
 21
283.6461021475
 31
0.0
  0
LINE
  5
7A
330
1F
100
AcDbEntity
  8
0
  6
Continuous
 62
     7
370
    15
100
AcDbLine
 10
134.6151945337
 20
273.6461021382
 30
0.0
 11
200.1726436584
 21
273.6461021382
 31
0.0
  0
LINE
  5
7B
330
1F
100
AcDbEntity
  8
0
  6
Continuous
 62
     7
370
    15
100
AcDbLine
 10
134.6151945337
 20
283.6461021475
 30
0.0
 11
200.1726436584
 21
283.6461021475
 31
0.0
  0
LINE
  5
7C
330
1F
100
AcDbEntity
  8
0
  6
Continuous
 62
     7
370
    15
100
AcDbLine
 10
216.6088712557
 20
283.6461021475
 30
0.0
 11
223.2571211799
 21
283.6461021475
 31
0.0
  0
LINE
  5
7D
330
1F
100
AcDbEntity
  8
0
  6
Continuous
 62
     7
370
    15
100
AcDbLine
 10
216.6088712557
 20
273.6461021382
 30
0.0
 11
223.2571211799
 21
273.6461021382
 31
0.0
  0
LINE
  5
7E
330
1F
100
AcDbEntity
  8
0
  6
Continuous
 62
     7
370
    15
100
AcDbLine
 10
200.1726436584
 20
283.6461021475
 30
0.0
 11
206.8208926513
 21
283.6461021475
 31
0.0
  0
LINE
  5
7F
330
1F
100
AcDbEntity
  8
0
  6
Continuous
 62
     7
370
    15
100
AcDbLine
 10
200.1726436584
 20
273.6461021382
 30
0.0
 11
206.8208926513
 21
273.6461021382
 31
0.0
  0
LINE
  5
80
330
1F
100
AcDbEntity
  8
0
  6
Continuous
 62
     7
370
    15
100
AcDbLine
 10
206.8208926513
 20
273.6461021382
 30
0.0
 11
216.6088712557
 21
273.6461021382
 31
0.0
  0
LINE
  5
81
330
1F
100
AcDbEntity
  8
0
  6
Continuous
 62
     7
370
    15
100
AcDbLine
 10
206.8208926513
 20
283.6461021475
 30
0.0
 11
216.6088712557
 21
283.6461021475
 31
0.0
  0
LINE
  5
82
330
1F
100
AcDbEntity
  8
0
  6
Continuous
 62
     7
370
    15
100
AcDbLine
 10
202.4842002585
 20
285.6461024753
 30
0.0
 11
220.9455636486
 21
285.6461024753
 31
0.0
  0
LINE
  5
83
330
1F
100
AcDbEntity
  8
0
  6
Continuous
 62
     7
370
    15
100
AcDbLine
 10
222.4976909503
 20
271.6461020432
 30
0.0
 11
200.9320748194
 21
271.6461020432
 31
0.0
  0
LINE
  5
84
330
1F
100
AcDbEntity
  8
0
  6
Continuous
 62
     7
370
    15
100
AcDbLine
 10
206.6276041015
 20
301.6461013726
 30
0.0
 11
216.8021616682
 21
301.6461013726
 31
0.0
  0
LINE
  5
85
330
1F
100
AcDbEntity
  8
0
  6
Continuous
 62
     7
370
    15
100
AcDbLine
 10
177.7924769714
 20
349.446100267
 30
0.0
 11
206.2218883231
 21
349.446100267
 31
0.0
  0
LINE
  5
86
330
1F
100
AcDbEntity
  8
0
  6
Continuous
 62
     7
370
    15
100
AcDbLine
 10
134.2078750177
 20
349.446100267
 30
0.0
 11
177.7924769714
 21
349.446100267
 31
0.0
  0
LINE
  5
87
330
1F
100
AcDbEntity
  8
0
  6
Continuous
 62
     7
370
    15
100
AcDbLine
 10
175.5594159632
 20
254.4461014591
 30
0.0
 11
195.6108920432
 21
254.4461014591
 31
0.0
  0
LINE
  5
88
330
1F
100
AcDbEntity
  8
0
  6
Continuous
 62
     7
370
    15
100
AcDbLine
 10
144.8188726946
 20
254.4461014591
 30
0.0
 11
175.5594159632
 21
254.4461014591
 31
0.0
  0
LINE
  5
89
330
1F
100
AcDbEntity
  8
0
  6
Continuous
 62
     7
370
    15
100
AcDbLine
 10
257.7545163377
 20
349.446100267
 30
0.0
 11
289.2218870267
 21
349.446100267
 31
0.0
  0
LINE
  5
8A
330
1F
100
AcDbEntity
  8
0
  6
Continuous
 62
     7
370
    15
100
AcDbLine
 10
217.207875584
 20
349.446100267
 30
0.0
 11
257.7545163377
 21
349.446100267
 31
0.0
  0
LINE
  5
8B
330
1F
100
AcDbEntity
  8
0
  6
Continuous
 62
     7
370
    15
100
AcDbLine
 10
256.4167198881
 20
254.4461014591
 30
0.0
 11
278.6108893498
 21
254.4461014591
 31
0.0
  0
LINE
  5
8C
330
1F
100
AcDbEntity
  8
0
  6
Continuous
 62
     7
370
    15
100
AcDbLine
 10
227.8188732608
 20
254.4461014591
 30
0.0
 11
256.4167198881
 21
254.4461014591
 31
0.0
  0
LINE
  5
8D
330
1F
100
AcDbEntity
  8
0
  6
Continuous
 62
     7
370
    15
100
AcDbLine
 10
218.6234989359
 20
284.6461023114
 30
0.0
 11
288.2148814543
 21
284.6461023114
 31
0.0
  0
LINE
  5
8E
330
1F
100
AcDbEntity
  8
0
  6
Continuous
 62
     7
370
    15
100
AcDbLine
 10
218.214883019
 20
284.6461023114
 30
0.0
 11
218.6234989359
 21
284.6461023114
 31
0.0
  0
LINE
  5
8F
330
1F
100
AcDbEntity
  8
0
  6
Continuous
 62
     7
370
    15
100
AcDbLine
 10
277.5049177154
 20
273.6461021382
 30
0.0
 11
277.5049177154
 21
273.4461020123
 31
0.0
  0
LINE
  5
90
330
1F
100
AcDbEntity
  8
0
  6
Continuous
 62
     7
370
    15
100
AcDbLine
 10
237.0004435226
 20
273.4461020123
 30
0.0
 11
237.0004435226
 21
273.6461021382
 31
0.0
  0
LINE
  5
91
330
1F
100
AcDbEntity
  8
0
  6
Continuous
 62
     7
370
    15
100
AcDbLine
 10
230.144467686
 20
273.6461021382
 30
0.0
 11
230.144467686
 21
273.4461020123
 31
0.0
  0
LINE
  5
92
330
1F
100
AcDbEntity
  8
0
  6
Continuous
 62
     7
370
    15
100
AcDbLine
 10
282.5294179066
 20
273.4461020123
 30
0.0
 11
282.5294179066
 21
273.6461021382
 31
0.0
  0
LINE
  5
93
330
1F
100
AcDbEntity
  8
0
  6
Continuous
 62
     7
370
    15
100
AcDbLine
 10
236.4046503945
 20
272.446102023
 30
0.0
 11
278.3178803667
 21
272.446102023
 31
0.0
  0
LINE
  5
94
330
1F
100
AcDbEntity
  8
0
  6
Continuous
 62
     7
370
    15
100
AcDbLine
 10
236.4046503945
 20
272.446102023
 30
0.0
 11
236.4046503945
 21
273.4461020123
 31
0.0
  0
LINE
  5
95
330
1F
100
AcDbEntity
  8
0
  6
Continuous
 62
     7
370
    15
100
AcDbLine
 10
278.3178803667
 20
273.4461020123
 30
0.0
 11
278.3178803667
 21
272.446102023
 31
0.0
  0
LINE
  5
96
330
1F
100
AcDbEntity
  8
0
  6
Continuous
 62
     7
370
    15
100
AcDbLine
 10
236.4046503945
 20
273.4461020123
 30
0.0
 11
278.3178803667
 21
273.4461020123
 31
0.0
  0
LINE
  5
97
330
1F
100
AcDbEntity
  8
0
  6
Continuous
 62
     7
370
    15
100
AcDbLine
 10
231.038708721
 20
272.446102023
 30
0.0
 11
231.038708721
 21
273.6461021382
 31
0.0
  0
LINE
  5
98
330
1F
100
AcDbEntity
  8
0
  6
Continuous
 62
     7
370
    15
100
AcDbLine
 10
281.3092139705
 20
273.6461021382
 30
0.0
 11
281.3092139705
 21
272.446102023
 31
0.0
  0
LINE
  5
99
330
1F
100
AcDbEntity
  8
0
  6
Continuous
 62
     7
370
    15
100
AcDbLine
 10
218.7148821696
 20
273.4461020123
 30
0.0
 11
229.548674558
 21
273.4461020123
 31
0.0
  0
LINE
  5
9A
330
1F
100
AcDbEntity
  8
0
  6
Continuous
 62
     7
370
    15
100
AcDbLine
 10
229.548674558
 20
273.4461020123
 30
0.0
 11
229.548674558
 21
272.446102023
 31
0.0
  0
LINE
  5
9B
330
1F
100
AcDbEntity
  8
0
  6
Continuous
 62
     7
370
    15
100
AcDbLine
 10
218.7148821696
 20
272.446102023
 30
0.0
 11
229.548674558
 21
272.446102023
 31
0.0
  0
LINE
  5
9C
330
1F
100
AcDbEntity
  8
0
  6
Continuous
 62
     7
370
    15
100
AcDbLine
 10
230.144467686
 20
273.4461020123
 30
0.0
 11
229.548674558
 21
273.4461020123
 31
0.0
  0
LINE
  5
9D
330
1F
100
AcDbEntity
  8
0
  6
Continuous
 62
     7
370
    15
100
AcDbLine
 10
231.038708721
 20
272.446102023
 30
0.0
 11
229.548674558
 21
272.446102023
 31
0.0
  0
LINE
  5
9E
330
1F
100
AcDbEntity
  8
0
  6
Continuous
 62
     7
370
    15
100
AcDbLine
 10
283.3423805579
 20
273.4461020123
 30
0.0
 11
282.5294179066
 21
273.4461020123
 31
0.0
  0
LINE
  5
9F
330
1F
100
AcDbEntity
  8
0
  6
Continuous
 62
     7
370
    15
100
AcDbLine
 10
283.3423805579
 20
272.446102023
 30
0.0
 11
283.3423805579
 21
273.4461020123
 31
0.0
  0
LINE
  5
A0
330
1F
100
AcDbEntity
  8
0
  6
Continuous
 62
     7
370
    15
100
AcDbLine
 10
283.3423805579
 20
272.446102023
 30
0.0
 11
281.3092139705
 21
272.446102023
 31
0.0
  0
LINE
  5
A1
330
1F
100
AcDbEntity
  8
0
  6
Continuous
 62
     7
370
    15
100
AcDbLine
 10
283.3423805579
 20
273.4461020123
 30
0.0
 11
287.7148804411
 21
273.4461020123
 31
0.0
  0
LINE
  5
A2
330
1F
100
AcDbEntity
  8
0
  6
Continuous
 62
     7
370
    15
100
AcDbLine
 10
283.3423805579
 20
272.446102023
 30
0.0
 11
287.7148804411
 21
272.446102023
 31
0.0
  0
LINE
  5
A3
330
1F
100
AcDbEntity
  8
0
  6
Continuous
 62
     7
370
    15
100
AcDbLine
 10
203.5578773513
 20
284.6461023114
 30
0.0
 11
205.2148827507
 21
284.6461023114
 31
0.0
  0
LINE
  5
A4
330
1F
100
AcDbEntity
  8
0
  6
Continuous
 62
     7
370
    15
100
AcDbLine
 10
135.2148805901
 20
284.6461023114
 30
0.0
 11
203.5578773513
 21
284.6461023114
 31
0.0
  0
LINE
  5
A5
330
1F
100
AcDbEntity
  8
0
  6
Continuous
 62
     7
370
    15
100
AcDbLine
 10
189.2317109897
 20
273.4461020123
 30
0.0
 11
189.2317109897
 21
273.6461021382
 31
0.0
  0
LINE
  5
A6
330
1F
100
AcDbEntity
  8
0
  6
Continuous
 62
     7
370
    15
100
AcDbLine
 10
181.6784069098
 20
273.6461021382
 30
0.0
 11
181.6784069098
 21
273.4461020123
 31
0.0
  0
LINE
  5
A7
330
1F
100
AcDbEntity
  8
0
  6
Continuous
 62
     7
370
    15
100
AcDbLine
 10
142.6357184692
 20
273.4461020123
 30
0.0
 11
142.6357184692
 21
273.6461021382
 31
0.0
  0
LINE
  5
A8
330
1F
100
AcDbEntity
  8
0
  6
Continuous
 62
     7
370
    15
100
AcDbLine
 10
138.7373102053
 20
273.6461021382
 30
0.0
 11
138.7373102053
 21
273.4461020123
 31
0.0
  0
LINE
  5
A9
330
1F
100
AcDbEntity
  8
0
  6
Continuous
 62
     7
370
    15
100
AcDbLine
 10
140.0816184624
 20
272.446102023
 30
0.0
 11
140.0816184624
 21
273.6461021382
 31
0.0
  0
LINE
  5
AA
330
1F
100
AcDbEntity
  8
0
  6
Continuous
 62
     7
370
    15
100
AcDbLine
 10
188.537886149
 20
273.6461021382
 30
0.0
 11
188.537886149
 21
272.446102023
 31
0.0
  0
LINE
  5
AB
330
1F
100
AcDbEntity
  8
0
  6
Continuous
 62
     7
370
    15
100
AcDbLine
 10
141.7400692745
 20
272.446102023
 30
0.0
 11
182.1406702667
 21
272.446102023
 31
0.0
  0
LINE
  5
AC
330
1F
100
AcDbEntity
  8
0
  6
Continuous
 62
     7
370
    15
100
AcDbLine
 10
141.7400692745
 20
272.446102023
 30
0.0
 11
141.7400692745
 21
273.4461020123
 31
0.0
  0
LINE
  5
AD
330
1F
100
AcDbEntity
  8
0
  6
Continuous
 62
     7
370
    15
100
AcDbLine
 10
182.1406702667
 20
273.4461020123
 30
0.0
 11
182.1406702667
 21
272.446102023
 31
0.0
  0
LINE
  5
AE
330
1F
100
AcDbEntity
  8
0
  6
Continuous
 62
     7
370
    15
100
AcDbLine
 10
141.7400692745
 20
273.4461020123
 30
0.0
 11
182.1406702667
 21
273.4461020123
 31
0.0
  0
LINE
  5
AF
330
1F
100
AcDbEntity
  8
0
  6
Continuous
 62
     7
370
    15
100
AcDbLine
 10
189.6939738809
 20
272.446102023
 30
0.0
 11
189.6939738809
 21
273.4461020123
 31
0.0
  0
LINE
  5
B0
330
1F
100
AcDbEntity
  8
0
  6
Continuous
 62
     7
370
    15
100
AcDbLine
 10
189.6939738809
 20
272.446102023
 30
0.0
 11
204.7148817375
 21
272.446102023
 31
0.0
  0
LINE
  5
B1
330
1F
100
AcDbEntity
  8
0
  6
Continuous
 62
     7
370
    15
100
AcDbLine
 10
189.6939738809
 20
273.4461020123
 30
0.0
 11
204.7148817375
 21
273.4461020123
 31
0.0
  0
LINE
  5
B2
330
1F
100
AcDbEntity
  8
0
  6
Continuous
 62
     7
370
    15
100
AcDbLine
 10
188.537886149
 20
272.446102023
 30
0.0
 11
189.6939738809
 21
272.446102023
 31
0.0
  0
LINE
  5
B3
330
1F
100
AcDbEntity
  8
0
  6
Continuous
 62
     7
370
    15
100
AcDbLine
 10
189.6939738809
 20
273.4461020123
 30
0.0
 11
189.2317109897
 21
273.4461020123
 31
0.0
  0
LINE
  5
B4
330
1F
100
AcDbEntity
  8
0
  6
Continuous
 62
     7
370
    15
100
AcDbLine
 10
137.8416572853
 20
273.4461020123
 30
0.0
 11
137.8416572853
 21
272.446102023
 31
0.0
  0
LINE
  5
B5
330
1F
100
AcDbEntity
  8
0
  6
Continuous
 62
     7
370
    15
100
AcDbLine
 10
138.7373102053
 20
273.4461020123
 30
0.0
 11
137.8416572853
 21
273.4461020123
 31
0.0
  0
LINE
  5
B6
330
1F
100
AcDbEntity
  8
0
  6
Continuous
 62
     7
370
    15
100
AcDbLine
 10
137.8416572853
 20
272.446102023
 30
0.0
 11
140.0816184624
 21
272.446102023
 31
0.0
  0
LINE
  5
B7
330
1F
100
AcDbEntity
  8
0
  6
Continuous
 62
     7
370
    15
100
AcDbLine
 10
135.7148816033
 20
273.4461020123
 30
0.0
 11
137.8416572853
 21
273.4461020123
 31
0.0
  0
LINE
  5
B8
330
1F
100
AcDbEntity
  8
0
  6
Continuous
 62
     7
370
    15
100
AcDbLine
 10
135.7148816033
 20
272.446102023
 30
0.0
 11
137.8416572853
 21
272.446102023
 31
0.0
  0
LINE
  5
B9
330
1F
100
AcDbEntity
  8
0
  6
Continuous
 62
     8
370
     0
100
AcDbLine
 10
223.0958347365
 20
283.5032447151
 30
0.0
 11
289.0062374219
 21
283.5032447151
 31
0.0
  0
LINE
  5
BA
330
1F
100
AcDbEntity
  8
0
  6
Continuous
 62
     8
370
     0
100
AcDbLine
 10
223.0958347365
 20
273.7889591049
 30
0.0
 11
289.0062374219
 21
273.7889591049
 31
0.0
  0
ARC
  5
BB
330
1F
100
AcDbEntity
  8
0
  6
Continuous
 62
     8
370
     0
100
AcDbCircle
 10
242.5575226996
 20
278.64610191
 30
0.0
 40
20.0586423918607
100
AcDbArc
 50
165.9866992181
 51
194.0133007819
  0
LINE
  5
BC
330
1F
100
AcDbEntity
  8
0
  6
Continuous
 62
     8
370
     0
100
AcDbLine
 10
134.4235283478
 20
283.5032447151
 30
0.0
 11
200.3339310332
 21
283.5032447151
 31
0.0
  0
ARC
  5
BD
330
1F
100
AcDbEntity
  8
0
  6
Continuous
 62
     8
370
     0
100
AcDbCircle
 10
180.872149605
 20
278.64610191
 30
0.0
 40
20.05873307543915
100
AcDbArc
 50
345.986763865
 51
14.013236135
  0
LINE
  5
BE
330
1F
100
AcDbEntity
  8
0
  6
Continuous
 62
     8
370
     0
100
AcDbLine
 10
134.4235283478
 20
273.7889591049
 30
0.0
 11
200.3339310332
 21
273.7889591049
 31
0.0
  0
ARC
  5
BF
330
1F
100
AcDbEntity
  8
0
  6
Continuous
 62
     8
370
     0
100
AcDbCircle
 10
223.268018175
 20
273.820880121
 30
0.0
 40
0.1751173543192948
100
AcDbArc
 50
190.5027995108
 51
266.4323612168
  0
ARC
  5
C0
330
1F
100
AcDbEntity
  8
0
  6
Continuous
 62
     8
370
     0
100
AcDbCircle
 10
223.2680183173
 20
283.4713241081
 30
0.0
 40
0.1751174196570132
100
AcDbArc
 50
93.5676840951
 51
169.4973405738
  0
ARC
  5
C1
330
1F
100
AcDbEntity
  8
0
  6
Continuous
 62
     8
370
     0
100
AcDbCircle
 10
200.1617468589
 20
273.8208810228
 30
0.0
 40
0.1751182421696312
100
AcDbArc
 50
273.5675565757
 51
349.4969542732
  0
ARC
  5
C2
330
1F
100
AcDbEntity
  8
0
  6
Continuous
 62
     8
370
     0
100
AcDbCircle
 10
200.1617467166
 20
283.4713232063
 30
0.0
 40
0.1751183074830603
100
AcDbArc
 50
10.5029056365
 51
86.4323981182
  0
LINE
  5
C3
330
1F
100
AcDbEntity
  8
0
  6
Continuous
 62
     8
370
     0
100
AcDbLine
 10
216.6088712557
 20
283.5032447151
 30
0.0
 11
223.0958347365
 21
283.5032447151
 31
0.0
  0
LINE
  5
C4
330
1F
100
AcDbEntity
  8
0
  6
Continuous
 62
     8
370
     0
100
AcDbLine
 10
216.6088712557
 20
273.7889591049
 30
0.0
 11
223.0958347365
 21
273.7889591049
 31
0.0
  0
LINE
  5
C5
330
1F
100
AcDbEntity
  8
0
  6
Continuous
 62
     8
370
     0
100
AcDbLine
 10
216.6088712557
 20
273.7889591049
 30
0.0
 11
216.6088712557
 21
283.5032447151
 31
0.0
  0
LINE
  5
C6
330
1F
100
AcDbEntity
  8
0
  6
Continuous
 62
     8
370
     0
100
AcDbLine
 10
200.3339310332
 20
283.5032447151
 30
0.0
 11
206.8208926513
 21
283.5032447151
 31
0.0
  0
LINE
  5
C7
330
1F
100
AcDbEntity
  8
0
  6
Continuous
 62
     8
370
     0
100
AcDbLine
 10
206.8208926513
 20
273.7889591049
 30
0.0
 11
206.8208926513
 21
283.5032447151
 31
0.0
  0
LINE
  5
C8
330
1F
100
AcDbEntity
  8
0
  6
Continuous
 62
     8
370
     0
100
AcDbLine
 10
200.3339310332
 20
273.7889591049
 30
0.0
 11
206.8208926513
 21
273.7889591049
 31
0.0
  0
LINE
  5
C9
330
1F
100
AcDbEntity
  8
0
  6
Continuous
 62
     8
370
     0
100
AcDbLine
 10
216.6088712557
 20
283.5032447151
 30
0.0
 11
216.6088712557
 21
283.6461021475
 31
0.0
  0
LINE
  5
CA
330
1F
100
AcDbEntity
  8
0
  6
Continuous
 62
     8
370
     0
100
AcDbLine
 10
216.6088712557
 20
273.6461021382
 30
0.0
 11
216.6088712557
 21
273.7889591049
 31
0.0
  0
LINE
  5
CB
330
1F
100
AcDbEntity
  8
0
  6
Continuous
 62
     8
370
     0
100
AcDbLine
 10
206.8208926513
 20
283.5032447151
 30
0.0
 11
206.8208926513
 21
283.6461021475
 31
0.0
  0
LINE
  5
CC
330
1F
100
AcDbEntity
  8
0
  6
Continuous
 62
     8
370
     0
100
AcDbLine
 10
206.8208926513
 20
273.6461021382
 30
0.0
 11
206.8208926513
 21
273.7889591049
 31
0.0
  0
LINE
  5
CD
330
1F
100
AcDbEntity
  8
0
  6
Continuous
 62
     8
370
     0
100
AcDbLine
 10
206.8208926513
 20
283.5032447151
 30
0.0
 11
216.6088712557
 21
283.5032447151
 31
0.0
  0
LINE
  5
CE
330
1F
100
AcDbEntity
  8
0
  6
Continuous
 62
     8
370
     0
100
AcDbLine
 10
206.8208926513
 20
273.7889591049
 30
0.0
 11
216.6088712557
 21
273.7889591049
 31
0.0
  0
LINE
  5
CF
330
1F
100
AcDbEntity
  8
0
  6
Continuous
 62
     8
370
     0
100
AcDbLine
 10
200.9400096878
 20
271.9491323483
 30
0.0
 11
222.4897560819
 21
271.9491323483
 31
0.0
  0
LINE
  5
D0
330
1F
100
AcDbEntity
  8
0
  6
Continuous
 62
     8
370
     0
100
AcDbLine
 10
221.1955529793
 20
285.34307153
 30
0.0
 11
202.234211859
 21
285.34307153
 31
0.0
  0
LINE
  5
D1
330
1F
100
AcDbEntity
  8
0
  6
Continuous
 62
     8
370
     0
100
AcDbLine
 10
217.0112622126
 20
300.5178972058
 30
0.0
 11
206.4185035571
 21
300.5178972058
 31
0.0
  0
LINE
  5
D2
330
1F
100
AcDbEntity
  8
0
  6
Continuous
 62
     8
370
     0
100
AcDbLine
 10
178.0643728717
 20
306.9232563398
 30
0.0
 11
207.5138748779
 21
306.9232563398
 31
0.0
  0
LINE
  5
D3
330
1F
100
AcDbEntity
  8
0
  6
Continuous
 62
     8
370
     0
100
AcDbLine
 10
132.9158884629
 20
306.9232563398
 30
0.0
 11
178.0643728717
 21
306.9232563398
 31
0.0
  0
LINE
  5
D4
330
1F
100
AcDbEntity
  8
0
  6
Continuous
 62
     8
370
     0
100
AcDbLine
 10
178.046779257
 20
305.9769245706
 30
0.0
 11
207.4302737757
 21
305.9769245706
 31
0.0
  0
LINE
  5
D5
330
1F
100
AcDbEntity
  8
0
  6
Continuous
 62
     8
370
     0
100
AcDbLine
 10
132.9994914278
 20
305.9769245706
 30
0.0
 11
178.046779257
 21
305.9769245706
 31
0.0
  0
LINE
  5
D6
330
1F
100
AcDbEntity
  8
0
  6
Continuous
 62
     8
370
     0
100
AcDbLine
 10
178.0029195517
 20
348.4531315885
 30
0.0
 11
133.2078990682
 21
348.4531315885
 31
0.0
  0
LINE
  5
D7
330
1F
100
AcDbEntity
  8
0
  6
Continuous
 62
     8
370
     0
100
AcDbLine
 10
207.2218642726
 20
348.4531315885
 30
0.0
 11
178.0029195517
 21
348.4531315885
 31
0.0
  0
LINE
  5
D8
330
1F
100
AcDbEntity
  8
0
  6
Continuous
 62
     8
370
     0
100
AcDbLine
 10
177.3701072826
 20
288.6282234363
 30
0.0
 11
204.2148825868
 21
288.6282234363
 31
0.0
  0
LINE
  5
D9
330
1F
100
AcDbEntity
  8
0
  6
Continuous
 62
     8
370
     0
100
AcDbLine
 10
136.2148826166
 20
288.6282234363
 30
0.0
 11
177.3701072826
 21
288.6282234363
 31
0.0
  0
LINE
  5
DA
330
1F
100
AcDbEntity
  8
0
  6
Continuous
 62
     8
370
     0
100
AcDbLine
 10
177.0630651309
 20
285.9273097388
 30
0.0
 11
202.7558884739
 21
285.9273097388
 31
0.0
  0
LINE
  5
DB
330
1F
100
AcDbEntity
  8
0
  6
Continuous
 62
     8
370
     0
100
AcDbLine
 10
137.6738776609
 20
285.9273097388
 30
0.0
 11
177.0630651309
 21
285.9273097388
 31
0.0
  0
LINE
  5
DC
330
1F
100
AcDbEntity
  8
0
  6
Continuous
 62
     8
370
     0
100
AcDbLine
 10
176.6112945198
 20
259.315216998
 30
0.0
 11
200.6091787636
 21
259.315216998
 31
0.0
  0
LINE
  5
DD
330
1F
100
AcDbEntity
  8
0
  6
Continuous
 62
     8
370
     0
100
AcDbLine
 10
139.8205873712
 20
259.315216998
 30
0.0
 11
176.6112945198
 21
259.315216998
 31
0.0
  0
LINE
  5
DE
330
1F
100
AcDbEntity
  8
0
  6
Continuous
 62
     8
370
     0
100
AcDbLine
 10
257.9174083813
 20
306.9232563398
 30
0.0
 11
290.5138773068
 21
306.9232563398
 31
0.0
  0
LINE
  5
DF
330
1F
100
AcDbEntity
  8
0
  6
Continuous
 62
     8
370
     0
100
AcDbLine
 10
215.9158890291
 20
306.9232563398
 30
0.0
 11
257.9174083813
 21
306.9232563398
 31
0.0
  0
LINE
  5
E0
330
1F
100
AcDbEntity
  8
0
  6
Continuous
 62
     8
370
     0
100
AcDbLine
 10
257.9068658098
 20
305.9769245706
 30
0.0
 11
290.4302743419
 21
305.9769245706
 31
0.0
  0
LINE
  5
E1
330
1F
100
AcDbEntity
  8
0
  6
Continuous
 62
     8
370
     0
100
AcDbLine
 10
215.9994901314
 20
305.9769245706
 30
0.0
 11
257.9068658098
 21
305.9769245706
 31
0.0
  0
LINE
  5
E2
330
1F
100
AcDbEntity
  8
0
  6
Continuous
 62
     8
370
     0
100
AcDbLine
 10
257.880587612
 20
348.4531315885
 30
0.0
 11
216.2078996345
 21
348.4531315885
 31
0.0
  0
LINE
  5
E3
330
1F
100
AcDbEntity
  8
0
  6
Continuous
 62
     8
370
     0
100
AcDbLine
 10
290.2218667015
 20
348.4531315885
 30
0.0
 11
257.880587612
 21
348.4531315885
 31
0.0
  0
LINE
  5
E4
330
1F
100
AcDbEntity
  8
0
  6
Continuous
 62
     8
370
     0
100
AcDbLine
 10
257.5014797195
 20
288.6282234363
 30
0.0
 11
287.2148794278
 21
288.6282234363
 31
0.0
  0
LINE
  5
E5
330
1F
100
AcDbEntity
  8
0
  6
Continuous
 62
     8
370
     0
100
AcDbLine
 10
219.2148831829
 20
288.6282234363
 30
0.0
 11
257.5014797195
 21
288.6282234363
 31
0.0
  0
LINE
  5
E6
330
1F
100
AcDbEntity
  8
0
  6
Continuous
 62
     8
370
     0
100
AcDbLine
 10
257.3175397857
 20
285.9273097388
 30
0.0
 11
285.7558918341
 21
285.9273097388
 31
0.0
  0
LINE
  5
E7
330
1F
100
AcDbEntity
  8
0
  6
Continuous
 62
     8
370
     0
100
AcDbLine
 10
220.6738745018
 20
285.9273097388
 30
0.0
 11
257.3175397857
 21
285.9273097388
 31
0.0
  0
LINE
  5
E8
330
1F
100
AcDbEntity
  8
0
  6
Continuous
 62
     8
370
     0
100
AcDbLine
 10
257.046889995
 20
259.315216998
 30
0.0
 11
283.6091783985
 21
259.315216998
 31
0.0
  0
LINE
  5
E9
330
1F
100
AcDbEntity
  8
0
  6
Continuous
 62
     8
370
     0
100
AcDbLine
 10
222.8205842122
 20
259.315216998
 30
0.0
 11
257.046889995
 21
259.315216998
 31
0.0
  0
DIMENSION
  5
EA
330
1F
100
AcDbEntity
  8
0
  6
Continuous
 62
     7
370
     0
100
AcDbDimension
  2
*D1
 10
317.501425608
 20
254.4461020432
 30
0.0
 11
317.501425608
 21
301.4875150056
 31
0.0
 70
   160
  1
(<>)
 71
     2
 42
-1.0
  3
SLDDIMSTYLE0
100
AcDbAlignedDimension
 13
289.2218889672
 23
349.4461020432
 33
0.0
 14
278.6108921693
 24
254.4461020432
 34
0.0
 50
90.0
100
AcDbRotatedDimension
  0
DIMENSION
  5
F8
330
1F
100
AcDbEntity
  8
0
  6
Continuous
 62
     7
370
     0
100
AcDbDimension
  2
*D2
 10
290.2218642481
 20
367.012929264
 30
0.0
 11
225.6069884894
 21
367.012929264
 31
0.0
 70
   160
  1
(<>)
 71
     2
 42
-1.0
  3
SLDDIMSTYLE1
100
AcDbAlignedDimension
 13
133.2079004076
 23
348.4531332284
 33
0.0
 14
290.2218642481
 24
348.4531332284
 34
0.0
100
AcDbRotatedDimension
  0
LINE
  5
105
330
1F
100
AcDbEntity
  8
0
  6
CENTER
 62
     7
370
     0
100
AcDbLine
 10
211.7148823278
 20
375.3747162158
 30
0.0
 11
211.7148823278
 21
227.0801192848
 31
0.0
  0
LINE
  5
106
330
1F
100
AcDbEntity
  8
0
  6
Continuous
 62
     7
370
     0
100
AcDbLine
 10
199.7148823278
 20
373.3747162158
 30
0.0
 11
211.7148823278
 21
373.3747162158
 31
0.0
  0
SOLID
  5
107
330
1F
100
AcDbEntity
  8
0
  6
Continuous
 62
     7
370
     0
100
AcDbTrace
 10
211.7148823278
 20
373.3747162158
 30
0.0
 11
205.7148823278
 21
374.8747162158
 31
0.0
 12
205.7148823278
 22
371.8747162158
 32
0.0
 13
205.7148823278
 23
371.8747162158
 33
0.0
  0
LINE
  5
108
330
1F
100
AcDbEntity
  8
0
  6
Continuous
 62
     7
370
     0
100
AcDbLine
 10
199.7148823278
 20
229.0801192848
 30
0.0
 11
211.7148823278
 21
229.0801192848
 31
0.0
  0
SOLID
  5
109
330
1F
100
AcDbEntity
  8
0
  6
Continuous
 62
     7
370
     0
100
AcDbTrace
 10
211.7148823278
 20
229.0801192848
 30
0.0
 11
205.7148823278
 21
230.5801192848
 31
0.0
 12
205.7148823278
 22
227.5801192848
 32
0.0
 13
205.7148823278
 23
227.5801192848
 33
0.0
  0
MTEXT
  5
10A
330
1F
100
AcDbEntity
  8
0
  6
Continuous
 62
     7
100
AcDbMText
 10
199.7148823278
 20
383.4585028322
 30
0.0
 40
6.35
 41
0.0
 71
     1
 72
     1
  1
A
  7
SLDTEXTSTYLE0
 73
     1
 44
1.0
  0
MTEXT
  5
10B
330
1F
100
AcDbEntity
  8
0
  6
Continuous
 62
     7
100
AcDbMText
 10
199.7148823278
 20
239.1639059011
 30
0.0
 40
6.35
 41
0.0
 71
     1
 72
     1
  1
A
  7
SLDTEXTSTYLE0
 73
     1
 44
1.0
  0
LINE
  5
10C
330
1F
100
AcDbEntity
  8
0
  6
CENTERX2
 62
     7
370
     0
100
AcDbLine
 10
211.7148823278
 20
239.8472037888
 30
0.0
 11
211.7148823278
 21
362.6076317118
 31
0.0
  0
LINE
  5
10D
330
1F
100
AcDbEntity
  8
0
  6
CENTERX2
 62
     7
370
     0
100
AcDbLine
 10
253.2148823278
 20
351.4461020432
 30
0.0
 11
253.2148823278
 21
252.4461020432
 31
0.0
  0
LINE
  5
10E
330
1F
100
AcDbEntity
  8
0
  6
CENTERX2
 62
     7
370
     0
100
AcDbLine
 10
170.2148823278
 20
351.4461020432
 30
0.0
 11
170.2148823278
 21
252.4461020432
 31
0.0
  0
ARC
  5
10F
330
1F
100
AcDbEntity
  8
0
  6
Continuous
 62
     7
370
    15
100
AcDbCircle
 10
236.2148823278
 20
171.1592633919
 30
0.0
 40
0.5
100
AcDbArc
 50
270.0
 51
0.0
  0
ARC
  5
110
330
1F
100
AcDbEntity
  8
0
  6
Continuous
 62
     7
370
    15
100
AcDbCircle
 10
187.2148823278
 20
171.1592633919
 30
0.0
 40
0.5
100
AcDbArc
 50
180.0
 51
270.0
  0
LINE
  5
111
330
1F
100
AcDbEntity
  8
0
  6
Continuous
 62
     7
370
    15
100
AcDbLine
 10
236.7148813947
 20
171.1592636974
 30
0.0
 11
236.7148813947
 21
180.6592633919
 31
0.0
  0
LINE
  5
112
330
1F
100
AcDbEntity
  8
0
  6
Continuous
 62
     7
370
    15
100
AcDbLine
 10
186.7148822795
 20
180.6592633919
 30
0.0
 11
186.7148822795
 21
171.1592636974
 31
0.0
  0
LINE
  5
113
330
1F
100
AcDbEntity
  8
0
  6
Continuous
 62
     7
370
    15
100
AcDbLine
 10
235.2148820802
 20
170.6592636155
 30
0.0
 11
236.2148841067
 21
170.6592636155
 31
0.0
  0
LINE
  5
114
330
1F
100
AcDbEntity
  8
0
  6
Continuous
 62
     7
370
    15
100
AcDbLine
 10
192.2148824825
 20
170.6592636155
 30
0.0
 11
231.2148814245
 21
170.6592636155
 31
0.0
  0
LINE
  5
115
330
1F
100
AcDbEntity
  8
0
  6
Continuous
 62
     7
370
    15
100
AcDbLine
 10
187.2148823614
 20
170.6592636155
 30
0.0
 11
188.214882328
 21
170.6592636155
 31
0.0
  0
ARC
  5
116
330
1F
100
AcDbEntity
  8
0
  6
Continuous
 62
     7
370
    15
100
AcDbCircle
 10
235.2148823278
 20
170.1592633919
 30
0.0
 40
0.5000000000000165
100
AcDbArc
 50
97.1794765714
 51
172.1820226634
  0
ARC
  5
117
330
1F
100
AcDbEntity
  8
0
  6
Continuous
 62
     7
370
    15
100
AcDbCircle
 10
188.2148823278
 20
170.1592633919
 30
0.0
 40
0.5000000000000127
100
AcDbArc
 50
7.1794765714
 51
82.1820226634
  0
LINE
  5
118
330
1F
100
AcDbEntity
  8
0
  6
Continuous
 62
     7
370
    15
100
AcDbLine
 10
188.7148823163
 20
170.1592635335
 30
0.0
 11
188.7148823163
 21
164.659262632
 31
0.0
  0
LINE
  5
119
330
1F
100
AcDbEntity
  8
0
  6
Continuous
 62
     7
370
    15
100
AcDbLine
 10
234.7148810669
 20
164.659262632
 30
0.0
 11
234.7148810669
 21
170.1592635335
 31
0.0
  0
ARC
  5
11A
330
1F
100
AcDbEntity
  8
0
  6
Continuous
 62
     7
370
    15
100
AcDbCircle
 10
241.7148823278
 20
164.6592633919
 30
0.0
 40
7.0
100
AcDbArc
 50
180.0
 51
270.0
  0
ARC
  5
11B
330
1F
100
AcDbEntity
  8
0
  6
Continuous
 62
     7
370
    15
100
AcDbCircle
 10
181.7148823278
 20
164.6592633919
 30
0.0
 40
7.0
100
AcDbArc
 50
270.0
 51
0.0
  0
LINE
  5
11C
330
1F
100
AcDbEntity
  8
0
  6
Continuous
 62
     7
370
    15
100
AcDbLine
 10
245.5354225978
 20
157.6592633472
 30
0.0
 11
241.7148840769
 21
157.6592633472
 31
0.0
  0
LINE
  5
11D
330
1F
100
AcDbEntity
  8
0
  6
Continuous
 62
     7
370
    15
100
AcDbLine
 10
181.7148821584
 20
157.6592633472
 30
0.0
 11
177.8943441033
 21
157.6592633472
 31
0.0
  0
ARC
  5
11E
330
1F
100
AcDbEntity
  8
0
  6
Continuous
 62
     7
370
    15
100
AcDbCircle
 10
216.6088718924
 20
97.6592633919
 30
0.0
 40
7.000000000000014
100
AcDbArc
 50
58.1223805641
 51
90.0
  0
ARC
  5
11F
330
1F
100
AcDbEntity
  8
0
  6
Continuous
 62
     7
370
    15
100
AcDbCircle
 10
206.8208927633
 20
97.6592633919
 30
0.0
 40
7.000000000000014
100
AcDbArc
 50
90.0
 51
121.8776194359
  0
LINE
  5
120
330
1F
100
AcDbEntity
  8
0
  6
Continuous
 62
     7
370
    15
100
AcDbLine
 10
206.8208926513
 20
104.6592658357
 30
0.0
 11
216.6088712557
 21
104.6592658357
 31
0.0
  0
ARC
  5
121
330
1F
100
AcDbEntity
  8
0
  6
Continuous
 62
     7
370
    15
100
AcDbCircle
 10
192.2148823278
 20
170.1592633919
 30
0.0
 40
0.5
100
AcDbArc
 50
90.0
 51
180.0
  0
ARC
  5
122
330
1F
100
AcDbEntity
  8
0
  6
Continuous
 62
     7
370
    15
100
AcDbCircle
 10
231.2148823278
 20
170.1592633919
 30
0.0
 40
0.5
100
AcDbArc
 50
0.0
 51
90.0
  0
CIRCLE
  5
123
330
1F
100
AcDbEntity
  8
0
  6
Continuous
 62
     7
370
    15
100
AcDbCircle
 10
170.2148823278
 20
121.1592633919
 30
0.0
 40
37.29911698122518
  0
CIRCLE
  5
124
330
1F
100
AcDbEntity
  8
0
  6
Continuous
 62
     7
370
    15
100
AcDbCircle
 10
253.2148823278
 20
121.1592633919
 30
0.0
 40
37.29911698122519
  0
SPLINE
  5
125
330
1F
100
AcDbEntity
  8
0
  6
Continuous
 62
     7
370
    15
100
AcDbSpline
210
0.0
220
0.0
230
1.0
 70
     8
 71
     3
 72
    11
 73
     7
 74
     0
 42
0.00000001
 43
0.00000001
 40
0.0
 40
0.0
 40
0.0
 40
0.0
 40
0.2901849323201739
 40
0.5803853404150089
 40
0.8702044684566458
 40
1.0
 40
1.0
 40
1.0
 40
1.0
 10
234.8806341334435
 20
180.5550207181014
 30
0.0
 10
234.9370219193124
 20
180.5593976776661
 30
0.0
 10
235.0498004982521
 20
180.568151830222
 30
0.0
 10
235.1992237405786
 20
180.5798576089612
 30
0.0
 10
235.2937647434521
 20
180.5873024388238
 30
0.0
 10
235.3292305385965
 20
180.5901033190155
 30
0.0
 10
235.340200845823
 20
180.590969689446
 30
0.0
  0
SPLINE
  5
126
330
1F
100
AcDbEntity
  8
0
  6
Continuous
 62
     7
370
    15
100
AcDbSpline
210
0.0
220
0.0
230
1.0
 70
     8
 71
     3
 72
    11
 73
     7
 74
     0
 42
0.00000001
 43
0.00000001
 40
0.0
 40
0.0
 40
0.0
 40
0.0
 40
0.2887953470459199
 40
0.5775632602661669
 40
0.8669665303126051
 40
1.0
 40
1.0
 40
1.0
 40
1.0
 10
188.0895632358457
 20
180.590969689446
 30
0.0
 10
188.1167942798854
 20
180.5888197853137
 30
0.0
 10
188.171253781179
 20
180.5845201812771
 30
0.0
 10
188.3092344503562
 20
180.5736851752392
 30
0.0
 10
188.441652305585
 20
180.5633535489902
 30
0.0
 10
188.5233905000048
 20
180.5570164064149
 30
0.0
 10
188.5491314325205
 20
180.5550207181014
 30
0.0
  0
ARC
  5
127
330
1F
100
AcDbEntity
  8
0
  6
Continuous
 62
     7
370
    15
100
AcDbCircle
 10
211.7148823278
 20
479.6592633919
 30
0.0
 40
300.0000000000001
100
AcDbArc
 50
265.571258741
 51
274.428741259
  0
LINE
  5
128
330
1F
100
AcDbEntity
  8
0
  6
Continuous
 62
     7
370
    15
100
AcDbLine
 10
236.7148813947
 20
180.6592633919
 30
0.0
 11
236.1893584176
 21
180.6592633919
 31
0.0
  0
LINE
  5
129
330
1F
100
AcDbEntity
  8
0
  6
Continuous
 62
     7
370
    15
100
AcDbLine
 10
236.1893584176
 20
180.6592633919
 30
0.0
 11
235.3402008458
 21
180.5909696894
 31
0.0
  0
LINE
  5
12A
330
1F
100
AcDbEntity
  8
0
  6
Continuous
 62
     7
370
    15
100
AcDbLine
 10
187.2404058387
 20
180.6592633919
 30
0.0
 11
186.7148822795
 21
180.6592633919
 31
0.0
  0
LINE
  5
12B
330
1F
100
AcDbEntity
  8
0
  6
Continuous
 62
     7
370
    15
100
AcDbLine
 10
188.0895632358
 20
180.5909696894
 30
0.0
 11
187.2404058387
 21
180.6592633919
 31
0.0
  0
LINE
  5
12C
330
1F
100
AcDbEntity
  8
0
  6
Continuous
 62
     7
370
    15
100
AcDbLine
 10
191.7148824006
 20
164.659262632
 30
0.0
 11
191.7148824006
 21
170.8304192843
 31
0.0
  0
LINE
  5
12D
330
1F
100
AcDbEntity
  8
0
  6
Continuous
 62
     7
370
    15
100
AcDbLine
 10
231.7148824378
 20
164.659262632
 30
0.0
 11
231.7148824378
 21
170.8304192843
 31
0.0
  0
ARC
  5
12E
330
1F
100
AcDbEntity
  8
0
  6
Continuous
 62
     7
370
    15
100
AcDbCircle
 10
241.7148823278
 20
164.6592633919
 30
0.0
 40
10.0
100
AcDbArc
 50
180.0
 51
249.3810655978
  0
ARC
  5
12F
330
1F
100
AcDbEntity
  8
0
  6
Continuous
 62
     7
370
    15
100
AcDbCircle
 10
181.7148823278
 20
164.6592633919
 30
0.0
 40
10.00000000000004
100
AcDbArc
 50
290.6189344022
 51
0.0
  0
LINE
  5
130
330
1F
100
AcDbEntity
  8
0
  6
Continuous
 62
     7
370
    15
100
AcDbLine
 10
206.8208926513
 20
107.6592644648
 30
0.0
 11
216.6088712557
 21
107.6592644648
 31
0.0
  0
LWPOLYLINE
  5
131
330
1F
100
AcDbEntity
  8
0
  6
Continuous
 62
     7
370
    15
100
AcDbPolyline
 90
        3
 70
   128
 43
0.0
 10
216.6088712557
 20
107.6592644648
 10
217.8557259186
 20
107.5812270837
 10
218.5164303675
 20
107.4756374554
  0
LWPOLYLINE
  5
132
330
1F
100
AcDbEntity
  8
0
  6
Continuous
 62
     7
370
    15
100
AcDbPolyline
 90
        3
 70
   128
 43
0.0
 10
204.9133335396
 20
107.4756374554
 10
205.5740379884
 20
107.5812270837
 10
206.8208926513
 20
107.6592644648
  0
LINE
  5
133
330
1F
100
AcDbEntity
  8
0
  6
Continuous
 62
     7
370
    15
100
AcDbLine
 10
174.2148823261
 20
191.6592633323
 30
0.0
 11
174.2148823261
 21
191.959263754
 31
0.0
  0
LINE
  5
134
330
1F
100
AcDbEntity
  8
0
  6
Continuous
 62
     7
370
    15
100
AcDbLine
 10
249.2148806497
 20
191.959263754
 30
0.0
 11
249.2148806497
 21
191.6592633323
 31
0.0
  0
LINE
  5
135
330
1F
100
AcDbEntity
  8
0
  6
Continuous
 62
     7
370
    15
100
AcDbLine
 10
249.2148806497
 20
191.959263754
 30
0.0
 11
174.2148823261
 21
191.959263754
 31
0.0
  0
LINE
  5
136
330
1F
100
AcDbEntity
  8
0
  6
Continuous
 62
     7
370
    15
100
AcDbLine
 10
255.2148816331
 20
191.6592633323
 30
0.0
 11
168.2148822739
 21
191.6592633323
 31
0.0
  0
LINE
  5
137
330
1F
100
AcDbEntity
  8
0
  6
Continuous
 62
     7
370
    15
100
AcDbLine
 10
166.7148829594
 20
186.1911825807
 30
0.0
 11
166.7148829594
 21
191.6592633323
 31
0.0
  0
LINE
  5
138
330
1F
100
AcDbEntity
  8
0
  6
Continuous
 62
     7
370
    15
100
AcDbLine
 10
166.7148829594
 20
191.6592633323
 30
0.0
 11
168.2148822739
 21
191.6592633323
 31
0.0
  0
LINE
  5
139
330
1F
100
AcDbEntity
  8
0
  6
Continuous
 62
     7
370
    15
100
AcDbLine
 10
256.714884673
 20
191.6592633323
 30
0.0
 11
256.714884673
 21
186.1911825807
 31
0.0
  0
LINE
  5
13A
330
1F
100
AcDbEntity
  8
0
  6
Continuous
 62
     7
370
    15
100
AcDbLine
 10
255.2148816331
 20
191.6592633323
 30
0.0
 11
256.714884673
 21
191.6592633323
 31
0.0
  0
ARC
  5
13B
330
1F
100
AcDbEntity
  8
0
  6
Continuous
 62
     7
370
    15
100
AcDbCircle
 10
168.2148823278
 20
184.3458705362
 30
0.0
 40
1.499999999999989
100
AcDbArc
 50
180.0
 51
261.6205244273
  0
SPLINE
  5
13C
330
1F
100
AcDbEntity
  8
0
  6
Continuous
 62
     7
370
    15
100
AcDbSpline
210
0.0
220
0.0
230
1.0
 70
    24
 71
     3
 72
    11
 73
     7
 74
     0
 42
0.00000001
 43
0.00000001
 40
0.0
 40
0.0
 40
0.0
 40
0.0
 40
0.2479903036940389
 40
0.4959806960571989
 40
0.7479902315672174
 40
1.0
 40
1.0
 40
1.0
 40
1.0
 10
166.7148829593512
 20
184.345870508777
 30
0.0
 10
166.7148829593512
 20
184.3676888184808
 30
0.0
 10
166.7148829593512
 20
184.4113254456896
 30
0.0
 10
166.7148829593512
 20
184.7711743487088
 30
0.0
 10
166.7148829593512
 20
185.331625654293
 30
0.0
 10
166.7148829593512
 20
185.9046635169856
 30
0.0
 10
166.7148829593512
 20
186.1911825807411
 30
0.0
  0
ARC
  5
13D
330
1F
100
AcDbEntity
  8
0
  6
Continuous
 62
     7
370
    15
100
AcDbCircle
 10
211.7148823278
 20
479.6592633919
 30
0.0
 40
300.0000000000001
100
AcDbArc
 50
261.6205244273
 51
278.3794755727
  0
SPLINE
  5
13E
330
1F
100
AcDbEntity
  8
0
  6
Continuous
 62
     7
370
    15
100
AcDbSpline
210
0.0
220
0.0
230
1.0
 70
    24
 71
     3
 72
    11
 73
     7
 74
     0
 42
0.00000001
 43
0.00000001
 40
0.0
 40
0.0
 40
0.0
 40
0.0
 40
0.2479914144637641
 40
0.4959824881094325
 40
0.7479913451965917
 40
0.9999999999999999
 40
0.9999999999999999
 40
0.9999999999999999
 40
0.9999999999999999
 10
256.7148846729847
 20
186.1911825807411
 30
0.0
 10
256.7148846729847
 20
185.9088898195048
 30
0.0
 10
256.7148846729847
 20
185.3443046849911
 30
0.0
 10
256.7148846729847
 20
184.7811052725593
 30
0.0
 10
256.7148846729847
 20
184.4134705936056
 30
0.0
 10
256.7148846729847
 20
184.3684038643574
 30
0.0
 10
256.7148846729847
 20
184.345870508777
 30
0.0
  0
ARC
  5
13F
330
1F
100
AcDbEntity
  8
0
  6
Continuous
 62
     7
370
    15
100
AcDbCircle
 10
255.2148823278
 20
184.3458705362
 30
0.0
 40
1.500000000000057
100
AcDbArc
 50
278.3794755727
 51
0.0
  0
CIRCLE
  5
140
330
1F
100
AcDbEntity
  8
0
  6
Continuous
 62
     7
370
    15
100
AcDbCircle
 10
170.2148823278
 20
121.1592633919
 30
0.0
 40
35.4989712289082
  0
CIRCLE
  5
141
330
1F
100
AcDbEntity
  8
0
  6
Continuous
 62
     7
370
    15
100
AcDbCircle
 10
253.2148823278
 20
121.1592633919
 30
0.0
 40
35.49897122890816
  0
LINE
  5
142
330
1F
100
AcDbEntity
  8
0
  6
Continuous
 62
     8
370
     0
100
AcDbLine
 10
235.3402008458
 20
180.5909696894
 30
0.0
 11
235.3402008458
 21
172.4935127394
 31
0.0
  0
LINE
  5
143
330
1F
100
AcDbEntity
  8
0
  6
Continuous
 62
     8
370
     0
100
AcDbLine
 10
235.3402008458
 20
172.4935127394
 30
0.0
 11
234.8806341334
 21
172.4935127394
 31
0.0
  0
LINE
  5
144
330
1F
100
AcDbEntity
  8
0
  6
Continuous
 62
     8
370
     0
100
AcDbLine
 10
234.8806341334
 20
172.4935127394
 30
0.0
 11
234.8806341334
 21
180.5550207181
 31
0.0
  0
LINE
  5
145
330
1F
100
AcDbEntity
  8
0
  6
Continuous
 62
     8
370
     0
100
AcDbLine
 10
188.5491314325
 20
180.5550207181
 30
0.0
 11
188.5491314325
 21
172.4935127394
 31
0.0
  0
LINE
  5
146
330
1F
100
AcDbEntity
  8
0
  6
Continuous
 62
     8
370
     0
100
AcDbLine
 10
188.5491314325
 20
172.4935127394
 30
0.0
 11
188.0895632358
 21
172.4935127394
 31
0.0
  0
LINE
  5
147
330
1F
100
AcDbEntity
  8
0
  6
Continuous
 62
     8
370
     0
100
AcDbLine
 10
188.0895632358
 20
172.4935127394
 30
0.0
 11
188.0895632358
 21
180.5909696894
 31
0.0
  0
LINE
  5
148
330
1F
100
AcDbEntity
  8
0
  6
Continuous
 62
     8
370
     0
100
AcDbLine
 10
188.5491314325
 20
172.4935127394
 30
0.0
 11
234.8806341334
 21
172.4935127394
 31
0.0
  0
ARC
  5
149
330
1F
100
AcDbEntity
  8
0
  6
Continuous
 62
     8
370
     0
100
AcDbCircle
 10
234.7851742863
 20
172.588970337
 30
0.0
 40
0.5631754919033699
100
AcDbArc
 50
279.7589145787
 51
350.2413176433
  0
LINE
  5
14A
330
1F
100
AcDbEntity
  8
0
  6
Continuous
 62
     8
370
     0
100
AcDbLine
 10
234.8806341334
 20
172.4935127394
 30
0.0
 11
234.8806341334
 21
172.0339441644
 31
0.0
  0
LINE
  5
14B
330
1F
100
AcDbEntity
  8
0
  6
Continuous
 62
     8
370
     0
100
AcDbLine
 10
234.8806341334
 20
172.0339441644
 30
0.0
 11
188.5491314325
 21
172.0339441644
 31
0.0
  0
LINE
  5
14C
330
1F
100
AcDbEntity
  8
0
  6
Continuous
 62
     8
370
     0
100
AcDbLine
 10
188.5491314325
 20
172.4935127394
 30
0.0
 11
188.5491314325
 21
172.0339441644
 31
0.0
  0
ARC
  5
14D
330
1F
100
AcDbEntity
  8
0
  6
Continuous
 62
     8
370
     0
100
AcDbCircle
 10
188.6445892137
 20
172.5889700637
 30
0.0
 40
0.5631748723934517
100
AcDbArc
 50
189.7586649844
 51
260.2412878456
  0
LWPOLYLINE
  5
14E
330
1F
100
AcDbEntity
  8
0
  6
Continuous
 62
     8
370
     0
100
AcDbPolyline
 90
        6
 70
   128
 43
0.0
 10
235.3402008458
 20
172.4935127394
 10
235.9369774505
 20
171.91428784
 10
236.3676657125
 20
171.4962674277
 10
236.6278548881
 20
171.2437309296
 10
236.7148813947
 20
171.1592636974
 10
236.7148813947
 20
171.1592636974
  0
LWPOLYLINE
  5
14F
330
1F
100
AcDbEntity
  8
0
  6
Continuous
 62
     8
370
     0
100
AcDbPolyline
 90
        6
 70
   128
 43
0.0
 10
236.2148841067
 20
170.6592636155
 10
236.2148841067
 20
170.6592636155
 10
236.1304168745
 20
170.7462901221
 10
235.8778794452
 20
171.0064792977
 10
235.4598571702
 20
171.4371675597
 10
234.8806341334
 20
172.0339441644
  0
LWPOLYLINE
  5
150
330
1F
100
AcDbEntity
  8
0
  6
Continuous
 62
     8
370
     0
100
AcDbPolyline
 90
        6
 70
   128
 43
0.0
 10
188.5491314325
 20
172.0339441644
 10
187.9699067659
 20
171.4371675597
 10
187.5518861499
 20
171.0064792977
 10
187.2993494773
 20
170.7462901221
 10
187.2148823614
 20
170.6592636155
 10
187.2148823614
 20
170.6592636155
  0
LWPOLYLINE
  5
151
330
1F
100
AcDbEntity
  8
0
  6
Continuous
 62
     8
370
     0
100
AcDbPolyline
 90
        6
 70
   128
 43
0.0
 10
186.7148822795
 20
171.1592636974
 10
186.7148822795
 20
171.1592636974
 10
186.8019091354
 20
171.2437309296
 10
187.0620984274
 20
171.4962674277
 10
187.4927862819
 20
171.91428784
 10
188.0895632358
 20
172.4935127394
  0
SPLINE
  5
152
330
1F
100
AcDbEntity
  8
0
  6
Continuous
 62
     8
370
     0
100
AcDbSpline
210
0.0
220
0.0
230
1.0
 70
     8
 71
     3
 72
    12
 73
     8
 74
     0
 42
0.00000001
 43
0.00000001
 40
0.0
 40
0.0
 40
0.0
 40
0.0
 40
0.1112438679507141
 40
0.3274545387385923
 40
0.5513851499533945
 40
0.7764251925865706
 40
1.0
 40
1.0
 40
1.0
 40
1.0
 10
191.5148822746429
 20
171.5206801863033
 30
0.0
 10
191.555805731956
 20
171.5199840021446
 30
0.0
 10
191.6762669500432
 20
171.5179347326724
 30
0.0
 10
191.8708928667987
 20
171.4945582302556
 30
0.0
 10
192.0597932039719
 20
171.4453754777197
 30
0.0
 10
192.189778303737
 20
171.3803872122614
 30
0.0
 10
192.2065326635708
 20
171.3342411206158
 30
0.0
 10
192.2148824825141
 20
171.3112434344012
 30
0.0
  0
LINE
  5
153
330
1F
100
AcDbEntity
  8
0
  6
Continuous
 62
     8
370
     0
100
AcDbLine
 10
189.6151928387
 20
171.5206801863
 30
0.0
 11
191.5148822746
 21
171.5206801863
 31
0.0
  0
SPLINE
  5
154
330
1F
100
AcDbEntity
  8
0
  6
Continuous
 62
     8
370
     0
100
AcDbSpline
210
0.0
220
0.0
230
1.0
 70
     8
 71
     3
 72
    11
 73
     7
 74
     0
 42
0.00000001
 43
0.00000001
 40
0.0
 40
0.0
 40
0.0
 40
0.0
 40
0.2444185291156271
 40
0.4981205835078871
 40
0.7482197448319066
 40
0.9999999999999999
 40
0.9999999999999999
 40
0.9999999999999999
 40
0.9999999999999999
 10
188.9443724804747
 20
171.3679106877763
 30
0.0
 10
188.971419694839
 20
171.3878088575974
 30
0.0
 10
189.0265414331547
 20
171.4283609712113
 30
0.0
 10
189.1863714896131
 20
171.4782894701765
 30
0.0
 10
189.3881082455777
 20
171.5137469735162
 30
0.0
 10
189.5393291313012
 20
171.518363960359
 30
0.0
 10
189.615192838684
 20
171.5206801863033
 30
0.0
  0
LWPOLYLINE
  5
155
330
1F
100
AcDbEntity
  8
0
  6
Continuous
 62
     8
370
     0
100
AcDbPolyline
 90
        4
 70
   128
 43
0.0
 10
188.214882328
 20
170.6592636155
 10
188.2964428306
 20
170.7384940209
 10
188.5403641073
 20
170.9754457669
 10
188.9443724805
 20
171.3679106878
  0
LINE
  5
156
330
1F
100
AcDbEntity
  8
0
  6
Continuous
 62
     8
370
     0
100
AcDbLine
 10
192.2148824825
 20
171.3112434344
 30
0.0
 11
192.2148824825
 21
170.6592636155
 31
0.0
  0
SPLINE
  5
157
330
1F
100
AcDbEntity
  8
0
  6
Continuous
 62
     8
370
     0
100
AcDbSpline
210
0.0
220
0.0
230
1.0
 70
     8
 71
     3
 72
    11
 73
     7
 74
     0
 42
0.00000001
 43
0.00000001
 40
0.0
 40
0.0
 40
0.0
 40
0.0
 40
0.2517799465135622
 40
0.501880936038577
 40
0.7555811645001772
 40
1.0
 40
1.0
 40
1.0
 40
1.0
 10
233.814571534023
 20
171.5206801863033
 30
0.0
 10
233.8904350609853
 20
171.5183639105511
 30
0.0
 10
234.0416562303051
 20
171.5137468047858
 30
0.0
 10
234.2433943450602
 20
171.4782898954679
 30
0.0
 10
234.4032220018422
 20
171.4283606535136
 30
0.0
 10
234.4583443692059
 20
171.3878088104745
 30
0.0
 10
234.4853920086476
 20
171.3679106877763
 30
0.0
  0
LINE
  5
158
330
1F
100
AcDbEntity
  8
0
  6
Continuous
 62
     8
370
     0
100
AcDbLine
 10
231.9148820981
 20
171.5206801863
 30
0.0
 11
233.814571534
 21
171.5206801863
 31
0.0
  0
SPLINE
  5
159
330
1F
100
AcDbEntity
  8
0
  6
Continuous
 62
     8
370
     0
100
AcDbSpline
210
0.0
220
0.0
230
1.0
 70
     8
 71
     3
 72
    12
 73
     8
 74
     0
 42
0.00000001
 43
0.00000001
 40
0.0
 40
0.0
 40
0.0
 40
0.0
 40
0.2235749556376751
 40
0.4486154931524814
 40
0.6725465022917698
 40
0.8887554637160968
 40
1.0
 40
1.0
 40
1.0
 40
1.0
 10
231.2148814245317
 20
171.3112434344012
 30
0.0
 10
231.2232313698877
 20
171.3342411281339
 30
0.0
 10
231.239985996286
 20
171.3803872704235
 30
0.0
 10
231.3699721938034
 20
171.4453754766385
 30
0.0
 10
231.5588723683715
 20
171.4945579997628
 30
0.0
 10
231.7534975537932
 20
171.5179348193656
 30
0.0
 10
231.873958393375
 20
171.5199840193542
 30
0.0
 10
231.9148820980641
 20
171.5206801863033
 30
0.0
  0
LINE
  5
15A
330
1F
100
AcDbEntity
  8
0
  6
Continuous
 62
     8
370
     0
100
AcDbLine
 10
231.2148814245
 20
170.6592636155
 30
0.0
 11
231.2148814245
 21
171.3112434344
 31
0.0
  0
LWPOLYLINE
  5
15B
330
1F
100
AcDbEntity
  8
0
  6
Continuous
 62
     8
370
     0
100
AcDbPolyline
 90
        4
 70
   128
 43
0.0
 10
234.4853920086
 20
171.3679106878
 10
234.8893997415
 20
170.9754457669
 10
235.1333205744
 20
170.7384940209
 10
235.2148820802
 20
170.6592636155
  0
ARC
  5
15C
330
1F
100
AcDbEntity
  8
0
  6
Continuous
 62
     8
370
     0
100
AcDbCircle
 10
192.2054785386
 20
170.8206399573
 30
0.0
 40
0.4906935967571154
100
AcDbArc
 50
88.9018823798
 51
178.8580424469
  0
SPLINE
  5
15D
330
1F
100
AcDbEntity
  8
0
  6
Continuous
 62
     8
370
     0
100
AcDbSpline
210
0.0
220
0.0
230
1.0
 70
     8
 71
     3
 72
    13
 73
     9
 74
     0
 42
0.00000001
 43
0.00000001
 40
0.0
 40
0.0
 40
0.0
 40
0.0
 40
0.2541851664868108
 40
0.500107096667935
 40
0.721142313058859
 40
0.8539113013744174
 40
0.9094991291149672
 40
1.0
 40
1.0
 40
1.0
 40
1.0
 10
191.7148824005577
 20
170.8304192842562
 30
0.0
 10
191.7125421399686
 20
170.8539714273096
 30
0.0
 10
191.7079376976841
 20
170.9003100632165
 30
0.0
 10
191.6728295825597
 20
170.9651810216107
 30
0.0
 10
191.6249646963246
 20
171.0124233957539
 30
0.0
 10
191.5798609611205
 20
171.0347017867542
 30
0.0
 10
191.54567997614
 20
171.0442116051165
 30
0.0
 10
191.5266630932669
 20
171.0453256568425
 30
0.0
 10
191.5148822746429
 20
171.0460158036668
 30
0.0
  0
LINE
  5
15E
330
1F
100
AcDbEntity
  8
0
  6
Continuous
 62
     8
370
     0
100
AcDbLine
 10
191.5148822746
 20
171.5206801863
 30
0.0
 11
191.5148822746
 21
171.0460158037
 31
0.0
  0
LINE
  5
15F
330
1F
100
AcDbEntity
  8
0
  6
Continuous
 62
     8
370
     0
100
AcDbLine
 10
231.9148820981
 20
171.5206801863
 30
0.0
 11
231.9148820981
 21
171.0460158037
 31
0.0
  0
SPLINE
  5
160
330
1F
100
AcDbEntity
  8
0
  6
Continuous
 62
     8
370
     0
100
AcDbSpline
210
0.0
220
0.0
230
1.0
 70
     8
 71
     3
 72
    13
 73
     9
 74
     0
 42
0.00000001
 43
0.00000001
 40
0.0
 40
0.0
 40
0.0
 40
0.0
 40
0.0905191256395501
 40
0.2296399965528858
 40
0.2787248198111464
 40
0.4998021490438063
 40
0.7457681913055912
 40
1.0
 40
1.0
 40
1.0
 40
1.0
 10
231.9148820980641
 20
171.0460158036668
 30
0.0
 10
231.9031111020857
 20
171.04529247333
 30
0.0
 10
231.8732489988364
 20
171.0434574404032
 30
0.0
 10
231.8400961421816
 20
171.0304120842065
 30
0.0
 10
231.7982632512958
 20
171.0058672766716
 30
0.0
 10
231.7568724695762
 20
170.9651651416418
 30
0.0
 10
231.7218459117593
 20
170.9003142650526
 30
0.0
 10
231.7172290271236
 20
170.853972874918
 30
0.0
 10
231.7148824378106
 20
170.8304192842562
 30
0.0
  0
ARC
  5
161
330
1F
100
AcDbEntity
  8
0
  6
Continuous
 62
     8
370
     0
100
AcDbCircle
 10
231.2242857564
 20
170.8206394105
 30
0.0
 40
0.4906941509398015
100
AcDbArc
 50
1.1420201285
 51
91.0981616848
  0
LINE
  5
162
330
1F
100
AcDbEntity
  8
0
  6
Continuous
 62
     8
370
     0
100
AcDbLine
 10
189.6151928387
 20
171.5206801863
 30
0.0
 11
189.6151928387
 21
171.0460158037
 31
0.0
  0
SPLINE
  5
163
330
1F
100
AcDbEntity
  8
0
  6
Continuous
 62
     8
370
     0
100
AcDbSpline
210
0.0
220
0.0
230
1.0
 70
     8
 71
     3
 72
    12
 73
     8
 74
     0
 42
0.00000001
 43
0.00000001
 40
0.0
 40
0.0
 40
0.0
 40
0.0
 40
0.1668482842077241
 40
0.2151044494583023
 40
0.4508067297712068
 40
0.7198934633256916
 40
1.0
 40
1.0
 40
1.0
 40
1.0
 10
189.615192838684
 20
171.0460158036668
 30
0.0
 10
189.5980058950206
 20
171.0445816859714
 30
0.0
 10
189.5758481121454
 20
171.042732790139
 30
0.0
 10
189.5338260855316
 20
171.0279629660585
 30
0.0
 10
189.4894393421696
 20
170.9999764706447
 30
0.0
 10
189.4458584897854
 20
170.9485302064534
 30
0.0
 10
189.4310716728823
 20
170.9089439109542
 30
0.0
 10
189.4235299124572
 20
170.8887536050398
 30
0.0
  0
ARC
  5
164
330
1F
100
AcDbEntity
  8
0
  6
Continuous
 62
     8
370
     0
100
AcDbCircle
 10
188.8954421381
 20
170.8398228777
 30
0.0
 40
0.5303498029913032
100
AcDbArc
 50
5.2937076435
 51
84.706334118
  0
ARC
  5
165
330
1F
100
AcDbEntity
  8
0
  6
Continuous
 62
     8
370
     0
100
AcDbCircle
 10
234.5343208625
 20
170.8398237248
 30
0.0
 40
0.5303488221983581
100
AcDbArc
 50
95.2935141929
 51
174.7063744432
  0
SPLINE
  5
166
330
1F
100
AcDbEntity
  8
0
  6
Continuous
 62
     8
370
     0
100
AcDbSpline
210
0.0
220
0.0
230
1.0
 70
     8
 71
     3
 72
    12
 73
     8
 74
     0
 42
0.00000001
 43
0.00000001
 40
0.0
 40
0.0
 40
0.0
 40
0.0
 40
0.2800290866344903
 40
0.5490409813471712
 40
0.7846802629973252
 40
0.9378094941211227
 40
1.0
 40
1.0
 40
1.0
 40
1.0
 10
234.0062339945885
 20
170.8887536050398
 30
0.0
 10
233.9986983867018
 20
170.90894437798
 30
0.0
 10
233.9839236445531
 20
170.9485315577351
 30
0.0
 10
233.9402630241328
 20
170.9999715510345
 30
0.0
 10
233.8876929676188
 20
171.0332864902654
 30
0.0
 10
233.8430038026541
 20
171.0450519424027
 30
0.0
 10
233.8209432525985
 20
171.0457998007582
 30
0.0
 10
233.814571534023
 20
171.0460158036668
 30
0.0
  0
LINE
  5
167
330
1F
100
AcDbEntity
  8
0
  6
Continuous
 62
     8
370
     0
100
AcDbLine
 10
233.814571534
 20
171.5206801863
 30
0.0
 11
233.814571534
 21
171.0460158037
 31
0.0
  0
LINE
  5
168
330
1F
100
AcDbEntity
  8
0
  6
Continuous
 62
     8
370
     0
100
AcDbLine
 10
233.814571534
 20
171.0460158037
 30
0.0
 11
231.9148820981
 21
171.0460158037
 31
0.0
  0
LINE
  5
169
330
1F
100
AcDbEntity
  8
0
  6
Continuous
 62
     8
370
     0
100
AcDbLine
 10
191.5148822746
 20
171.0460158037
 30
0.0
 11
189.6151928387
 21
171.0460158037
 31
0.0
  0
ARC
  5
16A
330
1F
100
AcDbEntity
  8
0
  6
Continuous
 62
     8
370
     0
100
AcDbCircle
 10
241.7148823278
 20
164.6592633919
 30
0.0
 40
7.900310562001522
100
AcDbArc
 50
180.0
 51
270.0
  0
LINE
  5
16B
330
1F
100
AcDbEntity
  8
0
  6
Continuous
 62
     8
370
     0
100
AcDbLine
 10
242.0844626769
 20
156.7589519517
 30
0.0
 11
241.7148840769
 21
156.7589519517
 31
0.0
  0
ARC
  5
16C
330
1F
100
AcDbEntity
  8
0
  6
Continuous
 62
     8
370
     0
100
AcDbCircle
 10
216.6088718924
 20
97.6592633919
 30
0.0
 40
7.900310562001503
100
AcDbArc
 50
67.6388653368
 51
90.0
  0
LINE
  5
16D
330
1F
100
AcDbEntity
  8
0
  6
Continuous
 62
     8
370
     0
100
AcDbLine
 10
206.8208926513
 20
105.5595716433
 30
0.0
 11
216.6088712557
 21
105.5595716433
 31
0.0
  0
ARC
  5
16E
330
1F
100
AcDbEntity
  8
0
  6
Continuous
 62
     8
370
     0
100
AcDbCircle
 10
206.8208927633
 20
97.6592633919
 30
0.0
 40
7.900310562001517
100
AcDbArc
 50
90.0
 51
112.3611346632
  0
LINE
  5
16F
330
1F
100
AcDbEntity
  8
0
  6
Continuous
 62
     8
370
     0
100
AcDbLine
 10
181.7148821584
 20
156.7589519517
 30
0.0
 11
181.3453016958
 21
156.7589519517
 31
0.0
  0
ARC
  5
170
330
1F
100
AcDbEntity
  8
0
  6
Continuous
 62
     8
370
     0
100
AcDbCircle
 10
181.7148823278
 20
164.6592633919
 30
0.0
 40
7.900310562001522
100
AcDbArc
 50
270.0
 51
0.0
  0
LINE
  5
171
330
1F
100
AcDbEntity
  8
0
  6
Continuous
 62
     8
370
     0
100
AcDbLine
 10
189.6151928387
 20
164.659262632
 30
0.0
 11
189.6151928387
 21
171.0460158037
 31
0.0
  0
LINE
  5
172
330
1F
100
AcDbEntity
  8
0
  6
Continuous
 62
     8
370
     0
100
AcDbLine
 10
191.5148822746
 20
164.659262632
 30
0.0
 11
191.5148822746
 21
171.0460158037
 31
0.0
  0
ARC
  5
173
330
1F
100
AcDbEntity
  8
0
  6
Continuous
 62
     8
370
     0
100
AcDbCircle
 10
181.7148823278
 20
164.6592633919
 30
0.0
 40
9.800000000000011
100
AcDbArc
 50
289.4007680862
 51
0.0
  0
LWPOLYLINE
  5
174
330
1F
100
AcDbEntity
  8
0
  6
Continuous
 62
     8
370
     0
100
AcDbPolyline
 90
        3
 70
   128
 43
0.0
 10
204.8250609233
 20
107.2538783745
 10
205.5989750817
 20
107.38278832
 10
206.8208926513
 20
107.4592610793
  0
LINE
  5
175
330
1F
100
AcDbEntity
  8
0
  6
Continuous
 62
     8
370
     0
100
AcDbLine
 10
206.8208926513
 20
107.4592610793
 30
0.0
 11
216.6088712557
 21
107.4592610793
 31
0.0
  0
LWPOLYLINE
  5
176
330
1F
100
AcDbEntity
  8
0
  6
Continuous
 62
     8
370
     0
100
AcDbPolyline
 90
        3
 70
   128
 43
0.0
 10
216.6088712557
 20
107.4592610793
 10
217.8307888254
 20
107.38278832
 10
218.6047048464
 20
107.2538783745
  0
ARC
  5
177
330
1F
100
AcDbEntity
  8
0
  6
Continuous
 62
     8
370
     0
100
AcDbCircle
 10
241.7148823278
 20
164.6592633919
 30
0.0
 40
9.800000000000011
100
AcDbArc
 50
180.0
 51
250.5992319138
  0
LINE
  5
178
330
1F
100
AcDbEntity
  8
0
  6
Continuous
 62
     8
370
     0
100
AcDbLine
 10
231.9148820981
 20
164.659262632
 30
0.0
 11
231.9148820981
 21
171.0460158037
 31
0.0
  0
LINE
  5
179
330
1F
100
AcDbEntity
  8
0
  6
Continuous
 62
     8
370
     0
100
AcDbLine
 10
233.814571534
 20
164.659262632
 30
0.0
 11
233.814571534
 21
171.0460158037
 31
0.0
  0
LINE
  5
17A
330
1F
100
AcDbEntity
  8
0
  6
Continuous
 62
     8
370
     0
100
AcDbLine
 10
189.4235299125
 20
164.659262632
 30
0.0
 11
189.6151928387
 21
164.659262632
 31
0.0
  0
LINE
  5
17B
330
1F
100
AcDbEntity
  8
0
  6
Continuous
 62
     8
370
     0
100
AcDbLine
 10
189.4235299125
 20
164.659262632
 30
0.0
 11
189.4235299125
 21
170.888753605
 31
0.0
  0
LINE
  5
17C
330
1F
100
AcDbEntity
  8
0
  6
Continuous
 62
     8
370
     0
100
AcDbLine
 10
234.0062339946
 20
164.659262632
 30
0.0
 11
233.814571534
 21
164.659262632
 31
0.0
  0
LINE
  5
17D
330
1F
100
AcDbEntity
  8
0
  6
Continuous
 62
     8
370
     0
100
AcDbLine
 10
234.0062339946
 20
164.659262632
 30
0.0
 11
234.0062339946
 21
170.888753605
 31
0.0
  0
LINE
  5
17E
330
1F
100
AcDbEntity
  8
0
  6
Continuous
 62
     8
370
     0
100
AcDbLine
 10
191.5148822746
 20
164.659262632
 30
0.0
 11
191.7148824006
 21
164.659262632
 31
0.0
  0
LINE
  5
17F
330
1F
100
AcDbEntity
  8
0
  6
Continuous
 62
     8
370
     0
100
AcDbLine
 10
231.9148820981
 20
164.659262632
 30
0.0
 11
231.7148824378
 21
164.659262632
 31
0.0
  0
LINE
  5
180
330
1F
100
AcDbEntity
  8
0
  6
Continuous
 62
     8
370
     0
100
AcDbLine
 10
181.7148821584
 20
156.9506162749
 30
0.0
 11
181.7148821584
 21
156.7589519517
 31
0.0
  0
ARC
  5
181
330
1F
100
AcDbEntity
  8
0
  6
Continuous
 62
     8
370
     0
100
AcDbCircle
 10
181.7148823278
 20
164.6592633919
 30
0.0
 40
7.708647592501535
100
AcDbArc
 50
270.0
 51
0.0
  0
ARC
  5
182
330
1F
100
AcDbEntity
  8
0
  6
Continuous
 62
     8
370
     0
100
AcDbCircle
 10
241.7148823278
 20
164.6592633919
 30
0.0
 40
7.708647592501535
100
AcDbArc
 50
180.0
 51
270.0
  0
LINE
  5
183
330
1F
100
AcDbEntity
  8
0
  6
Continuous
 62
     8
370
     0
100
AcDbLine
 10
241.7148840769
 20
156.9506162749
 30
0.0
 11
241.7148840769
 21
156.7589519517
 31
0.0
  0
LINE
  5
184
330
1F
100
AcDbEntity
  8
0
  6
Continuous
 62
     8
370
     0
100
AcDbLine
 10
181.7148821584
 20
156.9506162749
 30
0.0
 11
180.7126542709
 21
156.9506162749
 31
0.0
  0
LINE
  5
185
330
1F
100
AcDbEntity
  8
0
  6
Continuous
 62
     8
370
     0
100
AcDbLine
 10
242.7171101018
 20
156.9506162749
 30
0.0
 11
241.7148840769
 21
156.9506162749
 31
0.0
  0
LINE
  5
186
330
1F
100
AcDbEntity
  8
0
  6
Continuous
 62
     8
370
     0
100
AcDbLine
 10
216.6088712557
 20
107.4592610793
 30
0.0
 11
216.6088712557
 21
107.6592644648
 31
0.0
  0
LINE
  5
187
330
1F
100
AcDbEntity
  8
0
  6
Continuous
 62
     8
370
     0
100
AcDbLine
 10
206.8208926513
 20
107.4592610793
 30
0.0
 11
206.8208926513
 21
107.6592644648
 31
0.0
  0
LINE
  5
188
330
1F
100
AcDbEntity
  8
0
  6
Continuous
 62
     8
370
     0
100
AcDbLine
 10
216.6088712557
 20
105.367912908
 30
0.0
 11
216.6088712557
 21
105.5595716433
 31
0.0
  0
LINE
  5
189
330
1F
100
AcDbEntity
  8
0
  6
Continuous
 62
     8
370
     0
100
AcDbLine
 10
206.8208926513
 20
105.367912908
 30
0.0
 11
216.6088712557
 21
105.367912908
 31
0.0
  0
LINE
  5
18A
330
1F
100
AcDbEntity
  8
0
  6
Continuous
 62
     8
370
     0
100
AcDbLine
 10
206.8208926513
 20
105.367912908
 30
0.0
 11
206.8208926513
 21
105.5595716433
 31
0.0
  0
ARC
  5
18B
330
1F
100
AcDbEntity
  8
0
  6
Continuous
 62
     8
370
     0
100
AcDbCircle
 10
216.6088718924
 20
97.6592633919
 30
0.0
 40
7.708647592501543
100
AcDbArc
 50
66.0128317324
 51
90.0
  0
ARC
  5
18C
330
1F
100
AcDbEntity
  8
0
  6
Continuous
 62
     8
370
     0
100
AcDbCircle
 10
206.8208927633
 20
97.6592633919
 30
0.0
 40
7.708647592501535
100
AcDbArc
 50
90.0
 51
113.9871682676
  0
LWPOLYLINE
  5
18D
330
1F
100
AcDbEntity
  8
0
  6
Continuous
 62
     8
370
     0
100
AcDbPolyline
 90
        4
 70
   128
 43
0.0
 10
234.7148810669
 20
170.1592635335
 10
234.6356515928
 20
170.240824108
 10
234.3987007781
 20
170.4847449408
 10
234.0062339946
 20
170.888753605
  0
LWPOLYLINE
  5
18E
330
1F
100
AcDbEntity
  8
0
  6
Continuous
 62
     8
370
     0
100
AcDbPolyline
 90
        5
 70
   128
 43
0.0
 10
189.4235299125
 20
170.888753605
 10
189.0310646423
 20
170.4847449408
 10
188.794112547
 20
170.240824108
 10
188.7148823163
 20
170.1592635335
 10
188.7148823163
 20
170.1592635335
  0
LINE
  5
18F
330
1F
100
AcDbEntity
  8
0
  6
Continuous
 62
     8
370
     0
100
AcDbLine
 10
188.7148823163
 20
164.659262632
 30
0.0
 11
189.4235299125
 21
164.659262632
 31
0.0
  0
LINE
  5
190
330
1F
100
AcDbEntity
  8
0
  6
Continuous
 62
     8
370
     0
100
AcDbLine
 10
234.7148810669
 20
164.659262632
 30
0.0
 11
234.0062339946
 21
164.659262632
 31
0.0
  0
LINE
  5
191
330
1F
100
AcDbEntity
  8
0
  6
Continuous
 62
     8
370
     0
100
AcDbLine
 10
241.7148840769
 20
157.6592633472
 30
0.0
 11
241.7148840769
 21
156.9506162749
 31
0.0
  0
LINE
  5
192
330
1F
100
AcDbEntity
  8
0
  6
Continuous
 62
     8
370
     0
100
AcDbLine
 10
181.7148821584
 20
157.6592633472
 30
0.0
 11
181.7148821584
 21
156.9506162749
 31
0.0
  0
LINE
  5
193
330
1F
100
AcDbEntity
  8
0
  6
Continuous
 62
     8
370
     0
100
AcDbLine
 10
216.6088712557
 20
104.6592658357
 30
0.0
 11
216.6088712557
 21
105.367912908
 31
0.0
  0
LINE
  5
194
330
1F
100
AcDbEntity
  8
0
  6
Continuous
 62
     8
370
     0
100
AcDbLine
 10
206.8208926513
 20
104.6592658357
 30
0.0
 11
206.8208926513
 21
105.367912908
 31
0.0
  0
LINE
  5
195
330
1F
100
AcDbEntity
  8
0
  6
Continuous
 62
     8
370
     0
100
AcDbLine
 10
255.2148816331
 20
186.1911825807
 30
0.0
 11
255.2148816331
 21
191.6592633323
 31
0.0
  0
ARC
  5
196
330
1F
100
AcDbEntity
  8
0
  6
Continuous
 62
     8
370
     0
100
AcDbCircle
 10
211.7148823278
 20
479.6592633919
 30
0.0
 40
296.674509261219
100
AcDbArc
 50
261.5685897783
 51
278.4314102217
  0
LINE
  5
197
330
1F
100
AcDbEntity
  8
0
  6
Continuous
 62
     8
370
     0
100
AcDbLine
 10
168.2148822739
 20
191.6592633323
 30
0.0
 11
168.2148822739
 21
186.1911825807
 31
0.0
  0
LINE
  5
198
330
1F
100
AcDbEntity
  8
0
  6
Continuous
 62
     8
370
     0
100
AcDbLine
 10
168.2148822739
 20
186.1911825807
 30
0.0
 11
166.7148829594
 21
186.1911825807
 31
0.0
  0
ARC
  5
199
330
1F
100
AcDbEntity
  8
0
  6
Continuous
 62
     8
370
     0
100
AcDbCircle
 10
168.1831934918
 20
186.2108930027
 30
0.0
 40
1.468442821606357
100
AcDbArc
 50
180.7690853792
 51
262.9045238577
  0
LWPOLYLINE
  5
19A
330
1F
100
AcDbEntity
  8
0
  6
Continuous
 62
     8
370
     0
100
AcDbPolyline
 90
        9
 70
   128
 43
0.0
 10
168.0018068447
 20
184.7536959657
 10
168.0136588558
 20
184.8336518714
 10
168.030979593
 20
184.9505002582
 10
168.0532978072
 20
185.1010667132
 10
168.080006276
 20
185.2812580736
 10
168.1103822931
 20
185.4861783767
 10
168.1435969814
 20
185.7102583134
 10
168.1787488206
 20
185.9474079655
 10
168.2148822739
 20
186.1911825807
  0
ARC
  5
19B
330
1F
100
AcDbEntity
  8
0
  6
Continuous
 62
     8
370
     0
100
AcDbCircle
 10
211.7148823278
 20
479.6592633919
 30
0.0
 40
298.1277018063785
100
AcDbArc
 50
261.5685897783
 51
278.4314102217
  0
LWPOLYLINE
  5
19C
330
1F
100
AcDbEntity
  8
0
  6
Continuous
 62
     8
370
     0
100
AcDbPolyline
 90
        9
 70
   128
 43
0.0
 10
255.4279607876
 20
184.7536959657
 10
255.4161069139
 20
184.8336518714
 10
255.398784314
 20
184.9505002582
 10
255.3764698251
 20
185.1010667132
 10
255.3497594937
 20
185.2812580736
 10
255.3193834766
 20
185.4861783767
 10
255.2861687883
 20
185.7102583134
 10
255.251016949
 20
185.9474079655
 10
255.2148816331
 20
186.1911825807
  0
LINE
  5
19D
330
1F
100
AcDbEntity
  8
0
  6
Continuous
 62
     8
370
     0
100
AcDbLine
 10
256.714884673
 20
186.1911825807
 30
0.0
 11
255.2148816331
 21
186.1911825807
 31
0.0
  0
ARC
  5
19E
330
1F
100
AcDbEntity
  8
0
  6
Continuous
 62
     8
370
     0
100
AcDbCircle
 10
255.2465632687
 20
186.2109027359
 30
0.0
 40
1.468453823196033
100
AcDbArc
 50
277.0958501806
 51
359.2305405824
  0
SPLINE
  5
19F
330
1F
100
AcDbEntity
  8
0
  6
Continuous
 62
     8
370
     0
100
AcDbSpline
210
0.0
220
0.0
230
1.0
 70
     8
 71
     3
 72
    10
 73
     6
 74
     0
 42
0.00000001
 43
0.00000001
 40
0.0
 40
0.0
 40
0.0
 40
0.0
 40
0.1997143061787775
 40
0.5978025554787803
 40
1.0
 40
1.0
 40
1.0
 40
1.0
 10
168.0018068446967
 20
184.7536959657092
 30
0.0
 10
168.0011189380966
 20
184.5188753412303
 30
0.0
 10
167.9990598351142
 20
183.8159894434771
 30
0.0
 10
167.9968144507455
 20
183.0429545587934
 30
0.0
 10
167.9964652078395
 20
182.9224468789906
 30
0.0
 10
167.9962896897647
 20
182.8618836560864
 30
0.0
  0
SPLINE
  5
1A0
330
1F
100
AcDbEntity
  8
0
  6
Continuous
 62
     8
370
     0
100
AcDbSpline
210
0.0
220
0.0
230
1.0
 70
     8
 71
     3
 72
    10
 73
     6
 74
     0
 42
0.00000001
 43
0.00000001
 40
0.0
 40
0.0
 40
0.0
 40
0.0
 40
0.1997144872977352
 40
0.5978030692234113
 40
1.0
 40
1.0
 40
1.0
 40
1.0
 10
255.433474217281
 20
182.8618836560864
 30
0.0
 10
255.4334290760197
 20
182.8779404939336
 30
0.0
 10
255.4332939552034
 20
182.9260032412934
 30
0.0
 10
255.4318592611761
 20
183.4208765647525
 30
0.0
 10
255.4292647186029
 20
184.3079049479265
 30
0.0
 10
255.4279607876393
 20
184.7536959657092
 30
0.0
  0
CIRCLE
  5
1A1
330
1F
100
AcDbEntity
  8
0
  6
Continuous
 62
     8
370
     0
100
AcDbCircle
 10
170.2148823278
 20
121.1592633919
 30
0.0
 40
35.31343362578262
  0
CIRCLE
  5
1A2
330
1F
100
AcDbEntity
  8
0
  6
Continuous
 62
     8
370
     0
100
AcDbCircle
 10
170.2148823278
 20
121.1592633919
 30
0.0
 40
36.00700663932969
  0
CIRCLE
  5
1A3
330
1F
100
AcDbEntity
  8
0
  6
Continuous
 62
     8
370
     0
100
AcDbCircle
 10
170.2148823278
 20
121.1592633919
 30
0.0
 40
37.00698192024139
  0
CIRCLE
  5
1A4
330
1F
100
AcDbEntity
  8
0
  6
Continuous
 62
     8
370
     0
100
AcDbCircle
 10
170.2148823278
 20
121.1592633919
 30
0.0
 40
37.29899338588324
  0
CIRCLE
  5
1A5
330
1F
100
AcDbEntity
  8
0
  6
Continuous
 62
     8
370
     0
100
AcDbCircle
 10
170.2148823278
 20
121.1592633919
 30
0.0
 40
35.1431103536243
  0
CIRCLE
  5
1A6
330
1F
100
AcDbEntity
  8
0
  6
Continuous
 62
     8
370
     0
100
AcDbCircle
 10
170.2148823278
 20
121.1592633919
 30
0.0
 40
30.44888873943367
  0
CIRCLE
  5
1A7
330
1F
100
AcDbEntity
  8
0
  6
Continuous
 62
     8
370
     0
100
AcDbCircle
 10
170.2148823278
 20
121.1592633919
 30
0.0
 40
30.19147265858576
  0
CIRCLE
  5
1A8
330
1F
100
AcDbEntity
  8
0
  6
Continuous
 62
     8
370
     0
100
AcDbCircle
 10
170.2148823278
 20
121.1592633919
 30
0.0
 40
28.50650876828682
  0
CIRCLE
  5
1A9
330
1F
100
AcDbEntity
  8
0
  6
Continuous
 62
     8
370
     0
100
AcDbCircle
 10
170.2148823278
 20
121.1592633919
 30
0.0
 40
26.46273075820664
  0
CIRCLE
  5
1AA
330
1F
100
AcDbEntity
  8
0
  6
Continuous
 62
     8
370
     0
100
AcDbCircle
 10
170.2148823278
 20
121.1592633919
 30
0.0
 40
21.50000000000004
  0
CIRCLE
  5
1AB
330
1F
100
AcDbEntity
  8
0
  6
Continuous
 62
     8
370
     0
100
AcDbCircle
 10
253.2148823278
 20
121.1592633919
 30
0.0
 40
36.00700663932969
  0
CIRCLE
  5
1AC
330
1F
100
AcDbEntity
  8
0
  6
Continuous
 62
     8
370
     0
100
AcDbCircle
 10
253.2148823278
 20
121.1592633919
 30
0.0
 40
37.0069819202414
  0
CIRCLE
  5
1AD
330
1F
100
AcDbEntity
  8
0
  6
Continuous
 62
     8
370
     0
100
AcDbCircle
 10
253.2148823278
 20
121.1592633919
 30
0.0
 40
35.31343362578256
  0
CIRCLE
  5
1AE
330
1F
100
AcDbEntity
  8
0
  6
Continuous
 62
     8
370
     0
100
AcDbCircle
 10
253.2148823278
 20
121.1592633919
 30
0.0
 40
37.29899338588324
  0
CIRCLE
  5
1AF
330
1F
100
AcDbEntity
  8
0
  6
Continuous
 62
     8
370
     0
100
AcDbCircle
 10
253.2148823278
 20
121.1592633919
 30
0.0
 40
35.14311035362427
  0
CIRCLE
  5
1B0
330
1F
100
AcDbEntity
  8
0
  6
Continuous
 62
     8
370
     0
100
AcDbCircle
 10
253.2148823278
 20
121.1592633919
 30
0.0
 40
30.44888873943364
  0
CIRCLE
  5
1B1
330
1F
100
AcDbEntity
  8
0
  6
Continuous
 62
     8
370
     0
100
AcDbCircle
 10
253.2148823278
 20
121.1592633919
 30
0.0
 40
30.19147265858578
  0
CIRCLE
  5
1B2
330
1F
100
AcDbEntity
  8
0
  6
Continuous
 62
     8
370
     0
100
AcDbCircle
 10
253.2148823278
 20
121.1592633919
 30
0.0
 40
28.50650876828682
  0
CIRCLE
  5
1B3
330
1F
100
AcDbEntity
  8
0
  6
Continuous
 62
     8
370
     0
100
AcDbCircle
 10
253.2148823278
 20
121.1592633919
 30
0.0
 40
26.46273075820663
  0
CIRCLE
  5
1B4
330
1F
100
AcDbEntity
  8
0
  6
Continuous
 62
     8
370
     0
100
AcDbCircle
 10
253.2148823278
 20
121.1592633919
 30
0.0
 40
21.5
  0
DIMENSION
  5
1B5
330
1F
100
AcDbEntity
  8
0
  6
Continuous
 62
     7
370
     0
100
AcDbDimension
  2
*D3
 10
253.2148823278
 20
66.2559299163
 30
0.0
 11
212.1151521019
 21
66.2559299163
 31
0.0
 70
   160
  1
(<>)
 71
     2
 42
-1.0
  3
SLDDIMSTYLE0
100
AcDbAlignedDimension
 13
170.2148823278
 23
121.1592633919
 33
0.0
 14
253.2148823278
 24
121.1592633919
 34
0.0
 50
0.0
100
AcDbRotatedDimension
  0
DIMENSION
  5
1C1
330
1F
100
AcDbEntity
  8
0
  6
Continuous
 62
     7
370
     0
100
AcDbDimension
  2
*D4
 10
290.2218642481
 20
196.1089125175
 30
0.0
 11
273.7563429244
 21
196.1089125175
 31
0.0
 70
   160
  1
(<>)
 71
     2
 42
-1.0
  3
SLDDIMSTYLE2
100
AcDbAlignedDimension
 13
256.7148823278
 23
191.6592633919
 33
0.0
 14
290.2218642481
 24
121.1592633919
 34
0.0
 50
0.0
100
AcDbRotatedDimension
  0
DIMENSION
  5
1D0
330
1F
100
AcDbEntity
  8
0
  6
Continuous
 62
     7
370
     0
100
AcDbDimension
  2
*D5
 10
117.4887832708
 20
83.8602700061
 30
0.0
 11
117.4887832708
 21
132.8572605425
 31
0.0
 70
   160
  1
(<>)
 71
     2
 42
-1.0
  3
SLDDIMSTYLE1
100
AcDbAlignedDimension
 13
166.7148823278
 23
191.6592633919
 33
0.0
 14
170.2148823278
 24
83.8602700061
 34
0.0
 50
90.0
100
AcDbRotatedDimension
  0
INSERT
  5
1E7
330
1F
100
AcDbEntity
  8
0
  6
Continuous
 62
     7
370
     0
100
AcDbBlockReference
  2
SW_CENTERMARKSYMBOL_0
 10
253.2148823278
 20
121.1592633919
 30
0.0
  0
INSERT
  5
1F3
330
1F
100
AcDbEntity
  8
0
  6
Continuous
 62
     7
370
     0
100
AcDbBlockReference
  2
SW_CENTERMARKSYMBOL_1
 10
170.2148823278
 20
121.1592633919
 30
0.0
  0
ARC
  5
1F4
330
1F
100
AcDbEntity
  8
0
  6
Continuous
 62
     7
370
    15
100
AcDbCircle
 10
469.9868148284
 20
278.6461020432
 30
0.0
 40
17.00000000000003
100
AcDbArc
 50
343.398450401
 51
16.601549599
  0
ARC
  5
1F5
330
1F
100
AcDbEntity
  8
0
  6
Continuous
 62
     7
370
    15
100
AcDbCircle
 10
486.0865042664
 20
283.4461020432
 30
0.0
 40
0.1999999999999946
100
AcDbArc
 50
16.601549599
 51
90.0
  0
ARC
  5
1F6
330
1F
100
AcDbEntity
  8
0
  6
Continuous
 62
     7
370
    15
100
AcDbCircle
 10
486.0865042664
 20
273.8461020432
 30
0.0
 40
0.2000000000000108
100
AcDbArc
 50
270.0
 51
343.398450401
  0
LINE
  5
1F7
330
1F
100
AcDbEntity
  8
0
  6
Continuous
 62
     7
370
    15
100
AcDbLine
 10
390.4868148046
 20
283.6461021475
 30
0.0
 11
388.0377765407
 21
283.3886976264
 31
0.0
  0
LINE
  5
1F8
330
1F
100
AcDbEntity
  8
0
  6
Continuous
 62
     7
370
    15
100
AcDbLine
 10
388.0377765407
 20
273.9035064265
 30
0.0
 11
390.4868148046
 21
273.6461021382
 31
0.0
  0
ARC
  5
1F9
330
1F
100
AcDbEntity
  8
0
  6
Continuous
 62
     7
370
    15
100
AcDbCircle
 10
395.6868148284
 20
278.6461020432
 30
0.0
 40
9.0
100
AcDbArc
 50
194.4775121859
 51
211.7999516825
  0
ARC
  5
1FA
330
1F
100
AcDbEntity
  8
0
  6
Continuous
 62
     7
370
    15
100
AcDbCircle
 10
395.6868148284
 20
278.6461020432
 30
0.0
 40
9.00000000000006
100
AcDbArc
 50
148.2000483175
 51
165.5224878141
  0
LINE
  5
1FB
330
1F
100
AcDbEntity
  8
0
  6
Continuous
 62
     7
370
    15
100
AcDbLine
 10
390.4868148046
 20
276.1461018495
 30
0.0
 11
390.654403246
 21
276.1461018495
 31
0.0
  0
LINE
  5
1FC
330
1F
100
AcDbEntity
  8
0
  6
Continuous
 62
     7
370
    15
100
AcDbLine
 10
390.6533299259
 20
281.1461017377
 30
0.0
 11
390.4868148046
 21
281.1461017377
 31
0.0
  0
ARC
  5
1FD
330
1F
100
AcDbEntity
  8
0
  6
Continuous
 62
     7
370
    15
100
AcDbCircle
 10
418.1876938184
 20
306.8881017495
 30
0.0
 40
4.999995971225212
100
AcDbArc
 50
179.5971394425
 51
190.5
  0
ARC
  5
1FE
330
1F
100
AcDbEntity
  8
0
  6
Continuous
 62
     7
370
    15
100
AcDbCircle
 10
482.7859358384
 20
306.8881017495
 30
0.0
 40
4.999995971225228
100
AcDbArc
 50
349.5
 51
0.4028605575
  0
LINE
  5
1FF
330
1F
100
AcDbEntity
  8
0
  6
Continuous
 62
     7
370
    15
100
AcDbLine
 10
487.7858084755
 20
306.9232563398
 30
0.0
 11
487.4937978701
 21
348.4531315885
 31
0.0
  0
LINE
  5
200
330
1F
100
AcDbEntity
  8
0
  6
Continuous
 62
     7
370
    15
100
AcDbLine
 10
413.4798326658
 20
348.4531315885
 30
0.0
 11
413.1878220604
 21
306.9232563398
 31
0.0
  0
LINE
  5
201
330
1F
100
AcDbEntity
  8
0
  6
Continuous
 62
     7
370
    15
100
AcDbLine
 10
413.2714231627
 20
305.9769245706
 30
0.0
 11
416.4868143515
 21
288.6282234363
 31
0.0
  0
LINE
  5
202
330
1F
100
AcDbEntity
  8
0
  6
Continuous
 62
     7
370
    15
100
AcDbLine
 10
484.486818047
 20
288.6282234363
 30
0.0
 11
487.7022055106
 21
305.9769245706
 31
0.0
  0
ARC
  5
203
330
1F
100
AcDbEntity
  8
0
  6
Continuous
 62
     7
370
    15
100
AcDbCircle
 10
414.479808189
 20
348.4461020432
 30
0.0
 40
1.000000000000086
100
AcDbArc
 50
90.0
 51
179.5971394425
  0
ARC
  5
204
330
1F
100
AcDbEntity
  8
0
  6
Continuous
 62
     7
370
    15
100
AcDbCircle
 10
486.4938214677
 20
348.4461020432
 30
0.0
 40
1.000000000000029
100
AcDbArc
 50
0.4028605575
 51
90.0
  0
ARC
  5
205
330
1F
100
AcDbEntity
  8
0
  6
Continuous
 62
     7
370
    15
100
AcDbCircle
 10
421.4030893662
 20
289.5394019565
 30
0.0
 40
5.000000000000011
100
AcDbArc
 50
190.5
 51
226.2545161039
  0
ARC
  5
206
330
1F
100
AcDbEntity
  8
0
  6
Continuous
 62
     7
370
    15
100
AcDbCircle
 10
479.5705402905
 20
289.5394019565
 30
0.0
 40
5.000000000000062
100
AcDbArc
 50
313.7454838961
 51
349.5
  0
ARC
  5
207
330
1F
100
AcDbEntity
  8
0
  6
Continuous
 62
     7
370
    15
100
AcDbCircle
 10
414.4885282035
 20
282.3152173017
 30
0.0
 40
4.999999999999979
100
AcDbArc
 50
27.7864187472
 51
46.2545161039
  0
ARC
  5
208
330
1F
100
AcDbEntity
  8
0
  6
Continuous
 62
     7
370
    15
100
AcDbCircle
 10
486.4851014532
 20
282.3152173017
 30
0.0
 40
4.999999999999979
100
AcDbArc
 50
133.7454838961
 51
152.2135812528
  0
LINE
  5
209
330
1F
100
AcDbEntity
  8
0
  6
Continuous
 62
     7
370
    15
100
AcDbLine
 10
419.7486748116
 20
272.446102023
 30
0.0
 11
420.0925191061
 21
259.315216998
 31
0.0
  0
LINE
  5
20A
330
1F
100
AcDbEntity
  8
0
  6
Continuous
 62
     7
370
    15
100
AcDbLine
 10
480.8811095671
 20
259.315216998
 30
0.0
 11
481.2249538617
 21
272.446102023
 31
0.0
  0
ARC
  5
20B
330
1F
100
AcDbEntity
  8
0
  6
Continuous
 62
     7
370
    15
100
AcDbCircle
 10
425.0908049869
 20
259.4461020432
 30
0.0
 40
5.000000000000047
100
AcDbArc
 50
181.5
 51
270.0
  0
ARC
  5
20C
330
1F
100
AcDbEntity
  8
0
  6
Continuous
 62
     7
370
    15
100
AcDbCircle
 10
475.8828246698
 20
259.4461020432
 30
0.0
 40
5.0
100
AcDbArc
 50
270.0
 51
358.5
  0
LINE
  5
20D
330
1F
100
AcDbEntity
  8
0
  6
Continuous
 62
     7
370
    15
100
AcDbLine
 10
415.4868141876
 20
284.6461023114
 30
0.0
 11
415.4868141876
 21
283.6461021475
 31
0.0
  0
LINE
  5
20E
330
1F
100
AcDbEntity
  8
0
  6
Continuous
 62
     7
370
    15
100
AcDbLine
 10
485.486812623
 20
283.6461021475
 30
0.0
 11
485.486812623
 21
284.6461023114
 31
0.0
  0
LINE
  5
20F
330
1F
100
AcDbEntity
  8
0
  6
Continuous
 62
     7
370
    15
100
AcDbLine
 10
416.9868153648
 20
283.6461021475
 30
0.0
 11
416.9868153648
 21
283.4461024873
 31
0.0
  0
LINE
  5
210
330
1F
100
AcDbEntity
  8
0
  6
Continuous
 62
     7
370
    15
100
AcDbLine
 10
416.9868153648
 20
273.8461020313
 30
0.0
 11
416.9868153648
 21
273.4461020123
 31
0.0
  0
LINE
  5
211
330
1F
100
AcDbEntity
  8
0
  6
Continuous
 62
     7
370
    15
100
AcDbLine
 10
483.9868170337
 20
273.4461020123
 30
0.0
 11
483.9868170337
 21
273.6461021382
 31
0.0
  0
LINE
  5
212
330
1F
100
AcDbEntity
  8
0
  6
Continuous
 62
     7
370
    15
100
AcDbLine
 10
415.9868152009
 20
273.4461020123
 30
0.0
 11
415.9868152009
 21
272.446102023
 31
0.0
  0
LINE
  5
213
330
1F
100
AcDbEntity
  8
0
  6
Continuous
 62
     7
370
    15
100
AcDbLine
 10
484.9868116097
 20
272.446102023
 30
0.0
 11
484.9868116097
 21
273.4461020123
 31
0.0
  0
LINE
  5
214
330
1F
100
AcDbEntity
  8
0
  6
Continuous
 62
     7
370
    15
100
AcDbLine
 10
391.9868148759
 20
283.1199160687
 30
0.0
 11
391.9868148759
 21
285.6461024753
 31
0.0
  0
LINE
  5
215
330
1F
100
AcDbEntity
  8
0
  6
Continuous
 62
     7
370
    15
100
AcDbLine
 10
391.9868148759
 20
271.6461020432
 30
0.0
 11
391.9868148759
 21
274.1722879841
 31
0.0
  0
LINE
  5
216
330
1F
100
AcDbEntity
  8
0
  6
Continuous
 62
     7
370
    15
100
AcDbLine
 10
391.9868148759
 20
285.6461024753
 30
0.0
 11
399.1525654809
 21
285.6461024753
 31
0.0
  0
ARC
  5
217
330
1F
100
AcDbEntity
  8
0
  6
Continuous
 62
     7
370
    15
100
AcDbCircle
 10
399.1525657165
 20
285.1461020432
 30
0.0
 40
0.5000000000000568
100
AcDbArc
 50
23.1998431829
 51
90.0
  0
ARC
  5
218
330
1F
100
AcDbEntity
  8
0
  6
Continuous
 62
     7
370
    15
100
AcDbCircle
 10
383.9868148284
 20
278.6461020432
 30
0.0
 40
16.99999999999994
100
AcDbArc
 50
336.8001568171
 51
23.1998431829
  0
ARC
  5
219
330
1F
100
AcDbEntity
  8
0
  6
Continuous
 62
     7
370
    15
100
AcDbCircle
 10
399.1525657165
 20
272.1461020432
 30
0.0
 40
0.5
100
AcDbArc
 50
270.0
 51
336.8001568171
  0
LINE
  5
21A
330
1F
100
AcDbEntity
  8
0
  6
Continuous
 62
     7
370
    15
100
AcDbLine
 10
399.1525654809
 20
271.6461020432
 30
0.0
 11
391.9868148759
 21
271.6461020432
 31
0.0
  0
ARC
  5
21B
330
1F
100
AcDbEntity
  8
0
  6
Continuous
 62
     7
370
    15
100
AcDbCircle
 10
394.9868148284
 20
282.0410155644
 30
0.0
 40
1.000000000000045
100
AcDbArc
 50
0.0
 51
88.5
  0
LINE
  5
21C
330
1F
100
AcDbEntity
  8
0
  6
Continuous
 62
     7
370
    15
100
AcDbLine
 10
395.9868147166
 20
282.0410151876
 30
0.0
 11
395.9868147166
 21
275.2511886324
 31
0.0
  0
ARC
  5
21D
330
1F
100
AcDbEntity
  8
0
  6
Continuous
 62
     7
370
    15
100
AcDbCircle
 10
394.9868148284
 20
275.251188522
 30
0.0
 40
1.000000000000045
100
AcDbArc
 50
271.5
 51
0.0
  0
LINE
  5
21E
330
1F
100
AcDbEntity
  8
0
  6
Continuous
 62
     7
370
    15
100
AcDbLine
 10
395.012991702
 20
283.0406726248
 30
0.0
 11
391.9868148759
 21
283.1199160687
 31
0.0
  0
LINE
  5
21F
330
1F
100
AcDbEntity
  8
0
  6
Continuous
 62
     7
370
    15
100
AcDbLine
 10
391.9868148759
 20
274.1722879841
 30
0.0
 11
395.012991702
 21
274.2515311952
 31
0.0
  0
LINE
  5
220
330
1F
100
AcDbEntity
  8
0
  6
Continuous
 62
     7
370
    15
100
AcDbLine
 10
463.9868137555
 20
273.8461020313
 30
0.0
 11
463.9868137555
 21
283.4461024873
 31
0.0
  0
ARC
  5
221
330
1F
100
AcDbEntity
  8
0
  6
Continuous
 62
     7
370
    15
100
AcDbCircle
 10
464.1868148284
 20
283.4461020432
 30
0.0
 40
0.2000000000000455
100
AcDbArc
 50
90.0
 51
180.0
  0
ARC
  5
222
330
1F
100
AcDbEntity
  8
0
  6
Continuous
 62
     7
370
    15
100
AcDbCircle
 10
466.0865042664
 20
283.4461020432
 30
0.0
 40
0.1999999999999946
100
AcDbArc
 50
16.601549599
 51
90.0
  0
ARC
  5
223
330
1F
100
AcDbEntity
  8
0
  6
Continuous
 62
     7
370
    15
100
AcDbCircle
 10
449.9868148284
 20
278.6461020432
 30
0.0
 40
17.00000000000003
100
AcDbArc
 50
343.398450401
 51
16.601549599
  0
ARC
  5
224
330
1F
100
AcDbEntity
  8
0
  6
Continuous
 62
     7
370
    15
100
AcDbCircle
 10
466.0865042664
 20
273.8461020432
 30
0.0
 40
0.2000000000000108
100
AcDbArc
 50
270.0
 51
343.398450401
  0
ARC
  5
225
330
1F
100
AcDbEntity
  8
0
  6
Continuous
 62
     7
370
    15
100
AcDbCircle
 10
464.1868148284
 20
273.8461020432
 30
0.0
 40
0.2000000000000455
100
AcDbArc
 50
180.0
 51
270.0
  0
LINE
  5
226
330
1F
100
AcDbEntity
  8
0
  6
Continuous
 62
     7
370
    15
100
AcDbLine
 10
466.086506577
 20
283.6461021475
 30
0.0
 11
464.186817141
 21
283.6461021475
 31
0.0
  0
LINE
  5
227
330
1F
100
AcDbEntity
  8
0
  6
Continuous
 62
     7
370
    15
100
AcDbLine
 10
464.186817141
 20
273.6461021382
 30
0.0
 11
466.086506577
 21
273.6461021382
 31
0.0
  0
LINE
  5
228
330
1F
100
AcDbEntity
  8
0
  6
Continuous
 62
     7
370
    15
100
AcDbLine
 10
466.086506577
 20
273.6461021382
 30
0.0
 11
469.7188285308
 21
273.6461021382
 31
0.0
  0
LINE
  5
229
330
1F
100
AcDbEntity
  8
0
  6
Continuous
 62
     7
370
    15
100
AcDbLine
 10
466.086506577
 20
283.6461021475
 30
0.0
 11
469.7188285308
 21
283.6461021475
 31
0.0
  0
LINE
  5
22A
330
1F
100
AcDbEntity
  8
0
  6
Continuous
 62
     7
370
    15
100
AcDbLine
 10
469.7188285308
 20
283.6461021475
 30
0.0
 11
486.0865024047
 21
283.6461021475
 31
0.0
  0
LINE
  5
22B
330
1F
100
AcDbEntity
  8
0
  6
Continuous
 62
     7
370
    15
100
AcDbLine
 10
469.7188285308
 20
273.6461021382
 30
0.0
 11
486.0865024047
 21
273.6461021382
 31
0.0
  0
LINE
  5
22C
330
1F
100
AcDbEntity
  8
0
  6
Continuous
 62
     7
370
    15
100
AcDbLine
 10
416.9868153648
 20
273.6461021382
 30
0.0
 11
416.7868157046
 21
273.6461021382
 31
0.0
  0
ARC
  5
22D
330
1F
100
AcDbEntity
  8
0
  6
Continuous
 62
     7
370
    15
100
AcDbCircle
 10
400.6000625542
 20
284.1461020432
 30
0.0
 40
0.5000000000000104
100
AcDbArc
 50
198.3176984112
 51
270.0
  0
ARC
  5
22E
330
1F
100
AcDbEntity
  8
0
  6
Continuous
 62
     7
370
    15
100
AcDbCircle
 10
400.6000625542
 20
273.1461020432
 30
0.0
 40
0.5000000000000104
100
AcDbArc
 50
90.0
 51
161.6823015888
  0
LINE
  5
22F
330
1F
100
AcDbEntity
  8
0
  6
Continuous
 62
     7
370
    15
100
AcDbLine
 10
406.9868155883
 20
283.6461021475
 30
0.0
 11
400.6000624166
 21
283.6461021475
 31
0.0
  0
LINE
  5
230
330
1F
100
AcDbEntity
  8
0
  6
Continuous
 62
     7
370
    15
100
AcDbLine
 10
406.9868155883
 20
273.6461021382
 30
0.0
 11
400.6000624166
 21
273.6461021382
 31
0.0
  0
ARC
  5
231
330
1F
100
AcDbEntity
  8
0
  6
Continuous
 62
     7
370
    15
100
AcDbCircle
 10
416.7868148284
 20
273.8461020432
 30
0.0
 40
0.2000000000000455
100
AcDbArc
 50
270.0
 51
0.0
  0
LINE
  5
232
330
1F
100
AcDbEntity
  8
0
  6
Continuous
 62
     7
370
    15
100
AcDbLine
 10
416.7868157046
 20
273.6461021382
 30
0.0
 11
406.9868155883
 21
273.6461021382
 31
0.0
  0
LINE
  5
233
330
1F
100
AcDbEntity
  8
0
  6
Continuous
 62
     7
370
    15
100
AcDbLine
 10
416.9868153648
 20
283.4461024873
 30
0.0
 11
416.9868153648
 21
273.8461020313
 31
0.0
  0
ARC
  5
234
330
1F
100
AcDbEntity
  8
0
  6
Continuous
 62
     7
370
    15
100
AcDbCircle
 10
416.7868148284
 20
283.4461020432
 30
0.0
 40
0.2000000000000455
100
AcDbArc
 50
0.0
 51
90.0
  0
LINE
  5
235
330
1F
100
AcDbEntity
  8
0
  6
Continuous
 62
     7
370
    15
100
AcDbLine
 10
416.7868157046
 20
283.6461021475
 30
0.0
 11
406.9868155883
 21
283.6461021475
 31
0.0
  0
LINE
  5
236
330
1F
100
AcDbEntity
  8
0
  6
Continuous
 62
     7
370
    15
100
AcDbLine
 10
379.6868144663
 20
271.6461020432
 30
0.0
 11
379.6868144663
 21
274.1461019873
 31
0.0
  0
LINE
  5
237
330
1F
100
AcDbEntity
  8
0
  6
Continuous
 62
     7
370
    15
100
AcDbLine
 10
380.1868145482
 20
274.1461019873
 30
0.0
 11
379.6868144663
 21
274.1461019873
 31
0.0
  0
LINE
  5
238
330
1F
100
AcDbEntity
  8
0
  6
Continuous
 62
     7
370
    15
100
AcDbLine
 10
380.1868145482
 20
274.1461019873
 30
0.0
 11
380.1868145482
 21
297.396102073
 31
0.0
  0
LINE
  5
239
330
1F
100
AcDbEntity
  8
0
  6
Continuous
 62
     7
370
    15
100
AcDbLine
 10
379.6868144663
 20
297.396102073
 30
0.0
 11
380.1868145482
 21
297.396102073
 31
0.0
  0
LINE
  5
23A
330
1F
100
AcDbEntity
  8
0
  6
Continuous
 62
     7
370
    15
100
AcDbLine
 10
379.6868144663
 20
297.396102073
 30
0.0
 11
379.6868144663
 21
299.8961015515
 31
0.0
  0
LINE
  5
23B
330
1F
100
AcDbEntity
  8
0
  6
Continuous
 62
     7
370
    15
100
AcDbLine
 10
379.6868144663
 20
299.8961015515
 30
0.0
 11
385.6868149841
 21
299.8961015515
 31
0.0
  0
LINE
  5
23C
330
1F
100
AcDbEntity
  8
0
  6
Continuous
 62
     7
370
    15
100
AcDbLine
 10
385.6868149841
 20
274.1461019873
 30
0.0
 11
385.6868149841
 21
299.8961015515
 31
0.0
  0
ARC
  5
23D
330
1F
100
AcDbEntity
  8
0
  6
Continuous
 62
     7
370
    15
100
AcDbCircle
 10
386.1868148284
 20
274.1461020432
 30
0.0
 40
0.5000000000000568
100
AcDbArc
 50
180.0
 51
270.0
  0
LINE
  5
23E
330
1F
100
AcDbEntity
  8
0
  6
Continuous
 62
     7
370
    15
100
AcDbLine
 10
390.4868148046
 20
273.6461021382
 30
0.0
 11
386.1868146004
 21
273.6461021382
 31
0.0
  0
LINE
  5
23F
330
1F
100
AcDbEntity
  8
0
  6
Continuous
 62
     7
370
    15
100
AcDbLine
 10
390.4868148046
 20
271.6461020432
 30
0.0
 11
390.4868148046
 21
273.6461021382
 31
0.0
  0
LINE
  5
240
330
1F
100
AcDbEntity
  8
0
  6
Continuous
 62
     7
370
    15
100
AcDbLine
 10
390.4868148046
 20
271.6461020432
 30
0.0
 11
379.6868144663
 21
271.6461020432
 31
0.0
  0
SPLINE
  5
241
330
1F
100
AcDbEntity
  8
0
  6
Continuous
 62
     7
370
    15
100
AcDbSpline
210
0.0
220
0.0
230
1.0
 70
     8
 71
     3
 72
     9
 73
     5
 74
     0
 42
0.00000001
 43
0.00000001
 40
0.0
 40
0.0
 40
0.0
 40
0.0
 40
0.5325923792030165
 40
1.0
 40
1.0
 40
1.0
 40
1.0
 10
389.3117403739689
 20
273.7696073859504
 30
0.0
 10
389.3186150977853
 20
273.7306836180152
 30
0.0
 10
389.3315231379391
 20
273.6576000188968
 30
0.0
 10
389.3457029289976
 20
273.6497645132471
 30
0.0
 10
389.3523306713996
 20
273.6461021381936
 30
0.0
  0
LINE
  5
242
330
1F
100
AcDbEntity
  8
0
  6
Continuous
 62
     7
370
    15
100
AcDbLine
 10
389.2632013548
 20
285.6461024753
 30
0.0
 11
389.2632013548
 21
283.5174948819
 31
0.0
  0
LINE
  5
243
330
1F
100
AcDbEntity
  8
0
  6
Continuous
 62
     7
370
    15
100
AcDbLine
 10
389.9733917073
 20
271.3961020432
 30
0.0
 11
389.9879683496
 21
271.6461020432
 31
0.0
  0
LINE
  5
244
330
1F
100
AcDbEntity
  8
0
  6
Continuous
 62
     7
370
    15
100
AcDbLine
 10
380.1868145482
 20
290.996101769
 30
0.0
 11
379.6868144663
 21
290.996101769
 31
0.0
  0
LINE
  5
245
330
1F
100
AcDbEntity
  8
0
  6
Continuous
 62
     7
370
    15
100
AcDbLine
 10
380.1868145482
 20
281.2961024142
 30
0.0
 11
379.6868144663
 21
281.2961024142
 31
0.0
  0
LINE
  5
246
330
1F
100
AcDbEntity
  8
0
  6
Continuous
 62
     7
370
    15
100
AcDbLine
 10
379.6868144663
 20
290.996101769
 30
0.0
 11
379.6868144663
 21
281.2961024142
 31
0.0
  0
LINE
  5
247
330
1F
100
AcDbEntity
  8
0
  6
Continuous
 62
     7
370
    15
100
AcDbLine
 10
389.973391745
 20
271.3961020313
 30
0.0
 11
379.6868144663
 21
271.3961020313
 31
0.0
  0
LINE
  5
248
330
1F
100
AcDbEntity
  8
0
  6
Continuous
 62
     7
370
    15
100
AcDbLine
 10
379.6868144663
 20
271.3961020313
 30
0.0
 11
379.6868144663
 21
271.6461020432
 31
0.0
  0
LINE
  5
249
330
1F
100
AcDbEntity
  8
0
  6
Continuous
 62
     7
370
    15
100
AcDbLine
 10
386.1868146004
 20
284.3370969317
 30
0.0
 11
385.6868149841
 21
284.3370969317
 31
0.0
  0
SPLINE
  5
24A
330
1F
100
AcDbEntity
  8
0
  6
Continuous
 62
     7
370
    15
100
AcDbSpline
210
0.0
220
0.0
230
1.0
 70
     8
 71
     3
 72
    14
 73
    10
 74
     0
 42
0.00000001
 43
0.00000001
 40
0.0
 40
0.0
 40
0.0
 40
0.0
 40
0.044471409076926
 40
0.5019243993058629
 40
0.6584949335395491
 40
0.8353815711007428
 40
0.9074776340056763
 40
0.968136273992633
 40
1.0
 40
1.0
 40
1.0
 40
1.0
 10
385.686814984083
 20
283.4033845834008
 30
0.0
 10
385.6870330566861
 20
283.418664500742
 30
0.0
 10
385.6894943225332
 20
283.5911205459207
 30
0.0
 10
385.7451032326053
 20
283.8296592191295
 30
0.0
 10
385.8767733580742
 20
284.0999173667664
 30
0.0
 10
385.9708584498338
 20
284.2314720733631
 30
0.0
 10
386.0707620268603
 20
284.3076287380788
 30
0.0
 10
386.1350216206379
 20
284.3339646320534
 30
0.0
 10
386.173546900678
 20
284.336294537058
 30
0.0
 10
386.1868146003781
 20
284.3370969317427
 30
0.0
  0
SPLINE
  5
24B
330
1F
100
AcDbEntity
  8
0
  6
Continuous
 62
     7
370
    15
100
AcDbSpline
210
0.0
220
0.0
230
1.0
 70
     8
 71
     3
 72
    12
 73
     8
 74
     0
 42
0.00000001
 43
0.00000001
 40
0.0
 40
0.0
 40
0.0
 40
0.0
 40
0.0570250292959884
 40
0.1298465506567486
 40
0.259138292751967
 40
0.5451006348217311
 40
1.0
 40
1.0
 40
1.0
 40
1.0
 10
386.1868146003781
 20
287.9551081828347
 30
0.0
 10
386.1630373297038
 20
287.9577200166026
 30
0.0
 10
386.1088962513176
 20
287.9636671876929
 30
0.0
 10
386.0161914888569
 20
288.0201610171825
 30
0.0
 10
385.8861650332178
 20
288.1645878073837
 30
0.0
 10
385.7347669943204
 20
288.4689444234684
 30
0.0
 10
385.7050572061447
 20
288.7290884749537
 30
0.0
 10
385.686814984083
 20
288.8888205311766
 30
0.0
  0
LINE
  5
24C
330
1F
100
AcDbEntity
  8
0
  6
Continuous
 62
     7
370
    15
100
AcDbLine
 10
386.1868146004
 20
287.9551081828
 30
0.0
 11
385.6868149841
 21
287.9551081828
 31
0.0
  0
LINE
  5
24D
330
1F
100
AcDbEntity
  8
0
  6
Continuous
 62
     7
370
    15
100
AcDbLine
 10
386.1868146004
 20
299.5523392133
 30
0.0
 11
385.9911674762
 21
299.8961015515
 31
0.0
  0
LINE
  5
24E
330
1F
100
AcDbEntity
  8
0
  6
Continuous
 62
     7
370
    15
100
AcDbLine
 10
385.6868149841
 20
299.8961015515
 30
0.0
 11
385.9911674762
 21
299.8961015515
 31
0.0
  0
SPLINE
  5
24F
330
1F
100
AcDbEntity
  8
0
  6
Continuous
 62
     7
370
    15
100
AcDbSpline
210
0.0
220
0.0
230
1.0
 70
     8
 71
     3
 72
    10
 73
     6
 74
     0
 42
0.00000001
 43
0.00000001
 40
0.0
 40
0.0
 40
0.0
 40
0.0
 40
0.4096888836609179
 40
0.8214959109954845
 40
1.0
 40
1.0
 40
1.0
 40
1.0
 10
388.3756738749889
 20
295.7768748424521
 30
0.0
 10
388.5885452977013
 20
294.4024989067067
 30
0.0
 10
389.0153887154754
 20
291.6466413366978
 30
0.0
 10
389.2370522960738
 20
288.2549225703293
 30
0.0
 10
389.2571300467846
 20
286.251820274873
 30
0.0
 10
389.2632013547791
 20
285.6461024753323
 30
0.0
  0
LINE
  5
250
330
1F
100
AcDbEntity
  8
0
  6
Continuous
 62
     7
370
    15
100
AcDbLine
 10
388.375673875
 20
295.7768748425
 30
0.0
 11
386.1868146004
 21
299.5523392133
 31
0.0
  0
LINE
  5
251
330
1F
100
AcDbEntity
  8
0
  6
Continuous
 62
     7
370
    15
100
AcDbLine
 10
379.6868144663
 20
274.1461019873
 30
0.0
 11
379.6868144663
 21
281.2961024142
 31
0.0
  0
LINE
  5
252
330
1F
100
AcDbEntity
  8
0
  6
Continuous
 62
     7
370
    15
100
AcDbLine
 10
379.6868144663
 20
290.996101769
 30
0.0
 11
379.6868144663
 21
297.396102073
 31
0.0
  0
LINE
  5
253
330
1F
100
AcDbEntity
  8
0
  6
Continuous
 62
     7
370
    15
100
AcDbLine
 10
390.5821688194
 20
276.1461018495
 30
0.0
 11
390.5985378614
 21
275.9636138476
 31
0.0
  0
SPLINE
  5
254
330
1F
100
AcDbEntity
  8
0
  6
Continuous
 62
     7
370
    15
100
AcDbSpline
210
0.0
220
0.0
230
1.0
 70
     8
 71
     3
 72
    19
 73
    15
 74
     0
 42
0.00000001
 43
0.00000001
 40
0.0
 40
0.0
 40
0.0
 40
0.0
 40
0.0324647631475994
 40
0.1275187328068538
 40
0.2225370944726555
 40
0.3175120749176266
 40
0.4124541788579283
 40
0.5073786537005841
 40
0.6022989637432032
 40
0.6972273815028288
 40
0.7921780597640309
 40
0.8871661073649636
 40
0.9821980336882342
 40
1.0
 40
1.0
 40
1.0
 40
1.0
 10
390.6191737868448
 20
275.9312280363908
 30
0.0
 10
390.6227840866504
 20
275.9216535938486
 30
0.0
 10
390.6369650265868
 20
275.8840460260753
 30
0.0
 10
390.6582852217241
 20
276.1394953379502
 30
0.0
 10
390.6797593308542
 20
276.6710352468174
 30
0.0
 10
390.6935619827017
 20
277.4462877424991
 30
0.0
 10
390.6997420989769
 20
278.3510180139114
 30
0.0
 10
390.6983194811833
 20
279.2902295480726
 30
0.0
 10
390.6892804631567
 20
280.156828987223
 30
0.0
 10
390.672608599095
 20
280.8515536936448
 30
0.0
 10
390.6486237709807
 20
281.3043034394278
 30
0.0
 10
390.6191393599311
 20
281.4331925861764
 30
0.0
 10
390.5947720661801
 20
281.3643118115103
 30
0.0
 10
390.5827645606643
 20
281.1758375883078
 30
0.0
 10
390.5808701191654
 20
281.1461017377248
 30
0.0
  0
SPLINE
  5
255
330
1F
100
AcDbEntity
  8
0
  6
Continuous
 62
     7
370
    15
100
AcDbSpline
210
0.0
220
0.0
230
1.0
 70
     8
 71
     3
 72
    18
 73
    14
 74
     0
 42
0.00000001
 43
0.00000001
 40
0.0
 40
0.0
 40
0.0
 40
0.0
 40
0.0034107613116896
 40
0.1107488086289882
 40
0.2180868301055988
 40
0.3254312825161171
 40
0.432778452344026
 40
0.5000099583464985
 40
0.6073497509455994
 40
0.7146893507624924
 40
0.8220336771053264
 40
0.9293809047390018
 40
1.0
 40
1.0
 40
1.0
 40
1.0
 10
390.7868148334182
 20
281.3961022443643
 30
0.0
 10
390.7868143284147
 20
281.3960587474261
 30
0.0
 10
390.7867979307406
 20
281.39464638413
 30
0.0
 10
390.7850468768034
 20
281.2489983300943
 30
0.0
 10
390.7787642253253
 20
280.6576098360358
 30
0.0
 10
390.7715089275466
 20
279.7550132564899
 30
0.0
 10
390.7671101008579
 20
278.7794741515093
 30
0.0
 10
390.7658202377711
 20
277.7501748393663
 30
0.0
 10
390.7679243205846
 20
276.7153483424888
 30
0.0
 10
390.7741500795847
 20
275.6669592340947
 30
0.0
 10
390.7813642802548
 20
274.8752904172797
 30
0.0
 10
390.7861089200209
 20
274.4558662296048
 30
0.0
 10
390.7866142948435
 20
274.4130800709221
 30
0.0
 10
390.7868148334182
 20
274.3961020282975
 30
0.0
  0
LINE
  5
256
330
1F
100
AcDbEntity
  8
0
  6
Continuous
 62
     7
370
    15
100
AcDbLine
 10
390.7868148334
 20
274.3961020283
 30
0.0
 11
390.7868148334
 21
271.6461020432
 31
0.0
  0
LINE
  5
257
330
1F
100
AcDbEntity
  8
0
  6
Continuous
 62
     7
370
    15
100
AcDbLine
 10
390.7868148334
 20
271.6461020432
 30
0.0
 11
390.4868148046
 21
271.6461020432
 31
0.0
  0
LINE
  5
258
330
1F
100
AcDbEntity
  8
0
  6
Continuous
 62
     7
370
    15
100
AcDbLine
 10
390.7868148334
 20
285.6461024753
 30
0.0
 11
390.7868148334
 21
281.3961022444
 31
0.0
  0
LINE
  5
259
330
1F
100
AcDbEntity
  8
0
  6
Continuous
 62
     7
370
    15
100
AcDbLine
 10
390.7868148334
 20
274.3961020283
 30
0.0
 11
391.9868148759
 21
274.3961020283
 31
0.0
  0
LINE
  5
25A
330
1F
100
AcDbEntity
  8
0
  6
Continuous
 62
     7
370
    15
100
AcDbLine
 10
391.9868148759
 20
281.3961022444
 30
0.0
 11
390.7868148334
 21
281.3961022444
 31
0.0
  0
SPLINE
  5
25B
330
1F
100
AcDbEntity
  8
0
  6
Continuous
 62
     7
370
    15
100
AcDbSpline
210
0.0
220
0.0
230
1.0
 70
     8
 71
     3
 72
    18
 73
    14
 74
     0
 42
0.00000001
 43
0.00000001
 40
0.0
 40
0.0
 40
0.0
 40
0.0
 40
0.0034111016140117
 40
0.1107489960699167
 40
0.2180872401249548
 40
0.3254316319818796
 40
0.4327787961538804
 40
0.5000099461843737
 40
0.6073497802703051
 40
0.7146894081367954
 40
0.8220336932219082
 40
0.9293809068014652
 40
1.0
 40
1.0
 40
1.0
 40
1.0
 10
391.9868148758633
 20
281.3961022443643
 30
0.0
 10
391.9868143747028
 20
281.3960587523687
 30
0.0
 10
391.9867981034145
 20
281.3946466880556
 30
0.0
 10
391.985053908891
 20
281.2489964372252
 30
0.0
 10
391.9787963503105
 20
280.6576081578094
 30
0.0
 10
391.9715701380404
 20
279.7550088523157
 30
0.0
 10
391.9671889505319
 20
278.7794718111643
 30
0.0
 10
391.9659042453578
 20
277.7501732723012
 30
0.0
 10
391.9679999256657
 20
276.7153480318721
 30
0.0
 10
391.9742007530214
 20
275.6669583712351
 30
0.0
 10
391.9813861383289
 20
274.8752899543443
 30
0.0
 10
391.9861116573732
 20
274.4558659200823
 30
0.0
 10
391.9866151028594
 20
274.4130799837376
 30
0.0
 10
391.9868148758633
 20
274.3961020282975
 30
0.0
  0
LINE
  5
25C
330
1F
100
AcDbEntity
  8
0
  6
Continuous
 62
     7
370
    15
100
AcDbLine
 10
391.9868148759
 20
274.3961020283
 30
0.0
 11
391.9868148759
 21
271.6461020432
 31
0.0
  0
LINE
  5
25D
330
1F
100
AcDbEntity
  8
0
  6
Continuous
 62
     7
370
    15
100
AcDbLine
 10
391.9868148759
 20
285.6461024753
 30
0.0
 11
391.9868148759
 21
281.3961022444
 31
0.0
  0
ARC
  5
25E
330
1F
100
AcDbEntity
  8
0
  6
Continuous
 62
     7
370
    15
100
AcDbCircle
 10
331.9868148284
 20
285.6461020432
 30
0.0
 40
58.80000000000003
100
AcDbArc
 50
0.0
 51
14.5781725286
  0
LINE
  5
25F
330
1F
100
AcDbEntity
  8
0
  6
Continuous
 62
     7
370
    15
100
AcDbLine
 10
388.8937565161
 20
300.4461015485
 30
0.0
 11
379.986814888
 21
300.4461015485
 31
0.0
  0
LINE
  5
260
330
1F
100
AcDbEntity
  8
0
  6
Continuous
 62
     7
370
    15
100
AcDbLine
 10
379.986814888
 20
300.4461015485
 30
0.0
 11
379.986814888
 21
301.6461013726
 31
0.0
  0
LINE
  5
261
330
1F
100
AcDbEntity
  8
0
  6
Continuous
 62
     7
370
    15
100
AcDbLine
 10
388.6613240128
 20
301.6461013726
 30
0.0
 11
379.986814888
 21
301.6461013726
 31
0.0
  0
ARC
  5
262
330
1F
100
AcDbEntity
  8
0
  6
Continuous
 62
     7
370
    15
100
AcDbCircle
 10
388.6613240896
 20
300.1461020432
 30
0.0
 40
1.500000000000017
100
AcDbArc
 50
14.351106149
 51
90.0
  0
ARC
  5
263
330
1F
100
AcDbEntity
  8
0
  6
Continuous
 62
     7
370
    15
100
AcDbCircle
 10
331.9868148284
 20
285.6461020432
 30
0.0
 40
60.0
100
AcDbArc
 50
0.0
 51
14.351106149
  0
LINE
  5
264
330
1F
100
AcDbEntity
  8
0
  6
Continuous
 62
     7
370
    15
100
AcDbLine
 10
385.7656737918
 20
299.91937344
 30
0.0
 11
385.6452761346
 21
300.4461015485
 31
0.0
  0
LINE
  5
265
330
1F
100
AcDbEntity
  8
0
  6
Continuous
 62
     7
370
    15
100
AcDbLine
 10
391.0910575022
 20
271.6461020432
 30
0.0
 11
390.7868148334
 21
271.6461020432
 31
0.0
  0
LINE
  5
266
330
1F
100
AcDbEntity
  8
0
  6
Continuous
 62
     7
370
    15
100
AcDbLine
 10
379.986814888
 20
300.4461015485
 30
0.0
 11
379.986814888
 21
299.8961015515
 31
0.0
  0
LINE
  5
267
330
1F
100
AcDbEntity
  8
0
  6
Continuous
 62
     7
370
    15
100
AcDbLine
 10
390.4868148046
 20
282.0546273984
 30
0.0
 11
390.4868148046
 21
283.6461021475
 31
0.0
  0
LINE
  5
268
330
1F
100
AcDbEntity
  8
0
  6
Continuous
 62
     7
370
    15
100
AcDbLine
 10
390.4868148046
 20
273.6461021382
 30
0.0
 11
390.4868148046
 21
282.0546273984
 31
0.0
  0
LINE
  5
269
330
1F
100
AcDbEntity
  8
0
  6
Continuous
 62
     7
370
    15
100
AcDbLine
 10
388.0377765407
 20
281.8791541181
 30
0.0
 11
388.0377765407
 21
283.3886976264
 31
0.0
  0
LINE
  5
26A
330
1F
100
AcDbEntity
  8
0
  6
Continuous
 62
     7
370
    15
100
AcDbLine
 10
388.0377765407
 20
273.9035064265
 30
0.0
 11
388.0377765407
 21
281.8791541181
 31
0.0
  0
LINE
  5
26B
330
1F
100
AcDbEntity
  8
0
  6
Continuous
 62
     7
370
    15
100
AcDbLine
 10
386.9726021902
 20
276.3961018905
 30
0.0
 11
386.9726021902
 21
276.9999411799
 31
0.0
  0
LINE
  5
26C
330
1F
100
AcDbEntity
  8
0
  6
Continuous
 62
     7
370
    15
100
AcDbLine
 10
386.9726021902
 20
276.9999411799
 30
0.0
 11
386.9726021902
 21
279.1513629168
 31
0.0
  0
LINE
  5
26D
330
1F
100
AcDbEntity
  8
0
  6
Continuous
 62
     7
370
    15
100
AcDbLine
 10
386.9726021902
 20
279.1513629168
 30
0.0
 11
386.9726021902
 21
280.7975235305
 31
0.0
  0
LINE
  5
26E
330
1F
100
AcDbEntity
  8
0
  6
Continuous
 62
     7
370
    15
100
AcDbLine
 10
386.9726021902
 20
280.7975235305
 30
0.0
 11
386.9726021902
 21
280.8961021624
 31
0.0
  0
LINE
  5
26F
330
1F
100
AcDbEntity
  8
0
  6
Continuous
 62
     7
370
    15
100
AcDbLine
 10
414.4798086153
 20
349.446100267
 30
0.0
 11
486.4938181953
 21
349.446100267
 31
0.0
  0
LINE
  5
270
330
1F
100
AcDbEntity
  8
0
  6
Continuous
 62
     7
370
    15
100
AcDbLine
 10
425.0908044295
 20
254.4461014591
 30
0.0
 11
475.882827969
 21
254.4461014591
 31
0.0
  0
LINE
  5
271
330
1F
100
AcDbEntity
  8
0
  6
Continuous
 62
     7
370
    15
100
AcDbLine
 10
455.8193755464
 20
283.6461021475
 30
0.0
 11
464.186817141
 21
283.6461021475
 31
0.0
  0
LINE
  5
272
330
1F
100
AcDbEntity
  8
0
  6
Continuous
 62
     7
370
    15
100
AcDbLine
 10
416.7868157046
 20
283.6461021475
 30
0.0
 11
455.8193755464
 21
283.6461021475
 31
0.0
  0
LINE
  5
273
330
1F
100
AcDbEntity
  8
0
  6
Continuous
 62
     7
370
    15
100
AcDbLine
 10
455.8193755464
 20
284.6461023114
 30
0.0
 11
485.486812623
 21
284.6461023114
 31
0.0
  0
LINE
  5
274
330
1F
100
AcDbEntity
  8
0
  6
Continuous
 62
     7
370
    15
100
AcDbLine
 10
415.4868141876
 20
284.6461023114
 30
0.0
 11
455.8193755464
 21
284.6461023114
 31
0.0
  0
LINE
  5
275
330
1F
100
AcDbEntity
  8
0
  6
Continuous
 62
     7
370
    15
100
AcDbLine
 10
479.8013490753
 20
273.4461020123
 30
0.0
 11
479.8013490753
 21
273.6461021382
 31
0.0
  0
LINE
  5
276
330
1F
100
AcDbEntity
  8
0
  6
Continuous
 62
     7
370
    15
100
AcDbLine
 10
474.7768488841
 20
273.6461021382
 30
0.0
 11
474.7768488841
 21
273.4461020123
 31
0.0
  0
LINE
  5
277
330
1F
100
AcDbEntity
  8
0
  6
Continuous
 62
     7
370
    15
100
AcDbLine
 10
434.2723746912
 20
273.4461020123
 30
0.0
 11
434.2723746912
 21
280.4461019955
 31
0.0
  0
LINE
  5
278
330
1F
100
AcDbEntity
  8
0
  6
Continuous
 62
     7
370
    15
100
AcDbLine
 10
434.2723746912
 20
280.4461019955
 30
0.0
 11
433.8704940991
 21
280.4461019955
 31
0.0
  0
LINE
  5
279
330
1F
100
AcDbEntity
  8
0
  6
Continuous
 62
     7
370
    15
100
AcDbLine
 10
427.7528521733
 20
280.4461019955
 30
0.0
 11
433.8704940991
 21
280.4461019955
 31
0.0
  0
LINE
  5
27A
330
1F
100
AcDbEntity
  8
0
  6
Continuous
 62
     7
370
    15
100
AcDbLine
 10
427.7528521733
 20
280.4461019955
 30
0.0
 11
427.4163988547
 21
280.4461019955
 31
0.0
  0
LINE
  5
27B
330
1F
100
AcDbEntity
  8
0
  6
Continuous
 62
     7
370
    15
100
AcDbLine
 10
427.4163988547
 20
280.4461019955
 30
0.0
 11
427.4163988547
 21
273.4461020123
 31
0.0
  0
LINE
  5
27C
330
1F
100
AcDbEntity
  8
0
  6
Continuous
 62
     7
370
    15
100
AcDbLine
 10
475.5898115353
 20
273.4461020123
 30
0.0
 11
475.5898115353
 21
272.446102023
 31
0.0
  0
LINE
  5
27D
330
1F
100
AcDbEntity
  8
0
  6
Continuous
 62
     7
370
    15
100
AcDbLine
 10
433.6765852885
 20
272.446102023
 30
0.0
 11
475.5898115353
 21
272.446102023
 31
0.0
  0
LINE
  5
27E
330
1F
100
AcDbEntity
  8
0
  6
Continuous
 62
     7
370
    15
100
AcDbLine
 10
433.6765852885
 20
272.446102023
 30
0.0
 11
433.6765852885
 21
273.4461020123
 31
0.0
  0
LINE
  5
27F
330
1F
100
AcDbEntity
  8
0
  6
Continuous
 62
     7
370
    15
100
AcDbLine
 10
433.6765852885
 20
273.4461020123
 30
0.0
 11
475.5898115353
 21
273.4461020123
 31
0.0
  0
LINE
  5
280
330
1F
100
AcDbEntity
  8
0
  6
Continuous
 62
     7
370
    15
100
AcDbLine
 10
428.3106398897
 20
272.446102023
 30
0.0
 11
428.3106398897
 21
278.1878529027
 31
0.0
  0
LINE
  5
281
330
1F
100
AcDbEntity
  8
0
  6
Continuous
 62
     7
370
    15
100
AcDbLine
 10
478.5811451392
 20
273.6461021382
 30
0.0
 11
478.5811451392
 21
272.446102023
 31
0.0
  0
LINE
  5
282
330
1F
100
AcDbEntity
  8
0
  6
Continuous
 62
     7
370
    15
100
AcDbLine
 10
433.8704940991
 20
280.4461019955
 30
0.0
 11
434.2723746912
 21
278.2200198531
 31
0.0
  0
LINE
  5
283
330
1F
100
AcDbEntity
  8
0
  6
Continuous
 62
     7
370
    15
100
AcDbLine
 10
429.1454774456
 20
274.807946375
 30
0.0
 11
434.2723746912
 21
274.807946375
 31
0.0
  0
LINE
  5
284
330
1F
100
AcDbEntity
  8
0
  6
Continuous
 62
     7
370
    15
100
AcDbLine
 10
427.7528521733
 20
280.4461019955
 30
0.0
 11
429.1454774456
 21
274.807946375
 31
0.0
  0
LINE
  5
285
330
1F
100
AcDbEntity
  8
0
  6
Continuous
 62
     7
370
    15
100
AcDbLine
 10
415.9868152009
 20
272.446102023
 30
0.0
 11
426.8206057267
 21
272.446102023
 31
0.0
  0
LINE
  5
286
330
1F
100
AcDbEntity
  8
0
  6
Continuous
 62
     7
370
    15
100
AcDbLine
 10
415.9868152009
 20
273.4461020123
 30
0.0
 11
426.8206057267
 21
273.4461020123
 31
0.0
  0
LINE
  5
287
330
1F
100
AcDbEntity
  8
0
  6
Continuous
 62
     7
370
    15
100
AcDbLine
 10
426.8206057267
 20
273.4461020123
 30
0.0
 11
426.8206057267
 21
272.446102023
 31
0.0
  0
LINE
  5
288
330
1F
100
AcDbEntity
  8
0
  6
Continuous
 62
     7
370
    15
100
AcDbLine
 10
427.4163988547
 20
273.4461020123
 30
0.0
 11
426.8206057267
 21
273.4461020123
 31
0.0
  0
LINE
  5
289
330
1F
100
AcDbEntity
  8
0
  6
Continuous
 62
     7
370
    15
100
AcDbLine
 10
428.3106398897
 20
272.446102023
 30
0.0
 11
426.8206057267
 21
272.446102023
 31
0.0
  0
LINE
  5
28A
330
1F
100
AcDbEntity
  8
0
  6
Continuous
 62
     7
370
    15
100
AcDbLine
 10
480.6143117265
 20
273.4461020123
 30
0.0
 11
479.8013490753
 21
273.4461020123
 31
0.0
  0
LINE
  5
28B
330
1F
100
AcDbEntity
  8
0
  6
Continuous
 62
     7
370
    15
100
AcDbLine
 10
480.6143117265
 20
272.446102023
 30
0.0
 11
480.6143117265
 21
273.4461020123
 31
0.0
  0
LINE
  5
28C
330
1F
100
AcDbEntity
  8
0
  6
Continuous
 62
     7
370
    15
100
AcDbLine
 10
478.5811451392
 20
272.446102023
 30
0.0
 11
480.6143117265
 21
272.446102023
 31
0.0
  0
LINE
  5
28D
330
1F
100
AcDbEntity
  8
0
  6
Continuous
 62
     7
370
    15
100
AcDbLine
 10
480.6143117265
 20
273.4461020123
 30
0.0
 11
484.9868116097
 21
273.4461020123
 31
0.0
  0
LINE
  5
28E
330
1F
100
AcDbEntity
  8
0
  6
Continuous
 62
     7
370
    15
100
AcDbLine
 10
480.6143117265
 20
272.446102023
 30
0.0
 11
484.9868116097
 21
272.446102023
 31
0.0
  0
LINE
  5
28F
330
1F
100
AcDbEntity
  8
0
  6
Continuous
 62
     8
370
     0
100
AcDbLine
 10
395.012991702
 20
275.1461021512
 30
0.0
 11
395.012991702
 21
282.1461019016
 31
0.0
  0
SPLINE
  5
290
330
1F
100
AcDbEntity
  8
0
  6
Continuous
 62
     8
370
     0
100
AcDbSpline
210
0.0
220
0.0
230
1.0
 70
     8
 71
     3
 72
    13
 73
     9
 74
     0
 42
0.00000001
 43
0.00000001
 40
0.0
 40
0.0
 40
0.0
 40
0.0
 40
0.1977497144611614
 40
0.42976255989224
 40
0.559266240710658
 40
0.6974695144695756
 40
0.8443790294345613
 40
0.9999999999999999
 40
0.9999999999999999
 40
0.9999999999999999
 40
0.9999999999999999
 10
395.0129917019603
 20
282.1461019016376
 30
0.0
 10
395.1148260718509
 20
282.1444091150762
 30
0.0
 10
395.3361391574774
 20
282.1407302410614
 30
0.0
 10
395.5922471228116
 20
282.1232284376075
 30
0.0
 10
395.7735215253467
 20
282.1043604293695
 30
0.0
 10
395.8888797021852
 20
282.0863195283181
 30
0.0
 10
395.9705500019427
 20
282.0652554854298
 30
0.0
 10
395.9812900573523
 20
282.0492489247788
 30
0.0
 10
395.9868147166071
 20
282.0410151876083
 30
0.0
  0
SPLINE
  5
291
330
1F
100
AcDbEntity
  8
0
  6
Continuous
 62
     8
370
     0
100
AcDbSpline
210
0.0
220
0.0
230
1.0
 70
     8
 71
     3
 72
    12
 73
     8
 74
     0
 42
0.00000001
 43
0.00000001
 40
0.0
 40
0.0
 40
0.0
 40
0.0
 40
0.2419845821906597
 40
0.4983289504013632
 40
0.7086148349069525
 40
0.8442681793247476
 40
1.0
 40
1.0
 40
1.0
 40
1.0
 10
395.0129917019603
 20
275.1461021512321
 30
0.0
 10
395.137612087098
 20
275.1479686850034
 30
0.0
 10
395.3942480477945
 20
275.1518125159068
 30
0.0
 10
395.7026720696803
 20
275.1743784886488
 30
0.0
 10
395.8809787196714
 20
275.2020687685279
 30
0.0
 10
395.9709960924802
 20
275.2273346455157
 30
0.0
 10
395.9813050553456
 20
275.2428802367963
 30
0.0
 10
395.9868147166071
 20
275.2511886324307
 30
0.0
  0
SPLINE
  5
292
330
1F
100
AcDbEntity
  8
0
  6
Continuous
 62
     8
370
     0
100
AcDbSpline
210
0.0
220
0.0
230
1.0
 70
     8
 71
     3
 72
    11
 73
     7
 74
     0
 42
0.00000001
 43
0.00000001
 40
0.0
 40
0.0
 40
0.0
 40
0.0
 40
0.2500386624948031
 40
0.4999998798731623
 40
0.7499614679544384
 40
1.0
 40
1.0
 40
1.0
 40
1.0
 10
395.0129917019603
 20
282.1461019016376
 30
0.0
 10
395.0156179736643
 20
282.2632972593269
 30
0.0
 10
395.0208697036302
 20
282.4976516754867
 30
0.0
 10
395.0228408290797
 20
282.7932800382583
 30
0.0
 10
395.0208697089011
 20
283.0001510745389
 30
0.0
 10
395.0156179736668
 20
283.0271640557318
 30
0.0
 10
395.0129917019603
 20
283.0406726248136
 30
0.0
  0
LINE
  5
293
330
1F
100
AcDbEntity
  8
0
  6
Continuous
 62
     8
370
     0
100
AcDbLine
 10
395.012991702
 20
282.1461019016
 30
0.0
 11
391.9868148759
 21
282.1461019016
 31
0.0
  0
SPLINE
  5
294
330
1F
100
AcDbEntity
  8
0
  6
Continuous
 62
     8
370
     0
100
AcDbSpline
210
0.0
220
0.0
230
1.0
 70
     8
 71
     3
 72
    11
 73
     7
 74
     0
 42
0.00000001
 43
0.00000001
 40
0.0
 40
0.0
 40
0.0
 40
0.0
 40
0.2500386287747046
 40
0.499999845045779
 40
0.7499613386128248
 40
0.9999999999999999
 40
0.9999999999999999
 40
0.9999999999999999
 40
0.9999999999999999
 10
395.0129917019603
 20
274.2515311952254
 30
0.0
 10
395.0156179736142
 20
274.2650401208612
 30
0.0
 10
395.0208697038224
 20
274.2920537897401
 30
0.0
 10
395.0228408295638
 20
274.498923433645
 30
0.0
 10
395.0208697062696
 20
274.7945523771609
 30
0.0
 10
395.0156179735732
 20
275.0289068367969
 30
0.0
 10
395.0129917019603
 20
275.1461021512321
 30
0.0
  0
LINE
  5
295
330
1F
100
AcDbEntity
  8
0
  6
Continuous
 62
     8
370
     0
100
AcDbLine
 10
395.012991702
 20
275.1461021512
 30
0.0
 11
391.9368490705
 21
275.1461021512
 31
0.0
  0
LINE
  5
296
330
1F
100
AcDbEntity
  8
0
  6
Continuous
 62
     8
370
     0
100
AcDbLine
 10
466.2781653123
 20
283.5032447151
 30
0.0
 11
469.8223766999
 21
283.5032447151
 31
0.0
  0
ARC
  5
297
330
1F
100
AcDbEntity
  8
0
  6
Continuous
 62
     8
370
     0
100
AcDbCircle
 10
439.2789230248
 20
278.64610191
 30
0.0
 40
30.92724363138324
100
AcDbArc
 50
350.964255062
 51
9.035744938
  0
LINE
  5
298
330
1F
100
AcDbEntity
  8
0
  6
Continuous
 62
     8
370
     0
100
AcDbLine
 10
466.2781653123
 20
273.7889591049
 30
0.0
 11
469.8223766999
 21
273.7889591049
 31
0.0
  0
LWPOLYLINE
  5
299
330
1F
100
AcDbEntity
  8
0
  6
Continuous
 62
     8
370
     0
100
AcDbPolyline
 90
        9
 70
   128
 43
0.0
 10
469.7188285308
 20
273.6461021382
 10
469.7360617237
 20
273.6486607141
 10
469.7528478818
 20
273.6562714822
 10
469.7687623219
 20
273.6687393304
 10
469.7834027128
 20
273.6857452806
 10
469.7963890748
 20
273.7068544052
 10
469.8073861317
 20
273.7315265372
 10
469.8161256628
 20
273.7591302398
 10
469.8223766999
 20
273.7889591049
  0
LWPOLYLINE
  5
29A
330
1F
100
AcDbEntity
  8
0
  6
Continuous
 62
     8
370
     0
100
AcDbPolyline
 90
        9
 70
   128
 43
0.0
 10
469.8223766999
 20
283.5032447151
 10
469.8161256628
 20
283.5330740459
 10
469.8073861317
 20
283.5606775157
 10
469.7963890748
 20
283.5853501133
 10
469.7834027128
 20
283.6064585395
 10
469.7687623219
 20
283.6234644897
 10
469.7528478818
 20
283.6359330363
 10
469.7360617237
 20
283.6435428731
 10
469.7188285308
 20
283.6461021475
  0
LINE
  5
29B
330
1F
100
AcDbEntity
  8
0
  6
Continuous
 62
     8
370
     0
100
AcDbLine
 10
469.8223766999
 20
283.5032447151
 30
0.0
 11
486.2781685905
 21
283.5032447151
 31
0.0
  0
LINE
  5
29C
330
1F
100
AcDbEntity
  8
0
  6
Continuous
 62
     8
370
     0
100
AcDbLine
 10
469.8223766999
 20
273.7889591049
 30
0.0
 11
486.2781685905
 21
273.7889591049
 31
0.0
  0
SPLINE
  5
29D
330
1F
100
AcDbEntity
  8
0
  6
Continuous
 62
     8
370
     0
100
AcDbSpline
210
0.0
220
0.0
230
1.0
 70
     8
 71
     3
 72
    13
 73
     9
 74
     0
 42
0.00000001
 43
0.00000001
 40
0.0
 40
0.0
 40
0.0
 40
0.0
 40
0.0905191256395501
 40
0.2296399965528858
 40
0.2787248198111464
 40
0.4998021490438063
 40
0.7457681913055912
 40
1.0
 40
1.0
 40
1.0
 40
1.0
 10
400.6000624166427
 20
283.6461021475068
 30
0.0
 10
400.6007857469796
 20
283.6454785742296
 30
0.0
 10
400.6026207799063
 20
283.6438966172211
 30
0.0
 10
400.6156661361031
 20
283.6325964395633
 30
0.0
 10
400.6402109436379
 20
283.6110885798658
 30
0.0
 10
400.6809130786676
 20
283.5748469664733
 30
0.0
 10
400.7457639552569
 20
283.5149899507025
 30
0.0
 10
400.7921053453916
 20
283.4693165592413
 30
0.0
 10
400.8156589360533
 20
283.4461024872533
 30
0.0
  0
LWPOLYLINE
  5
29E
330
1F
100
AcDbEntity
  8
0
  6
Continuous
 62
     8
370
     0
100
AcDbPolyline
 90
        9
 70
   128
 43
0.0
 10
400.8156589361
 20
283.4461024873
 10
400.721855195
 20
283.419346521
 10
400.6316556723
 20
283.3936196662
 10
400.548527682
 20
283.3699091248
 10
400.475664729
 20
283.3491275928
 10
400.4158682318
 20
283.3320722825
 10
400.3714357631
 20
283.3193988449
 10
400.3440735058
 20
283.3115943618
 10
400.3348347859
 20
283.3089596502
  0
SPLINE
  5
29F
330
1F
100
AcDbEntity
  8
0
  6
Continuous
 62
     8
370
     0
100
AcDbSpline
210
0.0
220
0.0
230
1.0
 70
     8
 71
     3
 72
    13
 73
     9
 74
     0
 42
0.00000001
 43
0.00000001
 40
0.0
 40
0.0
 40
0.0
 40
0.0
 40
0.1931900691745883
 40
0.4318155313553168
 40
0.6441133710798421
 40
0.8300743813154199
 40
0.9509206706526561
 40
1.0
 40
1.0
 40
1.0
 40
1.0
 10
400.8156589360533
 20
273.8461020312777
 30
0.0
 10
400.79781831415
 20
273.8284511188976
 30
0.0
 10
400.7579412249199
 20
273.7889980655348
 30
0.0
 10
400.6990465815888
 20
273.733917478665
 30
0.0
 10
400.6460988127964
 20
273.6862089980354
 30
0.0
 10
400.6127929646983
 20
273.6570962384303
 30
0.0
 10
400.6010261931165
 20
273.6469330691769
 30
0.0
 10
400.6002784003609
 20
273.6462883510429
 30
0.0
 10
400.6000624166427
 20
273.6461021381936
 30
0.0
  0
LWPOLYLINE
  5
2A0
330
1F
100
AcDbEntity
  8
0
  6
Continuous
 62
     8
370
     0
100
AcDbPolyline
 90
        9
 70
   128
 43
0.0
 10
400.8156589361
 20
273.8461020313
 10
400.721855195
 20
273.872857299
 10
400.6316556723
 20
273.8985843867
 10
400.548527682
 20
273.9222944624
 10
400.475664729
 20
273.9430766929
 10
400.4158682318
 20
273.960132236
 10
400.3714357631
 20
273.9728054408
 10
400.3440735058
 20
273.9806096911
 10
400.3348347859
 20
273.9832448683
  0
ARC
  5
2A1
330
1F
100
AcDbEntity
  8
0
  6
Continuous
 62
     8
370
     0
100
AcDbCircle
 10
383.9868148284
 20
278.6461020432
 30
0.0
 40
17.49999999999998
100
AcDbArc
 50
344.0805480701
 51
15.9194519299
  0
LINE
  5
2A2
330
1F
100
AcDbEntity
  8
0
  6
Continuous
 62
     8
370
     0
100
AcDbLine
 10
406.9868155883
 20
283.6461021475
 30
0.0
 11
406.9868155883
 21
283.4461024873
 31
0.0
  0
LINE
  5
2A3
330
1F
100
AcDbEntity
  8
0
  6
Continuous
 62
     8
370
     0
100
AcDbLine
 10
406.9868155883
 20
283.4461024873
 30
0.0
 11
400.8156589361
 21
283.4461024873
 31
0.0
  0
LINE
  5
2A4
330
1F
100
AcDbEntity
  8
0
  6
Continuous
 62
     8
370
     0
100
AcDbLine
 10
406.9868155883
 20
273.8461020313
 30
0.0
 11
406.9868155883
 21
273.6461021382
 31
0.0
  0
LINE
  5
2A5
330
1F
100
AcDbEntity
  8
0
  6
Continuous
 62
     8
370
     0
100
AcDbLine
 10
406.9868155883
 20
273.8461020313
 30
0.0
 11
400.8156589361
 21
273.8461020313
 31
0.0
  0
LINE
  5
2A6
330
1F
100
AcDbEntity
  8
0
  6
Continuous
 62
     8
370
     0
100
AcDbLine
 10
406.9868155883
 20
283.4461024873
 30
0.0
 11
406.9868155883
 21
273.8461020313
 31
0.0
  0
LINE
  5
2A7
330
1F
100
AcDbEntity
  8
0
  6
Continuous
 62
     8
370
     0
100
AcDbLine
 10
416.9868153648
 20
273.8461020313
 30
0.0
 11
406.9868155883
 21
273.8461020313
 31
0.0
  0
LINE
  5
2A8
330
1F
100
AcDbEntity
  8
0
  6
Continuous
 62
     8
370
     0
100
AcDbLine
 10
416.9868153648
 20
283.4461024873
 30
0.0
 11
406.9868155883
 21
283.4461024873
 31
0.0
  0
LINE
  5
2A9
330
1F
100
AcDbEntity
  8
0
  6
Continuous
 62
     8
370
     0
100
AcDbLine
 10
386.1868146004
 20
274.6461020693
 30
0.0
 11
386.1868146004
 21
273.6461021382
 31
0.0
  0
LINE
  5
2AA
330
1F
100
AcDbEntity
  8
0
  6
Continuous
 62
     8
370
     0
100
AcDbLine
 10
386.1868146004
 20
274.6461020693
 30
0.0
 11
387.6245570963
 21
274.6461020693
 31
0.0
  0
LINE
  5
2AB
330
1F
100
AcDbEntity
  8
0
  6
Continuous
 62
     8
370
     0
100
AcDbLine
 10
386.1868146004
 20
274.6461020693
 30
0.0
 11
385.6868149841
 21
274.6461020693
 31
0.0
  0
LINE
  5
2AC
330
1F
100
AcDbEntity
  8
0
  6
Continuous
 62
     8
370
     0
100
AcDbLine
 10
386.1868146004
 20
299.5523392133
 30
0.0
 11
386.1868146004
 21
287.9551081828
 31
0.0
  0
LINE
  5
2AD
330
1F
100
AcDbEntity
  8
0
  6
Continuous
 62
     8
370
     0
100
AcDbLine
 10
386.1868146004
 20
284.3370969317
 30
0.0
 11
386.1868146004
 21
274.6461020693
 31
0.0
  0
LINE
  5
2AE
330
1F
100
AcDbEntity
  8
0
  6
Continuous
 62
     8
370
     0
100
AcDbLine
 10
389.3139665842
 20
285.6461024753
 30
0.0
 11
390.7868148334
 21
285.6461024753
 31
0.0
  0
LINE
  5
2AF
330
1F
100
AcDbEntity
  8
0
  6
Continuous
 62
     8
370
     0
100
AcDbLine
 10
413.1878220604
 20
306.9232563398
 30
0.0
 11
487.7858084755
 21
306.9232563398
 31
0.0
  0
LINE
  5
2B0
330
1F
100
AcDbEntity
  8
0
  6
Continuous
 62
     8
370
     0
100
AcDbLine
 10
413.2714231627
 20
305.9769245706
 30
0.0
 11
487.7022055106
 21
305.9769245706
 31
0.0
  0
LINE
  5
2B1
330
1F
100
AcDbEntity
  8
0
  6
Continuous
 62
     8
370
     0
100
AcDbLine
 10
487.4937978701
 20
348.4531315885
 30
0.0
 11
413.4798326658
 21
348.4531315885
 31
0.0
  0
LINE
  5
2B2
330
1F
100
AcDbEntity
  8
0
  6
Continuous
 62
     8
370
     0
100
AcDbLine
 10
416.4868143515
 20
288.6282234363
 30
0.0
 11
484.486818047
 21
288.6282234363
 31
0.0
  0
LINE
  5
2B3
330
1F
100
AcDbEntity
  8
0
  6
Continuous
 62
     8
370
     0
100
AcDbLine
 10
417.9458093958
 20
285.9273097388
 30
0.0
 11
483.0278230028
 21
285.9273097388
 31
0.0
  0
LINE
  5
2B4
330
1F
100
AcDbEntity
  8
0
  6
Continuous
 62
     8
370
     0
100
AcDbLine
 10
420.0925191061
 20
259.315216998
 30
0.0
 11
480.8811095671
 21
259.315216998
 31
0.0
  0
HATCH
  5
2B5
330
1F
100
AcDbEntity
  8
0
  6
Continuous
 62
     7
370
     0
100
AcDbHatch
 10
0.0
 20
0.0
 30
0.0
210
0.0
220
0.0
230
1.0
  2
ANSI33
 70
     0
 71
     0
 91
        1
 92
        0
 93
        9
 72
     2
 10
331.9868148283659
 20
285.6461020431987
 40
59.99999999999997
 50
0.0
 51
14.35110614901956
 73
     1
 72
     2
 10
388.6613240895849
 20
300.1461020431987
 40
1.5
 50
14.351106149019
 51
89.99999999999784
 73
     1
 72
     1
 10
388.6613240895849
 20
301.6461020431987
 11
379.9868148283659
 21
301.6461020431987
 72
     1
 10
379.9868148283659
 20
301.6461020431987
 11
379.9868148283658
 21
300.4461020431987
 72
     1
 10
379.9868148283658
 20
300.4461020431987
 11
388.8937564084579
 21
300.4461020431987
 72
     2
 10
331.9868148283659
 20
285.6461020431987
 40
58.79999999999997
 50
345.4218274713754
 51
360.0000000000008
 73
     0
 72
     1
 10
390.7868148283659
 20
285.6461020431987
 11
390.7868148283659
 21
281.3961020431987
 72
     1
 10
390.7868148283659
 20
281.3961020431987
 11
391.9868148283659
 21
281.3961020431987
 72
     1
 10
391.9868148283659
 20
281.3961020431987
 11
391.9868148283659
 21
285.6461020431987
 97
        0
 75
     0
 76
     1
 52
0.0
 41
1.0
 77
     0
 78
     2
 53
45.0
 43
0.0
 44
0.0
 45
-4.490128060534576
 46
4.490128060534577
 79
     0
 53
45.0
 43
4.49013
 44
0.0
 45
-4.490128060534576
 46
4.490128060534577
 79
     2
 49
3.175
 49
-1.5875
 98
        1
 10
0.0
 20
0.0
  0
HATCH
  5
2B6
330
1F
100
AcDbEntity
  8
0
  6
Continuous
 62
     7
370
     0
100
AcDbHatch
 10
0.0
 20
0.0
 30
0.0
210
0.0
220
0.0
230
1.0
  2
ANSI33
 70
     0
 71
     0
 91
        1
 92
        0
 93
        4
 72
     1
 10
391.986814828366
 20
271.6461020431987
 11
391.9868148283659
 21
274.3961020431987
 72
     1
 10
391.9868148283659
 20
274.3961020431987
 11
390.7868148283659
 21
274.3961020431987
 72
     1
 10
390.7868148283659
 20
274.3961020431987
 11
390.7868148283659
 21
271.6461020431987
 72
     1
 10
390.7868148283659
 20
271.6461020431987
 11
391.986814828366
 21
271.6461020431987
 97
        0
 75
     0
 76
     1
 52
0.0
 41
1.0
 77
     0
 78
     2
 53
45.0
 43
0.0
 44
0.0
 45
-4.490128060534576
 46
4.490128060534577
 79
     0
 53
45.0
 43
4.49013
 44
0.0
 45
-4.490128060534576
 46
4.490128060534577
 79
     2
 49
3.175
 49
-1.5875
 98
        1
 10
0.0
 20
0.0
  0
HATCH
  5
2B7
330
1F
100
AcDbEntity
  8
0
  6
Continuous
 62
     7
370
     0
100
AcDbHatch
 10
0.0
 20
0.0
 30
0.0
210
0.0
220
0.0
230
1.0
  2
NET
 70
     0
 71
     0
 91
        1
 92
        0
 93
       11
 72
     1
 10
379.6868148283659
 20
271.6461020431987
 11
390.4868148283659
 21
271.6461020431987
 72
     1
 10
390.4868148283659
 20
271.6461020431987
 11
390.4868148283659
 21
273.6461020431987
 72
     1
 10
390.4868148283659
 20
273.6461020431987
 11
386.1868148283659
 21
273.6461020431987
 72
     2
 10
386.1868148283659
 20
274.1461020431987
 40
0.5
 50
90.0
 51
180.0
 73
     0
 72
     1
 10
385.6868148283659
 20
274.1461020431987
 11
385.6868148283659
 21
299.8961020431987
 72
     1
 10
385.6868148283659
 20
299.8961020431987
 11
379.6868148283659
 21
299.8961020431987
 72
     1
 10
379.6868148283659
 20
299.8961020431987
 11
379.6868148283659
 21
297.3961020431987
 72
     1
 10
379.6868148283659
 20
297.3961020431987
 11
380.1868148283659
 21
297.3961020431987
 72
     1
 10
380.1868148283659
 20
297.3961020431987
 11
380.1868148283659
 21
274.1461020431987
 72
     1
 10
380.1868148283659
 20
274.1461020431987
 11
379.6868148283659
 21
274.1461020431987
 72
     1
 10
379.6868148283659
 20
274.1461020431987
 11
379.6868148283659
 21
271.6461020431987
 97
        0
 75
     0
 76
     1
 52
44.999990638
 41
1.0
 77
     0
 78
     2
 53
44.99999063801583
 43
0.0
 44
0.0
 45
-2.245063663429524
 46
2.245064397104992
 79
     0
 53
134.9999906380158
 43
0.0
 44
0.0
 45
-2.245064397104993
 46
-2.245063663429524
 79
     0
 98
        1
 10
0.0
 20
0.0
  0
HATCH
  5
2B8
330
1F
100
AcDbEntity
  8
0
  6
Continuous
 62
     7
370
     0
100
AcDbHatch
 10
0.0
 20
0.0
 30
0.0
210
0.0
220
0.0
230
1.0
  2
ANSI33
 70
     0
 71
     0
 91
        1
 92
        0
 93
       12
 72
     1
 10
391.9868148283659
 20
271.6461020431987
 11
399.152565716469
 21
271.6461020431987
 72
     2
 10
399.152565716469
 20
272.1461020431987
 40
0.5
 50
270.0000000000008
 51
336.8001568170948
 73
     1
 72
     2
 10
383.9868148283659
 20
278.6461020431987
 40
17.0
 50
336.8001568170943
 51
383.1998431829076
 73
     1
 72
     2
 10
399.152565716469
 20
285.1461020431987
 40
0.5
 50
23.19984318291199
 51
90.0
 73
     1
 72
     1
 10
399.152565716469
 20
285.6461020431987
 11
391.9868148283659
 21
285.6461020431987
 72
     1
 10
391.9868148283659
 20
285.6461020431987
 11
391.9868148283658
 21
283.1199161216294
 72
     1
 10
391.9868148283658
 20
283.1199161216294
 11
395.0129917766738
 21
283.0406728894066
 72
     2
 10
394.9868148283659
 20
282.0410155644311
 40
1.0
 50
271.5000000000035
 51
360.0000000000008
 73
     0
 72
     1
 10
395.9868148283659
 20
282.0410155644311
 11
395.9868148283659
 21
275.2511885219663
 72
     2
 10
394.9868148283659
 20
275.2511885219663
 40
1.0
 50
0.0
 51
88.49999999999727
 73
     0
 72
     1
 10
395.0129917766738
 20
274.2515311969908
 11
391.9868148283658
 21
274.1722879647679
 72
     1
 10
391.9868148283658
 20
274.1722879647679
 11
391.9868148283659
 21
271.6461020431987
 97
        0
 75
     0
 76
     1
 52
90.0
 41
1.0
 77
     0
 78
     2
 53
135.0000000000002
 43
0.0
 44
0.0
 45
-4.490128060534562
 46
-4.490128060534592
 79
     0
 53
135.0000000000002
 43
-0.0000000000000157
 44
4.49013
 45
-4.490128060534562
 46
-4.490128060534592
 79
     2
 49
3.175
 49
-1.5875
 98
        1
 10
0.0
 20
0.0
  0
HATCH
  5
2B9
330
1F
100
AcDbEntity
  8
0
  6
Continuous
 62
     7
370
     0
100
AcDbHatch
 10
0.0
 20
0.0
 30
0.0
210
0.0
220
0.0
230
1.0
  2
ANSI33
 70
     0
 71
     0
 91
        1
 92
        0
 93
        8
 72
     2
 10
464.1868148283659
 20
273.8461020431987
 40
0.1999999999999992
 50
180.0
 51
270.0000000000008
 73
     1
 72
     1
 10
464.1868148283659
 20
273.6461020431987
 11
466.0865042663644
 21
273.6461020431987
 72
     2
 10
466.0865042663644
 20
273.8461020431987
 40
0.1999999999999983
 50
270.0000000000008
 51
343.3984504009752
 73
     1
 72
     2
 10
449.9868148283659
 20
278.6461020431987
 40
17.0
 50
343.3984504009807
 51
376.6015495990212
 73
     1
 72
     2
 10
466.0865042663644
 20
283.4461020431987
 40
0.1999999999999984
 50
16.60154959901002
 51
90.0
 73
     1
 72
     1
 10
466.0865042663644
 20
283.6461020431987
 11
464.1868148283659
 21
283.6461020431987
 72
     2
 10
464.1868148283659
 20
283.4461020431987
 40
0.1999999999999992
 50
90.0
 51
180.0
 73
     1
 72
     1
 10
463.9868148283659
 20
283.4461020431987
 11
463.9868148283659
 21
273.8461020431987
 97
        0
 75
     0
 76
     1
 52
90.0
 41
1.0
 77
     0
 78
     2
 53
135.0000000000002
 43
0.0
 44
0.0
 45
-4.490128060534562
 46
-4.490128060534592
 79
     0
 53
135.0000000000002
 43
-0.0000000000000157
 44
4.49013
 45
-4.490128060534562
 46
-4.490128060534592
 79
     2
 49
3.175
 49
-1.5875
 98
        1
 10
0.0
 20
0.0
  0
DIMENSION
  5
2BA
330
1F
100
AcDbEntity
  8
0
  6
Continuous
 62
     7
370
     0
100
AcDbDimension
  2
*D8
 10
400.2116856156
 20
301.6461020432
 30
0.0
 11
400.2116856156
 21
323.2790375891
 31
0.0
 70
   160
  1
(<>)
 71
     2
 42
-1.0
  3
SLDDIMSTYLE1
100
AcDbAlignedDimension
 13
414.9878435995
 23
349.4461020432
 33
0.0
 14
388.6613240896
 24
301.6461020432
 34
0.0
 50
90.0
100
AcDbRotatedDimension
  0
DIMENSION
  5
2C6
330
1F
100
AcDbEntity
  8
0
  6
Continuous
 62
     7
370
     0
100
AcDbDimension
  2
*D9
 10
372.7133497608
 20
271.6461020432
 30
0.0
 11
372.7133497608
 21
262.87517045
 31
0.0
 70
   160
  1
(<>)
 71
     2
 42
-1.0
  3
SLDDIMSTYLE2
100
AcDbAlignedDimension
 13
425.0908049869
 23
254.4461020432
 33
0.0
 14
379.6868148284
 24
271.6461020432
 34
0.0
 50
90.0
100
AcDbRotatedDimension
  0
MTEXT
  5
2D4
330
1F
100
AcDbEntity
  8
0
  6
Continuous
 62
     7
370
     0
100
AcDbMText
 10
440.1607023242
 20
377.4067393718
 30
0.0
 40
3.5
 41
0.0
 71
     2
 72
     1
  1
SCHNITT A-A
  7
SLDTEXTSTYLE0
 73
     1
 44
1.0
  0
LINE
  5
2D5
330
1F
100
AcDbEntity
  8
0
  6
CENTERX2
 62
     7
370
     0
100
AcDbLine
 10
387.6694244389
 20
277.8961020432
 30
0.0
 11
396.4948704946
 21
277.8961020432
 31
0.0
  0
LINE
  5
2D6
330
1F
100
AcDbEntity
  8
0
  6
CENTERX2
 62
     7
370
     0
100
AcDbLine
 10
450.4868148284
 20
351.4461020432
 30
0.0
 11
450.4868148284
 21
252.4461020432
 31
0.0
  0
LINE
  5
2D7
330
1F
100
AcDbEntity
  8
0
  6
CENTERX2
 62
     7
370
     0
100
AcDbLine
 10
377.6868148284
 20
286.1461020432
 30
0.0
 11
385.1868148284
 21
286.1461020432
 31
0.0
  0
ENDSEC
  0
SECTION
  2
OBJECTS
  0
DICTIONARY
  5
C
330
0
100
AcDbDictionary
281
     1
  3
ACAD_GROUP
350
D
  3
ACAD_LAYOUT
350
1A
  3
ACAD_MLINESTYLE
350
17
  3
ACAD_PLOTSETTINGS
350
19
  3
ACAD_PLOTSTYLENAME
350
E
  0
DICTIONARY
  5
D
102
{ACAD_REACTORS
330
C
102
}
330
C
100
AcDbDictionary
281
     1
  0
DICTIONARY
  5
1A
102
{ACAD_REACTORS
330
C
102
}
330
C
100
AcDbDictionary
281
     1
  3
Layout1
350
1E
  3
Layout2
350
26
  3
Model
350
22
  0
DICTIONARY
  5
17
102
{ACAD_REACTORS
330
C
102
}
330
C
100
AcDbDictionary
281
     1
  3
Standard
350
18
  0
DICTIONARY
  5
19
102
{ACAD_REACTORS
330
C
102
}
330
C
100
AcDbDictionary
281
     1
  0
ACDBDICTIONARYWDFLT
  5
E
102
{ACAD_REACTORS
330
C
102
}
330
C
100
AcDbDictionary
281
     1
  3
Normal
350
F
100
AcDbDictionaryWithDefault
340
F
  0
LAYOUT
  5
1E
102
{ACAD_REACTORS
330
1A
102
}
330
1A
100
AcDbPlotSettings
  1

  2
none_device
  4

  6

 40
0.0
 41
0.0
 42
0.0
 43
0.0
 44
0.0
 45
0.0
 46
0.0
 47
0.0
 48
0.0
 49
0.0
140
0.0
141
0.0
142
1.0
143
1.0
 70
   688
 72
     0
 73
     0
 74
     5
  7

 75
    16
147
1.0
148
0.0
149
0.0
100
AcDbLayout
  1
Layout1
 70
     1
 71
     1
 10
0.0
 20
0.0
 11
420.0
 21
297.0
 12
0.0
 22
0.0
 32
0.0
 14
1.0000000000E+20
 24
1.0000000000E+20
 34
1.0000000000E+20
 15
-1.0000000000E+20
 25
-1.0000000000E+20
 35
-1.0000000000E+20
146
0.0
 13
0.0
 23
0.0
 33
0.0
 16
1.0
 26
0.0
 36
0.0
 17
0.0
 27
1.0
 37
0.0
 76
     0
330
1B
  0
LAYOUT
  5
26
102
{ACAD_REACTORS
330
1A
102
}
330
1A
100
AcDbPlotSettings
  1

  2
none_device
  4

  6

 40
0.0
 41
0.0
 42
0.0
 43
0.0
 44
0.0
 45
0.0
 46
0.0
 47
0.0
 48
0.0
 49
0.0
140
0.0
141
0.0
142
1.0
143
1.0
 70
   688
 72
     0
 73
     0
 74
     5
  7

 75
    16
147
1.0
148
0.0
149
0.0
100
AcDbLayout
  1
Layout2
 70
     1
 71
     2
 10
0.0
 20
0.0
 11
0.0
 21
0.0
 12
0.0
 22
0.0
 32
0.0
 14
0.0
 24
0.0
 34
0.0
 15
0.0
 25
0.0
 35
0.0
146
0.0
 13
0.0
 23
0.0
 33
0.0
 16
1.0
 26
0.0
 36
0.0
 17
0.0
 27
1.0
 37
0.0
 76
     0
330
23
  0
LAYOUT
  5
22
102
{ACAD_REACTORS
330
1A
102
}
330
1A
100
AcDbPlotSettings
  1

  2
none_device
  4

  6

 40
0.0
 41
0.0
 42
0.0
 43
0.0
 44
0.0
 45
0.0
 46
0.0
 47
0.0
 48
0.0
 49
0.0
140
0.0
141
0.0
142
1.0
143
1.0
 70
  1712
 72
     0
 73
     0
 74
     0
  7

 75
     0
147
1.0
148
0.0
149
0.0
100
AcDbLayout
  1
Model
 70
     1
 71
     0
 10
0.0
 20
0.0
 11
594.0
 21
420.0
 12
0.0
 22
0.0
 32
0.0
 14
0.0
 24
0.0
 34
0.0
 15
594.0
 25
420.0
 35
0.0
146
0.0
 13
0.0
 23
0.0
 33
0.0
 16
1.0
 26
0.0
 36
0.0
 17
0.0
 27
1.0
 37
0.0
 76
     0
330
1F
331
29
  0
MLINESTYLE
  5
18
102
{ACAD_REACTORS
330
17
102
}
330
17
100
AcDbMlineStyle
  2
Standard
 70
     0
  3

 62
   256
 51
90.0
 52
90.0
 71
     2
 49
0.5
 62
   256
  6
BYLAYER
 49
-0.5
 62
   256
  6
BYLAYER
  0
ACDBPLACEHOLDER
  5
F
102
{ACAD_REACTORS
330
E
102
}
330
E
  0
ENDSEC
  0
EOF
