  0
SECTION
  2
HEADER
  9
$ACADVER
  1
AC1032
  9
$ACADMAINTVER
 90
       55
  9
$DWGCODEPAGE
  3
ANSI_1252
  9
$LASTSAVEDBY
  1
f.studer
  9
$REQUIREDVERSIONS
160
                 0
  9
$INSBASE
 10
0.0
 20
0.0
 30
0.0
  9
$EXTMIN
 10
0.0
 20
0.0
 30
0.0
  9
$EXTMAX
 10
420.0
 20
594.0
 30
0.0
  9
$LIMMIN
 10
0.0
 20
0.0
  9
$LIMMAX
 10
420.0
 20
594.0
  9
$ORTHOMODE
 70
     0
  9
$REGENMODE
 70
     1
  9
$FILLMODE
 70
     1
  9
$QTEXTMODE
 70
     0
  9
$MIRRTEXT
 70
     1
  9
$LTSCALE
 40
2.0
  9
$ATTMODE
 70
     1
  9
$TEXTSIZE
 40
7.0
  9
$TRACEWID
 40
1.0
  9
$TEXTSTYLE
  7
STANDARD
  9
$CLAYER
  8
0
  9
$CELTYPE
  6
ByLayer
  9
$CECOLOR
 62
   256
  9
$CELTSCALE
 40
1.0
  9
$DISPSILH
 70
     0
  9
$DIMSCALE
 40
1.0
  9
$DIMASZ
 40
6.604
  9
$DIMEXO
 40
2.0
  9
$DIMDLI
 40
3.75
  9
$DIMRND
 40
0.0
  9
$DIMDLE
 40
0.0
  9
$DIMEXE
 40
2.0
  9
$DIMTP
 40
0.0
  9
$DIMTM
 40
0.0
  9
$DIMTXT
 40
7.0
  9
$DIMCEN
 40
2.5
  9
$DIMTSZ
 40
0.0
  9
$DIMTOL
 70
     0
  9
$DIMLIM
 70
     0
  9
$DIMTIH
 70
     1
  9
$DIMTOH
 70
     1
  9
$DIMSE1
 70
     0
  9
$DIMSE2
 70
     0
  9
$DIMTAD
 70
     1
  9
$DIMZIN
 70
     0
  9
$DIMBLK
  1

  9
$DIMASO
 70
     1
  9
$DIMSHO
 70
     1
  9
$DIMPOST
  1

  9
$DIMAPOST
  1

  9
$DIMALT
 70
     0
  9
$DIMALTD
 70
     3
  9
$DIMALTF
 40
0.0393700787
  9
$DIMLFAC
 40
1.0
  9
$DIMTOFL
 70
     1
  9
$DIMTVP
 40
0.0
  9
$DIMTIX
 70
     0
  9
$DIMSOXD
 70
     0
  9
$DIMSAH
 70
     0
  9
$DIMBLK1
  1

  9
$DIMBLK2
  1

  9
$DIMSTYLE
  2
ISO-25
  9
$DIMCLRD
 70
     0
  9
$DIMCLRE
 70
     0
  9
$DIMCLRT
 70
     0
  9
$DIMTFAC
 40
1.0
  9
$DIMGAP
 40
3.048
  9
$DIMJUST
 70
     0
  9
$DIMSD1
 70
     0
  9
$DIMSD2
 70
     0
  9
$DIMTOLJ
 70
     0
  9
$DIMTZIN
 70
     0
  9
$DIMALTZ
 70
     0
  9
$DIMALTTZ
 70
     0
  9
$DIMUPT
 70
     0
  9
$DIMDEC
 70
     2
  9
$DIMTDEC
 70
     2
  9
$DIMALTU
 70
     2
  9
$DIMALTTD
 70
     3
  9
$DIMTXSTY
  7
STANDARD
  9
$DIMAUNIT
 70
     0
  9
$DIMADEC
 70
     2
  9
$DIMALTRND
 40
0.0
  9
$DIMAZIN
 70
     0
  9
$DIMDSEP
 70
    44
  9
$DIMATFIT
 70
     3
  9
$DIMFRAC
 70
     0
  9
$DIMLDRBLK
  1

  9
$DIMLUNIT
 70
     2
  9
$DIMLWD
 70
    -2
  9
$DIMLWE
 70
    -2
  9
$DIMTMOVE
 70
     0
  9
$DIMFXL
 40
1.0
  9
$DIMFXLON
 70
     0
  9
$DIMJOGANG
 40
0.7853981634
  9
$DIMTFILL
 70
     0
  9
$DIMTFILLCLR
 70
     0
  9
$DIMARCSYM
 70
     0
  9
$DIMLTYPE
  6

  9
$DIMLTEX1
  6

  9
$DIMLTEX2
  6

  9
$DIMTXTDIRECTION
 70
     0
  9
$LUNITS
 70
     2
  9
$LUPREC
 70
     2
  9
$SKETCHINC
 40
1.0
  9
$FILLETRAD
 40
0.0
  9
$AUNITS
 70
     0
  9
$AUPREC
 70
     2
  9
$MENU
  1
.
  9
$ELEVATION
 40
0.0
  9
$PELEVATION
 40
0.0
  9
$THICKNESS
 40
0.0
  9
$LIMCHECK
 70
     0
  9
$CHAMFERA
 40
0.0
  9
$CHAMFERB
 40
0.0
  9
$CHAMFERC
 40
0.0
  9
$CHAMFERD
 40
0.0
  9
$SKPOLY
 70
     0
  9
$TDCREATE
 40
2460332.455957292
  9
$TDUCREATE
 40
2460332.414290625
  9
$TDUPDATE
 40
2460332.455957651
  9
$TDUUPDATE
 40
2460332.414290984
  9
$TDINDWG
 40
0.0000000116
  9
$TDUSRTIMER
 40
0.0000000116
  9
$USRTIMER
 70
     1
  9
$ANGBASE
 50
0.0
  9
$ANGDIR
 70
     0
  9
$PDMODE
 70
     0
  9
$PDSIZE
 40
-1.0
  9
$PLINEWID
 40
0.0
  9
$SPLFRAME
 70
     0
  9
$SPLINETYPE
 70
     6
  9
$SPLINESEGS
 70
     8
  9
$HANDSEED
  5
268
  9
$SURFTAB1
 70
     6
  9
$SURFTAB2
 70
     6
  9
$SURFTYPE
 70
     6
  9
$SURFU
 70
     6
  9
$SURFV
 70
     6
  9
$UCSBASE
  2

  9
$UCSNAME
  2

  9
$UCSORG
 10
0.0
 20
0.0
 30
0.0
  9
$UCSXDIR
 10
1.0
 20
0.0
 30
0.0
  9
$UCSYDIR
 10
0.0
 20
1.0
 30
0.0
  9
$UCSORTHOREF
  2

  9
$UCSORTHOVIEW
 70
     0
  9
$UCSORGTOP
 10
0.0
 20
0.0
 30
0.0
  9
$UCSORGBOTTOM
 10
0.0
 20
0.0
 30
0.0
  9
$UCSORGLEFT
 10
0.0
 20
0.0
 30
0.0
  9
$UCSORGRIGHT
 10
0.0
 20
0.0
 30
0.0
  9
$UCSORGFRONT
 10
0.0
 20
0.0
 30
0.0
  9
$UCSORGBACK
 10
0.0
 20
0.0
 30
0.0
  9
$PUCSBASE
  2

  9
$PUCSNAME
  2

  9
$PUCSORG
 10
0.0
 20
0.0
 30
0.0
  9
$PUCSXDIR
 10
1.0
 20
0.0
 30
0.0
  9
$PUCSYDIR
 10
0.0
 20
1.0
 30
0.0
  9
$PUCSORTHOREF
  2

  9
$PUCSORTHOVIEW
 70
     0
  9
$PUCSORGTOP
 10
0.0
 20
0.0
 30
0.0
  9
$PUCSORGBOTTOM
 10
0.0
 20
0.0
 30
0.0
  9
$PUCSORGLEFT
 10
0.0
 20
0.0
 30
0.0
  9
$PUCSORGRIGHT
 10
0.0
 20
0.0
 30
0.0
  9
$PUCSORGFRONT
 10
0.0
 20
0.0
 30
0.0
  9
$PUCSORGBACK
 10
0.0
 20
0.0
 30
0.0
  9
$USERI1
 70
     0
  9
$USERI2
 70
     0
  9
$USERI3
 70
     0
  9
$USERI4
 70
     0
  9
$USERI5
 70
     0
  9
$USERR1
 40
0.0
  9
$USERR2
 40
0.0
  9
$USERR3
 40
0.0
  9
$USERR4
 40
0.0
  9
$USERR5
 40
0.0
  9
$WORLDVIEW
 70
     1
  9
$SHADEDGE
 70
     3
  9
$SHADEDIF
 70
    70
  9
$TILEMODE
 70
     1
  9
$MAXACTVP
 70
    64
  9
$PINSBASE
 10
0.0
 20
0.0
 30
0.0
  9
$PLIMCHECK
 70
     0
  9
$PEXTMIN
 10
1.0000000000E+20
 20
1.0000000000E+20
 30
1.0000000000E+20
  9
$PEXTMAX
 10
-1.0000000000E+20
 20
-1.0000000000E+20
 30
-1.0000000000E+20
  9
$PLIMMIN
 10
0.0
 20
0.0
  9
$PLIMMAX
 10
420.0
 20
297.0
  9
$UNITMODE
 70
     0
  9
$VISRETAIN
 70
     1
  9
$PLINEGEN
 70
     0
  9
$PSLTSCALE
 70
     1
  9
$TREEDEPTH
 70
  3020
  9
$CMLSTYLE
  2
Standard
  9
$CMLJUST
 70
     0
  9
$CMLSCALE
 40
20.0
  9
$PROXYGRAPHICS
 70
     1
  9
$MEASUREMENT
 70
     1
  9
$CELWEIGHT
370
    -1
  9
$ENDCAPS
280
     0
  9
$JOINSTYLE
280
     0
  9
$LWDISPLAY
290
     1
  9
$INSUNITS
 70
     4
  9
$HYPERLINKBASE
  1

  9
$STYLESHEET
  1

  9
$XEDIT
290
     1
  9
$CEPSNTYPE
380
     0
  9
$PSTYLEMODE
290
     1
  9
$FINGERPRINTGUID
  2
{7b38052b-099b-4a87-acc8-fa8cf35a9b7a}
  9
$VERSIONGUID
  2
{FAEB1C32-E019-11D5-929B-00C0DF256EC4}
  9
$EXTNAMES
290
     1
  9
$PSVPSCALE
 40
0.0
  9
$OLESTARTUP
290
     0
  9
$SORTENTS
280
   127
  9
$INDEXCTL
280
     0
  9
$HIDETEXT
280
     1
  9
$XCLIPFRAME
280
     2
  9
$HALOGAP
280
     0
  9
$OBSCOLOR
 70
   257
  9
$OBSLTYPE
280
     0
  9
$INTERSECTIONDISPLAY
280
     0
  9
$INTERSECTIONCOLOR
 70
   257
  9
$DIMASSOC
280
     2
  9
$PROJECTNAME
  1

  9
$CAMERADISPLAY
290
     0
  9
$LENSLENGTH
 40
50.0
  9
$CAMERAHEIGHT
 40
0.0
  9
$STEPSPERSEC
 40
2.0
  9
$STEPSIZE
 40
6.0
  9
$3DDWFPREC
 40
2.0
  9
$PSOLWIDTH
 40
5.0
  9
$PSOLHEIGHT
 40
80.0
  9
$LOFTANG1
 40
1.5707963268
  9
$LOFTANG2
 40
1.5707963268
  9
$LOFTMAG1
 40
0.0
  9
$LOFTMAG2
 40
0.0
  9
$LOFTPARAM
 70
     7
  9
$LOFTNORMALS
280
     1
  9
$LATITUDE
 40
37.795
  9
$LONGITUDE
 40
-122.394
  9
$NORTHDIRECTION
 40
0.0
  9
$TIMEZONE
 70
 -8000
  9
$LIGHTGLYPHDISPLAY
280
     1
  9
$TILEMODELIGHTSYNCH
280
     1
  9
$CMATERIAL
347
44
  9
$SOLIDHIST
280
     0
  9
$SHOWHIST
280
     1
  9
$DWFFRAME
280
     2
  9
$DGNFRAME
280
     2
  9
$REALWORLDSCALE
290
     1
  9
$INTERFERECOLOR
 62
   256
  9
$CSHADOW
280
     0
  9
$SHADOWPLANELOCATION
 40
0.0
  0
ENDSEC
  0
SECTION
  2
CLASSES
  0
CLASS
  1
ACDBDICTIONARYWDFLT
  2
AcDbDictionaryWithDefault
  3
ObjectDBX Classes
 90
        0
 91
        3
280
     0
281
     0
  0
CLASS
  1
VISUALSTYLE
  2
AcDbVisualStyle
  3
ObjectDBX Classes
 90
     4095
 91
        3
280
     0
281
     0
  0
CLASS
  1
MATERIAL
  2
AcDbMaterial
  3
ObjectDBX Classes
 90
     1153
 91
        3
280
     0
281
     0
  0
CLASS
  1
SCALE
  2
AcDbScale
  3
ObjectDBX Classes
 90
     1153
 91
        3
280
     0
281
     0
  0
CLASS
  1
TABLESTYLE
  2
AcDbTableStyle
  3
ObjectDBX Classes
 90
     4095
 91
        3
280
     0
281
     0
  0
CLASS
  1
MLEADERSTYLE
  2
AcDbMLeaderStyle
  3
ACDB_MLEADERSTYLE_CLASS
 90
     4095
 91
        3
280
     0
281
     0
  0
CLASS
  1
SUN
  2
AcDbSun
  3
SCENEOE
 90
     1153
 91
        3
280
     0
281
     0
  0
CLASS
  1
DICTIONARYVAR
  2
AcDbDictionaryVar
  3
ObjectDBX Classes
 90
        0
 91
        3
280
     0
281
     0
  0
CLASS
  1
CELLSTYLEMAP
  2
AcDbCellStyleMap
  3
ObjectDBX Classes
 90
     1152
 91
        3
280
     0
281
     0
  0
ENDSEC
  0
SECTION
  2
TABLES
  0
TABLE
  2
VPORT
  5
8
330
0
100
AcDbSymbolTable
 70
     1
  0
VPORT
  5
29
330
8
100
AcDbSymbolTableRecord
100
AcDbViewportTableRecord
  2
*Active
 70
     0
 10
0.0
 20
0.0
 11
1.0
 21
1.0
 12
210.0
 22
297.0
 13
0.0
 23
0.0
 14
10.0
 24
10.0
 15
10.0
 25
10.0
 16
0.0
 26
0.0
 36
1.0
 17
0.0
 27
0.0
 37
0.0
 40
594.0
 41
0.7070707071
 42
50.0
 43
0.0
 44
0.0
 50
0.0
 51
0.0
 71
     0
 72
  2000
 73
     1
 74
     3
 75
     0
 76
     0
 77
     0
 78
     0
281
     0
 65
     1
110
0.0
120
0.0
130
0.0
111
1.0
121
0.0
131
0.0
112
0.0
122
1.0
132
0.0
 79
     0
146
0.0
348
2F
 60
     3
 61
     5
292
     1
282
     1
141
0.0
142
0.0
 63
   250
361
5D
  0
ENDTAB
  0
TABLE
  2
LTYPE
  5
5
330
0
100
AcDbSymbolTable
 70
     8
  0
LTYPE
  5
14
330
5
100
AcDbSymbolTableRecord
100
AcDbLinetypeTableRecord
  2
ByBlock
 70
     0
  3

 72
    65
 73
     0
 40
0.0
  0
LTYPE
  5
15
330
5
100
AcDbSymbolTableRecord
100
AcDbLinetypeTableRecord
  2
ByLayer
 70
     0
  3

 72
    65
 73
     0
 40
0.0
  0
LTYPE
  5
16
330
5
100
AcDbSymbolTableRecord
100
AcDbLinetypeTableRecord
  2
Continuous
 70
     0
  3
Solid line
 72
    65
 73
     0
 40
0.0
  0
LTYPE
  5
5E
330
5
100
AcDbSymbolTableRecord
100
AcDbLinetypeTableRecord
  2
SLD-Durchgehend
 70
     0
  3
SolidWorks Line Style
 72
    65
 73
     0
 40
0.0
  0
LTYPE
  5
5F
330
5
100
AcDbSymbolTableRecord
100
AcDbLinetypeTableRecord
  2
SLD-Gestrichelt
 70
     0
  3
SolidWorks Line Style
 72
    65
 73
     2
 40
1.905
 49
1.27
 74
     0
 49
-0.635
 74
     0
  0
LTYPE
  5
60
330
5
100
AcDbSymbolTableRecord
100
AcDbLinetypeTableRecord
  2
SLD-Phantom
 70
     0
  3
SolidWorks Line Style
 72
    65
 73
     6
 40
12.7
 49
6.35
 74
     0
 49
-1.27
 74
     0
 49
1.27
 74
     0
 49
-1.27
 74
     0
 49
1.27
 74
     0
 49
-1.27
 74
     0
  0
LTYPE
  5
61
330
5
100
AcDbSymbolTableRecord
100
AcDbLinetypeTableRecord
  2
SLD-Kette
 70
     0
  3
SolidWorks Line Style
 72
    65
 73
     4
 40
10.16
 49
6.35
 74
     0
 49
-1.27
 74
     0
 49
1.27
 74
     0
 49
-1.27
 74
     0
  0
LTYPE
  5
62
330
5
100
AcDbSymbolTableRecord
100
AcDbLinetypeTableRecord
  2
SLD-Punktstrich
 70
     0
  3
SolidWorks Line Style
 72
    65
 73
     4
 40
19.05
 49
15.24
 74
     0
 49
-1.27
 74
     0
 49
1.27
 74
     0
 49
-1.27
 74
     0
  0
LTYPE
  5
63
330
5
100
AcDbSymbolTableRecord
100
AcDbLinetypeTableRecord
  2
SLD-Naht
 70
     0
  3
SolidWorks Line Style
 72
    65
 73
     2
 40
0.635
 49
0.0
 74
     0
 49
-0.635
 74
     0
  0
LTYPE
  5
64
330
5
100
AcDbSymbolTableRecord
100
AcDbLinetypeTableRecord
  2
SLD-Dicke-Dünne-Kette
 70
     0
  3
SolidWorks Line Style
 72
    65
 73
     4
 40
10.16
 49
6.35
 74
     0
 49
-1.27
 74
     0
 49
1.27
 74
     0
 49
-1.27
 74
     0
  0
ENDTAB
  0
TABLE
  2
LAYER
  5
2
330
0
100
AcDbSymbolTable
 70
     4
  0
LAYER
  5
10
330
2
100
AcDbSymbolTableRecord
100
AcDbLayerTableRecord
  2
0
 70
     0
 62
     7
  6
Continuous
370
    -3
390
F
347
46
348
0
  0
LAYER
  5
65
330
2
100
AcDbSymbolTableRecord
100
AcDbLayerTableRecord
  2
RAHMEN
 70
     0
 62
   179
  6
SLD-Durchgehend
370
    -3
390
F
347
46
348
0
  0
LAYER
  5
66
330
2
100
AcDbSymbolTableRecord
100
AcDbLayerTableRecord
  2
KOPF
 70
     0
 62
     7
  6
SLD-Durchgehend
370
    -3
390
F
347
46
348
0
  0
LAYER
  5
67
330
2
100
AcDbSymbolTableRecord
100
AcDbLayerTableRecord
  2
ZEICHNUNG
 70
     0
 62
     7
  6
SLD-Durchgehend
370
    -3
390
F
347
46
348
0
  0
ENDTAB
  0
TABLE
  2
STYLE
  5
3
330
0
100
AcDbSymbolTable
 70
     2
  0
STYLE
  5
11
330
3
100
AcDbSymbolTableRecord
100
AcDbTextStyleTableRecord
  2
STANDARD
 70
     0
 40
0.0
 41
1.0
 50
0.0
 71
     0
 42
7.0
  3
GOTHIC.TTF
  4

1001
ACAD
1000
CENTURY GOTHIC
1071
       34
  0
STYLE
  5
1A3
330
3
100
AcDbSymbolTableRecord
100
AcDbTextStyleTableRecord
  2
SLDTEXTSTYLE0
 70
     0
 40
0.0
 41
0.913
 50
0.0
 71
     0
 42
7.0
  3
GOTHIC.TTF
  4

1001
ACAD
1000
Century Gothic
1071
      290
  0
ENDTAB
  0
TABLE
  2
VIEW
  5
6
330
0
100
AcDbSymbolTable
 70
     0
  0
ENDTAB
  0
TABLE
  2
UCS
  5
7
330
0
100
AcDbSymbolTable
 70
     0
  0
ENDTAB
  0
TABLE
  2
APPID
  5
9
330
0
100
AcDbSymbolTable
 70
     1
  0
APPID
  5
12
330
9
100
AcDbSymbolTableRecord
100
AcDbRegAppTableRecord
  2
ACAD
 70
     0
  0
ENDTAB
  0
TABLE
  2
DIMSTYLE
  5
A
330
0
100
AcDbSymbolTable
 70
     3
100
AcDbDimStyleTable
  0
DIMSTYLE
105
27
330
A
100
AcDbSymbolTableRecord
100
AcDbDimStyleTableRecord
  2
ISO-25
 70
     0
 41
2.5
 42
0.625
 43
3.75
 44
1.25
 73
     0
 74
     0
 77
     1
 78
     8
140
2.5
141
2.5
143
0.0393700787
147
0.625
171
     3
172
     1
178
     0
271
     2
272
     2
274
     3
278
    44
283
     0
284
     8
340
11
  0
DIMSTYLE
105
1A4
102
{ACAD_REACTORS
330
1A2
330
228
102
}
330
A
100
AcDbSymbolTableRecord
100
AcDbDimStyleTableRecord
  2
SLDDIMSTYLE0
 70
     0
 41
6.604
 44
0.0
 45
0.000000001
 73
     0
 74
     0
 77
     1
 78
    12
 79
     3
140
7.0
147
1.75
173
     1
178
     0
271
     0
272
     0
276
     2
284
    12
340
1A3
  0
DIMSTYLE
105
1AF
102
{ACAD_REACTORS
330
1AE
330
232
330
250
102
}
330
A
100
AcDbSymbolTableRecord
100
AcDbDimStyleTableRecord
  2
SLDDIMSTYLE1
 70
     0
 41
6.604
 44
0.0
 45
0.000000001
 73
     0
 74
     0
 77
     1
 78
    12
 79
     3
140
7.0
147
1.75
172
     1
173
     1
178
     0
271
     2
272
     2
276
     2
284
    12
289
     0
340
1A3
  0
ENDTAB
  0
TABLE
  2
BLOCK_RECORD
  5
1
330
0
100
AcDbSymbolTable
 70
     7
  0
BLOCK_RECORD
  5
1F
330
1
100
AcDbSymbolTableRecord
100
AcDbBlockTableRecord
  2
*Model_Space
340
22
 70
     0
280
     1
281
     0
  0
BLOCK_RECORD
  5
1B
330
1
100
AcDbSymbolTableRecord
100
AcDbBlockTableRecord
  2
*Paper_Space
340
1E
 70
     0
280
     1
281
     0
  0
BLOCK_RECORD
  5
23
330
1
100
AcDbSymbolTableRecord
100
AcDbBlockTableRecord
  2
*Paper_Space0
340
26
 70
     0
280
     1
281
     0
  0
BLOCK_RECORD
  5
68
330
1
100
AcDbSymbolTableRecord
100
AcDbBlockTableRecord
  2
Logo_Boag
340
0
 70
     0
280
     1
281
     0
  0
BLOCK_RECORD
  5
1A5
330
1
100
AcDbSymbolTableRecord
100
AcDbBlockTableRecord
  2
_D
340
0
 70
     0
280
     1
281
     0
  0
BLOCK_RECORD
  5
1B0
330
1
100
AcDbSymbolTableRecord
100
AcDbBlockTableRecord
  2
_D_1
340
0
 70
     0
280
     1
281
     0
  0
BLOCK_RECORD
  5
229
330
1
100
AcDbSymbolTableRecord
100
AcDbBlockTableRecord
  2
_D_2
340
0
 70
     0
280
     1
281
     0
  0
BLOCK_RECORD
  5
233
330
1
100
AcDbSymbolTableRecord
100
AcDbBlockTableRecord
  2
_D_3
340
0
 70
     0
280
     1
281
     0
  0
BLOCK_RECORD
  5
251
330
1
100
AcDbSymbolTableRecord
100
AcDbBlockTableRecord
  2
_D_4
340
0
 70
     0
280
     1
281
     0
  0
ENDTAB
  0
ENDSEC
  0
SECTION
  2
BLOCKS
  0
BLOCK
  5
20
330
1F
100
AcDbEntity
  8
0
100
AcDbBlockBegin
  2
*Model_Space
 70
     0
 10
0.0
 20
0.0
 30
0.0
  3
*Model_Space
  1

  0
ENDBLK
  5
21
330
1F
100
AcDbEntity
  8
0
100
AcDbBlockEnd
  0
BLOCK
  5
1C
330
1B
100
AcDbEntity
 67
     1
  8
0
100
AcDbBlockBegin
  2
*Paper_Space
 70
     0
 10
0.0
 20
0.0
 30
0.0
  3
*Paper_Space
  1

  0
ENDBLK
  5
1D
330
1B
100
AcDbEntity
 67
     1
  8
0
100
AcDbBlockEnd
  0
BLOCK
  5
24
330
23
100
AcDbEntity
  8
0
100
AcDbBlockBegin
  2
*Paper_Space0
 70
     0
 10
0.0
 20
0.0
 30
0.0
  3
*Paper_Space0
  1

  0
ENDBLK
  5
25
330
23
100
AcDbEntity
  8
0
100
AcDbBlockEnd
  0
BLOCK
  5
69
330
68
100
AcDbEntity
  8
0
100
AcDbBlockBegin
  2
Logo_Boag
 70
     0
 10
0.0
 20
0.0
 30
0.0
  3
Logo_Boag
  1

  0
LINE
  5
6B
330
68
100
AcDbEntity
  8
0
  6
SLD-Durchgehend
 62
     7
370
    18
100
AcDbLine
 10
0.0
 20
4.6858948568
 30
0.0
 11
0.0012092285
 21
4.6858948568
 31
0.0
  0
LINE
  5
6C
330
68
100
AcDbEntity
  8
0
  6
SLD-Durchgehend
 62
     7
370
    18
100
AcDbLine
 10
76.884898763
 20
0.0427260742
 30
0.0
 11
76.8870485026
 21
0.0427260742
 31
0.0
  0
LINE
  5
6D
330
68
100
AcDbEntity
  8
0
  6
SLD-Durchgehend
 62
     7
370
    18
100
AcDbLine
 10
41.1229059245
 20
0.2611933594
 30
0.0
 11
41.1229059245
 21
5.4778051758
 31
0.0
  0
LINE
  5
6E
330
68
100
AcDbEntity
  8
0
  6
SLD-Durchgehend
 62
     7
370
    18
100
AcDbLine
 10
64.5290017904
 20
11.6131619466
 30
0.0
 11
64.5290017904
 21
0.2611933594
 31
0.0
  0
LINE
  5
6F
330
68
100
AcDbEntity
  8
0
  6
SLD-Durchgehend
 62
     7
370
    18
100
AcDbLine
 10
39.7978601888
 20
0.2611933594
 30
0.0
 11
41.1229059245
 21
0.2611933594
 31
0.0
  0
LINE
  5
70
330
68
100
AcDbEntity
  8
0
  6
SLD-Durchgehend
 62
     7
370
    18
100
AcDbLine
 10
34.3674836426
 20
0.0427260742
 30
0.0
 11
34.3771574707
 21
0.0427260742
 31
0.0
  0
LINE
  5
71
330
68
100
AcDbEntity
  8
0
  6
SLD-Durchgehend
 62
     7
370
    18
100
AcDbLine
 10
54.5894121094
 20
7.2569833984
 30
0.0
 11
54.5173958333
 21
7.4196918132
 31
0.0
  0
LINE
  5
72
330
68
100
AcDbEntity
  8
0
  6
SLD-Durchgehend
 62
     7
370
    18
100
AcDbLine
 10
70.2483839518
 20
0.2611933594
 30
0.0
 11
71.5750419922
 21
0.2611933594
 31
0.0
  0
LINE
  5
73
330
68
100
AcDbEntity
  8
0
  6
SLD-Durchgehend
 62
     7
370
    18
100
AcDbLine
 10
79.601363444
 20
9.2379684245
 30
0.0
 11
79.601363444
 21
8.4042725423
 31
0.0
  0
LINE
  5
74
330
68
100
AcDbEntity
  8
0
  6
SLD-Durchgehend
 62
     7
370
    18
100
AcDbLine
 10
65.8537788086
 20
0.2611933594
 30
0.0
 11
65.8537788086
 21
5.4788800456
 31
0.0
  0
LINE
  5
75
330
68
100
AcDbEntity
  8
0
  6
SLD-Durchgehend
 62
     7
370
    18
100
AcDbLine
 10
38.1729257813
 20
2.9110161133
 30
0.0
 11
38.219279541
 21
3.0601542969
 31
0.0
  0
LINE
  5
76
330
68
100
AcDbEntity
  8
0
  6
SLD-Durchgehend
 62
     7
370
    18
100
AcDbLine
 10
53.2721591797
 20
7.2569833984
 30
0.0
 11
54.5894121094
 21
7.2569833984
 31
0.0
  0
LINE
  5
77
330
68
100
AcDbEntity
  8
0
  6
SLD-Durchgehend
 62
     7
370
    18
100
AcDbLine
 10
86.9908245443
 20
1.1603219401
 30
0.0
 11
86.9908245443
 21
0.2611933594
 31
0.0
  0
LINE
  5
78
330
68
100
AcDbEntity
  8
0
  6
SLD-Durchgehend
 62
     7
370
    18
100
AcDbLine
 10
74.1407561849
 20
4.7498496094
 30
0.0
 11
74.14021875
 21
4.7498496094
 31
0.0
  0
LINE
  5
79
330
68
100
AcDbEntity
  8
0
  6
SLD-Durchgehend
 62
     7
370
    18
100
AcDbLine
 10
83.5369991862
 20
8.094844401
 30
0.0
 11
83.5369991862
 21
1.7076993815
 31
0.0
  0
LINE
  5
7A
330
68
100
AcDbEntity
  8
0
  6
SLD-Durchgehend
 62
     7
370
    18
100
AcDbLine
 10
70.2483839518
 20
5.9709016927
 30
0.0
 11
70.2483839518
 21
0.2611933594
 31
0.0
  0
LINE
  5
7B
330
68
100
AcDbEntity
  8
0
  6
SLD-Durchgehend
 62
     7
370
    18
100
AcDbLine
 10
1.4521490885
 20
11.6514541829
 30
0.0
 11
0.0
 21
11.6514541829
 31
0.0
  0
LINE
  5
7C
330
68
100
AcDbEntity
  8
0
  6
SLD-Durchgehend
 62
     7
370
    18
100
AcDbLine
 10
45.5184515788
 20
0.2611933594
 30
0.0
 11
46.8436316732
 21
0.2611933594
 31
0.0
  0
LINE
  5
7D
330
68
100
AcDbEntity
  8
0
  6
SLD-Durchgehend
 62
     7
370
    18
100
AcDbLine
 10
15.1946280924
 20
0.0427260742
 30
0.0
 11
15.1983901367
 21
0.0427260742
 31
0.0
  0
LINE
  5
7E
330
68
100
AcDbEntity
  8
0
  6
SLD-Durchgehend
 62
     7
370
    18
100
AcDbLine
 10
28.7437648926
 20
4.6031298828
 30
0.0
 11
28.7461833496
 21
4.6031298828
 31
0.0
  0
LINE
  5
7F
330
68
100
AcDbEntity
  8
0
  6
SLD-Durchgehend
 62
     7
370
    18
100
AcDbLine
 10
41.1229059245
 20
9.2379684245
 30
0.0
 11
39.7978601888
 21
9.2379684245
 31
0.0
  0
LINE
  5
80
330
68
100
AcDbEntity
  8
0
  6
SLD-Durchgehend
 62
     7
370
    18
100
AcDbLine
 10
51.4421933594
 20
9.4301013997
 30
0.0
 11
51.3282571615
 21
9.4290265299
 31
0.0
  0
LINE
  5
81
330
68
100
AcDbEntity
  8
0
  6
SLD-Durchgehend
 62
     7
370
    18
100
AcDbLine
 10
93.5276451823
 20
8.4852908529
 30
0.0
 11
93.5276451823
 21
9.2379684245
 31
0.0
  0
LINE
  5
82
330
68
100
AcDbEntity
  8
0
  6
SLD-Durchgehend
 62
     7
370
    18
100
AcDbLine
 10
62.1301611328
 20
7.108248291
 30
0.0
 11
63.565918457
 21
7.0988431803
 31
0.0
  0
LINE
  5
83
330
68
100
AcDbEntity
  8
0
  6
SLD-Durchgehend
 62
     7
370
    18
100
AcDbLine
 10
79.8496583659
 20
0.2611933594
 30
0.0
 11
80.9540870768
 21
0.2611933594
 31
0.0
  0
LINE
  5
84
330
68
100
AcDbEntity
  8
0
  6
SLD-Durchgehend
 62
     7
370
    18
100
AcDbLine
 10
24.6768606771
 20
0.0427260742
 30
0.0
 11
24.6911027018
 21
0.0427260742
 31
0.0
  0
LINE
  5
85
330
68
100
AcDbEntity
  8
0
  6
SLD-Durchgehend
 62
     7
370
    18
100
AcDbLine
 10
84.8623136393
 20
11.6136993815
 30
0.0
 11
83.5369991862
 21
11.6136993815
 31
0.0
  0
LINE
  5
86
330
68
100
AcDbEntity
  8
0
  6
SLD-Durchgehend
 62
     7
370
    18
100
AcDbLine
 10
91.6627460938
 20
8.0953818359
 30
0.0
 11
86.9908245443
 21
1.1603219401
 31
0.0
  0
LINE
  5
87
330
68
100
AcDbEntity
  8
0
  6
SLD-Durchgehend
 62
     7
370
    18
100
AcDbLine
 10
63.565918457
 20
7.0988431803
 30
0.0
 11
63.4941708984
 21
7.2626264648
 31
0.0
  0
LINE
  5
88
330
68
100
AcDbEntity
  8
0
  6
SLD-Durchgehend
 62
     7
370
    18
100
AcDbLine
 10
93.5999301758
 20
1.4048548177
 30
0.0
 11
88.764628418
 21
1.4048548177
 31
0.0
  0
LINE
  5
89
330
68
100
AcDbEntity
  8
0
  6
SLD-Durchgehend
 62
     7
370
    18
100
AcDbLine
 10
84.8623136393
 20
8.094844401
 30
0.0
 11
91.6627460938
 21
8.0953818359
 31
0.0
  0
LINE
  5
8A
330
68
100
AcDbEntity
  8
0
  6
SLD-Durchgehend
 62
     7
370
    18
100
AcDbLine
 10
41.1229059245
 20
8.2168421224
 30
0.0
 11
41.1229059245
 21
9.2379684245
 31
0.0
  0
LINE
  5
8B
330
68
100
AcDbEntity
  8
0
  6
SLD-Durchgehend
 62
     7
370
    18
100
AcDbLine
 10
84.8623136393
 20
2.4364611003
 30
0.0
 11
84.8623136393
 21
8.094844401
 31
0.0
  0
LINE
  5
8C
330
68
100
AcDbEntity
  8
0
  6
SLD-Durchgehend
 62
     7
370
    18
100
AcDbLine
 10
64.5290017904
 20
0.2611933594
 30
0.0
 11
65.8537788086
 21
0.2611933594
 31
0.0
  0
LINE
  5
8D
330
68
100
AcDbEntity
  8
0
  6
SLD-Durchgehend
 62
     7
370
    18
100
AcDbLine
 10
63.6317542318
 20
2.5573839518
 30
0.0
 11
63.6940966797
 21
2.7153898112
 31
0.0
  0
LINE
  5
8E
330
68
100
AcDbEntity
  8
0
  6
SLD-Durchgehend
 62
     7
370
    18
100
AcDbLine
 10
86.31634375
 20
0.2192734375
 30
0.0
 11
86.31634375
 21
1.3476180013
 31
0.0
  0
LINE
  5
8F
330
68
100
AcDbEntity
  8
0
  6
SLD-Durchgehend
 62
     7
370
    18
100
AcDbLine
 10
53.2385694987
 20
7.3139514974
 30
0.0
 11
53.2721591797
 21
7.2569833984
 31
0.0
  0
LINE
  5
90
330
68
100
AcDbEntity
  8
0
  6
SLD-Durchgehend
 62
     7
370
    18
100
AcDbLine
 10
38.3013727214
 20
4.6697718099
 30
0.0
 11
38.2972076009
 21
4.7906946615
 31
0.0
  0
LINE
  5
91
330
68
100
AcDbEntity
  8
0
  6
SLD-Durchgehend
 62
     7
370
    18
100
AcDbLine
 10
46.8436316732
 20
0.2611933594
 30
0.0
 11
46.8436316732
 21
6.2980651855
 31
0.0
  0
LINE
  5
92
330
68
100
AcDbEntity
  8
0
  6
SLD-Durchgehend
 62
     7
370
    18
100
AcDbLine
 10
93.5276451823
 20
9.2379684245
 30
0.0
 11
84.8623136393
 21
9.2379684245
 31
0.0
  0
LINE
  5
93
330
68
100
AcDbEntity
  8
0
  6
SLD-Durchgehend
 62
     7
370
    18
100
AcDbLine
 10
83.5369991862
 20
11.6136993815
 30
0.0
 11
83.5369991862
 21
9.2379684245
 31
0.0
  0
LINE
  5
94
330
68
100
AcDbEntity
  8
0
  6
SLD-Durchgehend
 62
     7
370
    18
100
AcDbLine
 10
93.5999301758
 20
0.2611933594
 30
0.0
 11
93.5999301758
 21
1.4048548177
 31
0.0
  0
LINE
  5
95
330
68
100
AcDbEntity
  8
0
  6
SLD-Durchgehend
 62
     7
370
    18
100
AcDbLine
 10
34.3224734701
 20
1.295218099
 30
0.0
 11
34.2965422363
 21
1.2957555339
 31
0.0
  0
LINE
  5
96
330
68
100
AcDbEntity
  8
0
  6
SLD-Durchgehend
 62
     7
370
    18
100
AcDbLine
 10
48.0165833333
 20
2.7567722982
 30
0.0
 11
48.0636088867
 21
2.6065592448
 31
0.0
  0
LINE
  5
97
330
68
100
AcDbEntity
  8
0
  6
SLD-Durchgehend
 62
     7
370
    18
100
AcDbLine
 10
28.7461833496
 20
4.6031298828
 30
0.0
 11
28.7461833496
 21
11.6131619466
 31
0.0
  0
LINE
  5
98
330
68
100
AcDbEntity
  8
0
  6
SLD-Durchgehend
 62
     7
370
    18
100
AcDbLine
 10
45.5184515788
 20
5.9698268229
 30
0.0
 11
45.5184515788
 21
0.2611933594
 31
0.0
  0
LINE
  5
99
330
68
100
AcDbEntity
  8
0
  6
SLD-Durchgehend
 62
     7
370
    18
100
AcDbLine
 10
62.2427537435
 20
2.7159272461
 30
0.0
 11
62.2123886719
 21
2.6498227539
 31
0.0
  0
LINE
  5
9A
330
68
100
AcDbEntity
  8
0
  6
SLD-Durchgehend
 62
     7
370
    18
100
AcDbLine
 10
65.8537788086
 20
8.2021970215
 30
0.0
 11
65.8537788086
 21
11.6131619466
 31
0.0
  0
LINE
  5
9B
330
68
100
AcDbEntity
  8
0
  6
SLD-Durchgehend
 62
     7
370
    18
100
AcDbLine
 10
79.6752607422
 20
1.1665024414
 30
0.0
 11
79.8496583659
 21
0.2611933594
 31
0.0
  0
LINE
  5
9C
330
68
100
AcDbEntity
  8
0
  6
SLD-Durchgehend
 62
     7
370
    18
100
AcDbLine
 10
36.8000483398
 20
5.8128958333
 30
0.0
 11
31.647391276
 21
5.8128958333
 31
0.0
  0
LINE
  5
9D
330
68
100
AcDbEntity
  8
0
  6
SLD-Durchgehend
 62
     7
370
    18
100
AcDbLine
 10
65.8537788086
 20
11.6131619466
 30
0.0
 11
64.5290017904
 21
11.6131619466
 31
0.0
  0
LINE
  5
9E
330
68
100
AcDbEntity
  8
0
  6
SLD-Durchgehend
 62
     7
370
    18
100
AcDbLine
 10
63.6940966797
 20
2.7153898112
 30
0.0
 11
62.2427537435
 21
2.7159272461
 31
0.0
  0
LINE
  5
9F
330
68
100
AcDbEntity
  8
0
  6
SLD-Durchgehend
 62
     7
370
    18
100
AcDbLine
 10
88.764628418
 20
1.4048548177
 30
0.0
 11
93.5276451823
 21
8.4852908529
 31
0.0
  0
LINE
  5
A0
330
68
100
AcDbEntity
  8
0
  6
SLD-Durchgehend
 62
     7
370
    18
100
AcDbLine
 10
83.5369991862
 20
9.2379684245
 30
0.0
 11
79.601363444
 21
9.2379684245
 31
0.0
  0
LINE
  5
A1
330
68
100
AcDbEntity
  8
0
  6
SLD-Durchgehend
 62
     7
370
    18
100
AcDbLine
 10
1.4545675456
 20
4.5698089193
 30
0.0
 11
1.4521490885
 21
4.5698089193
 31
0.0
  0
LINE
  5
A2
330
68
100
AcDbEntity
  8
0
  6
SLD-Durchgehend
 62
     7
370
    18
100
AcDbLine
 10
1.4521490885
 20
4.5698089193
 30
0.0
 11
1.4521490885
 21
11.6514541829
 31
0.0
  0
LINE
  5
A3
330
68
100
AcDbEntity
  8
0
  6
SLD-Durchgehend
 62
     7
370
    18
100
AcDbLine
 10
27.4294678548
 20
11.6131619466
 30
0.0
 11
27.4294678548
 21
8.2336369629
 31
0.0
  0
LINE
  5
A4
330
68
100
AcDbEntity
  8
0
  6
SLD-Durchgehend
 62
     7
370
    18
100
AcDbLine
 10
31.629387207
 20
4.6697718099
 30
0.0
 11
38.3013727214
 21
4.6697718099
 31
0.0
  0
LINE
  5
A5
330
68
100
AcDbEntity
  8
0
  6
SLD-Durchgehend
 62
     7
370
    18
100
AcDbLine
 10
80.9540870768
 20
0.2611933594
 30
0.0
 11
80.9540870768
 21
8.094844401
 31
0.0
  0
LINE
  5
A6
330
68
100
AcDbEntity
  8
0
  6
SLD-Durchgehend
 62
     7
370
    18
100
AcDbLine
 10
84.8623136393
 20
9.2379684245
 30
0.0
 11
84.8623136393
 21
11.6136993815
 31
0.0
  0
LINE
  5
A7
330
68
100
AcDbEntity
  8
0
  6
SLD-Durchgehend
 62
     7
370
    18
100
AcDbLine
 10
36.7539632975
 20
3.0601542969
 30
0.0
 11
36.7268228353
 21
2.9833011068
 31
0.0
  0
LINE
  5
A8
330
68
100
AcDbEntity
  8
0
  6
SLD-Durchgehend
 62
     7
370
    18
100
AcDbLine
 10
80.9540870768
 20
8.094844401
 30
0.0
 11
83.5369991862
 21
8.094844401
 31
0.0
  0
LINE
  5
A9
330
68
100
AcDbEntity
  8
0
  6
SLD-Durchgehend
 62
     7
370
    18
100
AcDbLine
 10
39.7978601888
 20
9.2379684245
 30
0.0
 11
39.7978601888
 21
0.2611933594
 31
0.0
  0
LINE
  5
AA
330
68
100
AcDbEntity
  8
0
  6
SLD-Durchgehend
 62
     7
370
    18
100
AcDbLine
 10
71.5750419922
 20
0.2611933594
 30
0.0
 11
71.5750419922
 21
6.2980651855
 31
0.0
  0
LINE
  5
AB
330
68
100
AcDbEntity
  8
0
  6
SLD-Durchgehend
 62
     7
370
    18
100
AcDbLine
 10
86.9908245443
 20
0.2611933594
 30
0.0
 11
93.5999301758
 21
0.2611933594
 31
0.0
  0
LINE
  5
AC
330
68
100
AcDbEntity
  8
0
  6
SLD-Durchgehend
 62
     7
370
    18
100
AcDbLine
 10
62.0997960612
 20
7.1758307292
 30
0.0
 11
62.1301611328
 21
7.108248291
 31
0.0
  0
LINE
  5
AD
330
68
100
AcDbEntity
  8
0
  6
SLD-Durchgehend
 62
     7
370
    18
100
AcDbLine
 10
51.3282571615
 20
9.4290265299
 30
0.0
 11
51.3282571615
 21
9.4264737142
 31
0.0
  0
LINE
  5
AE
330
68
100
AcDbEntity
  8
0
  6
SLD-Durchgehend
 62
     7
370
    18
100
AcDbLine
 10
49.3639326172
 20
2.7567722982
 30
0.0
 11
48.0165833333
 21
2.7567722982
 31
0.0
  0
LINE
  5
AF
330
68
100
AcDbEntity
  8
0
  6
SLD-Durchgehend
 62
     7
370
    18
100
AcDbLine
 10
49.3873110352
 20
2.6723950195
 30
0.0
 11
49.3639326172
 21
2.7567722982
 31
0.0
  0
LINE
  5
B0
330
68
100
AcDbEntity
  8
0
  6
SLD-Durchgehend
 62
     7
370
    18
100
AcDbLine
 10
0.0
 20
11.6514541829
 30
0.0
 11
0.0
 21
4.6858948568
 31
0.0
  0
LINE
  5
B1
330
68
100
AcDbEntity
  8
0
  6
SLD-Durchgehend
 62
     7
370
    18
100
AcDbLine
 10
59.8398823242
 20
0.0427260742
 30
0.0
 11
59.8648730469
 21
0.0427260742
 31
0.0
  0
LINE
  5
B2
330
68
100
AcDbEntity
  8
0
  6
SLD-Durchgehend
 62
     7
370
    18
100
AcDbLine
 10
28.7461833496
 20
11.6131619466
 30
0.0
 11
27.4294678548
 21
11.6131619466
 31
0.0
  0
LINE
  5
B3
330
68
100
AcDbEntity
  8
0
  6
SLD-Durchgehend
 62
     7
370
    18
100
AcDbLine
 10
51.4894876302
 20
0.0228409831
 30
0.0
 11
51.5894505208
 21
0.0239158529
 31
0.0
  0
LINE
  5
B4
330
68
100
AcDbEntity
  8
0
  6
SLD-Durchgehend
 62
     7
370
    18
100
AcDbLine
 10
31.6296559245
 20
4.5493863932
 30
0.0
 11
31.629387207
 21
4.6697718099
 31
0.0
  0
LINE
  5
B5
330
68
100
AcDbEntity
  8
0
  6
SLD-Durchgehend
 62
     7
370
    18
100
AcDbLine
 10
38.219279541
 20
3.0601542969
 30
0.0
 11
36.7539632975
 21
3.0601542969
 31
0.0
  0
SPLINE
  5
B6
330
68
100
AcDbEntity
  8
0
  6
SLD-Durchgehend
 62
     8
420
  8421504
370
     0
100
AcDbSpline
210
0.0
220
0.0
230
1.0
 70
     8
 71
     3
 72
     8
 73
     4
 74
     0
 42
0.00000001
 43
0.00000001
 40
23.0
 40
23.0
 40
23.0
 40
23.0
 40
24.0
 40
24.0
 40
24.0
 40
24.0
 10
54.88204541015629
 20
2.792243001302097
 30
0.0
 10
54.88634488932298
 20
4.627851888020867
 30
0.0
 10
53.49573209635427
 20
5.129278645833319
 30
0.0
 10
52.20427604166667
 20
5.417075032552093
 30
0.0
  0
SPLINE
  5
B7
330
68
100
AcDbEntity
  8
0
  6
SLD-Durchgehend
 62
     8
420
  8421504
370
     0
100
AcDbSpline
210
0.0
220
0.0
230
1.0
 70
     8
 71
     3
 72
     8
 73
     4
 74
     0
 42
0.00000001
 43
0.00000001
 40
3.0
 40
3.0
 40
3.0
 40
3.0
 40
4.0
 40
4.0
 40
4.0
 40
4.0
 10
27.42060017903653
 20
4.749849609375023
 30
0.0
 10
27.43443912760424
 20
2.335423339843767
 30
0.0
 10
26.22695727539071
 20
1.299517578124992
 30
0.0
 10
24.67686067708341
 20
1.295218098958356
 30
0.0
  0
SPLINE
  5
B8
330
68
100
AcDbEntity
  8
0
  6
SLD-Durchgehend
 62
     8
420
  8421504
370
     0
100
AcDbSpline
210
0.0
220
0.0
230
1.0
 70
     8
 71
     3
 72
     8
 73
     4
 74
     0
 42
0.00000001
 43
0.00000001
 40
1.0
 40
1.0
 40
1.0
 40
1.0
 40
2.0
 40
2.0
 40
2.0
 40
2.0
 10
34.22721313476568
 20
9.457241861979188
 30
0.0
 10
33.10639265950532
 20
9.457241861979188
 30
0.0
 10
32.08392277018235
 20
9.044357503255245
 30
0.0
 10
31.34589029947926
 20
8.243982584635406
 30
0.0
  0
SPLINE
  5
B9
330
68
100
AcDbEntity
  8
0
  6
SLD-Durchgehend
 62
     8
420
  8421504
370
     0
100
AcDbSpline
210
0.0
220
0.0
230
1.0
 70
     8
 71
     3
 72
     8
 73
     4
 74
     0
 42
0.00000001
 43
0.00000001
 40
12.0
 40
12.0
 40
12.0
 40
12.0
 40
13.0
 40
13.0
 40
13.0
 40
13.0
 10
74.00263541666673
 20
1.254910481770843
 30
0.0
 10
74.74053352864584
 20
0.4562822265624933
 30
0.0
 10
75.76380957031247
 20
0.0421886393229265
 30
0.0
 10
76.88489876302096
 20
0.042726074218763
 30
0.0
  0
SPLINE
  5
BA
330
68
100
AcDbEntity
  8
0
  6
SLD-Durchgehend
 62
     8
420
  8421504
370
     0
100
AcDbSpline
210
0.0
220
0.0
230
1.0
 70
     8
 71
     3
 72
     8
 73
     4
 74
     0
 42
0.00000001
 43
0.00000001
 40
12.0
 40
12.0
 40
12.0
 40
12.0
 40
13.0
 40
13.0
 40
13.0
 40
13.0
 10
70.80973470052088
 20
8.574773763020849
 30
0.0
 10
70.2827797851563
 20
9.138542968750023
 30
0.0
 10
69.47474641927087
 20
9.457241861979188
 30
0.0
 10
68.3797228190105
 20
9.457241861979188
 30
0.0
  0
SPLINE
  5
BB
330
68
100
AcDbEntity
  8
0
  6
SLD-Durchgehend
 62
     8
420
  8421504
370
     0
100
AcDbSpline
210
0.0
220
0.0
230
1.0
 70
     8
 71
     3
 72
     8
 73
     4
 74
     0
 42
0.00000001
 43
0.00000001
 40
9.0
 40
9.0
 40
9.0
 40
9.0
 40
10.0
 40
10.0
 40
10.0
 40
10.0
 10
55.77042529296883
 20
4.750924479166668
 30
0.0
 10
55.80186523437503
 20
1.950082519531271
 30
0.0
 10
57.58184960937507
 20
0.0408450520833215
 30
0.0
 10
59.83988232421878
 20
0.042726074218763
 30
0.0
  0
SPLINE
  5
BC
330
68
100
AcDbEntity
  8
0
  6
SLD-Durchgehend
 62
     8
420
  8421504
370
     0
100
AcDbSpline
210
0.0
220
0.0
230
1.0
 70
     8
 71
     3
 72
     8
 73
     4
 74
     0
 42
0.00000001
 43
0.00000001
 40
3.0
 40
3.0
 40
3.0
 40
3.0
 40
4.0
 40
4.0
 40
4.0
 40
4.0
 10
20.60686621093755
 20
4.749849609375023
 30
0.0
 10
20.60686621093755
 20
3.233477050781253
 30
0.0
 10
21.0562961425782
 20
2.054344889322906
 30
0.0
 10
21.79486604817715
 20
1.254910481770843
 30
0.0
  0
SPLINE
  5
BD
330
68
100
AcDbEntity
  8
0
  6
SLD-Durchgehend
 62
     8
420
  8421504
370
     0
100
AcDbSpline
210
0.0
220
0.0
230
1.0
 70
     8
 71
     3
 72
     8
 73
     4
 74
     0
 42
0.00000001
 43
0.00000001
 40
0.0
 40
0.0
 40
0.0
 40
0.0
 40
1.0
 40
1.0
 40
1.0
 40
1.0
 10
27.42946785481776
 20
8.233636962890644
 30
0.0
 10
26.7880393066407
 20
9.013992431640666
 30
0.0
 10
25.73574178059906
 20
9.457241861979188
 30
0.0
 10
24.67686067708341
 20
9.457241861979188
 30
0.0
  0
SPLINE
  5
BE
330
68
100
AcDbEntity
  8
0
  6
SLD-Durchgehend
 62
     8
420
  8421504
370
     0
100
AcDbSpline
210
0.0
220
0.0
230
1.0
 70
     8
 71
     3
 72
     8
 73
     4
 74
     0
 42
0.00000001
 43
0.00000001
 40
2.0
 40
2.0
 40
2.0
 40
2.0
 40
3.0
 40
3.0
 40
3.0
 40
3.0
 10
74.14021874999999
 20
4.749849609375023
 30
0.0
 10
74.1480115559896
 20
6.950779866536499
 30
0.0
 10
75.33574267578136
 20
8.200584716796937
 30
0.0
 10
76.88489876302096
 20
8.204212402343785
 30
0.0
  0
SPLINE
  5
BF
330
68
100
AcDbEntity
  8
0
  6
SLD-Durchgehend
 62
     8
420
  8421504
370
     0
100
AcDbSpline
210
0.0
220
0.0
230
1.0
 70
     8
 71
     3
 72
     8
 73
     4
 74
     0
 42
0.00000001
 43
0.00000001
 40
1.0
 40
1.0
 40
1.0
 40
1.0
 40
2.0
 40
2.0
 40
2.0
 40
2.0
 10
34.22721313476568
 20
8.204212402343785
 30
0.0
 10
35.91368383789073
 20
8.200584716796937
 30
0.0
 10
36.53992985026044
 20
7.025617675781248
 30
0.0
 10
36.80004833984385
 20
5.812895833333359
 30
0.0
  0
SPLINE
  5
C0
330
68
100
AcDbEntity
  8
0
  6
SLD-Durchgehend
 62
     8
420
  8421504
370
     0
100
AcDbSpline
210
0.0
220
0.0
230
1.0
 70
     8
 71
     3
 72
     8
 73
     4
 74
     0
 42
0.00000001
 43
0.00000001
 40
5.0
 40
5.0
 40
5.0
 40
5.0
 40
6.0
 40
6.0
 40
6.0
 40
6.0
 10
0.0012092285156529
 20
4.685894856770845
 30
0.0
 10
0.0138389485677681
 20
1.636489257812512
 30
0.0
 10
1.823785319010451
 20
0.0
 30
0.0
 10
4.062336018880286
 20
0.0
 30
0.0
  0
SPLINE
  5
C1
330
68
100
AcDbEntity
  8
0
  6
SLD-Durchgehend
 62
     8
420
  8421504
370
     0
100
AcDbSpline
210
0.0
220
0.0
230
1.0
 70
     8
 71
     3
 72
     8
 73
     4
 74
     0
 42
0.00000001
 43
0.00000001
 40
6.0
 40
6.0
 40
6.0
 40
6.0
 40
7.0
 40
7.0
 40
7.0
 40
7.0
 10
18.07675708007817
 20
1.254910481770843
 30
0.0
 10
18.81505826822921
 20
2.054344889322906
 30
0.0
 10
19.26462255859379
 20
3.233477050781253
 30
0.0
 10
19.26462255859379
 20
4.749849609375023
 30
0.0
  0
SPLINE
  5
C2
330
68
100
AcDbEntity
  8
0
  6
SLD-Durchgehend
 62
     8
420
  8421504
370
     0
100
AcDbSpline
210
0.0
220
0.0
230
1.0
 70
     8
 71
     3
 72
    11
 73
     7
 74
     0
 42
0.00000001
 43
0.00000001
 40
1.0
 40
1.0
 40
1.0
 40
1.0
 40
2.0
 40
2.0
 40
2.0
 40
3.0
 40
3.0
 40
3.0
 40
3.0
 10
5.561376302083421
 20
8.20851188151045
 30
0.0
 10
6.718876708984411
 20
7.771442952474006
 30
0.0
 10
7.516833170573001
 20
6.539373453776087
 30
0.0
 10
7.516833170573001
 20
4.717872233072989
 30
0.0
 10
7.516833170573001
 20
2.882800781250028
 30
0.0
 10
6.720220296223989
 20
1.659598958333341
 30
0.0
 10
5.564063476562575
 20
1.2250828450521
 30
0.0
  0
SPLINE
  5
C3
330
68
100
AcDbEntity
  8
0
  6
SLD-Durchgehend
 62
     8
420
  8421504
370
     0
100
AcDbSpline
210
0.0
220
0.0
230
1.0
 70
     8
 71
     3
 72
     8
 73
     4
 74
     0
 42
0.00000001
 43
0.00000001
 40
0.0
 40
0.0
 40
0.0
 40
0.0
 40
1.0
 40
1.0
 40
1.0
 40
1.0
 10
76.88489876302096
 20
1.295218098958356
 30
0.0
 10
75.33466780598962
 20
1.299517578124992
 30
0.0
 10
74.1480115559896
 20
2.531049641927074
 30
0.0
 10
74.14075618489579
 20
4.749849609375023
 30
0.0
  0
SPLINE
  5
C4
330
68
100
AcDbEntity
  8
0
  6
SLD-Durchgehend
 62
     8
420
  8421504
370
     0
100
AcDbSpline
210
0.0
220
0.0
230
1.0
 70
     8
 71
     3
 72
     8
 73
     4
 74
     0
 42
0.00000001
 43
0.00000001
 40
3.0
 40
3.0
 40
3.0
 40
3.0
 40
4.0
 40
4.0
 40
4.0
 40
4.0
 10
51.46584049479175
 20
8.280662516276044
 30
0.0
 10
52.31525634765632
 20
8.27394458007813
 30
0.0
 10
52.87956298828134
 20
7.916416015625011
 30
0.0
 10
53.23856949869798
 20
7.313951497395832
 30
0.0
  0
SPLINE
  5
C5
330
68
100
AcDbEntity
  8
0
  6
SLD-Durchgehend
 62
     8
420
  8421504
370
     0
100
AcDbSpline
210
0.0
220
0.0
230
1.0
 70
     8
 71
     3
 72
     8
 73
     4
 74
     0
 42
0.00000001
 43
0.00000001
 40
0.0
 40
0.0
 40
0.0
 40
0.0
 40
1.0
 40
1.0
 40
1.0
 40
1.0
 10
43.64884993489593
 20
9.456301350911467
 30
0.0
 10
42.70457682291673
 20
9.458854166666697
 30
0.0
 10
41.72429557291679
 20
9.11812044270835
 30
0.0
 10
41.12290592447921
 20
8.216842122395818
 30
0.0
  0
SPLINE
  5
C6
330
68
100
AcDbEntity
  8
0
  6
SLD-Durchgehend
 62
     8
420
  8421504
370
     0
100
AcDbSpline
210
0.0
220
0.0
230
1.0
 70
     8
 71
     3
 72
     8
 73
     4
 74
     0
 42
0.00000001
 43
0.00000001
 40
21.0
 40
21.0
 40
21.0
 40
21.0
 40
22.0
 40
22.0
 40
22.0
 40
22.0
 10
84.03842594401046
 20
0.4976647135416512
 30
0.0
 10
84.34771972656252
 20
0.2751666666666597
 30
0.0
 10
84.74488411458336
 20
0.2203483072916457
 30
0.0
 10
85.14742285156251
 20
0.219810872395837
 30
0.0
  0
SPLINE
  5
C7
330
68
100
AcDbEntity
  8
0
  6
SLD-Durchgehend
 62
     8
420
  8421504
370
     0
100
AcDbSpline
210
0.0
220
0.0
230
1.0
 70
     8
 71
     3
 72
     8
 73
     4
 74
     0
 42
0.00000001
 43
0.00000001
 40
13.0
 40
13.0
 40
13.0
 40
13.0
 40
14.0
 40
14.0
 40
14.0
 40
14.0
 10
51.06276432291678
 20
4.42792610677084
 30
0.0
 10
51.7117169596355
 20
4.297598144531261
 30
0.0
 10
52.35314550781256
 20
4.193335774739571
 30
0.0
 10
52.81372721354172
 20
3.971375162760415
 30
0.0
  0
SPLINE
  5
C8
330
68
100
AcDbEntity
  8
0
  6
SLD-Durchgehend
 62
     8
420
  8421504
370
     0
100
AcDbSpline
210
0.0
220
0.0
230
1.0
 70
     8
 71
     3
 72
     8
 73
     4
 74
     0
 42
0.00000001
 43
0.00000001
 40
11.0
 40
11.0
 40
11.0
 40
11.0
 40
12.0
 40
12.0
 40
12.0
 40
12.0
 10
46.84363167317706
 20
6.298065185546875
 30
0.0
 10
46.84363167317706
 20
7.218691162109381
 30
0.0
 10
46.60608544921885
 20
8.012213785807297
 30
0.0
 10
46.07899617513023
 20
8.574773763020849
 30
0.0
  0
SPLINE
  5
C9
330
68
100
AcDbEntity
  8
0
  6
SLD-Durchgehend
 62
     8
420
  8421504
370
     0
100
AcDbSpline
210
0.0
220
0.0
230
1.0
 70
     8
 71
     3
 72
     8
 73
     4
 74
     0
 42
0.00000001
 43
0.00000001
 40
0.0
 40
0.0
 40
0.0
 40
0.0
 40
1.0
 40
1.0
 40
1.0
 40
1.0
 10
31.64739127604171
 20
5.812895833333359
 30
0.0
 10
31.86881445312506
 20
7.166425618489569
 30
0.0
 10
32.79051529947924
 20
8.202197021484391
 30
0.0
 10
34.22721313476568
 20
8.204212402343785
 30
0.0
  0
SPLINE
  5
CA
330
68
100
AcDbEntity
  8
0
  6
SLD-Durchgehend
 62
     8
420
  8421504
370
     0
100
AcDbSpline
210
0.0
220
0.0
230
1.0
 70
     8
 71
     3
 72
     8
 73
     4
 74
     0
 42
0.00000001
 43
0.00000001
 40
14.0
 40
14.0
 40
14.0
 40
14.0
 40
15.0
 40
15.0
 40
15.0
 40
15.0
 10
52.81372721354172
 20
3.971375162760415
 30
0.0
 10
53.27430891927087
 20
3.743771484374991
 30
0.0
 10
53.55055045572921
 20
3.43823974609378
 30
0.0
 10
53.55592480468751
 20
2.828788574218755
 30
0.0
  0
SPLINE
  5
CB
330
68
100
AcDbEntity
  8
0
  6
SLD-Durchgehend
 62
     8
420
  8421504
370
     0
100
AcDbSpline
210
0.0
220
0.0
230
1.0
 70
     8
 71
     3
 72
     8
 73
     4
 74
     0
 42
0.00000001
 43
0.00000001
 40
10.0
 40
10.0
 40
10.0
 40
10.0
 40
11.0
 40
11.0
 40
11.0
 40
11.0
 10
74.00263541666673
 20
8.243982584635406
 30
0.0
 10
73.26554345703128
 20
7.445354329427111
 30
0.0
 10
72.81490429687499
 20
6.265550374348977
 30
0.0
 10
72.81490429687499
 20
4.749849609375023
 30
0.0
  0
SPLINE
  5
CC
330
68
100
AcDbEntity
  8
0
  6
SLD-Durchgehend
 62
     8
420
  8421504
370
     0
100
AcDbSpline
210
0.0
220
0.0
230
1.0
 70
     8
 71
     3
 72
     8
 73
     4
 74
     0
 42
0.00000001
 43
0.00000001
 40
7.0
 40
7.0
 40
7.0
 40
7.0
 40
8.0
 40
8.0
 40
8.0
 40
8.0
 10
19.26462255859379
 20
4.749849609375023
 30
0.0
 10
19.26462255859379
 20
6.265550374348977
 30
0.0
 10
18.81505826822921
 20
7.445354329427111
 30
0.0
 10
18.07675708007817
 20
8.243982584635406
 30
0.0
  0
SPLINE
  5
CD
330
68
100
AcDbEntity
  8
0
  6
SLD-Durchgehend
 62
     8
420
  8421504
370
     0
100
AcDbSpline
210
0.0
220
0.0
230
1.0
 70
     8
 71
     3
 72
     8
 73
     4
 74
     0
 42
0.00000001
 43
0.00000001
 40
6.0
 40
6.0
 40
6.0
 40
6.0
 40
7.0
 40
7.0
 40
7.0
 40
7.0
 10
4.062336018880286
 20
0.0
 30
0.0
 10
4.228269042968802
 20
0.0
 30
0.0
 10
4.394202067057318
 20
0.0061805013021055
 30
0.0
 10
4.560135091145945
 20
0.0177353515624923
 30
0.0
  0
SPLINE
  5
CE
330
68
100
AcDbEntity
  8
0
  6
SLD-Durchgehend
 62
     8
420
  8421504
370
     0
100
AcDbSpline
210
0.0
220
0.0
230
1.0
 70
     8
 71
     3
 72
     8
 73
     4
 74
     0
 42
0.00000001
 43
0.00000001
 40
12.0
 40
12.0
 40
12.0
 40
12.0
 40
13.0
 40
13.0
 40
13.0
 40
13.0
 10
36.7268228352865
 20
2.983301106770864
 30
0.0
 10
36.36123274739589
 20
1.957337890624994
 30
0.0
 10
35.61003312174482
 20
1.316715494791676
 30
0.0
 10
34.32247347005213
 20
1.295218098958356
 30
0.0
  0
SPLINE
  5
CF
330
68
100
AcDbEntity
  8
0
  6
SLD-Durchgehend
 62
     8
420
  8421504
370
     0
100
AcDbSpline
210
0.0
220
0.0
230
1.0
 70
     8
 71
     3
 72
     8
 73
     4
 74
     0
 42
0.00000001
 43
0.00000001
 40
5.0
 40
5.0
 40
5.0
 40
5.0
 40
6.0
 40
6.0
 40
6.0
 40
6.0
 10
8.968444824218825
 20
4.717872233072934
 30
0.0
 10
8.960920735677114
 20
6.980607503255215
 30
0.0
 10
7.740137369791733
 20
8.267092285156236
 30
0.0
 10
6.145836751302147
 20
8.270182535807303
 30
0.0
  0
SPLINE
  5
D0
330
68
100
AcDbEntity
  8
0
  6
SLD-Durchgehend
 62
     8
420
  8421504
370
     0
100
AcDbSpline
210
0.0
220
0.0
230
1.0
 70
     8
 71
     3
 72
     8
 73
     4
 74
     0
 42
0.00000001
 43
0.00000001
 40
6.0
 40
6.0
 40
6.0
 40
6.0
 40
7.0
 40
7.0
 40
7.0
 40
7.0
 10
24.69110270182295
 20
0.042726074218763
 30
0.0
 10
26.58582942708338
 20
0.042726074218763
 30
0.0
 10
28.2107638346355
 20
1.177519856770837
 30
0.0
 10
28.63184407552088
 20
3.418892089843722
 30
0.0
  0
SPLINE
  5
D1
330
68
100
AcDbEntity
  8
0
  6
SLD-Durchgehend
 62
     8
420
  8421504
370
     0
100
AcDbSpline
210
0.0
220
0.0
230
1.0
 70
     8
 71
     3
 72
     8
 73
     4
 74
     0
 42
0.00000001
 43
0.00000001
 40
7.0
 40
7.0
 40
7.0
 40
7.0
 40
8.0
 40
8.0
 40
8.0
 40
8.0
 10
63.49417089843756
 20
7.262626464843741
 30
0.0
 10
62.69339290364584
 20
9.104550211588542
 30
0.0
 10
61.20684798177089
 20
9.462616210937497
 30
0.0
 10
60.09408902994795
 20
9.456301350911467
 30
0.0
  0
SPLINE
  5
D2
330
68
100
AcDbEntity
  8
0
  6
SLD-Durchgehend
 62
     8
420
  8421504
370
     0
100
AcDbSpline
210
0.0
220
0.0
230
1.0
 70
     8
 71
     3
 72
     8
 73
     4
 74
     0
 42
0.00000001
 43
0.00000001
 40
3.0
 40
3.0
 40
3.0
 40
3.0
 40
4.0
 40
4.0
 40
4.0
 40
4.0
 10
59.9492503255209
 20
8.204212402343785
 30
0.0
 10
60.97360123697926
 20
8.200584716796937
 30
0.0
 10
61.75395670572925
 20
7.899083740234375
 30
0.0
 10
62.09979606119798
 20
7.175830729166694
 30
0.0
  0
SPLINE
  5
D3
330
68
100
AcDbEntity
  8
0
  6
SLD-Durchgehend
 62
     8
420
  8421504
370
     0
100
AcDbSpline
210
0.0
220
0.0
230
1.0
 70
     8
 71
     3
 72
     8
 73
     4
 74
     0
 42
0.00000001
 43
0.00000001
 40
20.0
 40
20.0
 40
20.0
 40
20.0
 40
21.0
 40
21.0
 40
21.0
 40
21.0
 10
48.06360888671879
 20
2.606559244791668
 30
0.0
 10
48.56987255859379
 20
0.9749069010416556
 30
0.0
 10
50.06421028645847
 20
0.0706726888020925
 30
0.0
 10
51.48948763020844
 20
0.0228409830728971
 30
0.0
  0
SPLINE
  5
D4
330
68
100
AcDbEntity
  8
0
  6
SLD-Durchgehend
 62
     8
420
  8421504
370
     0
100
AcDbSpline
210
0.0
220
0.0
230
1.0
 70
     8
 71
     3
 72
     8
 73
     4
 74
     0
 42
0.00000001
 43
0.00000001
 40
0.0
 40
0.0
 40
0.0
 40
0.0
 40
1.0
 40
1.0
 40
1.0
 40
1.0
 10
38.29720760091148
 20
4.790694661458344
 30
0.0
 10
38.21511442057302
 20
7.406121582031244
 30
0.0
 10
36.88697843424493
 20
9.462078776041661
 30
0.0
 10
34.22721313476568
 20
9.457241861979188
 30
0.0
  0
SPLINE
  5
D5
330
68
100
AcDbEntity
  8
0
  6
SLD-Durchgehend
 62
     8
420
  8421504
370
     0
100
AcDbSpline
210
0.0
220
0.0
230
1.0
 70
     8
 71
     3
 72
     8
 73
     4
 74
     0
 42
0.00000001
 43
0.00000001
 40
12.0
 40
12.0
 40
12.0
 40
12.0
 40
13.0
 40
13.0
 40
13.0
 40
13.0
 10
48.38257649739586
 20
6.909397379557314
 30
0.0
 10
48.37773958333347
 20
5.088433593750024
 30
0.0
 10
49.77641389973964
 20
4.674340006510402
 30
0.0
 10
51.06276432291678
 20
4.42792610677084
 30
0.0
  0
SPLINE
  5
D6
330
68
100
AcDbEntity
  8
0
  6
SLD-Durchgehend
 62
     8
420
  8421504
370
     0
100
AcDbSpline
210
0.0
220
0.0
230
1.0
 70
     8
 71
     3
 72
     8
 73
     4
 74
     0
 42
0.00000001
 43
0.00000001
 40
15.0
 40
15.0
 40
15.0
 40
15.0
 40
16.0
 40
16.0
 40
16.0
 40
16.0
 10
53.55592480468751
 20
2.828788574218755
 30
0.0
 10
53.55538736979171
 20
1.501055664062501
 30
0.0
 10
52.48186116536468
 20
1.197404947916675
 30
0.0
 10
51.5840761718751
 20
1.160321940104153
 30
0.0
  0
SPLINE
  5
D7
330
68
100
AcDbEntity
  8
0
  6
SLD-Durchgehend
 62
     8
420
  8421504
370
     0
100
AcDbSpline
210
0.0
220
0.0
230
1.0
 70
     8
 71
     3
 72
     8
 73
     4
 74
     0
 42
0.00000001
 43
0.00000001
 40
6.0
 40
6.0
 40
6.0
 40
6.0
 40
7.0
 40
7.0
 40
7.0
 40
7.0
 10
34.29613916015634
 20
0.0443383789062446
 30
0.0
 10
34.31414322916676
 20
0.0443383789062446
 30
0.0
 10
34.33873087565109
 20
0.042726074218763
 30
0.0
 10
34.36748364257819
 20
0.042726074218763
 30
0.0
  0
SPLINE
  5
D8
330
68
100
AcDbEntity
  8
0
  6
SLD-Durchgehend
 62
     8
420
  8421504
370
     0
100
AcDbSpline
210
0.0
220
0.0
230
1.0
 70
     8
 71
     3
 72
     8
 73
     4
 74
     0
 42
0.00000001
 43
0.00000001
 40
2.0
 40
2.0
 40
2.0
 40
2.0
 40
3.0
 40
3.0
 40
3.0
 40
3.0
 10
57.09573974609383
 20
4.749849609375023
 30
0.0
 10
57.10192024739591
 20
7.104620605468737
 30
0.0
 10
58.51725504557304
 20
8.198569335937517
 30
0.0
 10
59.9492503255209
 20
8.204212402343785
 30
0.0
  0
SPLINE
  5
D9
330
68
100
AcDbEntity
  8
0
  6
SLD-Durchgehend
 62
     8
420
  8421504
370
     0
100
AcDbSpline
210
0.0
220
0.0
230
1.0
 70
     8
 71
     3
 72
     8
 73
     4
 74
     0
 42
0.00000001
 43
0.00000001
 40
1.0
 40
1.0
 40
1.0
 40
1.0
 40
2.0
 40
2.0
 40
2.0
 40
2.0
 10
50.4468639322917
 20
5.883568522135397
 30
0.0
 10
49.98090787760423
 20
6.094914794921885
 30
0.0
 10
49.71192171223959
 20
6.358795328776062
 30
0.0
 10
49.70762223307301
 20
6.873254882812541
 30
0.0
  0
SPLINE
  5
DA
330
68
100
AcDbEntity
  8
0
  6
SLD-Durchgehend
 62
     8
420
  8421504
370
     0
100
AcDbSpline
210
0.0
220
0.0
230
1.0
 70
     8
 71
     3
 72
     8
 73
     4
 74
     0
 42
0.00000001
 43
0.00000001
 40
7.0
 40
7.0
 40
7.0
 40
7.0
 40
8.0
 40
8.0
 40
8.0
 40
8.0
 10
43.50280200195311
 20
8.204212402343785
 30
0.0
 10
44.85162923177089
 20
8.182311930338553
 30
0.0
 10
45.49587931315102
 20
7.703860514322924
 30
0.0
 10
45.51845157877609
 20
5.969826822916663
 30
0.0
  0
SPLINE
  5
DB
330
68
100
AcDbEntity
  8
0
  6
SLD-Durchgehend
 62
     8
420
  8421504
370
     0
100
AcDbSpline
210
0.0
220
0.0
230
1.0
 70
     8
 71
     3
 72
     8
 73
     4
 74
     0
 42
0.00000001
 43
0.00000001
 40
1.0
 40
1.0
 40
1.0
 40
1.0
 40
2.0
 40
2.0
 40
2.0
 40
2.0
 10
12.45048551432298
 20
4.749849609375023
 30
0.0
 10
12.45800960286464
 20
6.950779866536499
 30
0.0
 10
13.64560636393236
 20
8.20058471679691
 30
0.0
 10
15.19462809244798
 20
8.20421240234373
 30
0.0
  0
SPLINE
  5
DC
330
68
100
AcDbEntity
  8
0
  6
SLD-Durchgehend
 62
     8
420
  8421504
370
     0
100
AcDbSpline
210
0.0
220
0.0
230
1.0
 70
     8
 71
     3
 72
     8
 73
     4
 74
     0
 42
0.00000001
 43
0.00000001
 40
8.0
 40
8.0
 40
8.0
 40
8.0
 40
9.0
 40
9.0
 40
9.0
 40
9.0
 10
34.37715747070319
 20
0.042726074218763
 30
0.0
 10
36.11051936848963
 20
0.042726074218763
 30
0.0
 10
37.59921402994804
 20
1.048804199218739
 30
0.0
 10
38.17292578125009
 20
2.911016113281234
 30
0.0
  0
SPLINE
  5
DD
330
68
100
AcDbEntity
  8
0
  6
SLD-Durchgehend
 62
     8
420
  8421504
370
     0
100
AcDbSpline
210
0.0
220
0.0
230
1.0
 70
     8
 71
     3
 72
     8
 73
     4
 74
     0
 42
0.00000001
 43
0.00000001
 40
8.0
 40
8.0
 40
8.0
 40
8.0
 40
9.0
 40
9.0
 40
9.0
 40
9.0
 10
51.52549576822918
 20
9.432251139322917
 30
0.0
 10
51.49298095703136
 20
9.432251139322917
 30
0.0
 10
51.46584049479175
 20
9.430101399739598
 30
0.0
 10
51.44219335937505
 20
9.430101399739598
 30
0.0
  0
SPLINE
  5
DE
330
68
100
AcDbEntity
  8
0
  6
SLD-Durchgehend
 62
     8
420
  8421504
370
     0
100
AcDbSpline
210
0.0
220
0.0
230
1.0
 70
     8
 71
     3
 72
     8
 73
     4
 74
     0
 42
0.00000001
 43
0.00000001
 40
20.0
 40
20.0
 40
20.0
 40
20.0
 40
21.0
 40
21.0
 40
21.0
 40
21.0
 10
83.53699918619795
 20
1.707699381510441
 30
0.0
 10
83.5348494466146
 20
1.111684082031245
 30
0.0
 10
83.72751985677095
 20
0.7201627604166427
 30
0.0
 10
84.03842594401046
 20
0.4976647135416512
 30
0.0
  0
SPLINE
  5
DF
330
68
100
AcDbEntity
  8
0
  6
SLD-Durchgehend
 62
     8
420
  8421504
370
     0
100
AcDbSpline
210
0.0
220
0.0
230
1.0
 70
     8
 71
     3
 72
     8
 73
     4
 74
     0
 42
0.00000001
 43
0.00000001
 40
2.0
 40
2.0
 40
2.0
 40
2.0
 40
3.0
 40
3.0
 40
3.0
 40
3.0
 10
11.12543977864588
 20
4.749849609375023
 30
0.0
 10
11.12517106119798
 20
3.233477050781253
 30
0.0
 10
11.57473535156256
 20
2.054344889322906
 30
0.0
 10
12.31276782226565
 20
1.254910481770843
 30
0.0
  0
SPLINE
  5
E0
330
68
100
AcDbEntity
  8
0
  6
SLD-Durchgehend
 62
     8
420
  8421504
370
     0
100
AcDbSpline
210
0.0
220
0.0
230
1.0
 70
     8
 71
     3
 72
     8
 73
     4
 74
     0
 42
0.00000001
 43
0.00000001
 40
8.0
 40
8.0
 40
8.0
 40
8.0
 40
9.0
 40
9.0
 40
9.0
 40
9.0
 10
60.09408902994795
 20
9.456301350911467
 30
0.0
 10
57.51681998697921
 20
9.462616210937497
 30
0.0
 10
55.79864062500006
 20
7.546929524739593
 30
0.0
 10
55.77042529296883
 20
4.750924479166668
 30
0.0
  0
SPLINE
  5
E1
330
68
100
AcDbEntity
  8
0
  6
SLD-Durchgehend
 62
     8
420
  8421504
370
     0
100
AcDbSpline
210
0.0
220
0.0
230
1.0
 70
     8
 71
     3
 72
     8
 73
     4
 74
     0
 42
0.00000001
 43
0.00000001
 40
14.0
 40
14.0
 40
14.0
 40
14.0
 40
15.0
 40
15.0
 40
15.0
 40
15.0
 10
34.29654223632816
 20
1.295755533854165
 30
0.0
 10
32.43594262695321
 20
1.31456575520833
 30
0.0
 10
31.64188256835942
 20
2.634774576822957
 30
0.0
 10
31.62965592447925
 20
4.54938639322916
 30
0.0
  0
SPLINE
  5
E2
330
68
100
AcDbEntity
  8
0
  6
SLD-Durchgehend
 62
     8
420
  8421504
370
     0
100
AcDbSpline
210
0.0
220
0.0
230
1.0
 70
     8
 71
     3
 72
     8
 73
     4
 74
     0
 42
0.00000001
 43
0.00000001
 40
2.0
 40
2.0
 40
2.0
 40
2.0
 40
3.0
 40
3.0
 40
3.0
 40
3.0
 10
31.34589029947926
 20
8.243982584635406
 30
0.0
 10
30.60785782877612
 20
7.445354329427111
 30
0.0
 10
30.15748738606777
 20
6.265550374348977
 30
0.0
 10
30.15829353841154
 20
4.748774739583323
 30
0.0
  0
SPLINE
  5
E3
330
68
100
AcDbEntity
  8
0
  6
SLD-Durchgehend
 62
     8
420
  8421504
370
     0
100
AcDbSpline
210
0.0
220
0.0
230
1.0
 70
     8
 71
     3
 72
     8
 73
     4
 74
     0
 42
0.00000001
 43
0.00000001
 40
3.0
 40
3.0
 40
3.0
 40
3.0
 40
4.0
 40
4.0
 40
4.0
 40
4.0
 10
5.564063476562575
 20
1.2250828450521
 30
0.0
 10
5.75082210286465
 20
1.185312662760396
 30
0.0
 10
5.94537353515634
 20
1.165427571614586
 30
0.0
 10
6.145836751302147
 20
1.164621419270817
 30
0.0
  0
SPLINE
  5
E4
330
68
100
AcDbEntity
  8
0
  6
SLD-Durchgehend
 62
     8
420
  8421504
370
     0
100
AcDbSpline
210
0.0
220
0.0
230
1.0
 70
     8
 71
     3
 72
     8
 73
     4
 74
     0
 42
0.00000001
 43
0.00000001
 40
2.0
 40
2.0
 40
2.0
 40
2.0
 40
3.0
 40
3.0
 40
3.0
 40
3.0
 10
49.70762223307301
 20
6.873254882812541
 30
0.0
 10
49.72562630208343
 20
7.668792887369796
 30
0.0
 10
50.01718473307293
 20
8.211064697265623
 30
0.0
 10
51.46584049479175
 20
8.280662516276044
 30
0.0
  0
SPLINE
  5
E5
330
68
100
AcDbEntity
  8
0
  6
SLD-Durchgehend
 62
     8
420
  8421504
370
     0
100
AcDbSpline
210
0.0
220
0.0
230
1.0
 70
     8
 71
     3
 72
     8
 73
     4
 74
     0
 42
0.00000001
 43
0.00000001
 40
3.0
 40
3.0
 40
3.0
 40
3.0
 40
4.0
 40
4.0
 40
4.0
 40
4.0
 10
17.938636311849
 20
4.749849609375023
 30
0.0
 10
17.93151529947923
 20
2.531049641927074
 30
0.0
 10
16.74526212565108
 20
1.299517578124992
 30
0.0
 10
15.19462809244798
 20
1.29468066406252
 30
0.0
  0
SPLINE
  5
E6
330
68
100
AcDbEntity
  8
0
  6
SLD-Durchgehend
 62
     8
420
  8421504
370
     0
100
AcDbSpline
210
0.0
220
0.0
230
1.0
 70
     8
 71
     3
 72
     8
 73
     4
 74
     0
 42
0.00000001
 43
0.00000001
 40
0.0
 40
0.0
 40
0.0
 40
0.0
 40
1.0
 40
1.0
 40
1.0
 40
1.0
 10
62.21238867187506
 20
2.649822753906239
 30
0.0
 10
61.84021500651049
 20
1.882097005208305
 30
0.0
 10
61.16358447265635
 20
1.300055013020857
 30
0.0
 10
59.83988232421878
 20
1.29468066406252
 30
0.0
  0
SPLINE
  5
E7
330
68
100
AcDbEntity
  8
0
  6
SLD-Durchgehend
 62
     8
420
  8421504
370
     0
100
AcDbSpline
210
0.0
220
0.0
230
1.0
 70
     8
 71
     3
 72
     8
 73
     4
 74
     0
 42
0.00000001
 43
0.00000001
 40
0.0
 40
0.0
 40
0.0
 40
0.0
 40
1.0
 40
1.0
 40
1.0
 40
1.0
 10
15.19462809244798
 20
1.29468066406252
 30
0.0
 10
13.64466585286461
 20
1.299517578124992
 30
0.0
 10
12.4585470377605
 20
2.531049641927074
 30
0.0
 10
12.45048551432298
 20
4.749849609375023
 30
0.0
  0
SPLINE
  5
E8
330
68
100
AcDbEntity
  8
0
  6
SLD-Durchgehend
 62
     8
420
  8421504
370
     0
100
AcDbSpline
210
0.0
220
0.0
230
1.0
 70
     8
 71
     3
 72
     8
 73
     4
 74
     0
 42
0.00000001
 43
0.00000001
 40
7.0
 40
7.0
 40
7.0
 40
7.0
 40
8.0
 40
8.0
 40
8.0
 40
8.0
 10
28.63184407552088
 20
3.418892089843722
 30
0.0
 10
28.71447469075527
 20
3.858513834635424
 30
0.0
 10
28.74376489257818
 20
4.351610351562535
 30
0.0
 10
28.74376489257818
 20
4.603129882812473
 30
0.0
  0
SPLINE
  5
E9
330
68
100
AcDbEntity
  8
0
  6
SLD-Durchgehend
 62
     8
420
  8421504
370
     0
100
AcDbSpline
210
0.0
220
0.0
230
1.0
 70
     8
 71
     3
 72
     8
 73
     4
 74
     0
 42
0.00000001
 43
0.00000001
 40
7.0
 40
7.0
 40
7.0
 40
7.0
 40
8.0
 40
8.0
 40
8.0
 40
8.0
 10
54.51739583333337
 20
7.419691813151025
 30
0.0
 10
53.93938460286463
 20
8.730764241536487
 30
0.0
 10
52.81104003906256
 20
9.434266520182282
 30
0.0
 10
51.52549576822918
 20
9.432251139322917
 30
0.0
  0
SPLINE
  5
EA
330
68
100
AcDbEntity
  8
0
  6
SLD-Durchgehend
 62
     8
420
  8421504
370
     0
100
AcDbSpline
210
0.0
220
0.0
230
1.0
 70
     8
 71
     3
 72
     8
 73
     4
 74
     0
 42
0.00000001
 43
0.00000001
 40
1.0
 40
1.0
 40
1.0
 40
1.0
 40
2.0
 40
2.0
 40
2.0
 40
2.0
 10
12.31276782226565
 20
8.243982584635406
 30
0.0
 10
11.57473535156256
 20
7.445354329427111
 30
0.0
 10
11.12517106119798
 20
6.265550374348977
 30
0.0
 10
11.12543977864588
 20
4.749849609375023
 30
0.0
  0
SPLINE
  5
EB
330
68
100
AcDbEntity
  8
0
  6
SLD-Durchgehend
 62
     8
420
  8421504
370
     0
100
AcDbSpline
210
0.0
220
0.0
230
1.0
 70
     8
 71
     3
 72
     8
 73
     4
 74
     0
 42
0.00000001
 43
0.00000001
 40
0.0
 40
0.0
 40
0.0
 40
0.0
 40
1.0
 40
1.0
 40
1.0
 40
1.0
 10
52.20427604166667
 20
5.417075032552093
 30
0.0
 10
51.55478597005214
 20
5.566750651041675
 30
0.0
 10
50.91093896484378
 20
5.677193522135415
 30
0.0
 10
50.4468639322917
 20
5.883568522135397
 30
0.0
  0
SPLINE
  5
EC
330
68
100
AcDbEntity
  8
0
  6
SLD-Durchgehend
 62
     8
420
  8421504
370
     0
100
AcDbSpline
210
0.0
220
0.0
230
1.0
 70
     8
 71
     3
 72
     8
 73
     4
 74
     0
 42
0.00000001
 43
0.00000001
 40
7.0
 40
7.0
 40
7.0
 40
7.0
 40
8.0
 40
8.0
 40
8.0
 40
8.0
 10
68.23407796223968
 20
8.204212402343785
 30
0.0
 10
69.58196468098964
 20
8.181774495442745
 30
0.0
 10
70.22634912109382
 20
7.703860514322924
 30
0.0
 10
70.24838395182297
 20
5.970901692708363
 30
0.0
  0
SPLINE
  5
ED
330
68
100
AcDbEntity
  8
0
  6
SLD-Durchgehend
 62
     8
420
  8421504
370
     0
100
AcDbSpline
210
0.0
220
0.0
230
1.0
 70
     8
 71
     3
 72
     8
 73
     4
 74
     0
 42
0.00000001
 43
0.00000001
 40
4.0
 40
4.0
 40
4.0
 40
4.0
 40
5.0
 40
5.0
 40
5.0
 40
5.0
 10
6.145836751302147
 20
1.164621419270817
 30
0.0
 10
7.741077880859482
 20
1.168652180989577
 30
0.0
 10
8.9601145833334
 20
2.436998535156248
 30
0.0
 10
8.968444824218825
 20
4.717872233072934
 30
0.0
  0
SPLINE
  5
EE
330
68
100
AcDbEntity
  8
0
  6
SLD-Durchgehend
 62
     8
420
  8421504
370
     0
100
AcDbSpline
210
0.0
220
0.0
230
1.0
 70
     8
 71
     3
 72
     8
 73
     4
 74
     0
 42
0.00000001
 43
0.00000001
 40
4.0
 40
4.0
 40
4.0
 40
4.0
 40
5.0
 40
5.0
 40
5.0
 40
5.0
 10
31.34589029947926
 20
1.254910481770843
 30
0.0
 10
32.08338533528654
 20
0.4562822265624933
 30
0.0
 10
33.10639265950532
 20
0.0421886393229265
 30
0.0
 10
34.22721313476568
 20
0.042726074218763
 30
0.0
  0
SPLINE
  5
EF
330
68
100
AcDbEntity
  8
0
  6
SLD-Durchgehend
 62
     8
420
  8421504
370
     0
100
AcDbSpline
210
0.0
220
0.0
230
1.0
 70
     8
 71
     3
 72
     8
 73
     4
 74
     0
 42
0.00000001
 43
0.00000001
 40
1.0
 40
1.0
 40
1.0
 40
1.0
 40
2.0
 40
2.0
 40
2.0
 40
2.0
 10
24.67686067708341
 20
9.457241861979188
 30
0.0
 10
23.55523404947924
 20
9.457241861979188
 30
0.0
 10
22.53249544270841
 20
9.044357503255245
 30
0.0
 10
21.79486604817715
 20
8.243982584635406
 30
0.0
  0
SPLINE
  5
F0
330
68
100
AcDbEntity
  8
0
  6
SLD-Durchgehend
 62
     8
420
  8421504
370
     0
100
AcDbSpline
210
0.0
220
0.0
230
1.0
 70
     8
 71
     3
 72
     8
 73
     4
 74
     0
 42
0.00000001
 43
0.00000001
 40
1.0
 40
1.0
 40
1.0
 40
1.0
 40
2.0
 40
2.0
 40
2.0
 40
2.0
 10
59.83988232421878
 20
1.29468066406252
 30
0.0
 10
58.52182324218758
 20
1.298980143229184
 30
0.0
 10
57.10030794270837
 20
2.39454117838539
 30
0.0
 10
57.09573974609383
 20
4.749849609375023
 30
0.0
  0
SPLINE
  5
F1
330
68
100
AcDbEntity
  8
0
  6
SLD-Durchgehend
 62
     8
420
  8421504
370
     0
100
AcDbSpline
210
0.0
220
0.0
230
1.0
 70
    24
 71
     2
 72
     6
 73
     3
 74
     0
 42
0.00000001
 43
0.00000001
 40
24.0
 40
24.0
 40
24.0
 40
25.0
 40
25.0
 40
25.0
 10
86.31634375000007
 20
1.34761800130212
 30
0.0
 10
85.8866645507813
 20
1.34761800130212
 30
0.0
 10
85.38470035807299
 20
1.34761800130212
 30
0.0
  0
SPLINE
  5
F2
330
68
100
AcDbEntity
  8
0
  6
SLD-Durchgehend
 62
     8
420
  8421504
370
     0
100
AcDbSpline
210
0.0
220
0.0
230
1.0
 70
     8
 71
     3
 72
     8
 73
     4
 74
     0
 42
0.00000001
 43
0.00000001
 40
7.0
 40
7.0
 40
7.0
 40
7.0
 40
8.0
 40
8.0
 40
8.0
 40
8.0
 10
4.560135091145945
 20
0.0177353515624923
 30
0.0
 10
2.803529134114635
 20
0.4627314453124753
 30
0.0
 10
1.495815673828171
 20
2.040640299479202
 30
0.0
 10
1.454567545572993
 20
4.569808919270835
 30
0.0
  0
SPLINE
  5
F3
330
68
100
AcDbEntity
  8
0
  6
SLD-Durchgehend
 62
     8
420
  8421504
370
     0
100
AcDbSpline
210
0.0
220
0.0
230
1.0
 70
     8
 71
     3
 72
     8
 73
     4
 74
     0
 42
0.00000001
 43
0.00000001
 40
12.0
 40
12.0
 40
12.0
 40
12.0
 40
13.0
 40
13.0
 40
13.0
 40
13.0
 10
46.07899617513023
 20
8.574773763020849
 30
0.0
 10
45.55244433593752
 20
9.139080403645833
 30
0.0
 10
44.74427661132818
 20
9.457779296874996
 30
0.0
 10
43.64884993489593
 20
9.456301350911467
 30
0.0
  0
SPLINE
  5
F4
330
68
100
AcDbEntity
  8
0
  6
SLD-Durchgehend
 62
     8
420
  8421504
370
     0
100
AcDbSpline
210
0.0
220
0.0
230
1.0
 70
     8
 71
     3
 72
     8
 73
     4
 74
     0
 42
0.00000001
 43
0.00000001
 40
3.0
 40
3.0
 40
3.0
 40
3.0
 40
4.0
 40
4.0
 40
4.0
 40
4.0
 10
30.15829353841154
 20
4.748774739583323
 30
0.0
 10
30.15748738606777
 20
3.233477050781253
 30
0.0
 10
30.60785782877612
 20
2.054344889322906
 30
0.0
 10
31.34589029947926
 20
1.254910481770843
 30
0.0
  0
SPLINE
  5
F5
330
68
100
AcDbEntity
  8
0
  6
SLD-Durchgehend
 62
     8
420
  8421504
370
     0
100
AcDbSpline
210
0.0
220
0.0
230
1.0
 70
     8
 71
     3
 72
     8
 73
     4
 74
     0
 42
0.00000001
 43
0.00000001
 40
0.0
 40
0.0
 40
0.0
 40
0.0
 40
1.0
 40
1.0
 40
1.0
 40
1.0
 10
24.67686067708336
 20
1.29521809895837
 30
0.0
 10
23.12582356770837
 20
1.299517578125006
 30
0.0
 10
21.94024218750007
 20
2.531049641927102
 30
0.0
 10
21.93271809895836
 20
4.749849609375023
 30
0.0
  0
SPLINE
  5
F6
330
68
100
AcDbEntity
  8
0
  6
SLD-Durchgehend
 62
     8
420
  8421504
370
     0
100
AcDbSpline
210
0.0
220
0.0
230
1.0
 70
     8
 71
     3
 72
     8
 73
     4
 74
     0
 42
0.00000001
 43
0.00000001
 40
1.0
 40
1.0
 40
1.0
 40
1.0
 40
2.0
 40
2.0
 40
2.0
 40
2.0
 10
21.93271809895841
 20
4.749849609375009
 30
0.0
 10
21.93983911132824
 20
6.950779866536513
 30
0.0
 10
23.12662972005214
 20
8.200584716796925
 30
0.0
 10
24.67686067708341
 20
8.204212402343785
 30
0.0
  0
SPLINE
  5
F7
330
68
100
AcDbEntity
  8
0
  6
SLD-Durchgehend
 62
     8
420
  8421504
370
     0
100
AcDbSpline
210
0.0
220
0.0
230
1.0
 70
     8
 71
     3
 72
     8
 73
     4
 74
     0
 42
0.00000001
 43
0.00000001
 40
0.0
 40
0.0
 40
0.0
 40
0.0
 40
1.0
 40
1.0
 40
1.0
 40
1.0
 10
15.19462809244798
 20
9.456301350911467
 30
0.0
 10
14.07353889973967
 20
9.457241861979188
 30
0.0
 10
13.05026285807298
 20
9.044357503255245
 30
0.0
 10
12.31276782226565
 20
8.243982584635406
 30
0.0
  0
SPLINE
  5
F8
330
68
100
AcDbEntity
  8
0
  6
SLD-Durchgehend
 62
     8
420
  8421504
370
     0
100
AcDbSpline
210
0.0
220
0.0
230
1.0
 70
     8
 71
     3
 72
     8
 73
     4
 74
     0
 42
0.00000001
 43
0.00000001
 40
8.0
 40
8.0
 40
8.0
 40
8.0
 40
9.0
 40
9.0
 40
9.0
 40
9.0
 10
79.60136344401047
 20
8.40427254231771
 30
0.0
 10
78.87958837890629
 20
9.096085611979166
 30
0.0
 10
77.9261788736979
 20
9.457241861979188
 30
0.0
 10
76.88489876302096
 20
9.456301350911467
 30
0.0
  0
SPLINE
  5
F9
330
68
100
AcDbEntity
  8
0
  6
SLD-Durchgehend
 62
     8
420
  8421504
370
     0
100
AcDbSpline
210
0.0
220
0.0
230
1.0
 70
     8
 71
     3
 72
     8
 73
     4
 74
     0
 42
0.00000001
 43
0.00000001
 40
9.0
 40
9.0
 40
9.0
 40
9.0
 40
10.0
 40
10.0
 40
10.0
 40
10.0
 10
76.88489876302096
 20
9.456301350911467
 30
0.0
 10
75.76380957031247
 20
9.457241861979188
 30
0.0
 10
74.74053352864584
 20
9.044357503255245
 30
0.0
 10
74.00263541666673
 20
8.243982584635406
 30
0.0
  0
SPLINE
  5
FA
330
68
100
AcDbEntity
  8
0
  6
SLD-Durchgehend
 62
     8
420
  8421504
370
     0
100
AcDbSpline
210
0.0
220
0.0
230
1.0
 70
     8
 71
     3
 72
     8
 73
     4
 74
     0
 42
0.00000001
 43
0.00000001
 40
0.0
 40
0.0
 40
0.0
 40
0.0
 40
1.0
 40
1.0
 40
1.0
 40
1.0
 10
6.145836751302147
 20
8.270182535807303
 30
0.0
 10
5.944298665364666
 20
8.269645100911466
 30
0.0
 10
5.749075439453133
 20
8.248819498697934
 30
0.0
 10
5.561376302083421
 20
8.20851188151045
 30
0.0
  0
SPLINE
  5
FB
330
68
100
AcDbEntity
  8
0
  6
SLD-Durchgehend
 62
     8
420
  8421504
370
     0
100
AcDbSpline
210
0.0
220
0.0
230
1.0
 70
     8
 71
     3
 72
     8
 73
     4
 74
     0
 42
0.00000001
 43
0.00000001
 40
8.0
 40
8.0
 40
8.0
 40
8.0
 40
9.0
 40
9.0
 40
9.0
 40
9.0
 10
18.07675708007817
 20
8.243982584635406
 30
0.0
 10
17.3385902506511
 20
9.044357503255245
 30
0.0
 10
16.31585164388028
 20
9.457241861979188
 30
0.0
 10
15.19462809244798
 20
9.456301350911467
 30
0.0
  0
SPLINE
  5
FC
330
68
100
AcDbEntity
  8
0
  6
SLD-Durchgehend
 62
     8
420
  8421504
370
     0
100
AcDbSpline
210
0.0
220
0.0
230
1.0
 70
     8
 71
     3
 72
     8
 73
     4
 74
     0
 42
0.00000001
 43
0.00000001
 40
3.0
 40
3.0
 40
3.0
 40
3.0
 40
4.0
 40
4.0
 40
4.0
 40
4.0
 10
76.88489876302096
 20
8.204212402343785
 30
0.0
 10
78.4337861328126
 20
8.200584716796937
 30
0.0
 10
79.62124853515628
 20
6.950779866536499
 30
0.0
 10
79.62931005859375
 20
4.749849609375023
 30
0.0
  0
SPLINE
  5
FD
330
68
100
AcDbEntity
  8
0
  6
SLD-Durchgehend
 62
     8
420
  8421504
370
     0
100
AcDbSpline
210
0.0
220
0.0
230
1.0
 70
     8
 71
     3
 72
     8
 73
     4
 74
     0
 42
0.00000001
 43
0.00000001
 40
2.0
 40
2.0
 40
2.0
 40
2.0
 40
3.0
 40
3.0
 40
3.0
 40
3.0
 10
21.79486604817715
 20
8.243982584635406
 30
0.0
 10
21.0562961425782
 20
7.445354329427111
 30
0.0
 10
20.60686621093755
 20
6.265550374348977
 30
0.0
 10
20.60686621093755
 20
4.749849609375023
 30
0.0
  0
SPLINE
  5
FE
330
68
100
AcDbEntity
  8
0
  6
SLD-Durchgehend
 62
     8
420
  8421504
370
     0
100
AcDbSpline
210
0.0
220
0.0
230
1.0
 70
     8
 71
     3
 72
     8
 73
     4
 74
     0
 42
0.00000001
 43
0.00000001
 40
4.0
 40
4.0
 40
4.0
 40
4.0
 40
5.0
 40
5.0
 40
5.0
 40
5.0
 10
79.62931005859375
 20
4.749849609375023
 30
0.0
 10
79.62124853515628
 20
2.531049641927074
 30
0.0
 10
78.43486100260422
 20
1.299517578124992
 30
0.0
 10
76.88489876302096
 20
1.295218098958356
 30
0.0
  0
SPLINE
  5
FF
330
68
100
AcDbEntity
  8
0
  6
SLD-Durchgehend
 62
     8
420
  8421504
370
     0
100
AcDbSpline
210
0.0
220
0.0
230
1.0
 70
     8
 71
     3
 72
     8
 73
     4
 74
     0
 42
0.00000001
 43
0.00000001
 40
5.0
 40
5.0
 40
5.0
 40
5.0
 40
6.0
 40
6.0
 40
6.0
 40
6.0
 10
15.19839013671875
 20
0.042726074218763
 30
0.0
 10
16.31813574218754
 20
0.042726074218763
 30
0.0
 10
17.33899332682298
 20
0.4562822265624933
 30
0.0
 10
18.07675708007817
 20
1.254910481770843
 30
0.0
  0
SPLINE
  5
100
330
68
100
AcDbEntity
  8
0
  6
SLD-Durchgehend
 62
     8
420
  8421504
370
     0
100
AcDbSpline
210
0.0
220
0.0
230
1.0
 70
     8
 71
     3
 72
     8
 73
     4
 74
     0
 42
0.00000001
 43
0.00000001
 40
0.0
 40
0.0
 40
0.0
 40
0.0
 40
1.0
 40
1.0
 40
1.0
 40
1.0
 10
68.3797228190105
 20
9.457241861979188
 30
0.0
 10
67.43598714192711
 20
9.458854166666697
 30
0.0
 10
66.45355615234382
 20
9.117583007812513
 30
0.0
 10
65.85377880859377
 20
8.202197021484391
 30
0.0
  0
SPLINE
  5
101
330
68
100
AcDbEntity
  8
0
  6
SLD-Durchgehend
 62
     8
420
  8421504
370
     0
100
AcDbSpline
210
0.0
220
0.0
230
1.0
 70
     8
 71
     3
 72
     8
 73
     4
 74
     0
 42
0.00000001
 43
0.00000001
 40
5.0
 40
5.0
 40
5.0
 40
5.0
 40
6.0
 40
6.0
 40
6.0
 40
6.0
 10
34.22721313476568
 20
0.042726074218763
 30
0.0
 10
34.25677205403655
 20
0.042726074218763
 30
0.0
 10
34.27853816731774
 20
0.0443383789062446
 30
0.0
 10
34.29613916015634
 20
0.0443383789062446
 30
0.0
  0
SPLINE
  5
102
330
68
100
AcDbEntity
  8
0
  6
SLD-Durchgehend
 62
     8
420
  8421504
370
     0
100
AcDbSpline
210
0.0
220
0.0
230
1.0
 70
     8
 71
     3
 72
     8
 73
     4
 74
     0
 42
0.00000001
 43
0.00000001
 40
3.0
 40
3.0
 40
3.0
 40
3.0
 40
4.0
 40
4.0
 40
4.0
 40
4.0
 10
12.31276782226565
 20
1.254910481770843
 30
0.0
 10
13.05026285807298
 20
0.4562822265624933
 30
0.0
 10
14.07353889973967
 20
0.0421886393229265
 30
0.0
 10
15.19462809244798
 20
0.042726074218763
 30
0.0
  0
SPLINE
  5
103
330
68
100
AcDbEntity
  8
0
  6
SLD-Durchgehend
 62
     8
420
  8421504
370
     0
100
AcDbSpline
210
0.0
220
0.0
230
1.0
 70
     8
 71
     3
 72
     8
 73
     4
 74
     0
 42
0.00000001
 43
0.00000001
 40
16.0
 40
16.0
 40
16.0
 40
16.0
 40
17.0
 40
17.0
 40
17.0
 40
17.0
 10
51.5840761718751
 20
1.160321940104153
 30
0.0
 10
50.82898014322923
 20
1.176444986979164
 30
0.0
 10
49.74792985026044
 20
1.430920410156272
 30
0.0
 10
49.38731103515626
 20
2.67239501953126
 30
0.0
  0
SPLINE
  5
104
330
68
100
AcDbEntity
  8
0
  6
SLD-Durchgehend
 62
     8
420
  8421504
370
     0
100
AcDbSpline
210
0.0
220
0.0
230
1.0
 70
     8
 71
     3
 72
     8
 73
     4
 74
     0
 42
0.00000001
 43
0.00000001
 40
2.0
 40
2.0
 40
2.0
 40
2.0
 40
3.0
 40
3.0
 40
3.0
 40
3.0
 10
24.67686067708341
 20
8.204212402343785
 30
0.0
 10
26.22601676432296
 20
8.200584716796937
 30
0.0
 10
27.42060017903653
 20
7.087288330078101
 30
0.0
 10
27.42060017903653
 20
4.749849609375023
 30
0.0
  0
SPLINE
  5
105
330
68
100
AcDbEntity
  8
0
  6
SLD-Durchgehend
 62
     8
420
  8421504
370
     0
100
AcDbSpline
210
0.0
220
0.0
230
1.0
 70
     8
 71
     3
 72
     8
 73
     4
 74
     0
 42
0.00000001
 43
0.00000001
 40
6.0
 40
6.0
 40
6.0
 40
6.0
 40
7.0
 40
7.0
 40
7.0
 40
7.0
 10
41.12290592447921
 20
5.477805175781225
 30
0.0
 10
41.13231103515636
 20
7.395104166666694
 30
0.0
 10
42.24480126953134
 20
8.19480729166669
 30
0.0
 10
43.50280200195311
 20
8.204212402343785
 30
0.0
  0
SPLINE
  5
106
330
68
100
AcDbEntity
  8
0
  6
SLD-Durchgehend
 62
     8
420
  8421504
370
     0
100
AcDbSpline
210
0.0
220
0.0
230
1.0
 70
     8
 71
     3
 72
     8
 73
     4
 74
     0
 42
0.00000001
 43
0.00000001
 40
14.0
 40
14.0
 40
14.0
 40
14.0
 40
15.0
 40
15.0
 40
15.0
 40
15.0
 10
76.88704850260419
 20
0.042726074218763
 30
0.0
 10
77.96326188151048
 20
0.042726074218763
 30
0.0
 10
78.94569287109377
 20
0.4286043294270681
 30
0.0
 10
79.67526074218756
 20
1.166502441406259
 30
0.0
  0
SPLINE
  5
107
330
68
100
AcDbEntity
  8
0
  6
SLD-Durchgehend
 62
     8
420
  8421504
370
     0
100
AcDbSpline
210
0.0
220
0.0
230
1.0
 70
     8
 71
     3
 72
     8
 73
     4
 74
     0
 42
0.00000001
 43
0.00000001
 40
25.0
 40
25.0
 40
25.0
 40
25.0
 40
26.0
 40
26.0
 40
26.0
 40
26.0
 10
85.38470035807299
 20
1.34761800130212
 30
0.0
 10
85.10926497395832
 20
1.354873372395898
 30
0.0
 10
85.0187071940105
 20
1.44462500000006
 30
0.0
 10
84.9423914388021
 20
1.629233886718734
 30
0.0
  0
SPLINE
  5
108
330
68
100
AcDbEntity
  8
0
  6
SLD-Durchgehend
 62
     8
420
  8421504
370
     0
100
AcDbSpline
210
0.0
220
0.0
230
1.0
 70
     8
 71
     3
 72
     8
 73
     4
 74
     0
 42
0.00000001
 43
0.00000001
 40
11.0
 40
11.0
 40
11.0
 40
11.0
 40
12.0
 40
12.0
 40
12.0
 40
12.0
 10
72.81490429687499
 20
4.749849609375023
 30
0.0
 10
72.81490429687499
 20
3.233477050781253
 30
0.0
 10
73.26554345703128
 20
2.054344889322906
 30
0.0
 10
74.00263541666673
 20
1.254910481770843
 30
0.0
  0
SPLINE
  5
109
330
68
100
AcDbEntity
  8
0
  6
SLD-Durchgehend
 62
     8
420
  8421504
370
     0
100
AcDbSpline
210
0.0
220
0.0
230
1.0
 70
     8
 71
     3
 72
     8
 73
     4
 74
     0
 42
0.00000001
 43
0.00000001
 40
11.0
 40
11.0
 40
11.0
 40
11.0
 40
12.0
 40
12.0
 40
12.0
 40
12.0
 10
59.86487304687505
 20
0.042726074218763
 30
0.0
 10
61.77384179687506
 20
0.042726074218763
 30
0.0
 10
62.98602620442717
 20
0.8937542317708491
 30
0.0
 10
63.63175423177092
 20
2.557383951822922
 30
0.0
  0
SPLINE
  5
10A
330
68
100
AcDbEntity
  8
0
  6
SLD-Durchgehend
 62
     8
420
  8421504
370
     0
100
AcDbSpline
210
0.0
220
0.0
230
1.0
 70
     8
 71
     2
 72
     6
 73
     3
 74
     0
 42
0.00000001
 43
0.00000001
 40
22.0
 40
22.0
 40
22.0
 40
23.0
 40
23.0
 40
23.0
 10
85.14742285156251
 20
0.219810872395837
 30
0.0
 10
85.22078271484379
 20
0.219810872395837
 30
0.0
 10
86.31634375000007
 20
0.2192734375000005
 30
0.0
  0
SPLINE
  5
10B
330
68
100
AcDbEntity
  8
0
  6
SLD-Durchgehend
 62
     8
420
  8421504
370
     0
100
AcDbSpline
210
0.0
220
0.0
230
1.0
 70
     8
 71
     3
 72
     8
 73
     4
 74
     0
 42
0.00000001
 43
0.00000001
 40
22.0
 40
22.0
 40
22.0
 40
22.0
 40
23.0
 40
23.0
 40
23.0
 40
23.0
 10
51.58945052083341
 20
0.0239158528645977
 30
0.0
 10
53.68410302734383
 20
0.0962008463541442
 30
0.0
 10
54.88527001953136
 20
1.332032389322946
 30
0.0
 10
54.88204541015629
 20
2.792243001302097
 30
0.0
  0
SPLINE
  5
10C
330
68
100
AcDbEntity
  8
0
  6
SLD-Durchgehend
 62
     8
420
  8421504
370
     0
100
AcDbSpline
210
0.0
220
0.0
230
1.0
 70
     8
 71
     3
 72
     8
 73
     4
 74
     0
 42
0.00000001
 43
0.00000001
 40
2.0
 40
2.0
 40
2.0
 40
2.0
 40
3.0
 40
3.0
 40
3.0
 40
3.0
 10
15.19462809244798
 20
8.20421240234373
 30
0.0
 10
16.74445597330737
 20
8.200584716796937
 30
0.0
 10
17.93151529947923
 20
6.950779866536499
 30
0.0
 10
17.938636311849
 20
4.749849609375023
 30
0.0
  0
SPLINE
  5
10D
330
68
100
AcDbEntity
  8
0
  6
SLD-Durchgehend
 62
     8
420
  8421504
370
     0
100
AcDbSpline
210
0.0
220
0.0
230
1.0
 70
     8
 71
     3
 72
     8
 73
     4
 74
     0
 42
0.00000001
 43
0.00000001
 40
6.0
 40
6.0
 40
6.0
 40
6.0
 40
7.0
 40
7.0
 40
7.0
 40
7.0
 10
65.85377880859377
 20
5.478880045572926
 30
0.0
 10
65.86318391927082
 20
7.395104166666694
 30
0.0
 10
66.97540543619796
 20
8.19480729166669
 30
0.0
 10
68.23407796223968
 20
8.204212402343785
 30
0.0
  0
SPLINE
  5
10E
330
68
100
AcDbEntity
  8
0
  6
SLD-Durchgehend
 62
     8
420
  8421504
370
     0
100
AcDbSpline
210
0.0
220
0.0
230
1.0
 70
     8
 71
     3
 72
     8
 73
     4
 74
     0
 42
0.00000001
 43
0.00000001
 40
11.0
 40
11.0
 40
11.0
 40
11.0
 40
12.0
 40
12.0
 40
12.0
 40
12.0
 10
51.32825716145839
 20
9.426473714192724
 30
0.0
 10
49.43299300130211
 20
9.37098356119792
 30
0.0
 10
48.37827701822928
 20
8.200047281901046
 30
0.0
 10
48.38257649739586
 20
6.909397379557314
 30
0.0
  0
SPLINE
  5
10F
330
68
100
AcDbEntity
  8
0
  6
SLD-Durchgehend
 62
     8
420
  8421504
370
     0
100
AcDbSpline
210
0.0
220
0.0
230
1.0
 70
     8
 71
     3
 72
     8
 73
     4
 74
     0
 42
0.00000001
 43
0.00000001
 40
4.0
 40
4.0
 40
4.0
 40
4.0
 40
5.0
 40
5.0
 40
5.0
 40
5.0
 10
21.79486604817715
 20
1.254910481770843
 30
0.0
 10
22.53249544270841
 20
0.4562822265624933
 30
0.0
 10
23.55523404947924
 20
0.0421886393229265
 30
0.0
 10
24.67686067708341
 20
0.042726074218763
 30
0.0
  0
SPLINE
  5
110
330
68
100
AcDbEntity
  8
0
  6
SLD-Durchgehend
 62
     8
420
  8421504
370
     0
100
AcDbSpline
210
0.0
220
0.0
230
1.0
 70
     8
 71
     3
 72
     8
 73
     4
 74
     0
 42
0.00000001
 43
0.00000001
 40
26.0
 40
26.0
 40
26.0
 40
26.0
 40
27.0
 40
27.0
 40
27.0
 40
27.0
 10
84.9423914388021
 20
1.629233886718734
 30
0.0
 10
84.87010644531256
 20
1.816529947916673
 30
0.0
 10
84.86177620442714
 20
2.110238118489594
 30
0.0
 10
84.86231363932295
 20
2.436461100260439
 30
0.0
  0
SPLINE
  5
111
330
68
100
AcDbEntity
  8
0
  6
SLD-Durchgehend
 62
     8
420
  8421504
370
     0
100
AcDbSpline
210
0.0
220
0.0
230
1.0
 70
     8
 71
     3
 72
     8
 73
     4
 74
     0
 42
0.00000001
 43
0.00000001
 40
11.0
 40
11.0
 40
11.0
 40
11.0
 40
12.0
 40
12.0
 40
12.0
 40
12.0
 10
71.57504199218756
 20
6.298065185546875
 30
0.0
 10
71.57504199218756
 20
7.218691162109381
 30
0.0
 10
71.33749576822923
 20
8.012213785807297
 30
0.0
 10
70.80973470052088
 20
8.574773763020849
 30
0.0
  0
HATCH
  5
112
330
68
100
AcDbEntity
  8
0
  6
Continuous
 62
     7
100
AcDbHatch
 10
0.0
 20
0.0
 30
0.0
210
0.0
220
0.0
230
1.0
  2
SOLID
 70
     1
 71
     0
 91
        2
 92
        0
 93
       12
 72
     4
 94
        3
 73
     1
 74
     0
 95
        8
 96
        4
 40
4.0
 40
4.0
 40
4.0
 40
4.0
 40
5.0
 40
5.0
 40
5.0
 40
5.0
 10
21.79486604817715
 20
1.254910481770843
 42
1.0
 10
22.53249544270841
 20
0.4562822265624933
 42
1.0
 10
23.55523404947924
 20
0.0421886393229265
 42
1.0
 10
24.67686067708341
 20
0.042726074218763
 42
1.0
 97
        0
 72
     1
 10
24.67686067708341
 20
0.042726074218763
 11
24.69110270182295
 21
0.042726074218763
 72
     4
 94
        3
 73
     1
 74
     0
 95
        8
 96
        4
 40
6.0
 40
6.0
 40
6.0
 40
6.0
 40
7.0
 40
7.0
 40
7.0
 40
7.0
 10
24.69110270182295
 20
0.042726074218763
 42
1.0
 10
26.58582942708338
 20
0.042726074218763
 42
1.0
 10
28.2107638346355
 20
1.177519856770837
 42
1.0
 10
28.63184407552088
 20
3.418892089843722
 42
1.0
 97
        0
 72
     4
 94
        3
 73
     1
 74
     0
 95
        8
 96
        4
 40
7.0
 40
7.0
 40
7.0
 40
7.0
 40
8.0
 40
8.0
 40
8.0
 40
8.0
 10
28.63184407552088
 20
3.418892089843722
 42
1.0
 10
28.71447469075527
 20
3.858513834635424
 42
1.0
 10
28.74376489257818
 20
4.351610351562535
 42
1.0
 10
28.74376489257818
 20
4.603129882812473
 42
1.0
 97
        0
 72
     1
 10
28.74376489257818
 20
4.603129882812473
 11
28.74618334960943
 21
4.603129882812473
 72
     1
 10
28.74618334960943
 20
4.603129882812473
 11
28.74618334960943
 21
11.61316194661463
 72
     1
 10
28.74618334960943
 20
11.61316194661463
 11
27.42946785481776
 21
11.61316194661463
 72
     1
 10
27.42946785481776
 20
11.61316194661463
 11
27.42946785481776
 21
8.233636962890644
 72
     4
 94
        3
 73
     1
 74
     0
 95
        8
 96
        4
 40
0.0
 40
0.0
 40
0.0
 40
0.0
 40
1.0
 40
1.0
 40
1.0
 40
1.0
 10
27.42946785481776
 20
8.233636962890644
 42
1.0
 10
26.7880393066407
 20
9.013992431640666
 42
1.0
 10
25.73574178059906
 20
9.457241861979188
 42
1.0
 10
24.67686067708341
 20
9.457241861979188
 42
1.0
 97
        0
 72
     4
 94
        3
 73
     1
 74
     0
 95
        8
 96
        4
 40
1.0
 40
1.0
 40
1.0
 40
1.0
 40
2.0
 40
2.0
 40
2.0
 40
2.0
 10
24.67686067708341
 20
9.457241861979188
 42
1.0
 10
23.55523404947924
 20
9.457241861979188
 42
1.0
 10
22.53249544270841
 20
9.044357503255245
 42
1.0
 10
21.79486604817715
 20
8.243982584635406
 42
1.0
 97
        0
 72
     4
 94
        3
 73
     1
 74
     0
 95
        8
 96
        4
 40
2.0
 40
2.0
 40
2.0
 40
2.0
 40
3.0
 40
3.0
 40
3.0
 40
3.0
 10
21.79486604817715
 20
8.243982584635406
 42
1.0
 10
21.0562961425782
 20
7.445354329427111
 42
1.0
 10
20.60686621093755
 20
6.265550374348977
 42
1.0
 10
20.60686621093755
 20
4.749849609375023
 42
1.0
 97
        0
 72
     4
 94
        3
 73
     1
 74
     0
 95
        8
 96
        4
 40
3.0
 40
3.0
 40
3.0
 40
3.0
 40
4.0
 40
4.0
 40
4.0
 40
4.0
 10
20.60686621093755
 20
4.749849609375023
 42
1.0
 10
20.60686621093755
 20
3.233477050781253
 42
1.0
 10
21.0562961425782
 20
2.054344889322906
 42
1.0
 10
21.79486604817715
 20
1.254910481770843
 42
1.0
 97
        0
 97
        0
 92
        0
 93
        4
 72
     4
 94
        3
 73
     1
 74
     0
 95
        8
 96
        4
 40
1.0
 40
1.0
 40
1.0
 40
1.0
 40
2.0
 40
2.0
 40
2.0
 40
2.0
 10
21.93271809895841
 20
4.749849609375009
 42
1.0
 10
21.93983911132824
 20
6.950779866536513
 42
1.0
 10
23.12662972005214
 20
8.200584716796925
 42
1.0
 10
24.67686067708341
 20
8.204212402343785
 42
1.0
 97
        0
 72
     4
 94
        3
 73
     1
 74
     0
 95
        8
 96
        4
 40
2.0
 40
2.0
 40
2.0
 40
2.0
 40
3.0
 40
3.0
 40
3.0
 40
3.0
 10
24.67686067708341
 20
8.204212402343785
 42
1.0
 10
26.22601676432296
 20
8.200584716796937
 42
1.0
 10
27.42060017903653
 20
7.087288330078101
 42
1.0
 10
27.42060017903653
 20
4.749849609375023
 42
1.0
 97
        0
 72
     4
 94
        3
 73
     1
 74
     0
 95
        8
 96
        4
 40
3.0
 40
3.0
 40
3.0
 40
3.0
 40
4.0
 40
4.0
 40
4.0
 40
4.0
 10
27.42060017903653
 20
4.749849609375023
 42
1.0
 10
27.43443912760424
 20
2.335423339843767
 42
1.0
 10
26.22695727539071
 20
1.299517578124992
 42
1.0
 10
24.67686067708341
 20
1.295218098958356
 42
1.0
 97
        0
 72
     4
 94
        3
 73
     1
 74
     0
 95
        8
 96
        4
 40
0.0
 40
0.0
 40
0.0
 40
0.0
 40
1.0
 40
1.0
 40
1.0
 40
1.0
 10
24.67686067708336
 20
1.29521809895837
 42
1.0
 10
23.12582356770837
 20
1.299517578125006
 42
1.0
 10
21.94024218750007
 20
2.531049641927102
 42
1.0
 10
21.93271809895836
 20
4.749849609375023
 42
1.0
 97
        0
 97
        0
 75
     0
 76
     1
 98
        1
 10
0.0
 20
0.0
  0
HATCH
  5
113
330
68
100
AcDbEntity
  8
0
  6
Continuous
 62
     7
100
AcDbHatch
 10
0.0
 20
0.0
 30
0.0
210
0.0
220
0.0
230
1.0
  2
SOLID
 70
     1
 71
     0
 91
        1
 92
        0
 93
        8
 72
     4
 94
        3
 73
     1
 74
     0
 95
        8
 96
        4
 40
7.0
 40
7.0
 40
7.0
 40
7.0
 40
8.0
 40
8.0
 40
8.0
 40
8.0
 10
4.560135091145945
 20
0.0177353515624923
 42
1.0
 10
2.803529134114635
 20
0.4627314453124753
 42
1.0
 10
1.495815673828171
 20
2.040640299479202
 42
1.0
 10
1.454567545572993
 20
4.569808919270835
 42
1.0
 97
        0
 72
     1
 10
1.454567545572993
 20
4.569808919270835
 11
1.452149088541743
 21
4.569808919270835
 72
     1
 10
1.452149088541743
 20
4.569808919270835
 11
1.452149088541743
 21
11.65145418294272
 72
     1
 10
1.452149088541743
 20
11.65145418294272
 11
0.0000000000000555
 21
11.65145418294272
 72
     1
 10
0.0000000000000555
 20
11.65145418294272
 11
0.0000000000000555
 21
4.685894856770845
 72
     1
 10
0.0000000000000555
 20
4.685894856770845
 11
0.0012092285156529
 21
4.685894856770845
 72
     4
 94
        3
 73
     1
 74
     0
 95
        8
 96
        4
 40
5.0
 40
5.0
 40
5.0
 40
5.0
 40
6.0
 40
6.0
 40
6.0
 40
6.0
 10
0.0012092285156529
 20
4.685894856770845
 42
1.0
 10
0.0138389485677681
 20
1.636489257812512
 42
1.0
 10
1.823785319010451
 20
0.0
 42
1.0
 10
4.062336018880286
 20
0.0
 42
1.0
 97
        0
 72
     4
 94
        3
 73
     1
 74
     0
 95
        8
 96
        4
 40
6.0
 40
6.0
 40
6.0
 40
6.0
 40
7.0
 40
7.0
 40
7.0
 40
7.0
 10
4.062336018880286
 20
0.0
 42
1.0
 10
4.228269042968802
 20
0.0
 42
1.0
 10
4.394202067057318
 20
0.0061805013021055
 42
1.0
 10
4.560135091145945
 20
0.0177353515624923
 42
1.0
 97
        0
 97
        0
 75
     0
 76
     1
 98
        1
 10
0.0
 20
0.0
  0
HATCH
  5
114
330
68
100
AcDbEntity
  8
0
  6
Continuous
 62
     7
100
AcDbHatch
 10
0.0
 20
0.0
 30
0.0
210
0.0
220
0.0
230
1.0
  2
SOLID
 70
     1
 71
     0
 91
        2
 92
        0
 93
        9
 72
     4
 94
        3
 73
     1
 74
     0
 95
        8
 96
        4
 40
3.0
 40
3.0
 40
3.0
 40
3.0
 40
4.0
 40
4.0
 40
4.0
 40
4.0
 10
12.31276782226565
 20
1.254910481770843
 42
1.0
 10
13.05026285807298
 20
0.4562822265624933
 42
1.0
 10
14.07353889973967
 20
0.0421886393229265
 42
1.0
 10
15.19462809244798
 20
0.042726074218763
 42
1.0
 97
        0
 72
     1
 10
15.19462809244798
 20
0.042726074218763
 11
15.19839013671875
 21
0.042726074218763
 72
     4
 94
        3
 73
     1
 74
     0
 95
        8
 96
        4
 40
5.0
 40
5.0
 40
5.0
 40
5.0
 40
6.0
 40
6.0
 40
6.0
 40
6.0
 10
15.19839013671875
 20
0.042726074218763
 42
1.0
 10
16.31813574218754
 20
0.042726074218763
 42
1.0
 10
17.33899332682298
 20
0.4562822265624933
 42
1.0
 10
18.07675708007817
 20
1.254910481770843
 42
1.0
 97
        0
 72
     4
 94
        3
 73
     1
 74
     0
 95
        8
 96
        4
 40
6.0
 40
6.0
 40
6.0
 40
6.0
 40
7.0
 40
7.0
 40
7.0
 40
7.0
 10
18.07675708007817
 20
1.254910481770843
 42
1.0
 10
18.81505826822921
 20
2.054344889322906
 42
1.0
 10
19.26462255859379
 20
3.233477050781253
 42
1.0
 10
19.26462255859379
 20
4.749849609375023
 42
1.0
 97
        0
 72
     4
 94
        3
 73
     1
 74
     0
 95
        8
 96
        4
 40
7.0
 40
7.0
 40
7.0
 40
7.0
 40
8.0
 40
8.0
 40
8.0
 40
8.0
 10
19.26462255859379
 20
4.749849609375023
 42
1.0
 10
19.26462255859379
 20
6.265550374348977
 42
1.0
 10
18.81505826822921
 20
7.445354329427111
 42
1.0
 10
18.07675708007817
 20
8.243982584635406
 42
1.0
 97
        0
 72
     4
 94
        3
 73
     1
 74
     0
 95
        8
 96
        4
 40
8.0
 40
8.0
 40
8.0
 40
8.0
 40
9.0
 40
9.0
 40
9.0
 40
9.0
 10
18.07675708007817
 20
8.243982584635406
 42
1.0
 10
17.3385902506511
 20
9.044357503255245
 42
1.0
 10
16.31585164388028
 20
9.457241861979188
 42
1.0
 10
15.19462809244798
 20
9.456301350911467
 42
1.0
 97
        0
 72
     4
 94
        3
 73
     1
 74
     0
 95
        8
 96
        4
 40
0.0
 40
0.0
 40
0.0
 40
0.0
 40
1.0
 40
1.0
 40
1.0
 40
1.0
 10
15.19462809244798
 20
9.456301350911467
 42
1.0
 10
14.07353889973967
 20
9.457241861979188
 42
1.0
 10
13.05026285807298
 20
9.044357503255245
 42
1.0
 10
12.31276782226565
 20
8.243982584635406
 42
1.0
 97
        0
 72
     4
 94
        3
 73
     1
 74
     0
 95
        8
 96
        4
 40
1.0
 40
1.0
 40
1.0
 40
1.0
 40
2.0
 40
2.0
 40
2.0
 40
2.0
 10
12.31276782226565
 20
8.243982584635406
 42
1.0
 10
11.57473535156256
 20
7.445354329427111
 42
1.0
 10
11.12517106119798
 20
6.265550374348977
 42
1.0
 10
11.12543977864588
 20
4.749849609375023
 42
1.0
 97
        0
 72
     4
 94
        3
 73
     1
 74
     0
 95
        8
 96
        4
 40
2.0
 40
2.0
 40
2.0
 40
2.0
 40
3.0
 40
3.0
 40
3.0
 40
3.0
 10
11.12543977864588
 20
4.749849609375023
 42
1.0
 10
11.12517106119798
 20
3.233477050781253
 42
1.0
 10
11.57473535156256
 20
2.054344889322906
 42
1.0
 10
12.31276782226565
 20
1.254910481770843
 42
1.0
 97
        0
 97
        0
 92
        0
 93
        4
 72
     4
 94
        3
 73
     1
 74
     0
 95
        8
 96
        4
 40
1.0
 40
1.0
 40
1.0
 40
1.0
 40
2.0
 40
2.0
 40
2.0
 40
2.0
 10
12.45048551432298
 20
4.749849609375023
 42
1.0
 10
12.45800960286464
 20
6.950779866536499
 42
1.0
 10
13.64560636393236
 20
8.20058471679691
 42
1.0
 10
15.19462809244798
 20
8.20421240234373
 42
1.0
 97
        0
 72
     4
 94
        3
 73
     1
 74
     0
 95
        8
 96
        4
 40
2.0
 40
2.0
 40
2.0
 40
2.0
 40
3.0
 40
3.0
 40
3.0
 40
3.0
 10
15.19462809244798
 20
8.20421240234373
 42
1.0
 10
16.74445597330737
 20
8.200584716796937
 42
1.0
 10
17.93151529947923
 20
6.950779866536499
 42
1.0
 10
17.938636311849
 20
4.749849609375023
 42
1.0
 97
        0
 72
     4
 94
        3
 73
     1
 74
     0
 95
        8
 96
        4
 40
3.0
 40
3.0
 40
3.0
 40
3.0
 40
4.0
 40
4.0
 40
4.0
 40
4.0
 10
17.938636311849
 20
4.749849609375023
 42
1.0
 10
17.93151529947923
 20
2.531049641927074
 42
1.0
 10
16.74526212565108
 20
1.299517578124992
 42
1.0
 10
15.19462809244798
 20
1.29468066406252
 42
1.0
 97
        0
 72
     4
 94
        3
 73
     1
 74
     0
 95
        8
 96
        4
 40
0.0
 40
0.0
 40
0.0
 40
0.0
 40
1.0
 40
1.0
 40
1.0
 40
1.0
 10
15.19462809244798
 20
1.29468066406252
 42
1.0
 10
13.64466585286461
 20
1.299517578124992
 42
1.0
 10
12.4585470377605
 20
2.531049641927074
 42
1.0
 10
12.45048551432298
 20
4.749849609375023
 42
1.0
 97
        0
 97
        0
 75
     0
 76
     1
 98
        1
 10
0.0
 20
0.0
  0
HATCH
  5
115
330
68
100
AcDbEntity
  8
0
  6
Continuous
 62
     7
100
AcDbHatch
 10
0.0
 20
0.0
 30
0.0
210
0.0
220
0.0
230
1.0
  2
SOLID
 70
     1
 71
     0
 91
        1
 92
        0
 93
        5
 72
     4
 94
        3
 73
     1
 74
     0
 95
        8
 96
        4
 40
0.0
 40
0.0
 40
0.0
 40
0.0
 40
1.0
 40
1.0
 40
1.0
 40
1.0
 10
6.145836751302147
 20
8.270182535807303
 42
1.0
 10
5.944298665364666
 20
8.269645100911466
 42
1.0
 10
5.749075439453133
 20
8.248819498697934
 42
1.0
 10
5.561376302083421
 20
8.20851188151045
 42
1.0
 97
        0
 72
     4
 94
        3
 73
     1
 74
     0
 95
       11
 96
        7
 40
1.0
 40
1.0
 40
1.0
 40
1.0
 40
2.0
 40
2.0
 40
2.0
 40
3.0
 40
3.0
 40
3.0
 40
3.0
 10
5.561376302083421
 20
8.20851188151045
 42
1.0
 10
6.718876708984411
 20
7.771442952474006
 42
1.0
 10
7.516833170573001
 20
6.539373453776087
 42
1.0
 10
7.516833170573001
 20
4.717872233072989
 42
1.0
 10
7.516833170573001
 20
2.882800781250028
 42
1.0
 10
6.720220296223989
 20
1.659598958333341
 42
1.0
 10
5.564063476562575
 20
1.2250828450521
 42
1.0
 97
        0
 72
     4
 94
        3
 73
     1
 74
     0
 95
        8
 96
        4
 40
3.0
 40
3.0
 40
3.0
 40
3.0
 40
4.0
 40
4.0
 40
4.0
 40
4.0
 10
5.564063476562575
 20
1.2250828450521
 42
1.0
 10
5.75082210286465
 20
1.185312662760396
 42
1.0
 10
5.94537353515634
 20
1.165427571614586
 42
1.0
 10
6.145836751302147
 20
1.164621419270817
 42
1.0
 97
        0
 72
     4
 94
        3
 73
     1
 74
     0
 95
        8
 96
        4
 40
4.0
 40
4.0
 40
4.0
 40
4.0
 40
5.0
 40
5.0
 40
5.0
 40
5.0
 10
6.145836751302147
 20
1.164621419270817
 42
1.0
 10
7.741077880859482
 20
1.168652180989577
 42
1.0
 10
8.9601145833334
 20
2.436998535156248
 42
1.0
 10
8.968444824218825
 20
4.717872233072934
 42
1.0
 97
        0
 72
     4
 94
        3
 73
     1
 74
     0
 95
        8
 96
        4
 40
5.0
 40
5.0
 40
5.0
 40
5.0
 40
6.0
 40
6.0
 40
6.0
 40
6.0
 10
8.968444824218825
 20
4.717872233072934
 42
1.0
 10
8.960920735677114
 20
6.980607503255215
 42
1.0
 10
7.740137369791733
 20
8.267092285156236
 42
1.0
 10
6.145836751302147
 20
8.270182535807303
 42
1.0
 97
        0
 97
        0
 75
     0
 76
     1
 98
        1
 10
0.0
 20
0.0
  0
HATCH
  5
116
330
68
100
AcDbEntity
  8
0
  6
Continuous
 62
     7
100
AcDbHatch
 10
0.0
 20
0.0
 30
0.0
210
0.0
220
0.0
230
1.0
  2
SOLID
 70
     1
 71
     0
 91
        2
 92
        0
 93
       18
 72
     4
 94
        3
 73
     1
 74
     0
 95
        8
 96
        4
 40
5.0
 40
5.0
 40
5.0
 40
5.0
 40
6.0
 40
6.0
 40
6.0
 40
6.0
 10
34.22721313476568
 20
0.042726074218763
 42
1.0
 10
34.25677205403655
 20
0.042726074218763
 42
1.0
 10
34.27853816731774
 20
0.0443383789062446
 42
1.0
 10
34.29613916015634
 20
0.0443383789062446
 42
1.0
 97
        0
 72
     4
 94
        3
 73
     1
 74
     0
 95
        8
 96
        4
 40
6.0
 40
6.0
 40
6.0
 40
6.0
 40
7.0
 40
7.0
 40
7.0
 40
7.0
 10
34.29613916015634
 20
0.0443383789062446
 42
1.0
 10
34.31414322916676
 20
0.0443383789062446
 42
1.0
 10
34.33873087565109
 20
0.042726074218763
 42
1.0
 10
34.36748364257819
 20
0.042726074218763
 42
1.0
 97
        0
 72
     1
 10
34.36748364257819
 20
0.042726074218763
 11
34.37715747070319
 21
0.042726074218763
 72
     4
 94
        3
 73
     1
 74
     0
 95
        8
 96
        4
 40
8.0
 40
8.0
 40
8.0
 40
8.0
 40
9.0
 40
9.0
 40
9.0
 40
9.0
 10
34.37715747070319
 20
0.042726074218763
 42
1.0
 10
36.11051936848963
 20
0.042726074218763
 42
1.0
 10
37.59921402994804
 20
1.048804199218739
 42
1.0
 10
38.17292578125009
 20
2.911016113281234
 42
1.0
 97
        0
 72
     1
 10
38.17292578125009
 20
2.911016113281234
 11
38.21927954101567
 21
3.060154296875006
 72
     1
 10
38.21927954101567
 20
3.060154296875006
 11
36.75396329752611
 21
3.060154296875006
 72
     1
 10
36.75396329752611
 20
3.060154296875006
 11
36.7268228352865
 21
2.983301106770864
 72
     4
 94
        3
 73
     1
 74
     0
 95
        8
 96
        4
 40
12.0
 40
12.0
 40
12.0
 40
12.0
 40
13.0
 40
13.0
 40
13.0
 40
13.0
 10
36.7268228352865
 20
2.983301106770864
 42
1.0
 10
36.36123274739589
 20
1.957337890624994
 42
1.0
 10
35.61003312174482
 20
1.316715494791676
 42
1.0
 10
34.32247347005213
 20
1.295218098958356
 42
1.0
 97
        0
 72
     1
 10
34.32247347005213
 20
1.295218098958356
 11
34.29654223632816
 21
1.295755533854165
 72
     4
 94
        3
 73
     1
 74
     0
 95
        8
 96
        4
 40
14.0
 40
14.0
 40
14.0
 40
14.0
 40
15.0
 40
15.0
 40
15.0
 40
15.0
 10
34.29654223632816
 20
1.295755533854165
 42
1.0
 10
32.43594262695321
 20
1.31456575520833
 42
1.0
 10
31.64188256835942
 20
2.634774576822957
 42
1.0
 10
31.62965592447925
 20
4.54938639322916
 42
1.0
 97
        0
 72
     1
 10
31.62965592447925
 20
4.54938639322916
 11
31.62938720703135
 21
4.669771809895806
 72
     1
 10
31.62938720703135
 20
4.669771809895806
 11
38.30137272135426
 21
4.669771809895806
 72
     1
 10
38.30137272135426
 20
4.669771809895806
 11
38.29720760091148
 21
4.790694661458344
 72
     4
 94
        3
 73
     1
 74
     0
 95
        8
 96
        4
 40
0.0
 40
0.0
 40
0.0
 40
0.0
 40
1.0
 40
1.0
 40
1.0
 40
1.0
 10
38.29720760091148
 20
4.790694661458344
 42
1.0
 10
38.21511442057302
 20
7.406121582031244
 42
1.0
 10
36.88697843424493
 20
9.462078776041661
 42
1.0
 10
34.22721313476568
 20
9.457241861979188
 42
1.0
 97
        0
 72
     4
 94
        3
 73
     1
 74
     0
 95
        8
 96
        4
 40
1.0
 40
1.0
 40
1.0
 40
1.0
 40
2.0
 40
2.0
 40
2.0
 40
2.0
 10
34.22721313476568
 20
9.457241861979188
 42
1.0
 10
33.10639265950532
 20
9.457241861979188
 42
1.0
 10
32.08392277018235
 20
9.044357503255245
 42
1.0
 10
31.34589029947926
 20
8.243982584635406
 42
1.0
 97
        0
 72
     4
 94
        3
 73
     1
 74
     0
 95
        8
 96
        4
 40
2.0
 40
2.0
 40
2.0
 40
2.0
 40
3.0
 40
3.0
 40
3.0
 40
3.0
 10
31.34589029947926
 20
8.243982584635406
 42
1.0
 10
30.60785782877612
 20
7.445354329427111
 42
1.0
 10
30.15748738606777
 20
6.265550374348977
 42
1.0
 10
30.15829353841154
 20
4.748774739583323
 42
1.0
 97
        0
 72
     4
 94
        3
 73
     1
 74
     0
 95
        8
 96
        4
 40
3.0
 40
3.0
 40
3.0
 40
3.0
 40
4.0
 40
4.0
 40
4.0
 40
4.0
 10
30.15829353841154
 20
4.748774739583323
 42
1.0
 10
30.15748738606777
 20
3.233477050781253
 42
1.0
 10
30.60785782877612
 20
2.054344889322906
 42
1.0
 10
31.34589029947926
 20
1.254910481770843
 42
1.0
 97
        0
 72
     4
 94
        3
 73
     1
 74
     0
 95
        8
 96
        4
 40
4.0
 40
4.0
 40
4.0
 40
4.0
 40
5.0
 40
5.0
 40
5.0
 40
5.0
 10
31.34589029947926
 20
1.254910481770843
 42
1.0
 10
32.08338533528654
 20
0.4562822265624933
 42
1.0
 10
33.10639265950532
 20
0.0421886393229265
 42
1.0
 10
34.22721313476568
 20
0.042726074218763
 42
1.0
 97
        0
 97
        0
 92
        0
 93
        3
 72
     1
 10
36.80004833984385
 20
5.812895833333359
 11
31.64739127604171
 21
5.812895833333359
 72
     4
 94
        3
 73
     1
 74
     0
 95
        8
 96
        4
 40
0.0
 40
0.0
 40
0.0
 40
0.0
 40
1.0
 40
1.0
 40
1.0
 40
1.0
 10
31.64739127604171
 20
5.812895833333359
 42
1.0
 10
31.86881445312506
 20
7.166425618489569
 42
1.0
 10
32.79051529947924
 20
8.202197021484391
 42
1.0
 10
34.22721313476568
 20
8.204212402343785
 42
1.0
 97
        0
 72
     4
 94
        3
 73
     1
 74
     0
 95
        8
 96
        4
 40
1.0
 40
1.0
 40
1.0
 40
1.0
 40
2.0
 40
2.0
 40
2.0
 40
2.0
 10
34.22721313476568
 20
8.204212402343785
 42
1.0
 10
35.91368383789073
 20
8.200584716796937
 42
1.0
 10
36.53992985026044
 20
7.025617675781248
 42
1.0
 10
36.80004833984385
 20
5.812895833333359
 42
1.0
 97
        0
 97
        0
 75
     0
 76
     1
 98
        1
 10
0.0
 20
0.0
  0
HATCH
  5
117
330
68
100
AcDbEntity
  8
0
  6
Continuous
 62
     7
100
AcDbHatch
 10
0.0
 20
0.0
 30
0.0
210
0.0
220
0.0
230
1.0
  2
SOLID
 70
     1
 71
     0
 91
        1
 92
        0
 93
       13
 72
     4
 94
        3
 73
     1
 74
     0
 95
        8
 96
        4
 40
6.0
 40
6.0
 40
6.0
 40
6.0
 40
7.0
 40
7.0
 40
7.0
 40
7.0
 10
41.12290592447921
 20
5.477805175781225
 42
1.0
 10
41.13231103515636
 20
7.395104166666694
 42
1.0
 10
42.24480126953134
 20
8.19480729166669
 42
1.0
 10
43.50280200195311
 20
8.204212402343785
 42
1.0
 97
        0
 72
     4
 94
        3
 73
     1
 74
     0
 95
        8
 96
        4
 40
7.0
 40
7.0
 40
7.0
 40
7.0
 40
8.0
 40
8.0
 40
8.0
 40
8.0
 10
43.50280200195311
 20
8.204212402343785
 42
1.0
 10
44.85162923177089
 20
8.182311930338553
 42
1.0
 10
45.49587931315102
 20
7.703860514322924
 42
1.0
 10
45.51845157877609
 20
5.969826822916663
 42
1.0
 97
        0
 72
     1
 10
45.51845157877609
 20
5.969826822916663
 11
45.51845157877609
 21
0.2611933593749951
 72
     1
 10
45.51845157877609
 20
0.2611933593749949
 11
46.84363167317706
 21
0.2611933593749949
 72
     1
 10
46.84363167317706
 20
0.2611933593749949
 11
46.84363167317706
 21
6.298065185546875
 72
     4
 94
        3
 73
     1
 74
     0
 95
        8
 96
        4
 40
11.0
 40
11.0
 40
11.0
 40
11.0
 40
12.0
 40
12.0
 40
12.0
 40
12.0
 10
46.84363167317706
 20
6.298065185546875
 42
1.0
 10
46.84363167317706
 20
7.218691162109381
 42
1.0
 10
46.60608544921885
 20
8.012213785807297
 42
1.0
 10
46.07899617513023
 20
8.574773763020849
 42
1.0
 97
        0
 72
     4
 94
        3
 73
     1
 74
     0
 95
        8
 96
        4
 40
12.0
 40
12.0
 40
12.0
 40
12.0
 40
13.0
 40
13.0
 40
13.0
 40
13.0
 10
46.07899617513023
 20
8.574773763020849
 42
1.0
 10
45.55244433593752
 20
9.139080403645833
 42
1.0
 10
44.74427661132818
 20
9.457779296874996
 42
1.0
 10
43.64884993489593
 20
9.456301350911467
 42
1.0
 97
        0
 72
     4
 94
        3
 73
     1
 74
     0
 95
        8
 96
        4
 40
0.0
 40
0.0
 40
0.0
 40
0.0
 40
1.0
 40
1.0
 40
1.0
 40
1.0
 10
43.64884993489593
 20
9.456301350911467
 42
1.0
 10
42.70457682291673
 20
9.458854166666697
 42
1.0
 10
41.72429557291679
 20
9.11812044270835
 42
1.0
 10
41.12290592447921
 20
8.216842122395818
 42
1.0
 97
        0
 72
     1
 10
41.12290592447921
 20
8.216842122395818
 11
41.12290592447921
 21
9.237968424479186
 72
     1
 10
41.12290592447921
 20
9.237968424479186
 11
39.79786018880216
 21
9.237968424479186
 72
     1
 10
39.79786018880216
 20
9.237968424479186
 11
39.79786018880216
 21
0.2611933593749942
 72
     1
 10
39.79786018880216
 20
0.2611933593749949
 11
41.12290592447921
 21
0.2611933593749949
 72
     1
 10
41.12290592447921
 20
0.2611933593749949
 11
41.12290592447921
 21
5.477805175781225
 97
        0
 75
     0
 76
     1
 98
        1
 10
0.0
 20
0.0
  0
HATCH
  5
118
330
68
100
AcDbEntity
  8
0
  6
Continuous
 62
     7
100
AcDbHatch
 10
0.0
 20
0.0
 30
0.0
210
0.0
220
0.0
230
1.0
  2
SOLID
 70
     1
 71
     0
 91
        1
 92
        0
 93
       24
 72
     4
 94
        3
 73
     1
 74
     0
 95
        8
 96
        4
 40
11.0
 40
11.0
 40
11.0
 40
11.0
 40
12.0
 40
12.0
 40
12.0
 40
12.0
 10
51.32825716145839
 20
9.426473714192724
 42
1.0
 10
49.43299300130211
 20
9.37098356119792
 42
1.0
 10
48.37827701822928
 20
8.200047281901046
 42
1.0
 10
48.38257649739586
 20
6.909397379557314
 42
1.0
 97
        0
 72
     4
 94
        3
 73
     1
 74
     0
 95
        8
 96
        4
 40
12.0
 40
12.0
 40
12.0
 40
12.0
 40
13.0
 40
13.0
 40
13.0
 40
13.0
 10
48.38257649739586
 20
6.909397379557314
 42
1.0
 10
48.37773958333347
 20
5.088433593750024
 42
1.0
 10
49.77641389973964
 20
4.674340006510402
 42
1.0
 10
51.06276432291678
 20
4.42792610677084
 42
1.0
 97
        0
 72
     4
 94
        3
 73
     1
 74
     0
 95
        8
 96
        4
 40
13.0
 40
13.0
 40
13.0
 40
13.0
 40
14.0
 40
14.0
 40
14.0
 40
14.0
 10
51.06276432291678
 20
4.42792610677084
 42
1.0
 10
51.7117169596355
 20
4.297598144531261
 42
1.0
 10
52.35314550781256
 20
4.193335774739571
 42
1.0
 10
52.81372721354172
 20
3.971375162760415
 42
1.0
 97
        0
 72
     4
 94
        3
 73
     1
 74
     0
 95
        8
 96
        4
 40
14.0
 40
14.0
 40
14.0
 40
14.0
 40
15.0
 40
15.0
 40
15.0
 40
15.0
 10
52.81372721354172
 20
3.971375162760415
 42
1.0
 10
53.27430891927087
 20
3.743771484374991
 42
1.0
 10
53.55055045572921
 20
3.43823974609378
 42
1.0
 10
53.55592480468751
 20
2.828788574218755
 42
1.0
 97
        0
 72
     4
 94
        3
 73
     1
 74
     0
 95
        8
 96
        4
 40
15.0
 40
15.0
 40
15.0
 40
15.0
 40
16.0
 40
16.0
 40
16.0
 40
16.0
 10
53.55592480468751
 20
2.828788574218755
 42
1.0
 10
53.55538736979171
 20
1.501055664062501
 42
1.0
 10
52.48186116536468
 20
1.197404947916675
 42
1.0
 10
51.5840761718751
 20
1.160321940104153
 42
1.0
 97
        0
 72
     4
 94
        3
 73
     1
 74
     0
 95
        8
 96
        4
 40
16.0
 40
16.0
 40
16.0
 40
16.0
 40
17.0
 40
17.0
 40
17.0
 40
17.0
 10
51.5840761718751
 20
1.160321940104153
 42
1.0
 10
50.82898014322923
 20
1.176444986979164
 42
1.0
 10
49.74792985026044
 20
1.430920410156272
 42
1.0
 10
49.38731103515626
 20
2.67239501953126
 42
1.0
 97
        0
 72
     1
 10
49.38731103515626
 20
2.67239501953126
 11
49.36393261718764
 21
2.756772298177113
 72
     1
 10
49.36393261718764
 20
2.756772298177113
 11
48.01658333333337
 21
2.756772298177113
 72
     1
 10
48.01658333333337
 20
2.756772298177113
 11
48.06360888671879
 21
2.606559244791668
 72
     4
 94
        3
 73
     1
 74
     0
 95
        8
 96
        4
 40
20.0
 40
20.0
 40
20.0
 40
20.0
 40
21.0
 40
21.0
 40
21.0
 40
21.0
 10
48.06360888671879
 20
2.606559244791668
 42
1.0
 10
48.56987255859379
 20
0.9749069010416556
 42
1.0
 10
50.06421028645847
 20
0.0706726888020925
 42
1.0
 10
51.48948763020844
 20
0.0228409830728971
 42
1.0
 97
        0
 72
     1
 10
51.48948763020844
 20
0.0228409830728971
 11
51.58945052083341
 21
0.0239158528645977
 72
     4
 94
        3
 73
     1
 74
     0
 95
        8
 96
        4
 40
22.0
 40
22.0
 40
22.0
 40
22.0
 40
23.0
 40
23.0
 40
23.0
 40
23.0
 10
51.58945052083341
 20
0.0239158528645977
 42
1.0
 10
53.68410302734383
 20
0.0962008463541442
 42
1.0
 10
54.88527001953136
 20
1.332032389322946
 42
1.0
 10
54.88204541015629
 20
2.792243001302097
 42
1.0
 97
        0
 72
     4
 94
        3
 73
     1
 74
     0
 95
        8
 96
        4
 40
23.0
 40
23.0
 40
23.0
 40
23.0
 40
24.0
 40
24.0
 40
24.0
 40
24.0
 10
54.88204541015629
 20
2.792243001302097
 42
1.0
 10
54.88634488932298
 20
4.627851888020867
 42
1.0
 10
53.49573209635427
 20
5.129278645833319
 42
1.0
 10
52.20427604166667
 20
5.417075032552093
 42
1.0
 97
        0
 72
     4
 94
        3
 73
     1
 74
     0
 95
        8
 96
        4
 40
0.0
 40
0.0
 40
0.0
 40
0.0
 40
1.0
 40
1.0
 40
1.0
 40
1.0
 10
52.20427604166667
 20
5.417075032552093
 42
1.0
 10
51.55478597005214
 20
5.566750651041675
 42
1.0
 10
50.91093896484378
 20
5.677193522135415
 42
1.0
 10
50.4468639322917
 20
5.883568522135397
 42
1.0
 97
        0
 72
     4
 94
        3
 73
     1
 74
     0
 95
        8
 96
        4
 40
1.0
 40
1.0
 40
1.0
 40
1.0
 40
2.0
 40
2.0
 40
2.0
 40
2.0
 10
50.4468639322917
 20
5.883568522135397
 42
1.0
 10
49.98090787760423
 20
6.094914794921885
 42
1.0
 10
49.71192171223959
 20
6.358795328776062
 42
1.0
 10
49.70762223307301
 20
6.873254882812541
 42
1.0
 97
        0
 72
     4
 94
        3
 73
     1
 74
     0
 95
        8
 96
        4
 40
2.0
 40
2.0
 40
2.0
 40
2.0
 40
3.0
 40
3.0
 40
3.0
 40
3.0
 10
49.70762223307301
 20
6.873254882812541
 42
1.0
 10
49.72562630208343
 20
7.668792887369796
 42
1.0
 10
50.01718473307293
 20
8.211064697265623
 42
1.0
 10
51.46584049479175
 20
8.280662516276044
 42
1.0
 97
        0
 72
     4
 94
        3
 73
     1
 74
     0
 95
        8
 96
        4
 40
3.0
 40
3.0
 40
3.0
 40
3.0
 40
4.0
 40
4.0
 40
4.0
 40
4.0
 10
51.46584049479175
 20
8.280662516276044
 42
1.0
 10
52.31525634765632
 20
8.27394458007813
 42
1.0
 10
52.87956298828134
 20
7.916416015625011
 42
1.0
 10
53.23856949869798
 20
7.313951497395832
 42
1.0
 97
        0
 72
     1
 10
53.23856949869798
 20
7.313951497395832
 11
53.27215917968753
 21
7.256983398437555
 72
     1
 10
53.27215917968753
 20
7.256983398437555
 11
54.58941210937507
 21
7.256983398437555
 72
     1
 10
54.58941210937507
 20
7.256983398437555
 11
54.51739583333337
 21
7.419691813151025
 72
     4
 94
        3
 73
     1
 74
     0
 95
        8
 96
        4
 40
7.0
 40
7.0
 40
7.0
 40
7.0
 40
8.0
 40
8.0
 40
8.0
 40
8.0
 10
54.51739583333337
 20
7.419691813151025
 42
1.0
 10
53.93938460286463
 20
8.730764241536487
 42
1.0
 10
52.81104003906256
 20
9.434266520182282
 42
1.0
 10
51.52549576822918
 20
9.432251139322917
 42
1.0
 97
        0
 72
     4
 94
        3
 73
     1
 74
     0
 95
        8
 96
        4
 40
8.0
 40
8.0
 40
8.0
 40
8.0
 40
9.0
 40
9.0
 40
9.0
 40
9.0
 10
51.52549576822918
 20
9.432251139322917
 42
1.0
 10
51.49298095703136
 20
9.432251139322917
 42
1.0
 10
51.46584049479175
 20
9.430101399739598
 42
1.0
 10
51.44219335937505
 20
9.430101399739598
 42
1.0
 97
        0
 72
     1
 10
51.44219335937505
 20
9.430101399739598
 11
51.32825716145839
 21
9.429026529947897
 72
     1
 10
51.32825716145839
 20
9.429026529947897
 11
51.32825716145839
 21
9.426473714192724
 97
        0
 75
     0
 76
     1
 98
        1
 10
0.0
 20
0.0
  0
HATCH
  5
119
330
68
100
AcDbEntity
  8
0
  6
Continuous
 62
     7
100
AcDbHatch
 10
0.0
 20
0.0
 30
0.0
210
0.0
220
0.0
230
1.0
  2
SOLID
 70
     1
 71
     0
 91
        1
 92
        0
 93
       15
 72
     4
 94
        3
 73
     1
 74
     0
 95
        8
 96
        4
 40
11.0
 40
11.0
 40
11.0
 40
11.0
 40
12.0
 40
12.0
 40
12.0
 40
12.0
 10
59.86487304687505
 20
0.042726074218763
 42
1.0
 10
61.77384179687506
 20
0.042726074218763
 42
1.0
 10
62.98602620442717
 20
0.8937542317708491
 42
1.0
 10
63.63175423177092
 20
2.557383951822922
 42
1.0
 97
        0
 72
     1
 10
63.63175423177092
 20
2.557383951822922
 11
63.69409667968762
 21
2.715389811197927
 72
     1
 10
63.69409667968762
 20
2.715389811197927
 11
62.24275374348964
 21
2.715927246093735
 72
     1
 10
62.24275374348964
 20
2.715927246093735
 11
62.21238867187506
 21
2.649822753906239
 72
     4
 94
        3
 73
     1
 74
     0
 95
        8
 96
        4
 40
0.0
 40
0.0
 40
0.0
 40
0.0
 40
1.0
 40
1.0
 40
1.0
 40
1.0
 10
62.21238867187506
 20
2.649822753906239
 42
1.0
 10
61.84021500651049
 20
1.882097005208305
 42
1.0
 10
61.16358447265635
 20
1.300055013020857
 42
1.0
 10
59.83988232421878
 20
1.29468066406252
 42
1.0
 97
        0
 72
     4
 94
        3
 73
     1
 74
     0
 95
        8
 96
        4
 40
1.0
 40
1.0
 40
1.0
 40
1.0
 40
2.0
 40
2.0
 40
2.0
 40
2.0
 10
59.83988232421878
 20
1.29468066406252
 42
1.0
 10
58.52182324218758
 20
1.298980143229184
 42
1.0
 10
57.10030794270837
 20
2.39454117838539
 42
1.0
 10
57.09573974609383
 20
4.749849609375023
 42
1.0
 97
        0
 72
     4
 94
        3
 73
     1
 74
     0
 95
        8
 96
        4
 40
2.0
 40
2.0
 40
2.0
 40
2.0
 40
3.0
 40
3.0
 40
3.0
 40
3.0
 10
57.09573974609383
 20
4.749849609375023
 42
1.0
 10
57.10192024739591
 20
7.104620605468737
 42
1.0
 10
58.51725504557304
 20
8.198569335937517
 42
1.0
 10
59.9492503255209
 20
8.204212402343785
 42
1.0
 97
        0
 72
     4
 94
        3
 73
     1
 74
     0
 95
        8
 96
        4
 40
3.0
 40
3.0
 40
3.0
 40
3.0
 40
4.0
 40
4.0
 40
4.0
 40
4.0
 10
59.9492503255209
 20
8.204212402343785
 42
1.0
 10
60.97360123697926
 20
8.200584716796937
 42
1.0
 10
61.75395670572925
 20
7.899083740234375
 42
1.0
 10
62.09979606119798
 20
7.175830729166694
 42
1.0
 97
        0
 72
     1
 10
62.09979606119798
 20
7.175830729166694
 11
62.13016113281255
 21
7.108248291015612
 72
     1
 10
62.13016113281255
 20
7.108248291015612
 11
63.5659184570313
 21
7.098843180338543
 72
     1
 10
63.5659184570313
 20
7.098843180338543
 11
63.49417089843756
 21
7.262626464843741
 72
     4
 94
        3
 73
     1
 74
     0
 95
        8
 96
        4
 40
7.0
 40
7.0
 40
7.0
 40
7.0
 40
8.0
 40
8.0
 40
8.0
 40
8.0
 10
63.49417089843756
 20
7.262626464843741
 42
1.0
 10
62.69339290364584
 20
9.104550211588542
 42
1.0
 10
61.20684798177089
 20
9.462616210937497
 42
1.0
 10
60.09408902994795
 20
9.456301350911467
 42
1.0
 97
        0
 72
     4
 94
        3
 73
     1
 74
     0
 95
        8
 96
        4
 40
8.0
 40
8.0
 40
8.0
 40
8.0
 40
9.0
 40
9.0
 40
9.0
 40
9.0
 10
60.09408902994795
 20
9.456301350911467
 42
1.0
 10
57.51681998697921
 20
9.462616210937497
 42
1.0
 10
55.79864062500006
 20
7.546929524739593
 42
1.0
 10
55.77042529296883
 20
4.750924479166668
 42
1.0
 97
        0
 72
     4
 94
        3
 73
     1
 74
     0
 95
        8
 96
        4
 40
9.0
 40
9.0
 40
9.0
 40
9.0
 40
10.0
 40
10.0
 40
10.0
 40
10.0
 10
55.77042529296883
 20
4.750924479166668
 42
1.0
 10
55.80186523437503
 20
1.950082519531271
 42
1.0
 10
57.58184960937507
 20
0.0408450520833215
 42
1.0
 10
59.83988232421878
 20
0.042726074218763
 42
1.0
 97
        0
 72
     1
 10
59.83988232421878
 20
0.042726074218763
 11
59.86487304687505
 21
0.042726074218763
 97
        0
 75
     0
 76
     1
 98
        1
 10
0.0
 20
0.0
  0
HATCH
  5
11A
330
68
100
AcDbEntity
  8
0
  6
Continuous
 62
     7
100
AcDbHatch
 10
0.0
 20
0.0
 30
0.0
210
0.0
220
0.0
230
1.0
  2
SOLID
 70
     1
 71
     0
 91
        1
 92
        0
 93
       13
 72
     4
 94
        3
 73
     1
 74
     0
 95
        8
 96
        4
 40
11.0
 40
11.0
 40
11.0
 40
11.0
 40
12.0
 40
12.0
 40
12.0
 40
12.0
 10
71.57504199218756
 20
6.298065185546875
 42
1.0
 10
71.57504199218756
 20
7.218691162109381
 42
1.0
 10
71.33749576822923
 20
8.012213785807297
 42
1.0
 10
70.80973470052088
 20
8.574773763020849
 42
1.0
 97
        0
 72
     4
 94
        3
 73
     1
 74
     0
 95
        8
 96
        4
 40
12.0
 40
12.0
 40
12.0
 40
12.0
 40
13.0
 40
13.0
 40
13.0
 40
13.0
 10
70.80973470052088
 20
8.574773763020849
 42
1.0
 10
70.2827797851563
 20
9.138542968750023
 42
1.0
 10
69.47474641927087
 20
9.457241861979188
 42
1.0
 10
68.3797228190105
 20
9.457241861979188
 42
1.0
 97
        0
 72
     4
 94
        3
 73
     1
 74
     0
 95
        8
 96
        4
 40
0.0
 40
0.0
 40
0.0
 40
0.0
 40
1.0
 40
1.0
 40
1.0
 40
1.0
 10
68.3797228190105
 20
9.457241861979188
 42
1.0
 10
67.43598714192711
 20
9.458854166666697
 42
1.0
 10
66.45355615234382
 20
9.117583007812513
 42
1.0
 10
65.85377880859377
 20
8.202197021484391
 42
1.0
 97
        0
 72
     1
 10
65.85377880859377
 20
8.202197021484391
 11
65.85377880859377
 21
11.61316194661463
 72
     1
 10
65.85377880859377
 20
11.61316194661463
 11
64.52900179036469
 21
11.61316194661463
 72
     1
 10
64.52900179036469
 20
11.61316194661463
 11
64.52900179036469
 21
0.2611933593749942
 72
     1
 10
64.52900179036469
 20
0.2611933593749949
 11
65.85377880859377
 21
0.2611933593749949
 72
     1
 10
65.85377880859377
 20
0.2611933593749949
 11
65.85377880859377
 21
5.478880045572926
 72
     4
 94
        3
 73
     1
 74
     0
 95
        8
 96
        4
 40
6.0
 40
6.0
 40
6.0
 40
6.0
 40
7.0
 40
7.0
 40
7.0
 40
7.0
 10
65.85377880859377
 20
5.478880045572926
 42
1.0
 10
65.86318391927082
 20
7.395104166666694
 42
1.0
 10
66.97540543619796
 20
8.19480729166669
 42
1.0
 10
68.23407796223968
 20
8.204212402343785
 42
1.0
 97
        0
 72
     4
 94
        3
 73
     1
 74
     0
 95
        8
 96
        4
 40
7.0
 40
7.0
 40
7.0
 40
7.0
 40
8.0
 40
8.0
 40
8.0
 40
8.0
 10
68.23407796223968
 20
8.204212402343785
 42
1.0
 10
69.58196468098964
 20
8.181774495442745
 42
1.0
 10
70.22634912109382
 20
7.703860514322924
 42
1.0
 10
70.24838395182297
 20
5.970901692708363
 42
1.0
 97
        0
 72
     1
 10
70.24838395182297
 20
5.970901692708363
 11
70.24838395182297
 21
0.2611933593749951
 72
     1
 10
70.24838395182297
 20
0.2611933593749949
 11
71.57504199218756
 21
0.2611933593749949
 72
     1
 10
71.57504199218756
 20
0.2611933593749949
 11
71.57504199218756
 21
6.298065185546875
 97
        0
 75
     0
 76
     1
 98
        1
 10
0.0
 20
0.0
  0
HATCH
  5
11B
330
68
100
AcDbEntity
  8
0
  6
Continuous
 62
     7
100
AcDbHatch
 10
0.0
 20
0.0
 30
0.0
210
0.0
220
0.0
230
1.0
  2
SOLID
 70
     1
 71
     0
 91
        2
 92
        0
 93
       34
 72
     4
 94
        3
 73
     1
 74
     0
 95
        8
 96
        4
 40
26.0
 40
26.0
 40
26.0
 40
26.0
 40
27.0
 40
27.0
 40
27.0
 40
27.0
 10
84.9423914388021
 20
1.629233886718734
 42
1.0
 10
84.87010644531256
 20
1.816529947916673
 42
1.0
 10
84.86177620442714
 20
2.110238118489594
 42
1.0
 10
84.86231363932295
 20
2.436461100260439
 42
1.0
 97
        0
 72
     1
 10
84.86231363932295
 20
2.436461100260439
 11
84.86231363932295
 21
8.09484440104169
 72
     1
 10
84.86231363932295
 20
8.09484440104169
 11
91.66274609375013
 21
8.095381835937527
 72
     1
 10
91.66274609375013
 20
8.095381835937527
 11
86.99082454427088
 21
1.160321940104153
 72
     1
 10
86.99082454427088
 20
1.160321940104153
 11
86.99082454427088
 21
0.2611933593750226
 72
     1
 10
86.99082454427088
 20
0.2611933593750226
 11
93.59993017578128
 21
0.2611933593750226
 72
     1
 10
93.59993017578128
 20
0.2611933593750226
 11
93.59993017578128
 21
1.404854817708329
 72
     1
 10
93.59993017578128
 20
1.404854817708329
 11
88.76462841796884
 21
1.404854817708329
 72
     1
 10
88.76462841796884
 20
1.404854817708329
 11
93.52764518229174
 21
8.48529085286459
 72
     1
 10
93.52764518229174
 20
8.48529085286459
 11
93.52764518229174
 21
9.237968424479186
 72
     1
 10
93.52764518229174
 20
9.237968424479186
 11
84.86231363932295
 21
9.237968424479186
 72
     1
 10
84.86231363932295
 20
9.237968424479186
 11
84.86231363932295
 21
11.61369938151041
 72
     1
 10
84.86231363932295
 20
11.61369938151041
 11
83.53699918619795
 21
11.61369938151041
 72
     1
 10
83.53699918619795
 20
11.61369938151041
 11
83.53699918619795
 21
9.237968424479186
 72
     1
 10
83.53699918619795
 20
9.237968424479186
 11
79.60136344401047
 21
9.237968424479186
 72
     1
 10
79.60136344401047
 20
9.237968424479186
 11
79.60136344401047
 21
8.40427254231771
 72
     4
 94
        3
 73
     1
 74
     0
 95
        8
 96
        4
 40
8.0
 40
8.0
 40
8.0
 40
8.0
 40
9.0
 40
9.0
 40
9.0
 40
9.0
 10
79.60136344401047
 20
8.40427254231771
 42
1.0
 10
78.87958837890629
 20
9.096085611979166
 42
1.0
 10
77.9261788736979
 20
9.457241861979188
 42
1.0
 10
76.88489876302096
 20
9.456301350911467
 42
1.0
 97
        0
 72
     4
 94
        3
 73
     1
 74
     0
 95
        8
 96
        4
 40
9.0
 40
9.0
 40
9.0
 40
9.0
 40
10.0
 40
10.0
 40
10.0
 40
10.0
 10
76.88489876302096
 20
9.456301350911467
 42
1.0
 10
75.76380957031247
 20
9.457241861979188
 42
1.0
 10
74.74053352864584
 20
9.044357503255245
 42
1.0
 10
74.00263541666673
 20
8.243982584635406
 42
1.0
 97
        0
 72
     4
 94
        3
 73
     1
 74
     0
 95
        8
 96
        4
 40
10.0
 40
10.0
 40
10.0
 40
10.0
 40
11.0
 40
11.0
 40
11.0
 40
11.0
 10
74.00263541666673
 20
8.243982584635406
 42
1.0
 10
73.26554345703128
 20
7.445354329427111
 42
1.0
 10
72.81490429687499
 20
6.265550374348977
 42
1.0
 10
72.81490429687499
 20
4.749849609375023
 42
1.0
 97
        0
 72
     4
 94
        3
 73
     1
 74
     0
 95
        8
 96
        4
 40
11.0
 40
11.0
 40
11.0
 40
11.0
 40
12.0
 40
12.0
 40
12.0
 40
12.0
 10
72.81490429687499
 20
4.749849609375023
 42
1.0
 10
72.81490429687499
 20
3.233477050781253
 42
1.0
 10
73.26554345703128
 20
2.054344889322906
 42
1.0
 10
74.00263541666673
 20
1.254910481770843
 42
1.0
 97
        0
 72
     4
 94
        3
 73
     1
 74
     0
 95
        8
 96
        4
 40
12.0
 40
12.0
 40
12.0
 40
12.0
 40
13.0
 40
13.0
 40
13.0
 40
13.0
 10
74.00263541666673
 20
1.254910481770843
 42
1.0
 10
74.74053352864584
 20
0.4562822265624933
 42
1.0
 10
75.76380957031247
 20
0.0421886393229265
 42
1.0
 10
76.88489876302096
 20
0.042726074218763
 42
1.0
 97
        0
 72
     1
 10
76.88489876302096
 20
0.042726074218763
 11
76.88704850260419
 21
0.042726074218763
 72
     4
 94
        3
 73
     1
 74
     0
 95
        8
 96
        4
 40
14.0
 40
14.0
 40
14.0
 40
14.0
 40
15.0
 40
15.0
 40
15.0
 40
15.0
 10
76.88704850260419
 20
0.042726074218763
 42
1.0
 10
77.96326188151048
 20
0.042726074218763
 42
1.0
 10
78.94569287109377
 20
0.4286043294270681
 42
1.0
 10
79.67526074218756
 20
1.166502441406259
 42
1.0
 97
        0
 72
     1
 10
79.67526074218756
 20
1.166502441406259
 11
79.84965836588553
 21
0.2611933593750226
 72
     1
 10
79.84965836588553
 20
0.2611933593750226
 11
80.95408707682294
 21
0.2611933593750226
 72
     1
 10
80.95408707682294
 20
0.2611933593750226
 11
80.95408707682294
 21
8.09484440104169
 72
     1
 10
80.95408707682294
 20
8.09484440104169
 11
83.53699918619795
 21
8.09484440104169
 72
     1
 10
83.53699918619795
 20
8.09484440104169
 11
83.53699918619795
 21
1.707699381510441
 72
     4
 94
        3
 73
     1
 74
     0
 95
        8
 96
        4
 40
20.0
 40
20.0
 40
20.0
 40
20.0
 40
21.0
 40
21.0
 40
21.0
 40
21.0
 10
83.53699918619795
 20
1.707699381510441
 42
1.0
 10
83.5348494466146
 20
1.111684082031245
 42
1.0
 10
83.72751985677095
 20
0.7201627604166427
 42
1.0
 10
84.03842594401046
 20
0.4976647135416512
 42
1.0
 97
        0
 72
     4
 94
        3
 73
     1
 74
     0
 95
        8
 96
        4
 40
21.0
 40
21.0
 40
21.0
 40
21.0
 40
22.0
 40
22.0
 40
22.0
 40
22.0
 10
84.03842594401046
 20
0.4976647135416512
 42
1.0
 10
84.34771972656252
 20
0.2751666666666597
 42
1.0
 10
84.74488411458336
 20
0.2203483072916457
 42
1.0
 10
85.14742285156251
 20
0.219810872395837
 42
1.0
 97
        0
 72
     4
 94
        2
 73
     1
 74
     0
 95
        6
 96
        3
 40
22.0
 40
22.0
 40
22.0
 40
23.0
 40
23.0
 40
23.0
 10
85.14742285156251
 20
0.219810872395837
 42
1.0
 10
85.22078271484379
 20
0.219810872395837
 42
1.0
 10
86.31634375000007
 20
0.2192734375000005
 42
1.0
 97
        0
 72
     1
 10
86.31634375000007
 20
0.2192734375000005
 11
86.31634375000007
 21
1.34761800130212
 72
     4
 94
        2
 73
     1
 74
     0
 95
        6
 96
        3
 40
24.0
 40
24.0
 40
24.0
 40
25.0
 40
25.0
 40
25.0
 10
86.31634375000007
 20
1.34761800130212
 42
1.0
 10
85.8866645507813
 20
1.34761800130212
 42
1.0
 10
85.38470035807299
 20
1.34761800130212
 42
1.0
 97
        0
 72
     4
 94
        3
 73
     1
 74
     0
 95
        8
 96
        4
 40
25.0
 40
25.0
 40
25.0
 40
25.0
 40
26.0
 40
26.0
 40
26.0
 40
26.0
 10
85.38470035807299
 20
1.34761800130212
 42
1.0
 10
85.10926497395832
 20
1.354873372395898
 42
1.0
 10
85.0187071940105
 20
1.44462500000006
 42
1.0
 10
84.9423914388021
 20
1.629233886718734
 42
1.0
 97
        0
 97
        0
 92
        0
 93
        5
 72
     4
 94
        3
 73
     1
 74
     0
 95
        8
 96
        4
 40
3.0
 40
3.0
 40
3.0
 40
3.0
 40
4.0
 40
4.0
 40
4.0
 40
4.0
 10
76.88489876302096
 20
8.204212402343785
 42
1.0
 10
78.4337861328126
 20
8.200584716796937
 42
1.0
 10
79.62124853515628
 20
6.950779866536499
 42
1.0
 10
79.62931005859375
 20
4.749849609375023
 42
1.0
 97
        0
 72
     4
 94
        3
 73
     1
 74
     0
 95
        8
 96
        4
 40
4.0
 40
4.0
 40
4.0
 40
4.0
 40
5.0
 40
5.0
 40
5.0
 40
5.0
 10
79.62931005859375
 20
4.749849609375023
 42
1.0
 10
79.62124853515628
 20
2.531049641927074
 42
1.0
 10
78.43486100260422
 20
1.299517578124992
 42
1.0
 10
76.88489876302096
 20
1.295218098958356
 42
1.0
 97
        0
 72
     4
 94
        3
 73
     1
 74
     0
 95
        8
 96
        4
 40
0.0
 40
0.0
 40
0.0
 40
0.0
 40
1.0
 40
1.0
 40
1.0
 40
1.0
 10
76.88489876302096
 20
1.295218098958356
 42
1.0
 10
75.33466780598962
 20
1.299517578124992
 42
1.0
 10
74.1480115559896
 20
2.531049641927074
 42
1.0
 10
74.14075618489579
 20
4.749849609375023
 42
1.0
 97
        0
 72
     1
 10
74.14075618489579
 20
4.749849609375023
 11
74.14021874999999
 21
4.749849609375023
 72
     4
 94
        3
 73
     1
 74
     0
 95
        8
 96
        4
 40
2.0
 40
2.0
 40
2.0
 40
2.0
 40
3.0
 40
3.0
 40
3.0
 40
3.0
 10
74.14021874999999
 20
4.749849609375023
 42
1.0
 10
74.1480115559896
 20
6.950779866536499
 42
1.0
 10
75.33574267578136
 20
8.200584716796937
 42
1.0
 10
76.88489876302096
 20
8.204212402343785
 42
1.0
 97
        0
 97
        0
 75
     0
 76
     1
 98
        1
 10
0.0
 20
0.0
  0
ENDBLK
  5
6A
330
68
100
AcDbEntity
  8
0
100
AcDbBlockEnd
  0
BLOCK
  5
1A6
330
1A5
100
AcDbEntity
  8
0
100
AcDbBlockBegin
  2
_D
 70
     0
 10
0.0
 20
0.0
 30
0.0
  3
_D
  1

  0
SOLID
  5
1A8
330
1A5
100
AcDbEntity
  8
0
  6
SLD-Durchgehend
 62
     1
370
    18
100
AcDbTrace
 10
193.8446413755
 20
398.0879360866
 30
0.0
 11
187.2406413755
 21
399.1039360866
 31
0.0
 12
187.2406413755
 22
397.0719360866
 32
0.0
 13
187.2406413755
 23
397.0719360866
 33
0.0
  0
SOLID
  5
1A9
330
1A5
100
AcDbEntity
  8
0
  6
SLD-Durchgehend
 62
     1
370
    18
100
AcDbTrace
 10
108.6946413755
 20
398.0879360866
 30
0.0
 11
115.2986413755
 21
397.0719360866
 31
0.0
 12
115.2986413755
 22
399.1039360866
 32
0.0
 13
115.2986413755
 23
399.1039360866
 33
0.0
  0
LINE
  5
1AA
330
1A5
100
AcDbEntity
  8
0
  6
SLD-Durchgehend
 62
     1
370
     0
100
AcDbLine
 10
193.8446413755
 20
417.5879360866
 30
0.0
 11
193.8446413755
 21
396.0879360866
 31
0.0
  0
LINE
  5
1AB
330
1A5
100
AcDbEntity
  8
0
  6
SLD-Durchgehend
 62
     1
370
     0
100
AcDbLine
 10
108.6946413755
 20
426.0879360866
 30
0.0
 11
108.6946413755
 21
396.0879360866
 31
0.0
  0
LINE
  5
1AC
330
1A5
100
AcDbEntity
  8
0
  6
SLD-Durchgehend
 62
     1
370
     0
100
AcDbLine
 10
193.8446413755
 20
398.0879360866
 30
0.0
 11
108.6946413755
 21
398.0879360866
 31
0.0
  0
MTEXT
  5
1AD
330
1A5
100
AcDbEntity
  8
0
  6
SLD-Durchgehend
 62
     1
370
    18
100
AcDbMText
 10
146.0974189885
 20
407.0293419873
 30
0.0
 40
7.0
 41
0.0
 46
0.0
 71
     1
 72
     1
  1
85
  7
SLDTEXTSTYLE0
 73
     1
 44
1.0
  0
ENDBLK
  5
1A7
330
1A5
100
AcDbEntity
  8
0
100
AcDbBlockEnd
  0
BLOCK
  5
1B1
330
1B0
100
AcDbEntity
  8
0
100
AcDbBlockBegin
  2
_D_1
 70
     0
 10
0.0
 20
0.0
 30
0.0
  3
_D_1
  1

  0
SOLID
  5
1B3
330
1B0
100
AcDbEntity
  8
0
  6
SLD-Durchgehend
 62
     1
370
    18
100
AcDbTrace
 10
88.6946413755
 20
428.0879360866
 30
0.0
 11
87.6786413755
 21
421.4839360866
 31
0.0
 12
89.7106413755
 22
421.4839360866
 32
0.0
 13
89.7106413755
 23
421.4839360866
 33
0.0
  0
SOLID
  5
1B4
330
1B0
100
AcDbEntity
  8
0
  6
SLD-Durchgehend
 62
     1
370
    18
100
AcDbTrace
 10
88.6946413755
 20
448.0879360866
 30
0.0
 11
89.7106413755
 21
454.6919360866
 31
0.0
 12
87.6786413755
 22
454.6919360866
 32
0.0
 13
87.6786413755
 23
454.6919360866
 33
0.0
  0
LINE
  5
1B5
330
1B0
100
AcDbEntity
  8
0
  6
SLD-Durchgehend
 62
     1
370
     0
100
AcDbLine
 10
106.6946413755
 20
428.0879360866
 30
0.0
 11
86.6946413755
 21
428.0879360866
 31
0.0
  0
LINE
  5
1B6
330
1B0
100
AcDbEntity
  8
0
  6
SLD-Durchgehend
 62
     1
370
     0
100
AcDbLine
 10
106.6946413755
 20
448.0879360866
 30
0.0
 11
86.6946413755
 21
448.0879360866
 31
0.0
  0
LINE
  5
1B7
330
1B0
100
AcDbEntity
  8
0
  6
SLD-Durchgehend
 62
     1
370
     0
100
AcDbLine
 10
88.6946413755
 20
428.0879360866
 30
0.0
 11
88.6946413755
 21
415.3879360866
 31
0.0
  0
LINE
  5
1B8
330
1B0
100
AcDbEntity
  8
0
  6
SLD-Durchgehend
 62
     1
370
     0
100
AcDbLine
 10
88.6946413755
 20
428.0879360866
 30
0.0
 11
88.6946413755
 21
448.0879360866
 31
0.0
  0
LINE
  5
1B9
330
1B0
100
AcDbEntity
  8
0
  6
SLD-Durchgehend
 62
     1
370
     0
100
AcDbLine
 10
88.6946413755
 20
448.0879360866
 30
0.0
 11
88.6946413755
 21
460.7879360866
 31
0.0
  0
MTEXT
  5
1BA
330
1B0
100
AcDbEntity
  8
0
  6
SLD-Durchgehend
 62
     1
370
    18
100
AcDbMText
 10
79.7532354748
 20
432.9157136995
 30
0.0
 40
7.0
 41
0.0
 46
0.0
 71
     1
 72
     1
  1
20
  7
SLDTEXTSTYLE0
 11
6.123233995736766E-17
 21
1.0
 31
0.0
 73
     1
 44
1.0
  0
ENDBLK
  5
1B2
330
1B0
100
AcDbEntity
  8
0
100
AcDbBlockEnd
  0
BLOCK
  5
22A
330
229
100
AcDbEntity
  8
0
100
AcDbBlockBegin
  2
_D_2
 70
     0
 10
0.0
 20
0.0
 30
0.0
  3
_D_2
  1

  0
SOLID
  5
22C
330
229
100
AcDbEntity
  8
0
  6
SLD-Durchgehend
 62
     1
370
    18
100
AcDbTrace
 10
306.7620063365
 20
356.2172522712
 30
0.0
 11
305.7460063365
 21
349.6132522712
 31
0.0
 12
307.7780063365
 22
349.6132522712
 32
0.0
 13
307.7780063365
 23
349.6132522712
 33
0.0
  0
SOLID
  5
22D
330
229
100
AcDbEntity
  8
0
  6
SLD-Durchgehend
 62
     1
370
    18
100
AcDbTrace
 10
306.7620063365
 20
288.5672522712
 30
0.0
 11
307.7780063365
 21
295.1712522712
 31
0.0
 12
305.7460063365
 22
295.1712522712
 32
0.0
 13
305.7460063365
 23
295.1712522712
 33
0.0
  0
LINE
  5
22E
330
229
100
AcDbEntity
  8
0
  6
SLD-Durchgehend
 62
     1
370
     0
100
AcDbLine
 10
285.7078882413
 20
356.2172522712
 30
0.0
 11
308.7620063365
 21
356.2172522712
 31
0.0
  0
LINE
  5
22F
330
229
100
AcDbEntity
  8
0
  6
SLD-Durchgehend
 62
     1
370
     0
100
AcDbLine
 10
268.7620063365
 20
288.5672522712
 30
0.0
 11
308.7620063365
 21
288.5672522712
 31
0.0
  0
LINE
  5
230
330
229
100
AcDbEntity
  8
0
  6
SLD-Durchgehend
 62
     1
370
     0
100
AcDbLine
 10
306.7620063365
 20
356.2172522712
 30
0.0
 11
306.7620063365
 21
288.5672522712
 31
0.0
  0
MTEXT
  5
231
330
229
100
AcDbEntity
  8
0
  6
SLD-Durchgehend
 62
     1
370
    18
100
AcDbMText
 10
297.8206004358
 20
317.2200298842
 30
0.0
 40
7.0
 41
0.0
 46
0.0
 71
     1
 72
     1
  1
68
  7
SLDTEXTSTYLE0
 11
-7.932373437343760E-15
 21
1.0
 31
0.0
 73
     1
 44
1.0
  0
ENDBLK
  5
22B
330
229
100
AcDbEntity
  8
0
100
AcDbBlockEnd
  0
BLOCK
  5
234
330
233
100
AcDbEntity
  8
0
100
AcDbBlockBegin
  2
_D_3
 70
     0
 10
0.0
 20
0.0
 30
0.0
  3
_D_3
  1

  0
SOLID
  5
236
330
233
100
AcDbEntity
  8
0
  6
SLD-Durchgehend
 62
     1
370
    18
100
AcDbTrace
 10
252.2620063365
 20
251.0672522712
 30
0.0
 11
245.6580063365
 21
252.0832522712
 31
0.0
 12
245.6580063365
 22
250.0512522712
 32
0.0
 13
245.6580063365
 23
250.0512522712
 33
0.0
  0
SOLID
  5
237
330
233
100
AcDbEntity
  8
0
  6
SLD-Durchgehend
 62
     1
370
    18
100
AcDbTrace
 10
281.2620063365
 20
251.0672522712
 30
0.0
 11
287.8660063365
 21
250.0512522712
 31
0.0
 12
287.8660063365
 22
252.0832522712
 32
0.0
 13
287.8660063365
 23
252.0832522712
 33
0.0
  0
LINE
  5
238
330
233
100
AcDbEntity
  8
0
  6
SLD-Durchgehend
 62
     1
370
     0
100
AcDbLine
 10
252.2620063365
 20
286.5672522712
 30
0.0
 11
252.2620063365
 21
249.0672522712
 31
0.0
  0
LINE
  5
239
330
233
100
AcDbEntity
  8
0
  6
SLD-Durchgehend
 62
     1
370
     0
100
AcDbLine
 10
281.2620063365
 20
286.5672522712
 30
0.0
 11
281.2620063365
 21
249.0672522712
 31
0.0
  0
LINE
  5
23A
330
233
100
AcDbEntity
  8
0
  6
SLD-Durchgehend
 62
     1
370
     0
100
AcDbLine
 10
252.2620063365
 20
251.0672522712
 30
0.0
 11
239.5620063365
 21
251.0672522712
 31
0.0
  0
LINE
  5
23B
330
233
100
AcDbEntity
  8
0
  6
SLD-Durchgehend
 62
     1
370
     0
100
AcDbLine
 10
252.2620063365
 20
251.0672522712
 30
0.0
 11
281.2620063365
 21
251.0672522712
 31
0.0
  0
LINE
  5
23C
330
233
100
AcDbEntity
  8
0
  6
SLD-Durchgehend
 62
     1
370
     0
100
AcDbLine
 10
281.2620063365
 20
251.0672522712
 30
0.0
 11
293.9620063365
 21
251.0672522712
 31
0.0
  0
MTEXT
  5
23D
330
233
100
AcDbEntity
  8
0
  6
SLD-Durchgehend
 62
     1
370
    18
100
AcDbMText
 10
254.9281909921
 20
260.0086585212
 30
0.0
 40
7.0
 41
0.0
 46
0.0
 71
     1
 72
     1
  1
%%c
  7
SLDTEXTSTYLE0
 73
     1
 44
1.0
  0
MTEXT
  5
23E
330
233
100
AcDbEntity
  8
0
  6
SLD-Durchgehend
 62
     1
370
    18
100
AcDbMText
 10
265.4850657889
 20
260.1156028745
 30
0.0
 40
7.0
 41
0.0
 46
0.0
 71
     1
 72
     1
  1
29
  7
SLDTEXTSTYLE0
 73
     1
 44
1.0
  0
ENDBLK
  5
235
330
233
100
AcDbEntity
  8
0
100
AcDbBlockEnd
  0
BLOCK
  5
252
330
251
100
AcDbEntity
  8
0
100
AcDbBlockBegin
  2
_D_4
 70
     0
 10
0.0
 20
0.0
 30
0.0
  3
_D_4
  1

  0
SOLID
  5
254
330
251
100
AcDbEntity
  8
0
  6
SLD-Durchgehend
 62
     1
370
    18
100
AcDbTrace
 10
246.7620063365
 20
398.0879360866
 30
0.0
 11
240.1580063365
 21
399.1039360866
 31
0.0
 12
240.1580063365
 22
397.0719360866
 32
0.0
 13
240.1580063365
 23
397.0719360866
 33
0.0
  0
SOLID
  5
255
330
251
100
AcDbEntity
  8
0
  6
SLD-Durchgehend
 62
     1
370
    18
100
AcDbTrace
 10
286.7620063365
 20
398.0879360866
 30
0.0
 11
293.3660063365
 21
397.0719360866
 31
0.0
 12
293.3660063365
 22
399.1039360866
 32
0.0
 13
293.3660063365
 23
399.1039360866
 33
0.0
  0
LINE
  5
256
330
251
100
AcDbEntity
  8
0
  6
SLD-Durchgehend
 62
     1
370
     0
100
AcDbLine
 10
246.7620063365
 20
436.0879360866
 30
0.0
 11
246.7620063365
 21
396.0879360866
 31
0.0
  0
LINE
  5
257
330
251
100
AcDbEntity
  8
0
  6
SLD-Durchgehend
 62
     1
370
     0
100
AcDbLine
 10
286.7620063365
 20
436.0879360866
 30
0.0
 11
286.7620063365
 21
396.0879360866
 31
0.0
  0
LINE
  5
258
330
251
100
AcDbEntity
  8
0
  6
SLD-Durchgehend
 62
     1
370
     0
100
AcDbLine
 10
246.7620063365
 20
398.0879360866
 30
0.0
 11
234.0620063365
 21
398.0879360866
 31
0.0
  0
LINE
  5
259
330
251
100
AcDbEntity
  8
0
  6
SLD-Durchgehend
 62
     1
370
     0
100
AcDbLine
 10
246.7620063365
 20
398.0879360866
 30
0.0
 11
286.7620063365
 21
398.0879360866
 31
0.0
  0
LINE
  5
25A
330
251
100
AcDbEntity
  8
0
  6
SLD-Durchgehend
 62
     1
370
     0
100
AcDbLine
 10
286.7620063365
 20
398.0879360866
 30
0.0
 11
299.4620063365
 21
398.0879360866
 31
0.0
  0
MTEXT
  5
25B
330
251
100
AcDbEntity
  8
0
  6
SLD-Durchgehend
 62
     1
370
    18
100
AcDbMText
 10
254.8004537414
 20
407.0293423366
 30
0.0
 40
7.0
 41
0.0
 46
0.0
 71
     1
 72
     1
  1
%%c
  7
SLDTEXTSTYLE0
 73
     1
 44
1.0
  0
MTEXT
  5
25C
330
251
100
AcDbEntity
  8
0
  6
SLD-Durchgehend
 62
     1
370
    18
100
AcDbMText
 10
265.3573285381
 20
407.1362866899
 30
0.0
 40
7.0
 41
0.0
 46
0.0
 71
     1
 72
     1
  1
40
  7
SLDTEXTSTYLE0
 73
     1
 44
1.0
  0
ENDBLK
  5
253
330
251
100
AcDbEntity
  8
0
100
AcDbBlockEnd
  0
ENDSEC
  0
SECTION
  2
ENTITIES
  0
LINE
  5
11C
330
1F
100
AcDbEntity
  8
0
  6
SLD-Durchgehend
 62
     7
370
    25
100
AcDbLine
 10
193.1946413755
 20
419.5879360866
 30
0.0
 11
193.8446413755
 21
419.5879360866
 31
0.0
  0
LINE
  5
11D
330
1F
100
AcDbEntity
  8
0
  6
SLD-Durchgehend
 62
     7
370
    25
100
AcDbLine
 10
193.7946413755
 20
456.5879360866
 30
0.0
 11
193.1946413755
 21
456.5879360866
 31
0.0
  0
LINE
  5
11E
330
1F
100
AcDbEntity
  8
0
  6
SLD-Durchgehend
 62
     7
370
    25
100
AcDbLine
 10
193.8446413755
 20
461.0879360866
 30
0.0
 11
193.7946413755
 21
461.0879360866
 31
0.0
  0
LINE
  5
11F
330
1F
100
AcDbEntity
  8
0
  6
SLD-Durchgehend
 62
     7
370
    25
100
AcDbLine
 10
182.207682286
 20
430.0753265682
 30
0.0
 11
182.2227097248
 21
430.0879360866
 31
0.0
  0
LINE
  5
120
330
1F
100
AcDbEntity
  8
0
  6
SLD-Durchgehend
 62
     7
370
    25
100
AcDbLine
 10
143.6946413755
 20
446.5879360866
 30
0.0
 11
143.6946413755
 21
448.0879360866
 31
0.0
  0
LINE
  5
121
330
1F
100
AcDbEntity
  8
0
  6
SLD-Durchgehend
 62
     7
370
    25
100
AcDbLine
 10
143.6946413755
 20
428.0879360866
 30
0.0
 11
143.6946413755
 21
429.608780499
 31
0.0
  0
LINE
  5
122
330
1F
100
AcDbEntity
  8
0
  6
SLD-Durchgehend
 62
     7
370
    25
100
AcDbLine
 10
108.6946413755
 20
448.0879360866
 30
0.0
 11
108.6946413755
 21
428.0879360866
 31
0.0
  0
SPLINE
  5
123
330
1F
100
AcDbEntity
  8
0
  6
SLD-Durchgehend
 62
     7
370
    25
100
AcDbSpline
210
0.0
220
0.0
230
1.0
 70
     8
 71
     3
 72
    13
 73
     9
 74
     0
 42
0.00000001
 43
0.00000001
 40
0.0
 40
0.0
 40
0.0
 40
0.0
 40
0.0087439646023073
 40
0.2494668710073491
 40
0.4694894924313884
 40
0.6936677748628763
 40
0.933643950262772
 40
0.9999999999999999
 40
0.9999999999999999
 40
0.9999999999999999
 40
0.9999999999999999
 10
143.6947674268176
 20
429.6127803297498
 30
0.0
 10
143.6946317755236
 20
429.6149072517152
 30
0.0
 10
143.6907616198905
 20
429.6755887150693
 30
0.0
 10
143.7287447225964
 20
429.7935385115476
 30
0.0
 10
143.8217377249647
 20
429.9383967707926
 30
0.0
 10
143.9612074450244
 20
430.0411216222493
 30
0.0
 10
144.0905054088231
 20
430.0892883307083
 30
0.0
 10
144.1670583651035
 20
430.085093726382
 30
0.0
 10
144.1836408574358
 20
430.0841851136065
 30
0.0
  0
SPLINE
  5
124
330
1F
100
AcDbEntity
  8
0
  6
SLD-Durchgehend
 62
     7
370
    25
100
AcDbSpline
210
0.0
220
0.0
230
1.0
 70
     8
 71
     3
 72
    14
 73
    10
 74
     0
 42
0.00000001
 43
0.00000001
 40
0.0
 40
0.0
 40
0.0
 40
0.0
 40
0.0446112161647829
 40
0.2565440518024971
 40
0.4904401938465716
 40
0.6756953577666145
 40
0.831936980585469
 40
0.9657374244060387
 40
1.0
 40
1.0
 40
1.0
 40
1.0
 10
144.1939791853037
 20
446.0915766933901
 30
0.0
 10
144.1823137856508
 20
446.090258429986
 30
0.0
 10
144.1152300082928
 20
446.0826775419465
 30
0.0
 10
143.9870941023802
 20
446.1234403649408
 30
0.0
 10
143.8464689804088
 20
446.2141356723274
 30
0.0
 10
143.7534729130949
 20
446.337147710237
 30
0.0
 10
143.7082287280784
 20
446.4538140305704
 30
0.0
 10
143.692261958077
 20
446.538964042713
 30
0.0
 10
143.6947984660879
 20
446.5822556674363
 30
0.0
 10
143.6953155774534
 20
446.5910814196442
 30
0.0
  0
LINE
  5
125
330
1F
100
AcDbEntity
  8
0
  6
SLD-Durchgehend
 62
     7
370
    25
100
AcDbLine
 10
182.2539573686
 20
430.0879360866
 30
0.0
 11
186.1946413755
 21
430.0879360866
 31
0.0
  0
LINE
  5
126
330
1F
100
AcDbEntity
  8
0
  6
SLD-Durchgehend
 62
     7
370
    25
100
AcDbLine
 10
150.1679861103
 20
430.0879360866
 30
0.0
 11
178.0652301296
 21
430.0879360866
 31
0.0
  0
LINE
  5
127
330
1F
100
AcDbEntity
  8
0
  6
SLD-Durchgehend
 62
     7
370
    25
100
AcDbLine
 10
144.1848822566
 20
430.0879360866
 30
0.0
 11
146.1946413755
 21
430.0879360866
 31
0.0
  0
LINE
  5
128
330
1F
100
AcDbEntity
  8
0
  6
SLD-Durchgehend
 62
     7
370
    25
100
AcDbLine
 10
186.1946413755
 20
446.0879360866
 30
0.0
 11
144.1946413755
 21
446.0879360866
 31
0.0
  0
LINE
  5
129
330
1F
100
AcDbEntity
  8
0
  6
SLD-Durchgehend
 62
     7
370
    25
100
AcDbLine
 10
193.1946413755
 20
458.0879360866
 30
0.0
 11
186.6946413755
 21
458.0879360866
 31
0.0
  0
LINE
  5
12A
330
1F
100
AcDbEntity
  8
0
  6
SLD-Durchgehend
 62
     7
370
    25
100
AcDbLine
 10
186.6946413755
 20
418.0879360866
 30
0.0
 11
193.1946413755
 21
418.0879360866
 31
0.0
  0
ARC
  5
12B
330
1F
100
AcDbEntity
  8
0
  6
SLD-Durchgehend
 62
     7
370
    25
100
AcDbCircle
 10
186.6946413755
 20
418.5879360866
 30
0.0
 40
0.5
100
AcDbArc
 50
180.0
 51
270.0
  0
ARC
  5
12C
330
1F
100
AcDbEntity
  8
0
  6
SLD-Durchgehend
 62
     7
370
    25
100
AcDbCircle
 10
186.6946413755
 20
457.5879360866
 30
0.0
 40
0.5
100
AcDbArc
 50
90.0
 51
180.0
  0
LINE
  5
12D
330
1F
100
AcDbEntity
  8
0
  6
SLD-Durchgehend
 62
     7
370
    25
100
AcDbLine
 10
193.8446413755
 20
456.1503279547
 30
0.0
 11
193.7946413755
 21
456.1503279547
 31
0.0
  0
LINE
  5
12E
330
1F
100
AcDbEntity
  8
0
  6
SLD-Durchgehend
 62
     7
370
    25
100
AcDbLine
 10
193.8446413755
 20
456.1503279547
 30
0.0
 11
193.8446413755
 21
454.8747860092
 31
0.0
  0
LINE
  5
12F
330
1F
100
AcDbEntity
  8
0
  6
SLD-Durchgehend
 62
     7
370
    25
100
AcDbLine
 10
193.8446413755
 20
454.8747860092
 30
0.0
 11
193.8346413755
 21
454.8747860092
 31
0.0
  0
LINE
  5
130
330
1F
100
AcDbEntity
  8
0
  6
SLD-Durchgehend
 62
     7
370
    25
100
AcDbLine
 10
193.8346413755
 20
454.8258322907
 30
0.0
 11
193.8346413755
 21
454.8747860092
 31
0.0
  0
LINE
  5
131
330
1F
100
AcDbEntity
  8
0
  6
SLD-Durchgehend
 62
     7
370
    25
100
AcDbLine
 10
193.8346413755
 20
454.8258322907
 30
0.0
 11
193.8446413755
 21
454.8258322907
 31
0.0
  0
LINE
  5
132
330
1F
100
AcDbEntity
  8
0
  6
SLD-Durchgehend
 62
     7
370
    25
100
AcDbLine
 10
193.8446413755
 20
454.8258322907
 30
0.0
 11
193.8446413755
 21
454.8171333192
 31
0.0
  0
LINE
  5
133
330
1F
100
AcDbEntity
  8
0
  6
SLD-Durchgehend
 62
     7
370
    25
100
AcDbLine
 10
193.8446413755
 20
454.8171333192
 30
0.0
 11
193.8346413755
 21
454.8171333192
 31
0.0
  0
LINE
  5
134
330
1F
100
AcDbEntity
  8
0
  6
SLD-Durchgehend
 62
     7
370
    25
100
AcDbLine
 10
193.8346413755
 20
454.7498210815
 30
0.0
 11
193.8346413755
 21
454.8171333192
 31
0.0
  0
LINE
  5
135
330
1F
100
AcDbEntity
  8
0
  6
SLD-Durchgehend
 62
     7
370
    25
100
AcDbLine
 10
193.8346413755
 20
454.7498210815
 30
0.0
 11
193.8446413755
 21
454.7498210815
 31
0.0
  0
LINE
  5
136
330
1F
100
AcDbEntity
  8
0
  6
SLD-Durchgehend
 62
     7
370
    25
100
AcDbLine
 10
193.8446413755
 20
454.7498210815
 30
0.0
 11
193.8446413755
 21
454.5257655646
 31
0.0
  0
LINE
  5
137
330
1F
100
AcDbEntity
  8
0
  6
SLD-Durchgehend
 62
     7
370
    25
100
AcDbLine
 10
193.8446413755
 20
454.5257655646
 30
0.0
 11
193.8346413755
 21
454.5257655646
 31
0.0
  0
LINE
  5
138
330
1F
100
AcDbEntity
  8
0
  6
SLD-Durchgehend
 62
     7
370
    25
100
AcDbLine
 10
193.8346413755
 20
454.4521736659
 30
0.0
 11
193.8346413755
 21
454.5257655646
 31
0.0
  0
LINE
  5
139
330
1F
100
AcDbEntity
  8
0
  6
SLD-Durchgehend
 62
     7
370
    25
100
AcDbLine
 10
193.8346413755
 20
454.4521736659
 30
0.0
 11
193.8446413755
 21
454.4521736659
 31
0.0
  0
LINE
  5
13A
330
1F
100
AcDbEntity
  8
0
  6
SLD-Durchgehend
 62
     7
370
    25
100
AcDbLine
 10
193.8446413755
 20
454.4521736659
 30
0.0
 11
193.8446413755
 21
453.9411233955
 31
0.0
  0
LINE
  5
13B
330
1F
100
AcDbEntity
  8
0
  6
SLD-Durchgehend
 62
     7
370
    25
100
AcDbLine
 10
193.8446413755
 20
453.9411233955
 30
0.0
 11
193.8346413755
 21
453.9411233955
 31
0.0
  0
LINE
  5
13C
330
1F
100
AcDbEntity
  8
0
  6
SLD-Durchgehend
 62
     7
370
    25
100
AcDbLine
 10
193.8346413755
 20
453.9411233955
 30
0.0
 11
193.8346413755
 21
453.8330942547
 31
0.0
  0
LINE
  5
13D
330
1F
100
AcDbEntity
  8
0
  6
SLD-Durchgehend
 62
     7
370
    25
100
AcDbLine
 10
193.8346413755
 20
453.8330942547
 30
0.0
 11
193.8446413755
 21
453.8330942547
 31
0.0
  0
LINE
  5
13E
330
1F
100
AcDbEntity
  8
0
  6
SLD-Durchgehend
 62
     7
370
    25
100
AcDbLine
 10
193.8446413755
 20
453.8330942547
 30
0.0
 11
193.8446413755
 21
453.5078382077
 31
0.0
  0
LINE
  5
13F
330
1F
100
AcDbEntity
  8
0
  6
SLD-Durchgehend
 62
     7
370
    25
100
AcDbLine
 10
193.8446413755
 20
453.5078382077
 30
0.0
 11
193.8346413755
 21
453.5078382077
 31
0.0
  0
LINE
  5
140
330
1F
100
AcDbEntity
  8
0
  6
SLD-Durchgehend
 62
     7
370
    25
100
AcDbLine
 10
193.8346413755
 20
453.5078382077
 30
0.0
 11
193.8346413755
 21
453.2904188518
 31
0.0
  0
LINE
  5
141
330
1F
100
AcDbEntity
  8
0
  6
SLD-Durchgehend
 62
     7
370
    25
100
AcDbLine
 10
193.8346413755
 20
453.2904188518
 30
0.0
 11
193.8446413755
 21
453.2904188518
 31
0.0
  0
LINE
  5
142
330
1F
100
AcDbEntity
  8
0
  6
SLD-Durchgehend
 62
     7
370
    25
100
AcDbLine
 10
193.8446413755
 20
453.2904188518
 30
0.0
 11
193.8446413755
 21
453.0444506303
 31
0.0
  0
LINE
  5
143
330
1F
100
AcDbEntity
  8
0
  6
SLD-Durchgehend
 62
     7
370
    25
100
AcDbLine
 10
193.8446413755
 20
453.0444506303
 30
0.0
 11
193.8346413755
 21
453.0444506303
 31
0.0
  0
LINE
  5
144
330
1F
100
AcDbEntity
  8
0
  6
SLD-Durchgehend
 62
     7
370
    25
100
AcDbLine
 10
193.8346413755
 20
452.8881400387
 30
0.0
 11
193.8346413755
 21
453.0444506303
 31
0.0
  0
LINE
  5
145
330
1F
100
AcDbEntity
  8
0
  6
SLD-Durchgehend
 62
     7
370
    25
100
AcDbLine
 10
193.8346413755
 20
452.8881400387
 30
0.0
 11
193.8446413755
 21
452.8881400387
 31
0.0
  0
LINE
  5
146
330
1F
100
AcDbEntity
  8
0
  6
SLD-Durchgehend
 62
     7
370
    25
100
AcDbLine
 10
193.8446413755
 20
452.8881400387
 30
0.0
 11
193.8446413755
 21
448.1424535923
 31
0.0
  0
LINE
  5
147
330
1F
100
AcDbEntity
  8
0
  6
SLD-Durchgehend
 62
     7
370
    25
100
AcDbLine
 10
193.8446413755
 20
448.1424535923
 30
0.0
 11
193.8346413755
 21
448.1424535923
 31
0.0
  0
LINE
  5
148
330
1F
100
AcDbEntity
  8
0
  6
SLD-Durchgehend
 62
     7
370
    25
100
AcDbLine
 10
193.8346413755
 20
447.7871576807
 30
0.0
 11
193.8346413755
 21
448.1424535923
 31
0.0
  0
LINE
  5
149
330
1F
100
AcDbEntity
  8
0
  6
SLD-Durchgehend
 62
     7
370
    25
100
AcDbLine
 10
193.8346413755
 20
447.7871576807
 30
0.0
 11
193.8446413755
 21
447.7871576807
 31
0.0
  0
LINE
  5
14A
330
1F
100
AcDbEntity
  8
0
  6
SLD-Durchgehend
 62
     7
370
    25
100
AcDbLine
 10
193.8446413755
 20
447.7871576807
 30
0.0
 11
193.8446413755
 21
447.3070595711
 31
0.0
  0
LINE
  5
14B
330
1F
100
AcDbEntity
  8
0
  6
SLD-Durchgehend
 62
     7
370
    25
100
AcDbLine
 10
193.8446413755
 20
447.3070595711
 30
0.0
 11
193.8346413755
 21
447.3070595711
 31
0.0
  0
LINE
  5
14C
330
1F
100
AcDbEntity
  8
0
  6
SLD-Durchgehend
 62
     7
370
    25
100
AcDbLine
 10
193.8346413755
 20
447.3070595711
 30
0.0
 11
193.8346413755
 21
447.0611931488
 31
0.0
  0
LINE
  5
14D
330
1F
100
AcDbEntity
  8
0
  6
SLD-Durchgehend
 62
     7
370
    25
100
AcDbLine
 10
193.8346413755
 20
447.0611931488
 30
0.0
 11
193.8446413755
 21
447.0611931488
 31
0.0
  0
LINE
  5
14E
330
1F
100
AcDbEntity
  8
0
  6
SLD-Durchgehend
 62
     7
370
    25
100
AcDbLine
 10
193.8446413755
 20
447.0611931488
 30
0.0
 11
193.8446413755
 21
446.85044979
 31
0.0
  0
LINE
  5
14F
330
1F
100
AcDbEntity
  8
0
  6
SLD-Durchgehend
 62
     7
370
    25
100
AcDbLine
 10
193.8446413755
 20
446.85044979
 30
0.0
 11
193.8346413755
 21
446.85044979
 31
0.0
  0
LINE
  5
150
330
1F
100
AcDbEntity
  8
0
  6
SLD-Durchgehend
 62
     7
370
    25
100
AcDbLine
 10
193.8346413755
 20
446.85044979
 30
0.0
 11
193.8346413755
 21
446.6266895451
 31
0.0
  0
LINE
  5
151
330
1F
100
AcDbEntity
  8
0
  6
SLD-Durchgehend
 62
     7
370
    25
100
AcDbLine
 10
193.8346413755
 20
446.6266895451
 30
0.0
 11
193.8446413755
 21
446.6266895451
 31
0.0
  0
LINE
  5
152
330
1F
100
AcDbEntity
  8
0
  6
SLD-Durchgehend
 62
     7
370
    25
100
AcDbLine
 10
193.8446413755
 20
446.6266895451
 30
0.0
 11
193.8446413755
 21
430.1009250137
 31
0.0
  0
LINE
  5
153
330
1F
100
AcDbEntity
  8
0
  6
SLD-Durchgehend
 62
     7
370
    25
100
AcDbLine
 10
193.8446413755
 20
430.1009250137
 30
0.0
 11
193.8346413755
 21
430.1009250137
 31
0.0
  0
LINE
  5
154
330
1F
100
AcDbEntity
  8
0
  6
SLD-Durchgehend
 62
     7
370
    25
100
AcDbLine
 10
193.8346413755
 20
430.1009250137
 30
0.0
 11
193.8346413755
 21
429.9394207767
 31
0.0
  0
LINE
  5
155
330
1F
100
AcDbEntity
  8
0
  6
SLD-Durchgehend
 62
     7
370
    25
100
AcDbLine
 10
193.8346413755
 20
429.9394207767
 30
0.0
 11
193.8446413755
 21
429.9394207767
 31
0.0
  0
LINE
  5
156
330
1F
100
AcDbEntity
  8
0
  6
SLD-Durchgehend
 62
     7
370
    25
100
AcDbLine
 10
193.8446413755
 20
429.9394207767
 30
0.0
 11
193.8446413755
 21
429.5461987588
 31
0.0
  0
LINE
  5
157
330
1F
100
AcDbEntity
  8
0
  6
SLD-Durchgehend
 62
     7
370
    25
100
AcDbLine
 10
193.8446413755
 20
429.5461987588
 30
0.0
 11
193.8346413755
 21
429.5461987588
 31
0.0
  0
LINE
  5
158
330
1F
100
AcDbEntity
  8
0
  6
SLD-Durchgehend
 62
     7
370
    25
100
AcDbLine
 10
193.8346413755
 20
429.5461987588
 30
0.0
 11
193.8346413755
 21
429.3271566
 31
0.0
  0
LINE
  5
159
330
1F
100
AcDbEntity
  8
0
  6
SLD-Durchgehend
 62
     7
370
    25
100
AcDbLine
 10
193.8346413755
 20
429.3271566
 30
0.0
 11
193.8446413755
 21
429.3271566
 31
0.0
  0
LINE
  5
15A
330
1F
100
AcDbEntity
  8
0
  6
SLD-Durchgehend
 62
     7
370
    25
100
AcDbLine
 10
193.8446413755
 20
429.3271566
 30
0.0
 11
193.8446413755
 21
429.1130078654
 31
0.0
  0
LINE
  5
15B
330
1F
100
AcDbEntity
  8
0
  6
SLD-Durchgehend
 62
     7
370
    25
100
AcDbLine
 10
193.8446413755
 20
429.1130078654
 30
0.0
 11
193.8346413755
 21
429.1130078654
 31
0.0
  0
LINE
  5
15C
330
1F
100
AcDbEntity
  8
0
  6
SLD-Durchgehend
 62
     7
370
    25
100
AcDbLine
 10
193.8346413755
 20
429.1130078654
 30
0.0
 11
193.8346413755
 21
428.8697403571
 31
0.0
  0
LINE
  5
15D
330
1F
100
AcDbEntity
  8
0
  6
SLD-Durchgehend
 62
     7
370
    25
100
AcDbLine
 10
193.8346413755
 20
428.8697403571
 30
0.0
 11
193.8446413755
 21
428.8697403571
 31
0.0
  0
LINE
  5
15E
330
1F
100
AcDbEntity
  8
0
  6
SLD-Durchgehend
 62
     7
370
    25
100
AcDbLine
 10
193.8446413755
 20
428.8697403571
 30
0.0
 11
193.8446413755
 21
424.0437424474
 31
0.0
  0
LINE
  5
15F
330
1F
100
AcDbEntity
  8
0
  6
SLD-Durchgehend
 62
     7
370
    25
100
AcDbLine
 10
193.8446413755
 20
424.0437424474
 30
0.0
 11
193.8346413755
 21
424.0437424474
 31
0.0
  0
LINE
  5
160
330
1F
100
AcDbEntity
  8
0
  6
SLD-Durchgehend
 62
     7
370
    25
100
AcDbLine
 10
193.8346413755
 20
423.8650905947
 30
0.0
 11
193.8346413755
 21
424.0437424474
 31
0.0
  0
LINE
  5
161
330
1F
100
AcDbEntity
  8
0
  6
SLD-Durchgehend
 62
     7
370
    25
100
AcDbLine
 10
193.8346413755
 20
423.8650905947
 30
0.0
 11
193.8446413755
 21
423.8650905947
 31
0.0
  0
LINE
  5
162
330
1F
100
AcDbEntity
  8
0
  6
SLD-Durchgehend
 62
     7
370
    25
100
AcDbLine
 10
193.8446413755
 20
423.8650905947
 30
0.0
 11
193.8446413755
 21
423.5270689769
 31
0.0
  0
LINE
  5
163
330
1F
100
AcDbEntity
  8
0
  6
SLD-Durchgehend
 62
     7
370
    25
100
AcDbLine
 10
193.8446413755
 20
423.5270689769
 30
0.0
 11
193.8346413755
 21
423.5270689769
 31
0.0
  0
LINE
  5
164
330
1F
100
AcDbEntity
  8
0
  6
SLD-Durchgehend
 62
     7
370
    25
100
AcDbLine
 10
193.8346413755
 20
423.3539920538
 30
0.0
 11
193.8346413755
 21
423.5270689769
 31
0.0
  0
LINE
  5
165
330
1F
100
AcDbEntity
  8
0
  6
SLD-Durchgehend
 62
     7
370
    25
100
AcDbLine
 10
193.8346413755
 20
423.3539920538
 30
0.0
 11
193.8446413755
 21
423.3539920538
 31
0.0
  0
LINE
  5
166
330
1F
100
AcDbEntity
  8
0
  6
SLD-Durchgehend
 62
     7
370
    25
100
AcDbLine
 10
193.8446413755
 20
423.3539920538
 30
0.0
 11
193.8446413755
 21
423.2877321344
 31
0.0
  0
LINE
  5
167
330
1F
100
AcDbEntity
  8
0
  6
SLD-Durchgehend
 62
     7
370
    25
100
AcDbLine
 10
193.8446413755
 20
423.2877321344
 30
0.0
 11
193.8346413755
 21
423.2877321344
 31
0.0
  0
LINE
  5
168
330
1F
100
AcDbEntity
  8
0
  6
SLD-Durchgehend
 62
     7
370
    25
100
AcDbLine
 10
193.8346413755
 20
423.1314215428
 30
0.0
 11
193.8346413755
 21
423.2877321344
 31
0.0
  0
LINE
  5
169
330
1F
100
AcDbEntity
  8
0
  6
SLD-Durchgehend
 62
     7
370
    25
100
AcDbLine
 10
193.8346413755
 20
423.1314215428
 30
0.0
 11
193.8446413755
 21
423.1314215428
 31
0.0
  0
LINE
  5
16A
330
1F
100
AcDbEntity
  8
0
  6
SLD-Durchgehend
 62
     7
370
    25
100
AcDbLine
 10
193.8446413755
 20
423.1314215428
 30
0.0
 11
193.8446413755
 21
422.8854533214
 31
0.0
  0
LINE
  5
16B
330
1F
100
AcDbEntity
  8
0
  6
SLD-Durchgehend
 62
     7
370
    25
100
AcDbLine
 10
193.8446413755
 20
422.8854533214
 30
0.0
 11
193.8346413755
 21
422.8854533214
 31
0.0
  0
LINE
  5
16C
330
1F
100
AcDbEntity
  8
0
  6
SLD-Durchgehend
 62
     7
370
    25
100
AcDbLine
 10
193.8346413755
 20
422.8854533214
 30
0.0
 11
193.8346413755
 21
422.6424535923
 31
0.0
  0
LINE
  5
16D
330
1F
100
AcDbEntity
  8
0
  6
SLD-Durchgehend
 62
     7
370
    25
100
AcDbLine
 10
193.8346413755
 20
422.6424535923
 30
0.0
 11
193.8446413755
 21
422.6424535923
 31
0.0
  0
LINE
  5
16E
330
1F
100
AcDbEntity
  8
0
  6
SLD-Durchgehend
 62
     7
370
    25
100
AcDbLine
 10
193.8446413755
 20
422.6424535923
 30
0.0
 11
193.8446413755
 21
419.5879360866
 31
0.0
  0
LINE
  5
16F
330
1F
100
AcDbEntity
  8
0
  6
SLD-Durchgehend
 62
     7
370
    25
100
AcDbLine
 10
193.8346413755
 20
429.9693766692
 30
0.0
 11
193.8446413755
 21
429.9693766692
 31
0.0
  0
SPLINE
  5
170
330
1F
100
AcDbEntity
  8
0
  6
SLD-Durchgehend
 62
     7
370
    25
100
AcDbSpline
210
0.0
220
0.0
230
1.0
 70
    24
 71
     3
 72
     9
 73
     5
 74
     0
 42
0.00000001
 43
0.00000001
 40
0.0
 40
0.0
 40
0.0
 40
0.0
 40
0.5597348028051883
 40
1.0
 40
1.0
 40
1.0
 40
1.0
 10
193.8446413755137
 20
429.9693766692336
 30
0.0
 10
193.8446413755137
 20
429.9681696655787
 30
0.0
 10
193.8446413755137
 20
429.9660132807177
 30
0.0
 10
193.8446413755137
 20
429.9475496643535
 30
0.0
 10
193.8446413755137
 20
429.939420776654
 30
0.0
  0
SPLINE
  5
171
330
1F
100
AcDbEntity
  8
0
  6
SLD-Durchgehend
 62
     7
370
    25
100
AcDbSpline
210
0.0
220
0.0
230
1.0
 70
    24
 71
     3
 72
     9
 73
     5
 74
     0
 42
0.00000001
 43
0.00000001
 40
0.0
 40
0.0
 40
0.0
 40
0.0
 40
0.9272540521764389
 40
1.0
 40
1.0
 40
1.0
 40
1.0
 10
193.8446413755137
 20
430.1009250136921
 30
0.0
 10
193.8446413755137
 20
430.0797040070298
 30
0.0
 10
193.8446413755137
 20
430.0568181467714
 30
0.0
 10
193.8446413755137
 20
430.0082203489341
 30
0.0
 10
193.8446413755137
 20
430.0046850560682
 30
0.0
  0
LINE
  5
172
330
1F
100
AcDbEntity
  8
0
  6
SLD-Durchgehend
 62
     7
370
    25
100
AcDbLine
 10
193.8446413755
 20
429.8944873511
 30
0.0
 11
193.8446413755
 21
429.7611434962
 31
0.0
  0
LINE
  5
173
330
1F
100
AcDbEntity
  8
0
  6
SLD-Durchgehend
 62
     7
370
    25
100
AcDbLine
 10
193.8346413755
 20
447.0937757077
 30
0.0
 11
193.8446413755
 21
447.0937757077
 31
0.0
  0
SPLINE
  5
174
330
1F
100
AcDbEntity
  8
0
  6
SLD-Durchgehend
 62
     7
370
    25
100
AcDbSpline
210
0.0
220
0.0
230
1.0
 70
    24
 71
     3
 72
    10
 73
     6
 74
     0
 42
0.00000001
 43
0.00000001
 40
0.0
 40
0.0
 40
0.0
 40
0.0
 40
0.1132214368351691
 40
0.5564353895082016
 40
1.0
 40
1.0
 40
1.0
 40
1.0
 10
193.8446413755137
 20
446.7798430163196
 30
0.0
 10
193.8446413755137
 20
446.7691051157581
 30
0.0
 10
193.8446413755137
 20
446.7163328842049
 30
0.0
 10
193.8446413755137
 20
446.6573328091195
 30
0.0
 10
193.8446413755137
 20
446.6369066587902
 30
0.0
 10
193.8446413755137
 20
446.6266895450811
 30
0.0
  0
LINE
  5
175
330
1F
100
AcDbEntity
  8
0
  6
SLD-Durchgehend
 62
     7
370
    25
100
AcDbLine
 10
193.8346413755
 20
429.0937757077
 30
0.0
 11
193.8446413755
 21
429.0937757077
 31
0.0
  0
LINE
  5
176
330
1F
100
AcDbEntity
  8
0
  6
SLD-Durchgehend
 62
     7
370
    25
100
AcDbLine
 10
193.8346413755
 20
429.4636675346
 30
0.0
 11
193.8446413755
 21
429.4636675346
 31
0.0
  0
SPLINE
  5
177
330
1F
100
AcDbEntity
  8
0
  6
SLD-Durchgehend
 62
     7
370
    25
100
AcDbSpline
210
0.0
220
0.0
230
1.0
 70
    24
 71
     3
 72
     9
 73
     5
 74
     0
 42
0.00000001
 43
0.00000001
 40
0.0
 40
0.0
 40
0.0
 40
0.0
 40
0.9045273990180605
 40
1.0
 40
1.0
 40
1.0
 40
1.0
 10
193.8446413755137
 20
429.4636675346183
 30
0.0
 10
193.8446413755137
 20
429.4523452092903
 30
0.0
 10
193.8446413755137
 20
429.4398278158534
 30
0.0
 10
193.8446413755137
 20
429.4014293728738
 30
0.0
 10
193.8446413755137
 20
429.397763373649
 30
0.0
  0
SPLINE
  5
178
330
1F
100
AcDbEntity
  8
0
  6
SLD-Durchgehend
 62
     7
370
    25
100
AcDbSpline
210
0.0
220
0.0
230
1.0
 70
    24
 71
     3
 72
    10
 73
     6
 74
     0
 42
0.00000001
 43
0.00000001
 40
0.0
 40
0.0
 40
0.0
 40
0.0
 40
0.2804962977166643
 40
0.5610033473578169
 40
1.0
 40
1.0
 40
1.0
 40
1.0
 10
193.8446413755137
 20
429.7611434961567
 30
0.0
 10
193.8446413755137
 20
429.72546692587
 30
0.0
 10
193.8446413755137
 20
429.6541124177499
 30
0.0
 10
193.8446413755137
 20
429.539164681836
 30
0.0
 10
193.8446413755137
 20
429.4922760669952
 30
0.0
 10
193.8446413755137
 20
429.4636675346183
 30
0.0
  0
SPLINE
  5
179
330
1F
100
AcDbEntity
  8
0
  6
SLD-Durchgehend
 62
     7
370
    25
100
AcDbSpline
210
0.0
220
0.0
230
1.0
 70
    24
 71
     3
 72
     9
 73
     5
 74
     0
 42
0.00000001
 43
0.00000001
 40
0.0
 40
0.0
 40
0.0
 40
0.0
 40
0.5597438851756213
 40
1.0
 40
1.0
 40
1.0
 40
1.0
 10
193.8446413755137
 20
429.0937757076952
 30
0.0
 10
193.8446413755137
 20
429.0499439798144
 30
0.0
 10
193.8446413755137
 20
428.9716372237397
 30
0.0
 10
193.8446413755137
 20
428.9008880940694
 30
0.0
 10
193.8446413755137
 20
428.8697403571136
 30
0.0
  0
SPLINE
  5
17A
330
1F
100
AcDbEntity
  8
0
  6
SLD-Durchgehend
 62
     7
370
    25
100
AcDbSpline
210
0.0
220
0.0
230
1.0
 70
    24
 71
     3
 72
     9
 73
     5
 74
     0
 42
0.00000001
 43
0.00000001
 40
0.0
 40
0.0
 40
0.0
 40
0.0
 40
0.5591941046497569
 40
1.0
 40
1.0
 40
1.0
 40
1.0
 10
193.8446413755137
 20
447.3070595710537
 30
0.0
 10
193.8446413755137
 20
447.2692194985532
 30
0.0
 10
193.8446413755137
 20
447.201550558223
 30
0.0
 10
193.8446413755137
 20
447.1267487748075
 30
0.0
 10
193.8446413755137
 20
447.0937757076952
 30
0.0
  0
LINE
  5
17B
330
1F
100
AcDbEntity
  8
0
  6
SLD-Durchgehend
 62
     7
370
    25
100
AcDbLine
 10
193.8346413755
 20
447.9116843615
 30
0.0
 11
193.8446413755
 21
447.9116843615
 31
0.0
  0
LINE
  5
17C
330
1F
100
AcDbEntity
  8
0
  6
SLD-Durchgehend
 62
     7
370
    25
100
AcDbLine
 10
193.8446413755
 20
447.9116843615
 30
0.0
 11
193.8446413755
 21
447.7871576807
 31
0.0
  0
LINE
  5
17D
330
1F
100
AcDbEntity
  8
0
  6
SLD-Durchgehend
 62
     7
370
    25
100
AcDbLine
 10
193.8446413755
 20
448.1424535923
 30
0.0
 11
193.8446413755
 21
447.9116843615
 31
0.0
  0
LINE
  5
17E
330
1F
100
AcDbEntity
  8
0
  6
SLD-Durchgehend
 62
     7
370
    25
100
AcDbLine
 10
193.8446413755
 20
424.0437424474
 30
0.0
 11
193.8446413755
 21
423.8650905947
 31
0.0
  0
LINE
  5
17F
330
1F
100
AcDbEntity
  8
0
  6
SLD-Durchgehend
 62
     7
370
    25
100
AcDbLine
 10
193.8446413755
 20
423.5270689769
 30
0.0
 11
193.8446413755
 21
423.3539920538
 31
0.0
  0
LINE
  5
180
330
1F
100
AcDbEntity
  8
0
  6
SLD-Durchgehend
 62
     7
370
    25
100
AcDbLine
 10
193.8446413755
 20
423.2877321344
 30
0.0
 11
193.8446413755
 21
423.1314215428
 31
0.0
  0
LINE
  5
181
330
1F
100
AcDbEntity
  8
0
  6
SLD-Durchgehend
 62
     7
370
    25
100
AcDbLine
 10
193.8446413755
 20
453.0444506303
 30
0.0
 11
193.8446413755
 21
452.8881400387
 31
0.0
  0
LINE
  5
182
330
1F
100
AcDbEntity
  8
0
  6
SLD-Durchgehend
 62
     7
370
    25
100
AcDbLine
 10
193.8346413755
 20
422.8155305154
 30
0.0
 11
193.8446413755
 21
422.8155305154
 31
0.0
  0
LINE
  5
183
330
1F
100
AcDbEntity
  8
0
  6
SLD-Durchgehend
 62
     7
370
    25
100
AcDbLine
 10
193.8446413755
 20
422.8854533214
 30
0.0
 11
193.8446413755
 21
422.8155305154
 31
0.0
  0
LINE
  5
184
330
1F
100
AcDbEntity
  8
0
  6
SLD-Durchgehend
 62
     7
370
    25
100
AcDbLine
 10
193.8346413755
 20
453.3347612846
 30
0.0
 11
193.8446413755
 21
453.3347612846
 31
0.0
  0
LINE
  5
185
330
1F
100
AcDbEntity
  8
0
  6
SLD-Durchgehend
 62
     7
370
    25
100
AcDbLine
 10
193.8446413755
 20
453.3347612846
 30
0.0
 11
193.8446413755
 21
453.2904188518
 31
0.0
  0
SPLINE
  5
186
330
1F
100
AcDbEntity
  8
0
  6
SLD-Durchgehend
 62
     7
370
    25
100
AcDbSpline
210
0.0
220
0.0
230
1.0
 70
    24
 71
     3
 72
     9
 73
     5
 74
     0
 42
0.00000001
 43
0.00000001
 40
0.0
 40
0.0
 40
0.0
 40
0.0
 40
0.2590648663788495
 40
0.9999999999999999
 40
0.9999999999999999
 40
0.9999999999999999
 40
0.9999999999999999
 10
193.8446413755137
 20
422.7802221285528
 30
0.0
 10
193.8446413755137
 20
422.7527351529383
 30
0.0
 10
193.8446413755137
 20
422.6466344068252
 30
0.0
 10
193.8446413755137
 20
422.6442329304957
 30
0.0
 10
193.8446413755137
 20
422.6424535923105
 30
0.0
  0
LINE
  5
187
330
1F
100
AcDbEntity
  8
0
  6
SLD-Durchgehend
 62
     7
370
    25
100
AcDbLine
 10
193.8346413755
 20
453.4309151308
 30
0.0
 11
193.8446413755
 21
453.4309151308
 31
0.0
  0
SPLINE
  5
188
330
1F
100
AcDbEntity
  8
0
  6
SLD-Durchgehend
 62
     7
370
    25
100
AcDbSpline
210
0.0
220
0.0
230
1.0
 70
    24
 71
     3
 72
     9
 73
     5
 74
     0
 42
0.00000001
 43
0.00000001
 40
0.0
 40
0.0
 40
0.0
 40
0.0
 40
0.9572004039327879
 40
1.0
 40
1.0
 40
1.0
 40
1.0
 10
193.8446413755137
 20
453.4309151307721
 30
0.0
 10
193.8446413755137
 20
453.4185696436817
 30
0.0
 10
193.8446413755137
 20
453.40567214903
 30
0.0
 10
193.8446413755137
 20
453.3715309029926
 30
0.0
 10
193.8446413755137
 20
453.3700696714529
 30
0.0
  0
LINE
  5
189
330
1F
100
AcDbEntity
  8
0
  6
SLD-Durchgehend
 62
     7
370
    25
100
AcDbLine
 10
193.8446413755
 20
453.5078382077
 30
0.0
 11
193.8446413755
 21
453.4309151308
 31
0.0
  0
SPLINE
  5
18A
330
1F
100
AcDbEntity
  8
0
  6
SLD-Durchgehend
 62
     7
370
    25
100
AcDbSpline
210
0.0
220
0.0
230
1.0
 70
    24
 71
     3
 72
     9
 73
     5
 74
     0
 42
0.00000001
 43
0.00000001
 40
0.0
 40
0.0
 40
0.0
 40
0.0
 40
0.5598373539100269
 40
1.0
 40
1.0
 40
1.0
 40
1.0
 10
193.8446413755137
 20
453.9411233954914
 30
0.0
 10
193.8446413755137
 20
453.9078633774872
 30
0.0
 10
193.8446413755137
 20
453.8484532331447
 30
0.0
 10
193.8446413755137
 20
453.7826122279803
 30
0.0
 10
193.8446413755137
 20
453.7536314769259
 30
0.0
  0
LINE
  5
18B
330
1F
100
AcDbEntity
  8
0
  6
SLD-Durchgehend
 62
     7
370
    25
100
AcDbLine
 10
193.8446413755
 20
454.5257655646
 30
0.0
 11
193.8446413755
 21
454.4521736659
 31
0.0
  0
LINE
  5
18C
330
1F
100
AcDbEntity
  8
0
  6
SLD-Durchgehend
 62
     7
370
    25
100
AcDbLine
 10
193.8446413755
 20
454.8171333192
 30
0.0
 11
193.8446413755
 21
454.7498210815
 31
0.0
  0
LINE
  5
18D
330
1F
100
AcDbEntity
  8
0
  6
SLD-Durchgehend
 62
     7
370
    25
100
AcDbLine
 10
193.8446413755
 20
454.8747860092
 30
0.0
 11
193.8446413755
 21
454.8258322907
 31
0.0
  0
LINE
  5
18E
330
1F
100
AcDbEntity
  8
0
  6
SLD-Durchgehend
 62
     7
370
    25
100
AcDbLine
 10
193.7946413755
 20
457.0879360866
 30
0.0
 11
193.7946413755
 21
456.1503279547
 31
0.0
  0
LINE
  5
18F
330
1F
100
AcDbEntity
  8
0
  6
SLD-Durchgehend
 62
     7
370
    25
100
AcDbLine
 10
193.8446413755
 20
457.0879360866
 30
0.0
 11
193.8446413755
 21
456.1503279547
 31
0.0
  0
LINE
  5
190
330
1F
100
AcDbEntity
  8
0
  6
SLD-Durchgehend
 62
     7
370
    25
100
AcDbLine
 10
193.7946413755
 20
461.0879360866
 30
0.0
 11
193.7946413755
 21
457.0879360866
 31
0.0
  0
LINE
  5
191
330
1F
100
AcDbEntity
  8
0
  6
SLD-Durchgehend
 62
     7
370
    25
100
AcDbLine
 10
193.8446413755
 20
461.0879360866
 30
0.0
 11
193.8446413755
 21
457.0879360866
 31
0.0
  0
LINE
  5
192
330
1F
100
AcDbEntity
  8
0
  6
SLD-Durchgehend
 62
     7
370
    25
100
AcDbLine
 10
182.207682286
 20
430.0753265682
 30
0.0
 11
179.3374610269
 21
430.3264383902
 31
0.0
  0
LINE
  5
193
330
1F
100
AcDbEntity
  8
0
  6
SLD-Durchgehend
 62
     7
370
    25
100
AcDbLine
 10
143.6937099922
 20
446.5859056707
 30
0.0
 11
143.6946413755
 21
446.5879360866
 31
0.0
  0
LINE
  5
194
330
1F
100
AcDbEntity
  8
0
  6
SLD-Durchgehend
 62
     7
370
    25
100
AcDbLine
 10
108.6946413755
 20
448.0879360866
 30
0.0
 11
143.6946413755
 21
448.0879360866
 31
0.0
  0
LINE
  5
195
330
1F
100
AcDbEntity
  8
0
  6
SLD-Durchgehend
 62
     7
370
    25
100
AcDbLine
 10
108.6946413755
 20
428.0879360866
 30
0.0
 11
143.6946413755
 21
428.0879360866
 31
0.0
  0
SPLINE
  5
196
330
1F
100
AcDbEntity
  8
0
  6
SLD-Durchgehend
 62
     7
370
    25
100
AcDbSpline
210
0.0
220
0.0
230
1.0
 70
     8
 71
     3
 72
     9
 73
     5
 74
     0
 42
0.00000001
 43
0.00000001
 40
0.0
 40
0.0
 40
0.0
 40
0.0
 40
0.8237102356898971
 40
1.0
 40
1.0
 40
1.0
 40
1.0
 10
182.2539573686379
 20
430.0879360865528
 30
0.0
 10
182.2454819991533
 20
430.0914068652193
 30
0.0
 10
182.2351927382976
 20
430.0956204569851
 30
0.0
 10
182.0938201300737
 20
430.1284015051671
 30
0.0
 10
182.06889758629
 20
430.1341804684249
 30
0.0
  0
SPLINE
  5
197
330
1F
100
AcDbEntity
  8
0
  6
SLD-Durchgehend
 62
     7
370
    25
100
AcDbSpline
210
0.0
220
0.0
230
1.0
 70
     8
 71
     3
 72
    12
 73
     8
 74
     0
 42
0.00000001
 43
0.00000001
 40
0.0
 40
0.0
 40
0.0
 40
0.0
 40
0.1194085554724943
 40
0.3759269863173976
 40
0.6414368534587698
 40
0.9032677176887687
 40
1.0
 40
1.0
 40
1.0
 40
1.0
 10
179.6131910968347
 20
430.3418724350851
 30
0.0
 10
179.5059323719812
 20
430.3355681156614
 30
0.0
 10
179.168255988318
 20
430.31572059475
 30
0.0
 10
178.6781846011377
 20
430.231958716708
 30
0.0
 10
178.2452012592938
 20
430.1414048592501
 30
0.0
 10
178.0327641016712
 20
430.0865903102207
 30
0.0
 10
178.058332381964
 20
430.0931115117508
 30
0.0
 10
178.0652301296309
 20
430.0948707854338
 30
0.0
  0
ARC
  5
198
330
1F
100
AcDbEntity
  8
0
  6
SLD-Durchgehend
 62
     7
370
    25
100
AcDbCircle
 10
148.1944168655
 20
422.2223489063
 30
0.0
 40
8.115821813013683
100
AcDbArc
 50
75.9259613671
 51
104.2648539634
  0
LINE
  5
199
330
1F
100
AcDbEntity
  8
0
  6
SLD-Durchgehend
 62
     7
370
    25
100
AcDbLine
 10
193.1946413755
 20
438.0879360866
 30
0.0
 11
193.1946413755
 21
458.0879360866
 31
0.0
  0
LINE
  5
19A
330
1F
100
AcDbEntity
  8
0
  6
SLD-Durchgehend
 62
     7
370
    25
100
AcDbLine
 10
193.1946413755
 20
418.0879360866
 30
0.0
 11
193.1946413755
 21
438.0879360866
 31
0.0
  0
LINE
  5
19B
330
1F
100
AcDbEntity
  8
0
  6
SLD-Durchgehend
 62
     7
370
    25
100
AcDbLine
 10
186.1946413755
 20
438.0879360866
 30
0.0
 11
186.1946413755
 21
457.5879360866
 31
0.0
  0
LINE
  5
19C
330
1F
100
AcDbEntity
  8
0
  6
SLD-Durchgehend
 62
     7
370
    25
100
AcDbLine
 10
186.1946413755
 20
418.5879360866
 30
0.0
 11
186.1946413755
 21
438.0879360866
 31
0.0
  0
LINE
  5
19D
330
1F
100
AcDbEntity
  8
0
  6
SLD-Durchgehend
 62
     8
370
    18
100
AcDbLine
 10
193.8446413755
 20
457.0879360866
 30
0.0
 11
193.7946413755
 21
457.0879360866
 31
0.0
  0
SPLINE
  5
19E
330
1F
100
AcDbEntity
  8
0
  6
SLD-Durchgehend
 62
     8
370
    18
100
AcDbSpline
210
0.0
220
0.0
230
1.0
 70
     8
 71
     3
 72
    31
 73
    27
 74
     0
 42
0.00000001
 43
0.00000001
 40
0.0
 40
0.0
 40
0.0
 40
0.0
 40
0.0112332021090135
 40
0.0385623398393346
 40
0.0886166788933937
 40
0.140296583675679
 40
0.1906678324470472
 40
0.2423621715553512
 40
0.2964121558853463
 40
0.3519439526233817
 40
0.4073304458952396
 40
0.4360015852247615
 40
0.4646706595105085
 40
0.5146390539806183
 40
0.5661680027945932
 40
0.6130873000205076
 40
0.6611311175609835
 40
0.7114892789641764
 40
0.7630438425734075
 40
0.8176192283219934
 40
0.8457678473388202
 40
0.8739140282054094
 40
0.9268388892670926
 40
0.9542965232450508
 40
0.9817527281843191
 40
0.9999999999999999
 40
0.9999999999999999
 40
0.9999999999999999
 40
0.9999999999999999
 10
143.6850990706267
 20
429.6087804990295
 30
0.0
 10
143.6882534993725
 20
429.6018863999232
 30
0.0
 10
143.6990823042061
 20
429.5782197205517
 30
0.0
 10
143.6568904636841
 20
429.670245495257
 30
0.0
 10
143.5543536328172
 20
429.8957309473533
 30
0.0
 10
143.3354973532505
 20
430.3948328016334
 30
0.0
 10
143.0516059317617
 20
431.0849740324621
 30
0.0
 10
142.7236903454588
 20
431.9590006093576
 30
0.0
 10
142.376102550806
 20
433.0215090713552
 30
0.0
 10
142.0486045892218
 20
434.2533743336489
 30
0.0
 10
141.8289484675392
 20
435.3975666792842
 30
0.0
 10
141.705912604315
 20
436.3636360373663
 30
0.0
 10
141.6280060589722
 20
437.3035122906146
 30
0.0
 10
141.6059838106071
 20
438.4649345455901
 30
0.0
 10
141.6911716627342
 20
439.7778431579857
 30
0.0
 10
141.8690456022665
 20
441.0249915373178
 30
0.0
 10
142.1155497827542
 20
442.1892739157282
 30
0.0
 10
142.4185842813317
 20
443.28993341312
 30
0.0
 10
142.7559912308366
 20
444.3082261978379
 30
0.0
 10
143.0364726575462
 20
445.0477646725914
 30
0.0
 10
143.2432718782517
 20
445.5570672936304
 30
0.0
 10
143.4248526386185
 20
445.9867798194066
 30
0.0
 10
143.5657763840646
 20
446.30445475503
 30
0.0
 10
143.6527137846646
 20
446.496513018676
 30
0.0
 10
143.6882716407974
 20
446.5740533046715
 30
0.0
 10
143.6921582499711
 20
446.582523797164
 30
0.0
 10
143.6937099921813
 20
446.5859056707084
 30
0.0
  0
SPLINE
  5
19F
330
1F
100
AcDbEntity
  8
0
  6
SLD-Durchgehend
 62
     8
370
    18
100
AcDbSpline
210
0.0
220
0.0
230
1.0
 70
     8
 71
     3
 72
    30
 73
    26
 74
     0
 42
0.00000001
 43
0.00000001
 40
0.0
 40
0.0
 40
0.0
 40
0.0
 40
0.0206689365309716
 40
0.0713761206726912
 40
0.1221034425056341
 40
0.1292989763579846
 40
0.1848727120791351
 40
0.2404727566689484
 40
0.2911986845740361
 40
0.3419149734833518
 40
0.3887636402626714
 40
0.4355885989863033
 40
0.4853786758905079
 40
0.5351617425815388
 40
0.5721106103734269
 40
0.6092256839662892
 40
0.646206305463
 40
0.7007007976592594
 40
0.7552109642140711
 40
0.8063976031111093
 40
0.8575667546889157
 40
0.9088181158786997
 40
0.9600455655214272
 40
0.9876106395008769
 40
1.0
 40
1.0
 40
1.0
 40
1.0
 10
144.1946413755138
 20
446.0879360865528
 30
0.0
 10
144.1928777415866
 20
446.0844031569517
 30
0.0
 10
144.1867873775362
 20
446.0722028771186
 30
0.0
 10
144.1057810759723
 20
445.9114367721504
 30
0.0
 10
143.971351816912
 20
445.6343604795208
 30
0.0
 10
143.7970752269572
 20
445.2637866188595
 30
0.0
 10
143.5797527124816
 20
444.7881995152447
 30
0.0
 10
143.2336382149709
 20
443.9539526083501
 30
0.0
 10
142.8845188317819
 20
442.99039973677
 30
0.0
 10
142.5734914786275
 20
441.9606007486827
 30
0.0
 10
142.3190938975262
 20
440.8592583256956
 30
0.0
 10
142.1348627230919
 20
439.6922114116539
 30
0.0
 10
142.0484144514085
 20
438.4499356764511
 30
0.0
 10
142.0692445267753
 20
437.2801897403302
 30
0.0
 10
142.1732973788546
 20
436.2427304699083
 30
0.0
 10
142.3190283201012
 20
435.3443776207071
 30
0.0
 10
142.537382746125
 20
434.3551621957697
 30
0.0
 10
142.8380681041415
 20
433.3215335869936
 30
0.0
 10
143.194176213419
 20
432.3241021265327
 30
0.0
 10
143.5320118341785
 20
431.4993851939661
 30
0.0
 10
143.8236315488231
 20
430.8511459644034
 30
0.0
 10
144.0483144446255
 20
430.381009287493
 30
0.0
 10
144.1558780161514
 20
430.1653086856267
 30
0.0
 10
144.1993496992605
 20
430.0785930327299
 30
0.0
 10
144.1877827898192
 20
430.1015569739408
 30
0.0
 10
144.1841960387414
 20
430.1086777991973
 30
0.0
  0
LINE
  5
1A0
330
1F
100
AcDbEntity
  8
0
  6
SLD-Durchgehend
 62
     8
370
    18
100
AcDbLine
 10
186.6946413755
 20
438.0879360866
 30
0.0
 11
186.6946413755
 21
418.0879360866
 31
0.0
  0
LINE
  5
1A1
330
1F
100
AcDbEntity
  8
0
  6
SLD-Durchgehend
 62
     8
370
    18
100
AcDbLine
 10
186.6946413755
 20
458.0879360866
 30
0.0
 11
186.6946413755
 21
438.0879360866
 31
0.0
  0
DIMENSION
  5
1A2
330
1F
100
AcDbEntity
  8
0
  6
SLD-Durchgehend
 62
     1
370
    18
100
AcDbDimension
280
     0
  2
_D
 10
108.6946413755
 20
398.0879360866
 30
0.0
 11
151.2696413755
 21
398.0879360866
 31
0.0
 70
   160
  1
<>
 71
     2
 42
-1.0
 73
     0
 74
     0
 75
     0
  3
SLDDIMSTYLE0
100
AcDbAlignedDimension
 13
193.8446413755
 23
419.5879360866
 33
0.0
 14
108.6946413755
 24
428.0879360866
 34
0.0
100
AcDbRotatedDimension
  0
DIMENSION
  5
1AE
330
1F
100
AcDbEntity
  8
0
  6
SLD-Durchgehend
 62
     1
370
    18
100
AcDbDimension
280
     0
  2
_D_1
 10
88.6946413755
 20
448.0879360866
 30
0.0
 11
88.6946413755
 21
438.0879360866
 31
0.0
 70
   160
  1
<>
 71
     2
 42
-1.0
 73
     0
 74
     0
 75
     0
  3
SLDDIMSTYLE1
100
AcDbAlignedDimension
 13
108.6946413755
 23
428.0879360866
 33
0.0
 14
108.6946413755
 24
448.0879360866
 34
0.0
 50
90.0
100
AcDbRotatedDimension
  0
LINE
  5
1BB
330
1F
100
AcDbEntity
  8
0
  6
SLD-Durchgehend
 62
     7
370
    25
100
AcDbLine
 10
285.2620063365
 20
355.5672522712
 30
0.0
 11
285.2620063365
 21
356.2172522712
 31
0.0
  0
LINE
  5
1BC
330
1F
100
AcDbEntity
  8
0
  6
SLD-Durchgehend
 62
     7
370
    25
100
AcDbLine
 10
248.2620063365
 20
356.2172522712
 30
0.0
 11
248.2620063365
 21
355.5672522712
 31
0.0
  0
SPLINE
  5
1BD
330
1F
100
AcDbEntity
  8
0
  6
SLD-Durchgehend
 62
     7
370
    25
100
AcDbSpline
210
0.0
220
0.0
230
1.0
 70
     8
 71
     3
 72
    14
 73
    10
 74
     0
 42
0.00000001
 43
0.00000001
 40
0.0
 40
0.0
 40
0.0
 40
0.0
 40
0.149354299403676
 40
0.3916950990941581
 40
0.5988555822794185
 40
0.770664085030671
 40
0.8927666237559997
 40
0.9785781780318391
 40
1.0
 40
1.0
 40
1.0
 40
1.0
 10
258.7580660475977
 20
304.4360529198174
 30
0.0
 10
258.7590011671895
 20
304.411466378929
 30
0.0
 10
258.7614536025234
 20
304.346985961505
 30
0.0
 10
258.7314521585393
 20
304.2514263453005
 30
0.0
 10
258.6848730380713
 20
304.1613955008136
 30
0.0
 10
258.6339143946057
 20
304.0978540899256
 30
0.0
 10
258.5944998920394
 20
304.0605340427679
 30
0.0
 10
258.5749568579202
 20
304.0446249121942
 30
0.0
 10
258.5696418804765
 20
304.040668576262
 30
0.0
 10
258.5685801168302
 20
304.0398782260282
 30
0.0
  0
SPLINE
  5
1BE
330
1F
100
AcDbEntity
  8
0
  6
SLD-Durchgehend
 62
     7
370
    25
100
AcDbSpline
210
0.0
220
0.0
230
1.0
 70
     8
 71
     3
 72
    13
 73
     9
 74
     0
 42
0.00000001
 43
0.00000001
 40
0.0
 40
0.0
 40
0.0
 40
0.0
 40
0.0184108586901833
 40
0.1231282695780551
 40
0.2838502778918174
 40
0.5185285462719853
 40
0.8714973158241114
 40
1.0
 40
1.0
 40
1.0
 40
1.0
 10
274.9495324839913
 20
304.0445765291179
 30
0.0
 10
274.9485587015836
 20
304.0453136272998
 30
0.0
 10
274.9420462327829
 20
304.0502431976788
 30
0.0
 10
274.914100484222
 20
304.074115371119
 30
0.0
 10
274.8617349131279
 20
304.1294509924132
 30
0.0
 10
274.7979581815651
 20
304.2323884764272
 30
0.0
 10
274.7584127975444
 20
304.3463705973112
 30
0.0
 10
274.765285536905
 20
304.4244389372265
 30
0.0
 10
274.7671198418231
 20
304.4452750452668
 30
0.0
  0
LINE
  5
1BF
330
1F
100
AcDbEntity
  8
0
  6
SLD-Durchgehend
 62
     7
370
    25
100
AcDbLine
 10
274.7620063365
 20
304.4462805321
 30
0.0
 11
274.7620063365
 21
348.5672522712
 31
0.0
  0
LINE
  5
1C0
330
1F
100
AcDbEntity
  8
0
  6
SLD-Durchgehend
 62
     7
370
    25
100
AcDbLine
 10
258.7620063365
 20
348.5672522712
 30
0.0
 11
258.7620063365
 21
304.4370225529
 31
0.0
  0
LINE
  5
1C1
330
1F
100
AcDbEntity
  8
0
  6
SLD-Durchgehend
 62
     7
370
    25
100
AcDbLine
 10
246.7620063365
 20
355.5672522712
 30
0.0
 11
246.7620063365
 21
349.0672522712
 31
0.0
  0
LINE
  5
1C2
330
1F
100
AcDbEntity
  8
0
  6
SLD-Durchgehend
 62
     7
370
    25
100
AcDbLine
 10
286.7620063365
 20
349.0672522712
 30
0.0
 11
286.7620063365
 21
355.5672522712
 31
0.0
  0
ARC
  5
1C3
330
1F
100
AcDbEntity
  8
0
  6
SLD-Durchgehend
 62
     7
370
    25
100
AcDbCircle
 10
286.2620063365
 20
349.0672522712
 30
0.0
 40
0.5
100
AcDbArc
 50
270.0
 51
0.0
  0
ARC
  5
1C4
330
1F
100
AcDbEntity
  8
0
  6
SLD-Durchgehend
 62
     7
370
    25
100
AcDbCircle
 10
247.2620063365
 20
349.0672522712
 30
0.0
 40
0.5
100
AcDbArc
 50
180.0
 51
270.0
  0
LINE
  5
1C5
330
1F
100
AcDbEntity
  8
0
  6
SLD-Durchgehend
 62
     7
370
    25
100
AcDbLine
 10
262.7620063365
 20
356.2172522712
 30
0.0
 11
262.7620063365
 21
356.1672522712
 31
0.0
  0
LINE
  5
1C6
330
1F
100
AcDbEntity
  8
0
  6
SLD-Durchgehend
 62
     7
370
    25
100
AcDbLine
 10
270.7620063365
 20
356.2172522712
 30
0.0
 11
270.7620063365
 21
356.1672522712
 31
0.0
  0
LINE
  5
1C7
330
1F
100
AcDbEntity
  8
0
  6
SLD-Durchgehend
 62
     7
370
    25
100
AcDbLine
 10
262.7620063365
 20
356.2172522712
 30
0.0
 11
270.7620063365
 21
356.2172522712
 31
0.0
  0
LINE
  5
1C8
330
1F
100
AcDbEntity
  8
0
  6
SLD-Durchgehend
 62
     7
370
    25
100
AcDbLine
 10
262.7620063365
 20
356.1672522712
 30
0.0
 11
270.7620063365
 21
356.1672522712
 31
0.0
  0
LINE
  5
1C9
330
1F
100
AcDbEntity
  8
0
  6
SLD-Durchgehend
 62
     7
370
    25
100
AcDbLine
 10
255.5925036259
 20
356.2172522712
 30
0.0
 11
255.5925036259
 21
356.2072522712
 31
0.0
  0
LINE
  5
1CA
330
1F
100
AcDbEntity
  8
0
  6
SLD-Durchgehend
 62
     7
370
    25
100
AcDbLine
 10
255.8040420874
 20
356.2072522712
 30
0.0
 11
255.5925036259
 21
356.2072522712
 31
0.0
  0
LINE
  5
1CB
330
1F
100
AcDbEntity
  8
0
  6
SLD-Durchgehend
 62
     7
370
    25
100
AcDbLine
 10
255.8040420874
 20
356.2072522712
 30
0.0
 11
255.8040420874
 21
356.2172522712
 31
0.0
  0
LINE
  5
1CC
330
1F
100
AcDbEntity
  8
0
  6
SLD-Durchgehend
 62
     7
370
    25
100
AcDbLine
 10
256.2699702712
 20
356.2172522712
 30
0.0
 11
256.2699702712
 21
356.2072522712
 31
0.0
  0
LINE
  5
1CD
330
1F
100
AcDbEntity
  8
0
  6
SLD-Durchgehend
 62
     7
370
    25
100
AcDbLine
 10
256.2699702712
 20
356.2072522712
 30
0.0
 11
256.4371128593
 21
356.2072522712
 31
0.0
  0
LINE
  5
1CE
330
1F
100
AcDbEntity
  8
0
  6
SLD-Durchgehend
 62
     7
370
    25
100
AcDbLine
 10
256.4371128593
 20
356.2072522712
 30
0.0
 11
256.4371128593
 21
356.2172522712
 31
0.0
  0
LINE
  5
1CF
330
1F
100
AcDbEntity
  8
0
  6
SLD-Durchgehend
 62
     7
370
    25
100
AcDbLine
 10
256.4371128593
 20
356.2172522712
 30
0.0
 11
257.0277737413
 21
356.2172522712
 31
0.0
  0
LINE
  5
1D0
330
1F
100
AcDbEntity
  8
0
  6
SLD-Durchgehend
 62
     7
370
    25
100
AcDbLine
 10
257.0277737413
 20
356.2172522712
 30
0.0
 11
257.0277737413
 21
356.2072522712
 31
0.0
  0
LINE
  5
1D1
330
1F
100
AcDbEntity
  8
0
  6
SLD-Durchgehend
 62
     7
370
    25
100
AcDbLine
 10
257.0277737413
 20
356.2072522712
 30
0.0
 11
257.3210672577
 21
356.2072522712
 31
0.0
  0
LINE
  5
1D2
330
1F
100
AcDbEntity
  8
0
  6
SLD-Durchgehend
 62
     7
370
    25
100
AcDbLine
 10
257.3210672577
 20
356.2072522712
 30
0.0
 11
257.3210672577
 21
356.2172522712
 31
0.0
  0
LINE
  5
1D3
330
1F
100
AcDbEntity
  8
0
  6
SLD-Durchgehend
 62
     7
370
    25
100
AcDbLine
 10
274.5370735179
 20
356.2172522712
 30
0.0
 11
274.5370735179
 21
356.2072522712
 31
0.0
  0
LINE
  5
1D4
330
1F
100
AcDbEntity
  8
0
  6
SLD-Durchgehend
 62
     7
370
    25
100
AcDbLine
 10
274.6419067585
 20
356.2072522712
 30
0.0
 11
274.5370735179
 21
356.2072522712
 31
0.0
  0
LINE
  5
1D5
330
1F
100
AcDbEntity
  8
0
  6
SLD-Durchgehend
 62
     7
370
    25
100
AcDbLine
 10
274.6419067585
 20
356.2072522712
 30
0.0
 11
274.6419067585
 21
356.2172522712
 31
0.0
  0
LINE
  5
1D6
330
1F
100
AcDbEntity
  8
0
  6
SLD-Durchgehend
 62
     7
370
    25
100
AcDbLine
 10
274.6603580603
 20
356.2172522712
 30
0.0
 11
274.6603580603
 21
356.2072522712
 31
0.0
  0
LINE
  5
1D7
330
1F
100
AcDbEntity
  8
0
  6
SLD-Durchgehend
 62
     7
370
    25
100
AcDbLine
 10
274.8013837013
 20
356.2072522712
 30
0.0
 11
274.6603580603
 21
356.2072522712
 31
0.0
  0
LINE
  5
1D8
330
1F
100
AcDbEntity
  8
0
  6
SLD-Durchgehend
 62
     7
370
    25
100
AcDbLine
 10
274.8013837013
 20
356.2072522712
 30
0.0
 11
274.8013837013
 21
356.2172522712
 31
0.0
  0
LINE
  5
1D9
330
1F
100
AcDbEntity
  8
0
  6
SLD-Durchgehend
 62
     7
370
    25
100
AcDbLine
 10
275.25010165
 20
356.2172522712
 30
0.0
 11
275.25010165
 21
356.2072522712
 31
0.0
  0
LINE
  5
1DA
330
1F
100
AcDbEntity
  8
0
  6
SLD-Durchgehend
 62
     7
370
    25
100
AcDbLine
 10
275.3911272911
 20
356.2072522712
 30
0.0
 11
275.25010165
 21
356.2072522712
 31
0.0
  0
LINE
  5
1DB
330
1F
100
AcDbEntity
  8
0
  6
SLD-Durchgehend
 62
     7
370
    25
100
AcDbLine
 10
275.3911272911
 20
356.2072522712
 30
0.0
 11
275.3911272911
 21
356.2172522712
 31
0.0
  0
LINE
  5
1DC
330
1F
100
AcDbEntity
  8
0
  6
SLD-Durchgehend
 62
     7
370
    25
100
AcDbLine
 10
276.2975426165
 20
356.2172522712
 30
0.0
 11
276.2975426165
 21
356.2072522712
 31
0.0
  0
LINE
  5
1DD
330
1F
100
AcDbEntity
  8
0
  6
SLD-Durchgehend
 62
     7
370
    25
100
AcDbLine
 10
276.2975426165
 20
356.2072522712
 30
0.0
 11
276.4748840903
 21
356.2072522712
 31
0.0
  0
LINE
  5
1DE
330
1F
100
AcDbEntity
  8
0
  6
SLD-Durchgehend
 62
     7
370
    25
100
AcDbLine
 10
276.4748840903
 20
356.2072522712
 30
0.0
 11
276.4748840903
 21
356.2172522712
 31
0.0
  0
LINE
  5
1DF
330
1F
100
AcDbEntity
  8
0
  6
SLD-Durchgehend
 62
     7
370
    25
100
AcDbLine
 10
276.4748840903
 20
356.2172522712
 30
0.0
 11
276.9833867998
 21
356.2172522712
 31
0.0
  0
LINE
  5
1E0
330
1F
100
AcDbEntity
  8
0
  6
SLD-Durchgehend
 62
     7
370
    25
100
AcDbLine
 10
276.9833867998
 20
356.2172522712
 30
0.0
 11
276.9833867998
 21
356.2072522712
 31
0.0
  0
LINE
  5
1E1
330
1F
100
AcDbEntity
  8
0
  6
SLD-Durchgehend
 62
     7
370
    25
100
AcDbLine
 10
276.9833867998
 20
356.2072522712
 30
0.0
 11
277.3040420874
 21
356.2072522712
 31
0.0
  0
LINE
  5
1E2
330
1F
100
AcDbEntity
  8
0
  6
SLD-Durchgehend
 62
     7
370
    25
100
AcDbLine
 10
277.3040420874
 20
356.2072522712
 30
0.0
 11
277.3040420874
 21
356.2172522712
 31
0.0
  0
LINE
  5
1E3
330
1F
100
AcDbEntity
  8
0
  6
SLD-Durchgehend
 62
     7
370
    25
100
AcDbLine
 10
277.6501959336
 20
356.2172522712
 30
0.0
 11
277.6501959336
 21
356.2072522712
 31
0.0
  0
LINE
  5
1E4
330
1F
100
AcDbEntity
  8
0
  6
SLD-Durchgehend
 62
     7
370
    25
100
AcDbLine
 10
277.8617343951
 20
356.2072522712
 30
0.0
 11
277.6501959336
 21
356.2072522712
 31
0.0
  0
LINE
  5
1E5
330
1F
100
AcDbEntity
  8
0
  6
SLD-Durchgehend
 62
     7
370
    25
100
AcDbLine
 10
277.8617343951
 20
356.2072522712
 30
0.0
 11
277.8617343951
 21
356.2172522712
 31
0.0
  0
LINE
  5
1E6
330
1F
100
AcDbEntity
  8
0
  6
SLD-Durchgehend
 62
     7
370
    25
100
AcDbLine
 10
282.2912264627
 20
356.2172522712
 30
0.0
 11
282.2912264627
 21
356.2072522712
 31
0.0
  0
LINE
  5
1E7
330
1F
100
AcDbEntity
  8
0
  6
SLD-Durchgehend
 62
     7
370
    25
100
AcDbLine
 10
282.515580549
 20
356.2072522712
 30
0.0
 11
282.2912264627
 21
356.2072522712
 31
0.0
  0
LINE
  5
1E8
330
1F
100
AcDbEntity
  8
0
  6
SLD-Durchgehend
 62
     7
370
    25
100
AcDbLine
 10
282.515580549
 20
356.2072522712
 30
0.0
 11
282.515580549
 21
356.2172522712
 31
0.0
  0
LINE
  5
1E9
330
1F
100
AcDbEntity
  8
0
  6
SLD-Durchgehend
 62
     7
370
    25
100
AcDbLine
 10
282.801263245
 20
356.2172522712
 30
0.0
 11
282.801263245
 21
356.2072522712
 31
0.0
  0
LINE
  5
1EA
330
1F
100
AcDbEntity
  8
0
  6
SLD-Durchgehend
 62
     7
370
    25
100
AcDbLine
 10
282.801263245
 20
356.2072522712
 30
0.0
 11
282.9400982418
 21
356.2072522712
 31
0.0
  0
LINE
  5
1EB
330
1F
100
AcDbEntity
  8
0
  6
SLD-Durchgehend
 62
     7
370
    25
100
AcDbLine
 10
282.9400982418
 20
356.2072522712
 30
0.0
 11
282.9400982418
 21
356.2172522712
 31
0.0
  0
LINE
  5
1EC
330
1F
100
AcDbEntity
  8
0
  6
SLD-Durchgehend
 62
     7
370
    25
100
AcDbLine
 10
282.9400982418
 20
356.2172522712
 30
0.0
 11
283.0552059485
 21
356.2172522712
 31
0.0
  0
LINE
  5
1ED
330
1F
100
AcDbEntity
  8
0
  6
SLD-Durchgehend
 62
     7
370
    25
100
AcDbLine
 10
283.0552059485
 20
356.2172522712
 30
0.0
 11
283.0552059485
 21
356.2072522712
 31
0.0
  0
LINE
  5
1EE
330
1F
100
AcDbEntity
  8
0
  6
SLD-Durchgehend
 62
     7
370
    25
100
AcDbLine
 10
283.0552059485
 20
356.2072522712
 30
0.0
 11
283.1735781495
 21
356.2072522712
 31
0.0
  0
LINE
  5
1EF
330
1F
100
AcDbEntity
  8
0
  6
SLD-Durchgehend
 62
     7
370
    25
100
AcDbLine
 10
283.1735781495
 20
356.2072522712
 30
0.0
 11
283.1735781495
 21
356.2172522712
 31
0.0
  0
LINE
  5
1F0
330
1F
100
AcDbEntity
  8
0
  6
SLD-Durchgehend
 62
     7
370
    25
100
AcDbLine
 10
251.2207841373
 20
356.2172522712
 30
0.0
 11
251.2207841373
 21
356.2072522712
 31
0.0
  0
LINE
  5
1F1
330
1F
100
AcDbEntity
  8
0
  6
SLD-Durchgehend
 62
     7
370
    25
100
AcDbLine
 10
251.3026550347
 20
356.2072522712
 30
0.0
 11
251.2207841373
 21
356.2072522712
 31
0.0
  0
LINE
  5
1F2
330
1F
100
AcDbEntity
  8
0
  6
SLD-Durchgehend
 62
     7
370
    25
100
AcDbLine
 10
251.3026550347
 20
356.2072522712
 30
0.0
 11
251.3026550347
 21
356.2172522712
 31
0.0
  0
LINE
  5
1F3
330
1F
100
AcDbEntity
  8
0
  6
SLD-Durchgehend
 62
     7
370
    25
100
AcDbLine
 10
251.3026550347
 20
356.2172522712
 30
0.0
 11
251.3705581414
 21
356.2172522712
 31
0.0
  0
LINE
  5
1F4
330
1F
100
AcDbEntity
  8
0
  6
SLD-Durchgehend
 62
     7
370
    25
100
AcDbLine
 10
251.3705581414
 20
356.2172522712
 30
0.0
 11
251.3705581414
 21
356.2072522712
 31
0.0
  0
LINE
  5
1F5
330
1F
100
AcDbEntity
  8
0
  6
SLD-Durchgehend
 62
     7
370
    25
100
AcDbLine
 10
251.5977088523
 20
356.2072522712
 30
0.0
 11
251.3705581414
 21
356.2072522712
 31
0.0
  0
LINE
  5
1F6
330
1F
100
AcDbEntity
  8
0
  6
SLD-Durchgehend
 62
     7
370
    25
100
AcDbLine
 10
251.5977088523
 20
356.2072522712
 30
0.0
 11
251.5977088523
 21
356.2172522712
 31
0.0
  0
LINE
  5
1F7
330
1F
100
AcDbEntity
  8
0
  6
SLD-Durchgehend
 62
     7
370
    25
100
AcDbLine
 10
251.6603580603
 20
356.2172522712
 30
0.0
 11
251.6603580603
 21
356.2072522712
 31
0.0
  0
LINE
  5
1F8
330
1F
100
AcDbEntity
  8
0
  6
SLD-Durchgehend
 62
     7
370
    25
100
AcDbLine
 10
251.8013837013
 20
356.2072522712
 30
0.0
 11
251.6603580603
 21
356.2072522712
 31
0.0
  0
LINE
  5
1F9
330
1F
100
AcDbEntity
  8
0
  6
SLD-Durchgehend
 62
     7
370
    25
100
AcDbLine
 10
251.8013837013
 20
356.2072522712
 30
0.0
 11
251.8013837013
 21
356.2172522712
 31
0.0
  0
LINE
  5
1FA
330
1F
100
AcDbEntity
  8
0
  6
SLD-Durchgehend
 62
     7
370
    25
100
AcDbLine
 10
283.1735781495
 20
356.2172522712
 30
0.0
 11
285.2620063365
 21
356.2172522712
 31
0.0
  0
LINE
  5
1FB
330
1F
100
AcDbEntity
  8
0
  6
SLD-Durchgehend
 62
     7
370
    25
100
AcDbLine
 10
282.515580549
 20
356.2172522712
 30
0.0
 11
282.801263245
 21
356.2172522712
 31
0.0
  0
LINE
  5
1FC
330
1F
100
AcDbEntity
  8
0
  6
SLD-Durchgehend
 62
     7
370
    25
100
AcDbLine
 10
277.8617343951
 20
356.2172522712
 30
0.0
 11
282.2912264627
 21
356.2172522712
 31
0.0
  0
LINE
  5
1FD
330
1F
100
AcDbEntity
  8
0
  6
SLD-Durchgehend
 62
     7
370
    25
100
AcDbLine
 10
277.3040420874
 20
356.2172522712
 30
0.0
 11
277.6501959336
 21
356.2172522712
 31
0.0
  0
LINE
  5
1FE
330
1F
100
AcDbEntity
  8
0
  6
SLD-Durchgehend
 62
     7
370
    25
100
AcDbLine
 10
275.3911272911
 20
356.2172522712
 30
0.0
 11
276.2975426165
 21
356.2172522712
 31
0.0
  0
LINE
  5
1FF
330
1F
100
AcDbEntity
  8
0
  6
SLD-Durchgehend
 62
     7
370
    25
100
AcDbLine
 10
274.8013837013
 20
356.2172522712
 30
0.0
 11
275.25010165
 21
356.2172522712
 31
0.0
  0
LINE
  5
200
330
1F
100
AcDbEntity
  8
0
  6
SLD-Durchgehend
 62
     7
370
    25
100
AcDbLine
 10
274.6419067585
 20
356.2172522712
 30
0.0
 11
274.6603580603
 21
356.2172522712
 31
0.0
  0
LINE
  5
201
330
1F
100
AcDbEntity
  8
0
  6
SLD-Durchgehend
 62
     7
370
    25
100
AcDbLine
 10
270.7620063365
 20
356.2172522712
 30
0.0
 11
274.5370735179
 21
356.2172522712
 31
0.0
  0
LINE
  5
202
330
1F
100
AcDbEntity
  8
0
  6
SLD-Durchgehend
 62
     7
370
    25
100
AcDbLine
 10
257.3210672577
 20
356.2172522712
 30
0.0
 11
262.7620063365
 21
356.2172522712
 31
0.0
  0
LINE
  5
203
330
1F
100
AcDbEntity
  8
0
  6
SLD-Durchgehend
 62
     7
370
    25
100
AcDbLine
 10
255.8040420874
 20
356.2172522712
 30
0.0
 11
256.2699702712
 21
356.2172522712
 31
0.0
  0
LINE
  5
204
330
1F
100
AcDbEntity
  8
0
  6
SLD-Durchgehend
 62
     7
370
    25
100
AcDbLine
 10
251.8013837013
 20
356.2172522712
 30
0.0
 11
255.5925036259
 21
356.2172522712
 31
0.0
  0
LINE
  5
205
330
1F
100
AcDbEntity
  8
0
  6
SLD-Durchgehend
 62
     7
370
    25
100
AcDbLine
 10
251.5977088523
 20
356.2172522712
 30
0.0
 11
251.6603580603
 21
356.2172522712
 31
0.0
  0
LINE
  5
206
330
1F
100
AcDbEntity
  8
0
  6
SLD-Durchgehend
 62
     7
370
    25
100
AcDbLine
 10
248.2620063365
 20
356.2172522712
 30
0.0
 11
251.2207841373
 21
356.2172522712
 31
0.0
  0
LINE
  5
207
330
1F
100
AcDbEntity
  8
0
  6
SLD-Durchgehend
 62
     7
370
    25
100
AcDbLine
 10
274.5370735179
 20
356.2172522712
 30
0.0
 11
274.6419067585
 21
356.2172522712
 31
0.0
  0
LINE
  5
208
330
1F
100
AcDbEntity
  8
0
  6
SLD-Durchgehend
 62
     7
370
    25
100
AcDbLine
 10
275.25010165
 20
356.2172522712
 30
0.0
 11
275.3911272911
 21
356.2172522712
 31
0.0
  0
LINE
  5
209
330
1F
100
AcDbEntity
  8
0
  6
SLD-Durchgehend
 62
     7
370
    25
100
AcDbLine
 10
274.6603580603
 20
356.2172522712
 30
0.0
 11
274.8013837013
 21
356.2172522712
 31
0.0
  0
LINE
  5
20A
330
1F
100
AcDbEntity
  8
0
  6
SLD-Durchgehend
 62
     7
370
    25
100
AcDbLine
 10
257.0277737413
 20
356.2172522712
 30
0.0
 11
257.3210672577
 21
356.2172522712
 31
0.0
  0
LINE
  5
20B
330
1F
100
AcDbEntity
  8
0
  6
SLD-Durchgehend
 62
     7
370
    25
100
AcDbLine
 10
276.4578882413
 20
356.2072522712
 30
0.0
 11
276.4578882413
 21
356.2172522712
 31
0.0
  0
LINE
  5
20C
330
1F
100
AcDbEntity
  8
0
  6
SLD-Durchgehend
 62
     7
370
    25
100
AcDbLine
 10
276.4578882413
 20
356.2172522712
 30
0.0
 11
276.4748840903
 21
356.2172522712
 31
0.0
  0
SPLINE
  5
20D
330
1F
100
AcDbEntity
  8
0
  6
SLD-Durchgehend
 62
     7
370
    25
100
AcDbSpline
210
0.0
220
0.0
230
1.0
 70
    24
 71
     3
 72
     9
 73
     5
 74
     0
 42
0.00000001
 43
0.00000001
 40
0.0
 40
0.0
 40
0.0
 40
0.0
 40
0.3455168355655212
 40
1.0
 40
1.0
 40
1.0
 40
1.0
 10
276.2975426165369
 20
356.2172522712096
 30
0.0
 10
276.3058280291817
 20
356.2172522712096
 30
0.0
 10
276.3298077945415
 20
356.2172522712096
 30
0.0
 10
276.3779924705873
 20
356.2172522712096
 30
0.0
 10
276.4095285298431
 20
356.2172522712096
 30
0.0
  0
LINE
  5
20E
330
1F
100
AcDbEntity
  8
0
  6
SLD-Durchgehend
 62
     7
370
    25
100
AcDbLine
 10
277.0925036259
 20
356.2072522712
 30
0.0
 11
277.0925036259
 21
356.2172522712
 31
0.0
  0
LINE
  5
20F
330
1F
100
AcDbEntity
  8
0
  6
SLD-Durchgehend
 62
     7
370
    25
100
AcDbLine
 10
276.9833867998
 20
356.2172522712
 30
0.0
 11
277.0925036259
 21
356.2172522712
 31
0.0
  0
LINE
  5
210
330
1F
100
AcDbEntity
  8
0
  6
SLD-Durchgehend
 62
     7
370
    25
100
AcDbLine
 10
256.2699702712
 20
356.2172522712
 30
0.0
 11
256.4371128593
 21
356.2172522712
 31
0.0
  0
LINE
  5
211
330
1F
100
AcDbEntity
  8
0
  6
SLD-Durchgehend
 62
     7
370
    25
100
AcDbLine
 10
277.6501959336
 20
356.2172522712
 30
0.0
 11
277.8617343951
 21
356.2172522712
 31
0.0
  0
LINE
  5
212
330
1F
100
AcDbEntity
  8
0
  6
SLD-Durchgehend
 62
     7
370
    25
100
AcDbLine
 10
277.0925036259
 20
356.2172522712
 30
0.0
 11
277.3040420874
 21
356.2172522712
 31
0.0
  0
LINE
  5
213
330
1F
100
AcDbEntity
  8
0
  6
SLD-Durchgehend
 62
     7
370
    25
100
AcDbLine
 10
255.5925036259
 20
356.2172522712
 30
0.0
 11
255.8040420874
 21
356.2172522712
 31
0.0
  0
LINE
  5
214
330
1F
100
AcDbEntity
  8
0
  6
SLD-Durchgehend
 62
     7
370
    25
100
AcDbLine
 10
251.3951337013
 20
356.2072522712
 30
0.0
 11
251.3951337013
 21
356.2172522712
 31
0.0
  0
LINE
  5
215
330
1F
100
AcDbEntity
  8
0
  6
SLD-Durchgehend
 62
     7
370
    25
100
AcDbLine
 10
251.3951337013
 20
356.2172522712
 30
0.0
 11
251.5977088523
 21
356.2172522712
 31
0.0
  0
LINE
  5
216
330
1F
100
AcDbEntity
  8
0
  6
SLD-Durchgehend
 62
     7
370
    25
100
AcDbLine
 10
251.2476978039
 20
356.2072522712
 30
0.0
 11
251.2476978039
 21
356.2172522712
 31
0.0
  0
LINE
  5
217
330
1F
100
AcDbEntity
  8
0
  6
SLD-Durchgehend
 62
     7
370
    25
100
AcDbLine
 10
251.2207841373
 20
356.2172522712
 30
0.0
 11
251.2476978039
 21
356.2172522712
 31
0.0
  0
LINE
  5
218
330
1F
100
AcDbEntity
  8
0
  6
SLD-Durchgehend
 62
     7
370
    25
100
AcDbLine
 10
251.6603580603
 20
356.2172522712
 30
0.0
 11
251.8013837013
 21
356.2172522712
 31
0.0
  0
LINE
  5
219
330
1F
100
AcDbEntity
  8
0
  6
SLD-Durchgehend
 62
     7
370
    25
100
AcDbLine
 10
251.2476978039
 20
356.2172522712
 30
0.0
 11
251.3026550347
 21
356.2172522712
 31
0.0
  0
LINE
  5
21A
330
1F
100
AcDbEntity
  8
0
  6
SLD-Durchgehend
 62
     7
370
    25
100
AcDbLine
 10
251.3705581414
 20
356.2172522712
 30
0.0
 11
251.3951337013
 21
356.2172522712
 31
0.0
  0
LINE
  5
21B
330
1F
100
AcDbEntity
  8
0
  6
SLD-Durchgehend
 62
     7
370
    25
100
AcDbLine
 10
282.3040420874
 20
356.2072522712
 30
0.0
 11
282.3040420874
 21
356.2172522712
 31
0.0
  0
LINE
  5
21C
330
1F
100
AcDbEntity
  8
0
  6
SLD-Durchgehend
 62
     7
370
    25
100
AcDbLine
 10
282.2912264627
 20
356.2172522712
 30
0.0
 11
282.3040420874
 21
356.2172522712
 31
0.0
  0
LINE
  5
21D
330
1F
100
AcDbEntity
  8
0
  6
SLD-Durchgehend
 62
     7
370
    25
100
AcDbLine
 10
282.801263245
 20
356.2172522712
 30
0.0
 11
282.8695014681
 21
356.2172522712
 31
0.0
  0
LINE
  5
21E
330
1F
100
AcDbEntity
  8
0
  6
SLD-Durchgehend
 62
     7
370
    25
100
AcDbLine
 10
283.1258027222
 20
356.2172522712
 30
0.0
 11
283.1735781495
 21
356.2172522712
 31
0.0
  0
LINE
  5
21F
330
1F
100
AcDbEntity
  8
0
  6
SLD-Durchgehend
 62
     7
370
    25
100
AcDbLine
 10
282.3040420874
 20
356.2172522712
 30
0.0
 11
282.515580549
 21
356.2172522712
 31
0.0
  0
CIRCLE
  5
220
330
1F
100
AcDbEntity
  8
0
  6
SLD-Durchgehend
 62
     7
370
    25
100
AcDbCircle
 10
266.7620063365
 20
288.5672522712
 30
0.0
 40
17.5
  0
CIRCLE
  5
221
330
1F
100
AcDbEntity
  8
0
  6
SLD-Durchgehend
 62
     7
370
    25
100
AcDbCircle
 10
266.7620063365
 20
288.5672522712
 30
0.0
 40
14.5
  0
LINE
  5
222
330
1F
100
AcDbEntity
  8
0
  6
SLD-Durchgehend
 62
     7
370
    25
100
AcDbLine
 10
286.7620063365
 20
355.5672522712
 30
0.0
 11
246.7620063365
 21
355.5672522712
 31
0.0
  0
LINE
  5
223
330
1F
100
AcDbEntity
  8
0
  6
SLD-Durchgehend
 62
     7
370
    25
100
AcDbLine
 10
286.2620063365
 20
348.5672522712
 30
0.0
 11
247.2620063376
 21
348.5672522712
 31
0.0
  0
CIRCLE
  5
224
330
1F
100
AcDbEntity
  8
0
  6
SLD-Durchgehend
 62
     8
370
    18
100
AcDbCircle
 10
266.7620063365
 20
288.5672522712
 30
0.0
 40
15.5
  0
SPLINE
  5
225
330
1F
100
AcDbEntity
  8
0
  6
SLD-Durchgehend
 62
     8
370
    18
100
AcDbSpline
210
0.0
220
0.0
230
1.0
 70
     8
 71
     3
 72
    19
 73
    15
 74
     0
 42
0.00000001
 43
0.00000001
 40
0.0
 40
0.0
 40
0.0
 40
0.0
 40
0.0413165612095843
 40
0.1426786450409255
 40
0.2440809834906309
 40
0.2584646318414199
 40
0.369554800903942
 40
0.4806975605765725
 40
0.582097112607854
 40
0.6834773965864124
 40
0.7771264242310961
 40
0.8707280602099089
 40
0.970256875200458
 40
1.0
 40
1.0
 40
1.0
 40
1.0
 10
266.7620063365101
 20
306.5672522712096
 30
0.0
 10
266.9382148952594
 20
306.5654886360147
 30
0.0
 10
267.546716611543
 20
306.5593982675867
 30
0.0
 10
268.5789723375717
 20
306.4783920361178
 30
0.0
 10
269.4569728785062
 20
306.3439625632715
 30
0.0
 10
270.3334835174344
 20
306.16968635034
 30
0.0
 10
271.2035433468521
 20
305.9523546172896
 30
0.0
 10
272.255261362106
 20
305.6062798967798
 30
0.0
 10
273.1245510113057
 20
305.2570263410724
 30
0.0
 10
273.7973203778083
 20
304.9464767574059
 30
0.0
 10
274.2987653777608
 20
304.690425667202
 30
0.0
 10
274.6237822287537
 20
304.5123853527609
 30
0.0
 10
274.77373978773
 20
304.4278566478774
 30
0.0
 10
274.7463215405808
 20
304.4431565028832
 30
0.0
 10
274.7400131000323
 20
304.4466767215601
 30
0.0
  0
SPLINE
  5
226
330
1F
100
AcDbEntity
  8
0
  6
SLD-Durchgehend
 62
     8
370
    18
100
AcDbSpline
210
0.0
220
0.0
230
1.0
 70
     8
 71
     3
 72
    19
 73
    15
 74
     0
 42
0.00000001
 43
0.00000001
 40
0.0
 40
0.0
 40
0.0
 40
0.0
 40
0.0038430960236019
 40
0.0761819809508498
 40
0.1488453523282368
 40
0.2212308964201384
 40
0.3327105420502576
 40
0.4442531225517974
 40
0.5473838726161379
 40
0.6504950246935843
 40
0.7469491583618753
 40
0.8433631366461495
 40
0.9216860309761677
 40
1.0
 40
1.0
 40
1.0
 40
1.0
 10
258.7656952981176
 20
304.4359842248376
 30
0.0
 10
258.7645330117996
 20
304.4353221824793
 30
0.0
 10
258.7414929228721
 20
304.4221984671143
 30
0.0
 10
258.8182846652767
 20
304.4665474460917
 30
0.0
 10
258.9728089942239
 20
304.5529214267751
 30
0.0
 10
259.2911059392528
 20
304.7245744028568
 30
0.0
 10
259.8190816905326
 20
304.9928088020506
 30
0.0
 10
260.5953152535378
 20
305.3420395808417
 30
0.0
 10
261.5167307137759
 20
305.6936204137053
 30
0.0
 10
262.5264173387137
 20
306.0087714034763
 30
0.0
 10
263.624509662937
 20
306.2691348753526
 30
0.0
 10
264.7075977238695
 20
306.4461840883804
 30
0.0
 10
265.7629736806403
 20
306.5486073248671
 30
0.0
 10
266.4290081016291
 20
306.56103752519
 30
0.0
 10
266.7620063365101
 20
306.5672522712096
 30
0.0
  0
LINE
  5
227
330
1F
100
AcDbEntity
  8
0
  6
SLD-Durchgehend
 62
     8
370
    18
100
AcDbLine
 10
246.7620063365
 20
349.0672522712
 30
0.0
 11
286.7620063365
 21
349.0672522712
 31
0.0
  0
DIMENSION
  5
228
330
1F
100
AcDbEntity
  8
0
  6
SLD-Durchgehend
 62
     1
370
    18
100
AcDbDimension
280
     0
  2
_D_2
 10
306.7620063365
 20
288.5672522712
 30
0.0
 11
306.7620063365
 21
322.3922522712
 31
0.0
 70
   160
  1
<>
 71
     2
 42
-1.0
 73
     0
 74
     0
 75
     0
  3
SLDDIMSTYLE0
100
AcDbAlignedDimension
 13
283.7078882413
 23
356.2172522712
 33
0.0
 14
266.7620063365
 24
288.5672522712
 34
0.0
 50
90.0
100
AcDbRotatedDimension
  0
DIMENSION
  5
232
330
1F
100
AcDbEntity
  8
0
  6
SLD-Durchgehend
 62
     1
370
    18
100
AcDbDimension
280
     0
  2
_D_3
 10
281.2620063365
 20
251.0672522712
 30
0.0
 11
265.3788512432
 21
251.0672522712
 31
0.0
 70
   160
  1
%%c<>
 71
     2
 42
-1.0
 73
     0
 74
     0
 75
     0
  3
SLDDIMSTYLE1
100
AcDbAlignedDimension
 13
252.2620063365
 23
288.5672522712
 33
0.0
 14
281.2620063365
 24
288.5672522712
 34
0.0
100
AcDbRotatedDimension
  0
LINE
  5
23F
330
1F
100
AcDbEntity
  8
0
  6
SLD-Durchgehend
 62
     7
370
    25
100
AcDbLine
 10
284.2620063365
 20
428.0879360866
 30
0.0
 11
284.2620063365
 21
448.0879360866
 31
0.0
  0
LINE
  5
240
330
1F
100
AcDbEntity
  8
0
  6
SLD-Durchgehend
 62
     7
370
    25
100
AcDbLine
 10
249.2620063365
 20
448.0879360866
 30
0.0
 11
249.2620063365
 21
428.0879360866
 31
0.0
  0
ARC
  5
241
330
1F
100
AcDbEntity
  8
0
  6
SLD-Durchgehend
 62
     7
370
    25
100
AcDbCircle
 10
266.7620063365
 20
457.0879360866
 30
0.0
 40
4.000000000000047
100
AcDbArc
 50
8.7031861786
 51
171.2968138214
  0
LINE
  5
242
330
1F
100
AcDbEntity
  8
0
  6
SLD-Durchgehend
 62
     7
370
    25
100
AcDbLine
 10
266.7620063365
 20
428.0879360866
 30
0.0
 11
284.2620063365
 21
428.0879360866
 31
0.0
  0
LINE
  5
243
330
1F
100
AcDbEntity
  8
0
  6
SLD-Durchgehend
 62
     7
370
    25
100
AcDbLine
 10
249.2620063365
 20
428.0879360866
 30
0.0
 11
266.7620063365
 21
428.0879360866
 31
0.0
  0
LINE
  5
244
330
1F
100
AcDbEntity
  8
0
  6
SLD-Durchgehend
 62
     7
370
    25
100
AcDbLine
 10
266.7620063365
 20
448.0879360866
 30
0.0
 11
284.2620063365
 21
448.0879360866
 31
0.0
  0
LINE
  5
245
330
1F
100
AcDbEntity
  8
0
  6
SLD-Durchgehend
 62
     7
370
    25
100
AcDbLine
 10
249.2620063365
 20
448.0879360866
 30
0.0
 11
266.7620063365
 21
448.0879360866
 31
0.0
  0
ARC
  5
246
330
1F
100
AcDbEntity
  8
0
  6
SLD-Durchgehend
 62
     7
370
    25
100
AcDbCircle
 10
266.7620063365
 20
438.0879360866
 30
0.0
 40
20.00000000000006
100
AcDbArc
 50
331.0449756281
 51
0.0
  0
ARC
  5
247
330
1F
100
AcDbEntity
  8
0
  6
SLD-Durchgehend
 62
     7
370
    25
100
AcDbCircle
 10
266.7620063365
 20
438.0879360866
 30
0.0
 40
20.00000000000006
100
AcDbArc
 50
210.0
 51
330.0
  0
ARC
  5
248
330
1F
100
AcDbEntity
  8
0
  6
SLD-Durchgehend
 62
     7
370
    25
100
AcDbCircle
 10
266.7620063365
 20
438.0879360866
 30
0.0
 40
20.00000000000002
100
AcDbArc
 50
151.0449756281
 51
208.9550243719
  0
ARC
  5
249
330
1F
100
AcDbEntity
  8
0
  6
SLD-Durchgehend
 62
     7
370
    25
100
AcDbCircle
 10
266.7620063365
 20
438.0879360866
 30
0.0
 40
20.00000000000006
100
AcDbArc
 50
30.0
 51
150.0
  0
ARC
  5
24A
330
1F
100
AcDbEntity
  8
0
  6
SLD-Durchgehend
 62
     7
370
    25
100
AcDbCircle
 10
266.7620063365
 20
438.0879360866
 30
0.0
 40
20.00000000000007
100
AcDbArc
 50
0.0
 51
28.9550243719
  0
ARC
  5
24B
330
1F
100
AcDbEntity
  8
0
  6
SLD-Durchgehend
 62
     8
370
    18
100
AcDbCircle
 10
266.7620063365
 20
438.0879360866
 30
0.0
 40
19.50000000000006
100
AcDbArc
 50
0.0
 51
26.1769521717
  0
ARC
  5
24C
330
1F
100
AcDbEntity
  8
0
  6
SLD-Durchgehend
 62
     8
370
    18
100
AcDbCircle
 10
266.7620063365
 20
438.0879360866
 30
0.0
 40
19.50000000000002
100
AcDbArc
 50
30.8518859861
 51
149.1481140139
  0
ARC
  5
24D
330
1F
100
AcDbEntity
  8
0
  6
SLD-Durchgehend
 62
     8
370
    18
100
AcDbCircle
 10
266.7620063365
 20
438.0879360866
 30
0.0
 40
19.50000000000001
100
AcDbArc
 50
153.8230478283
 51
206.1769521717
  0
ARC
  5
24E
330
1F
100
AcDbEntity
  8
0
  6
SLD-Durchgehend
 62
     8
370
    18
100
AcDbCircle
 10
266.7620063365
 20
438.0879360866
 30
0.0
 40
19.50000000000002
100
AcDbArc
 50
210.8518859861
 51
329.1481140139
  0
ARC
  5
24F
330
1F
100
AcDbEntity
  8
0
  6
SLD-Durchgehend
 62
     8
370
    18
100
AcDbCircle
 10
266.7620063365
 20
438.0879360866
 30
0.0
 40
19.50000000000006
100
AcDbArc
 50
333.8230478283
 51
0.0
  0
DIMENSION
  5
250
330
1F
100
AcDbEntity
  8
0
  6
SLD-Durchgehend
 62
     1
370
    18
100
AcDbDimension
280
     0
  2
_D_4
 10
286.7620063365
 20
398.0879360866
 30
0.0
 11
265.2511139925
 21
398.0879360866
 31
0.0
 70
   160
  1
%%c<>
 71
     2
 42
-1.0
 73
     0
 74
     0
 75
     0
  3
SLDDIMSTYLE1
100
AcDbAlignedDimension
 13
246.7620063365
 23
438.0879360866
 33
0.0
 14
286.7620063365
 24
438.0879360866
 34
0.0
100
AcDbRotatedDimension
  0
ENDSEC
  0
SECTION
  2
OBJECTS
  0
DICTIONARY
  5
C
330
0
100
AcDbDictionary
281
     1
  3
ACAD_DETAILVIEWSTYLE
350
264
  3
ACAD_GROUP
350
D
  3
ACAD_LAYOUT
350
1A
  3
ACAD_MATERIAL
350
43
  3
ACAD_MLEADERSTYLE
350
5B
  3
ACAD_MLINESTYLE
350
17
  3
ACAD_PLOTSETTINGS
350
19
  3
ACAD_PLOTSTYLENAME
350
E
  3
ACAD_SCALELIST
350
47
  3
ACAD_SECTIONVIEWSTYLE
350
265
  3
ACAD_TABLESTYLE
350
59
  3
ACAD_VISUALSTYLE
350
2A
  3
ACDB_RECOMPOSE_DATA
350
261
  3
AcDbVariableDictionary
350
25D
  0
SUN
  5
5D
330
29
100
AcDbSun
 90
        1
290
     0
 63
     7
421
 16777215
 40
1.0
291
     1
 91
  2455826
 92
 54000000
292
     0
 70
     2
 71
   256
280
     1
  0
DICTIONARY
  5
264
102
{ACAD_REACTORS
330
C
102
}
330
C
100
AcDbDictionary
281
     1
  0
DICTIONARY
  5
D
102
{ACAD_REACTORS
330
C
102
}
330
C
100
AcDbDictionary
281
     1
  0
DICTIONARY
  5
1A
102
{ACAD_REACTORS
330
C
102
}
330
C
100
AcDbDictionary
281
     1
  3
Layout1
350
1E
  3
Layout2
350
26
  3
Model
350
22
  0
DICTIONARY
  5
43
102
{ACAD_REACTORS
330
C
102
}
330
C
100
AcDbDictionary
281
     1
  3
ByBlock
350
45
  3
ByLayer
350
44
  3
Global
350
46
  0
DICTIONARY
  5
5B
102
{ACAD_REACTORS
330
C
102
}
330
C
100
AcDbDictionary
281
     1
  3
Standard
350
5C
  0
DICTIONARY
  5
17
102
{ACAD_REACTORS
330
C
102
}
330
C
100
AcDbDictionary
281
     1
  3
Standard
350
18
  0
DICTIONARY
  5
19
102
{ACAD_REACTORS
330
C
102
}
330
C
100
AcDbDictionary
281
     1
  0
ACDBDICTIONARYWDFLT
  5
E
102
{ACAD_REACTORS
330
C
102
}
330
C
100
AcDbDictionary
281
     1
  3
Normal
350
F
100
AcDbDictionaryWithDefault
340
F
  0
DICTIONARY
  5
47
102
{ACAD_REACTORS
330
C
102
}
330
C
100
AcDbDictionary
281
     1
  3
A0
350
48
  3
A1
350
49
  3
A2
350
4A
  3
A3
350
4B
  3
A4
350
4C
  3
A5
350
4D
  3
A6
350
4E
  3
A7
350
4F
  3
A8
350
50
  3
A9
350
51
  3
B0
350
52
  3
B1
350
53
  3
B2
350
54
  3
B3
350
55
  3
B4
350
56
  3
B5
350
57
  3
B6
350
58
  0
DICTIONARY
  5
265
102
{ACAD_REACTORS
330
C
102
}
330
C
100
AcDbDictionary
281
     1
  0
DICTIONARY
  5
59
102
{ACAD_REACTORS
330
C
102
}
330
C
100
AcDbDictionary
281
     1
  3
Standard
350
5A
  0
DICTIONARY
  5
2A
102
{ACAD_REACTORS
330
C
102
}
330
C
100
AcDbDictionary
281
     1
  3
2dWireframe
350
2F
  3
Basic
350
32
  3
Brighten
350
36
  3
ColorChange
350
3A
  3
Conceptual
350
34
  3
Dim
350
35
  3
EdgeColorOff
350
3D
  3
Facepattern
350
39
  3
Flat
350
2B
  3
FlatWithEdges
350
2C
  3
Gouraud
350
2D
  3
GouraudWithEdges
350
2E
  3
Hidden
350
31
  3
JitterOff
350
3B
  3
Linepattern
350
38
  3
OverhangOff
350
3C
  3
Realistic
350
33
  3
Shaded
350
42
  3
Shaded with edges
350
41
  3
Shades of Gray
350
3E
  3
Sketchy
350
3F
  3
Thicken
350
37
  3
Wireframe
350
30
  3
X-Ray
350
40
  0
XRECORD
  5
261
102
{ACAD_REACTORS
330
C
102
}
330
C
100
AcDbXrecord
280
     1
 90
        1
330
5A
  0
DICTIONARY
  5
25D
102
{ACAD_REACTORS
330
C
102
}
330
C
100
AcDbDictionary
281
     1
  3
CANNOSCALE
350
25E
  3
CENTEREXE
350
266
  3
CENTERLTYPEFILE
350
267
  3
CMLEADERSTYLE
350
263
  3
CTABLESTYLE
350
262
  0
LAYOUT
  5
1E
102
{ACAD_REACTORS
330
1A
102
}
330
1A
100
AcDbPlotSettings
  1

  2
none_device
  4

  6

 40
0.0
 41
0.0
 42
0.0
 43
0.0
 44
0.0
 45
0.0
 46
0.0
 47
0.0
 48
0.0
 49
0.0
140
0.0
141
0.0
142
1.0
143
1.0
 70
   688
 72
     1
 73
     0
 74
     5
  7

 75
    16
 76
     0
 77
     2
 78
   300
147
1.0
148
0.0
149
0.0
100
AcDbLayout
  1
Layout1
 70
     1
 71
     1
 10
0.0
 20
0.0
 11
420.0
 21
297.0
 12
0.0
 22
0.0
 32
0.0
 14
1.0000000000E+20
 24
1.0000000000E+20
 34
1.0000000000E+20
 15
-1.0000000000E+20
 25
-1.0000000000E+20
 35
-1.0000000000E+20
146
0.0
 13
0.0
 23
0.0
 33
0.0
 16
1.0
 26
0.0
 36
0.0
 17
0.0
 27
1.0
 37
0.0
 76
     0
330
1B
  0
LAYOUT
  5
26
102
{ACAD_REACTORS
330
1A
102
}
330
1A
100
AcDbPlotSettings
  1

  2
none_device
  4

  6

 40
0.0
 41
0.0
 42
0.0
 43
0.0
 44
0.0
 45
0.0
 46
0.0
 47
0.0
 48
0.0
 49
0.0
140
0.0
141
0.0
142
1.0
143
1.0
 70
   688
 72
     1
 73
     0
 74
     5
  7

 75
    16
 76
     0
 77
     2
 78
   300
147
1.0
148
0.0
149
0.0
100
AcDbLayout
  1
Layout2
 70
     1
 71
     2
 10
0.0
 20
0.0
 11
0.0
 21
0.0
 12
0.0
 22
0.0
 32
0.0
 14
0.0
 24
0.0
 34
0.0
 15
0.0
 25
0.0
 35
0.0
146
0.0
 13
0.0
 23
0.0
 33
0.0
 16
1.0
 26
0.0
 36
0.0
 17
0.0
 27
1.0
 37
0.0
 76
     0
330
23
  0
LAYOUT
  5
22
102
{ACAD_REACTORS
330
1A
102
}
330
1A
100
AcDbPlotSettings
  1

  2
none_device
  4
Letter_(8.50_x_11.00_Inches)
  6

 40
6.35
 41
6.35
 42
6.35000508
 43
6.35000508
 44
215.9
 45
279.4
 46
0.0
 47
0.0
 48
0.0
 49
0.0
140
0.0
141
0.0
142
1.0
143
1.0
 70
  1712
 72
     1
 73
     0
 74
     0
  7

 75
     0
 76
     0
 77
     2
 78
   300
147
1.0
148
0.0
149
0.0
100
AcDbLayout
  1
Model
 70
     1
 71
     0
 10
0.0
 20
0.0
 11
420.0
 21
594.0
 12
0.0
 22
0.0
 32
0.0
 14
0.0
 24
0.0
 34
0.0
 15
420.0
 25
594.0
 35
0.0
146
0.0
 13
0.0
 23
0.0
 33
0.0
 16
1.0
 26
0.0
 36
0.0
 17
0.0
 27
1.0
 37
0.0
 76
     0
330
1F
331
29
  0
MATERIAL
  5
45
102
{ACAD_REACTORS
330
43
102
}
330
43
100
AcDbMaterial
  1
ByBlock
 72
     1
 94
      127
  0
MATERIAL
  5
44
102
{ACAD_REACTORS
330
43
102
}
330
43
100
AcDbMaterial
  1
ByLayer
 72
     1
 94
      127
  0
MATERIAL
  5
46
102
{ACAD_REACTORS
330
43
102
}
330
43
100
AcDbMaterial
  1
Global
 72
     1
 94
      127
  0
MLEADERSTYLE
  5
5C
102
{ACAD_REACTORS
330
5B
102
}
330
5B
100
AcDbMLeaderStyle
179
     2
170
     2
171
     1
172
     0
 90
        2
 40
0.0
 41
0.0
173
     1
 91
-1056964608
340
14
 92
       -2
290
     1
 42
2.0
291
     1
 43
8.0
  3
Standard
341
0
 44
4.0
300

342
11
174
     1
178
     6
175
     1
176
     0
 93
-1056964608
 45
4.0
292
     0
297
     0
 46
4.0
343
0
 94
-1056964608
 47
1.0
 49
1.0
140
1.0
293
     1
141
0.0
294
     1
177
     0
142
1.0
295
     0
296
     0
143
3.75
271
     0
272
     9
273
     9
298
     0
  0
MLINESTYLE
  5
18
102
{ACAD_REACTORS
330
17
102
}
330
17
100
AcDbMlineStyle
  2
Standard
 70
     0
  3

 62
   256
 51
90.0
 52
90.0
 71
     2
 49
0.5
 62
   256
  6
BYLAYER
 49
-0.5
 62
   256
  6
BYLAYER
  0
ACDBPLACEHOLDER
  5
F
102
{ACAD_REACTORS
330
E
102
}
330
E
  0
SCALE
  5
48
102
{ACAD_REACTORS
330
47
102
}
330
47
100
AcDbScale
 70
     0
300
1:1
140
1.0
141
1.0
290
     1
  0
SCALE
  5
49
102
{ACAD_REACTORS
330
47
102
}
330
47
100
AcDbScale
 70
     0
300
1:2
140
1.0
141
2.0
290
     0
  0
SCALE
  5
4A
102
{ACAD_REACTORS
330
47
102
}
330
47
100
AcDbScale
 70
     0
300
1:4
140
1.0
141
4.0
290
     0
  0
SCALE
  5
4B
102
{ACAD_REACTORS
330
47
102
}
330
47
100
AcDbScale
 70
     0
300
1:5
140
1.0
141
5.0
290
     0
  0
SCALE
  5
4C
102
{ACAD_REACTORS
330
47
102
}
330
47
100
AcDbScale
 70
     0
300
1:8
140
1.0
141
8.0
290
     0
  0
SCALE
  5
4D
102
{ACAD_REACTORS
330
47
102
}
330
47
100
AcDbScale
 70
     0
300
1:10
140
1.0
141
10.0
290
     0
  0
SCALE
  5
4E
102
{ACAD_REACTORS
330
47
102
}
330
47
100
AcDbScale
 70
     0
300
1:16
140
1.0
141
16.0
290
     0
  0
SCALE
  5
4F
102
{ACAD_REACTORS
330
47
102
}
330
47
100
AcDbScale
 70
     0
300
1:20
140
1.0
141
20.0
290
     0
  0
SCALE
  5
50
102
{ACAD_REACTORS
330
47
102
}
330
47
100
AcDbScale
 70
     0
300
1:30
140
1.0
141
30.0
290
     0
  0
SCALE
  5
51
102
{ACAD_REACTORS
330
47
102
}
330
47
100
AcDbScale
 70
     0
300
1:40
140
1.0
141
40.0
290
     0
  0
SCALE
  5
52
102
{ACAD_REACTORS
330
47
102
}
330
47
100
AcDbScale
 70
     0
300
1:50
140
1.0
141
50.0
290
     0
  0
SCALE
  5
53
102
{ACAD_REACTORS
330
47
102
}
330
47
100
AcDbScale
 70
     0
300
1:100
140
1.0
141
100.0
290
     0
  0
SCALE
  5
54
102
{ACAD_REACTORS
330
47
102
}
330
47
100
AcDbScale
 70
     0
300
2:1
140
2.0
141
1.0
290
     0
  0
SCALE
  5
55
102
{ACAD_REACTORS
330
47
102
}
330
47
100
AcDbScale
 70
     0
300
4:1
140
4.0
141
1.0
290
     0
  0
SCALE
  5
56
102
{ACAD_REACTORS
330
47
102
}
330
47
100
AcDbScale
 70
     0
300
8:1
140
8.0
141
1.0
290
     0
  0
SCALE
  5
57
102
{ACAD_REACTORS
330
47
102
}
330
47
100
AcDbScale
 70
     0
300
10:1
140
10.0
141
1.0
290
     0
  0
SCALE
  5
58
102
{ACAD_REACTORS
330
47
102
}
330
47
100
AcDbScale
 70
     0
300
100:1
140
100.0
141
1.0
290
     0
  0
TABLESTYLE
  5
5A
102
{ACAD_REACTORS
330
59
102
}
102
{ACAD_XDICTIONARY
360
25F
102
}
330
59
100
AcDbTableStyle
  3
Standard
 70
     0
 71
     0
 40
0.06
 41
0.06
280
     0
281
     0
  7
STANDARD
140
4.5
170
     2
 62
     0
 63
   257
283
     0
 90
        4
 91
        0
  1

274
    -2
284
     1
 64
     0
275
    -2
285
     1
 65
     0
276
    -2
286
     1
 66
     0
277
    -2
287
     1
 67
     0
278
    -2
288
     1
 68
     0
279
    -2
289
     1
 69
     0
  7
STANDARD
140
6.0
170
     5
 62
     0
 63
   257
283
     0
 90
        4
 91
        0
  1

274
    -2
284
     1
 64
     0
275
    -2
285
     1
 65
     0
276
    -2
286
     1
 66
     0
277
    -2
287
     1
 67
     0
278
    -2
288
     1
 68
     0
279
    -2
289
     1
 69
     0
  7
STANDARD
140
4.5
170
     5
 62
     0
 63
   257
283
     0
 90
        4
 91
        0
  1

274
    -2
284
     1
 64
     0
275
    -2
285
     1
 65
     0
276
    -2
286
     1
 66
     0
277
    -2
287
     1
 67
     0
278
    -2
288
     1
 68
     0
279
    -2
289
     1
 69
     0
  0
VISUALSTYLE
  5
2F
102
{ACAD_REACTORS
330
2A
102
}
330
2A
100
AcDbVisualStyle
  2
2dWireframe
 70
     4
177
     3
291
     0
 70
    58
 90
        0
176
     1
 90
        2
176
     1
 90
        0
176
     1
 90
        0
176
     1
 40
0.6
176
     1
 40
30.0
176
     1
 62
     7
420
 16777215
176
     1
 90
        1
176
     1
 90
        4
176
     1
 62
     7
176
     1
 62
   257
176
     1
 90
        1
176
     1
 90
        1
176
     1
 40
1.0
176
     1
 90
        0
176
     1
 62
   257
176
     1
 40
1.0
176
     1
 90
        1
176
     1
 90
        6
176
     1
 90
        2
176
     1
 62
     7
176
     1
 90
        5
176
     1
 90
        0
176
     1
 90
        0
176
     1
290
     0
176
     1
 90
        1
176
     1
 40
0.0
176
     1
 90
        0
176
     1
290
     1
176
     1
290
     1
176
     1
290
     0
176
     1
290
     0
176
     1
290
     0
176
     1
290
     0
176
     1
290
     0
176
     1
290
     0
176
     1
290
     0
176
     1
 90
       50
176
     1
 40
0.0
176
     1
 40
1.0
176
     1
 90
        0
176
     1
 62
    18
420
        0
176
     1
 90
       50
176
     1
 90
        3
176
     1
 62
     5
420
      255
176
     1
290
     0
176
     1
 90
       50
176
     1
 90
       50
176
     1
 90
       50
176
     1
290
     0
176
     1
 90
       50
176
     1
 62
   256
176
     0
 40
1.0
176
     0
 90
        2
176
     1
  1
strokes_ogs.tif
176
     1
290
     0
176
     1
 40
1.0
176
     1
 40
1.0
176
     1
  0
VISUALSTYLE
  5
32
102
{ACAD_REACTORS
330
2A
102
}
330
2A
100
AcDbVisualStyle
  2
Basic
 70
     7
177
     3
291
     1
 70
    58
 90
        1
176
     1
 90
        0
176
     1
 90
        1
176
     1
 90
        0
176
     1
 40
0.6
176
     1
 40
30.0
176
     1
 62
     7
420
 16777215
176
     1
 90
        0
176
     1
 90
        4
176
     1
 62
     7
176
     1
 62
   257
176
     1
 90
        1
176
     1
 90
        1
176
     1
 40
1.0
176
     1
 90
        8
176
     1
 62
     7
176
     1
 40
1.0
176
     1
 90
        1
176
     1
 90
        6
176
     1
 90
        2
176
     1
 62
     7
176
     1
 90
        5
176
     1
 90
        0
176
     1
 90
        0
176
     1
290
     0
176
     1
 90
        1
176
     1
 40
0.0
176
     1
 90
        0
176
     1
290
     0
176
     1
290
     1
176
     1
290
     1
176
     1
290
     0
176
     1
290
     0
176
     1
290
     0
176
     1
290
     0
176
     1
290
     0
176
     1
290
     0
176
     1
 90
       50
176
     1
 40
0.0
176
     1
 40
1.0
176
     1
 90
        0
176
     1
 62
    18
420
        0
176
     1
 90
       50
176
     1
 90
        3
176
     1
 62
     5
420
      255
176
     1
290
     0
176
     1
 90
       50
176
     1
 90
       50
176
     1
 90
       50
176
     1
290
     0
176
     1
 90
       50
176
     1
 62
   256
176
     0
 40
1.0
176
     0
 90
        2
176
     1
  1
strokes_ogs.tif
176
     1
290
     0
176
     1
 40
1.0
176
     1
 40
1.0
176
     1
  0
VISUALSTYLE
  5
36
102
{ACAD_REACTORS
330
2A
102
}
330
2A
100
AcDbVisualStyle
  2
Brighten
 70
    12
177
     3
291
     1
 70
    58
 90
        2
176
     1
 90
        2
176
     1
 90
        0
176
     1
 90
        0
176
     1
 40
0.6
176
     1
 40
30.0
176
     1
 62
     7
420
 16777215
176
     1
 90
        1
176
     1
 90
        4
176
     1
 62
     7
176
     1
 62
   257
176
     1
 90
        1
176
     1
 90
        1
176
     1
 40
1.0
176
     1
 90
        8
176
     1
 62
     7
176
     1
 40
1.0
176
     1
 90
        1
176
     1
 90
        6
176
     1
 90
        2
176
     1
 62
     7
176
     1
 90
        5
176
     1
 90
        0
176
     1
 90
        0
176
     1
290
     0
176
     1
 90
        1
176
     1
 40
50.0
176
     1
 90
        0
176
     1
290
     0
176
     1
290
     1
176
     1
290
     1
176
     1
290
     0
176
     1
290
     0
176
     1
290
     0
176
     1
290
     0
176
     1
290
     0
176
     1
290
     0
176
     1
 90
       50
176
     1
 40
0.0
176
     1
 40
1.0
176
     1
 90
        0
176
     1
 62
    18
420
        0
176
     1
 90
       50
176
     1
 90
        3
176
     1
 62
     5
420
      255
176
     1
290
     0
176
     1
 90
       50
176
     1
 90
       50
176
     1
 90
       50
176
     1
290
     0
176
     1
 90
       50
176
     1
 62
   256
176
     0
 40
1.0
176
     0
 90
        2
176
     1
  1
strokes_ogs.tif
176
     1
290
     0
176
     1
 40
1.0
176
     1
 40
1.0
176
     1
  0
VISUALSTYLE
  5
3A
102
{ACAD_REACTORS
330
2A
102
}
330
2A
100
AcDbVisualStyle
  2
ColorChange
 70
    16
177
     3
291
     1
 70
    58
 90
        2
176
     1
 90
        2
176
     1
 90
        3
176
     1
 90
        0
176
     1
 40
0.6
176
     1
 40
30.0
176
     1
 62
     8
420
  8421504
176
     1
 90
        1
176
     1
 90
        4
176
     1
 62
     7
176
     1
 62
   257
176
     1
 90
        1
176
     1
 90
        1
176
     1
 40
1.0
176
     1
 90
        8
176
     1
 62
     8
420
  8421504
176
     1
 40
1.0
176
     1
 90
        1
176
     1
 90
        6
176
     1
 90
        2
176
     1
 62
     7
176
     1
 90
        5
176
     1
 90
        0
176
     1
 90
        0
176
     1
290
     0
176
     1
 90
        1
176
     1
 40
0.0
176
     1
 90
        0
176
     1
290
     0
176
     1
290
     1
176
     1
290
     1
176
     1
290
     0
176
     1
290
     0
176
     1
290
     0
176
     1
290
     0
176
     1
290
     0
176
     1
290
     0
176
     1
 90
       50
176
     1
 40
0.0
176
     1
 40
1.0
176
     1
 90
        0
176
     1
 62
    18
420
        0
176
     1
 90
       50
176
     1
 90
        3
176
     1
 62
     5
420
      255
176
     1
290
     0
176
     1
 90
       50
176
     1
 90
       50
176
     1
 90
       50
176
     1
290
     0
176
     1
 90
       50
176
     1
 62
   256
176
     0
 40
1.0
176
     0
 90
        2
176
     1
  1
strokes_ogs.tif
176
     1
290
     0
176
     1
 40
1.0
176
     1
 40
1.0
176
     1
  0
VISUALSTYLE
  5
34
102
{ACAD_REACTORS
330
2A
102
}
330
2A
100
AcDbVisualStyle
  2
Conceptual
 70
     9
177
     3
291
     0
 70
    58
 90
        3
176
     1
 90
        2
176
     1
 90
        0
176
     1
 90
        0
176
     1
 40
0.6
176
     1
 40
30.0
176
     1
 62
     7
420
 16777215
176
     1
 90
        2
176
     1
 90
        2
176
     1
 62
     7
176
     1
 62
   257
176
     1
 90
        1
176
     1
 90
        1
176
     1
 40
179.0
176
     1
 90
        8
176
     1
 62
     7
176
     1
 40
1.0
176
     1
 90
        1
176
     1
 90
        6
176
     1
 90
        2
176
     1
 62
     7
176
     1
 90
        3
176
     1
 90
        0
176
     1
 90
        0
176
     1
290
     0
176
     1
 90
        1
176
     1
 40
0.0
176
     1
 90
        0
176
     1
290
     0
176
     1
290
     1
176
     1
290
     1
176
     1
290
     0
176
     1
290
     0
176
     1
290
     0
176
     1
290
     0
176
     1
290
     0
176
     1
290
     0
176
     1
 90
       50
176
     1
 40
0.0
176
     1
 40
1.0
176
     1
 90
        0
176
     1
 62
    18
420
        0
176
     1
 90
       50
176
     1
 90
        3
176
     1
 62
     5
420
      255
176
     1
290
     0
176
     1
 90
       50
176
     1
 90
       50
176
     1
 90
       50
176
     1
290
     0
176
     1
 90
       50
176
     1
 62
   256
176
     0
 40
1.0
176
     0
 90
        2
176
     1
  1
strokes_ogs.tif
176
     1
290
     0
176
     1
 40
1.0
176
     1
 40
1.0
176
     1
  0
VISUALSTYLE
  5
35
102
{ACAD_REACTORS
330
2A
102
}
330
2A
100
AcDbVisualStyle
  2
Dim
 70
    11
177
     3
291
     1
 70
    58
 90
        2
176
     1
 90
        2
176
     1
 90
        0
176
     1
 90
        0
176
     1
 40
0.6
176
     1
 40
30.0
176
     1
 62
     7
420
 16777215
176
     1
 90
        1
176
     1
 90
        4
176
     1
 62
     7
176
     1
 62
   257
176
     1
 90
        1
176
     1
 90
        1
176
     1
 40
1.0
176
     1
 90
        8
176
     1
 62
     7
176
     1
 40
1.0
176
     1
 90
        1
176
     1
 90
        6
176
     1
 90
        2
176
     1
 62
     7
176
     1
 90
        5
176
     1
 90
        0
176
     1
 90
        0
176
     1
290
     0
176
     1
 90
        1
176
     1
 40
-50.0
176
     1
 90
        0
176
     1
290
     0
176
     1
290
     1
176
     1
290
     1
176
     1
290
     0
176
     1
290
     0
176
     1
290
     0
176
     1
290
     0
176
     1
290
     0
176
     1
290
     0
176
     1
 90
       50
176
     1
 40
0.0
176
     1
 40
1.0
176
     1
 90
        0
176
     1
 62
    18
420
        0
176
     1
 90
       50
176
     1
 90
        3
176
     1
 62
     5
420
      255
176
     1
290
     0
176
     1
 90
       50
176
     1
 90
       50
176
     1
 90
       50
176
     1
290
     0
176
     1
 90
       50
176
     1
 62
   256
176
     0
 40
1.0
176
     0
 90
        2
176
     1
  1
strokes_ogs.tif
176
     1
290
     0
176
     1
 40
1.0
176
     1
 40
1.0
176
     1
  0
VISUALSTYLE
  5
3D
102
{ACAD_REACTORS
330
2A
102
}
330
2A
100
AcDbVisualStyle
  2
EdgeColorOff
 70
    22
177
     3
291
     1
 70
    58
 90
        2
176
     0
 90
        2
176
     0
 90
        0
176
     0
 90
        0
176
     0
 40
0.6
176
     0
 40
30.0
176
     0
 62
     7
420
 16777215
176
     0
 90
        1
176
     0
 90
        4
176
     0
 62
     7
176
     0
 62
   257
176
     0
 90
        1
176
     0
 90
        1
176
     0
 40
1.0
176
     0
 90
        8
176
     2
 62
     7
176
     0
 40
1.0
176
     0
 90
        1
176
     0
 90
        6
176
     0
 90
        2
176
     0
 62
     7
176
     0
 90
        5
176
     0
 90
        0
176
     0
 90
        0
176
     0
290
     0
176
     0
 90
        1
176
     0
 40
0.0
176
     0
 90
        0
176
     0
290
     0
176
     0
290
     1
176
     0
290
     1
176
     0
290
     0
176
     0
290
     0
176
     0
290
     0
176
     0
290
     0
176
     0
290
     0
176
     0
290
     0
176
     0
 90
       50
176
     0
 40
0.0
176
     0
 40
1.0
176
     0
 90
        0
176
     0
 62
    18
420
        0
176
     0
 90
       50
176
     0
 90
        3
176
     0
 62
     5
420
      255
176
     0
290
     0
176
     0
 90
       50
176
     0
 90
       50
176
     0
 90
       50
176
     0
290
     0
176
     0
 90
       50
176
     0
 62
   256
176
     0
 40
1.0
176
     0
 90
        2
176
     0
  1
strokes_ogs.tif
176
     0
290
     0
176
     0
 40
1.0
176
     0
 40
1.0
176
     0
  0
VISUALSTYLE
  5
39
102
{ACAD_REACTORS
330
2A
102
}
330
2A
100
AcDbVisualStyle
  2
Facepattern
 70
    15
177
     3
291
     1
 70
    58
 90
        2
176
     1
 90
        2
176
     1
 90
        0
176
     1
 90
        0
176
     1
 40
0.6
176
     1
 40
30.0
176
     1
 62
     7
420
 16777215
176
     1
 90
        1
176
     1
 90
        4
176
     1
 62
     7
176
     1
 62
   257
176
     1
 90
        1
176
     1
 90
        1
176
     1
 40
1.0
176
     1
 90
        8
176
     1
 62
     7
176
     1
 40
1.0
176
     1
 90
        1
176
     1
 90
        6
176
     1
 90
        2
176
     1
 62
     7
176
     1
 90
        5
176
     1
 90
        0
176
     1
 90
        0
176
     1
290
     0
176
     1
 90
        1
176
     1
 40
0.0
176
     1
 90
        0
176
     1
290
     0
176
     1
290
     1
176
     1
290
     1
176
     1
290
     0
176
     1
290
     0
176
     1
290
     0
176
     1
290
     0
176
     1
290
     0
176
     1
290
     0
176
     1
 90
       50
176
     1
 40
0.0
176
     1
 40
1.0
176
     1
 90
        0
176
     1
 62
    18
420
        0
176
     1
 90
       50
176
     1
 90
        3
176
     1
 62
     5
420
      255
176
     1
290
     0
176
     1
 90
       50
176
     1
 90
       50
176
     1
 90
       50
176
     1
290
     0
176
     1
 90
       50
176
     1
 62
   256
176
     0
 40
1.0
176
     0
 90
        2
176
     1
  1
strokes_ogs.tif
176
     1
290
     0
176
     1
 40
1.0
176
     1
 40
1.0
176
     1
  0
VISUALSTYLE
  5
2B
102
{ACAD_REACTORS
330
2A
102
}
330
2A
100
AcDbVisualStyle
  2
Flat
 70
     0
177
     3
291
     1
 70
    58
 90
        2
176
     1
 90
        1
176
     1
 90
        1
176
     1
 90
        2
176
     1
 40
0.6
176
     1
 40
30.0
176
     1
 62
     7
420
 16777215
176
     1
 90
        0
176
     1
 90
        0
176
     1
 62
     7
176
     1
 62
   257
176
     1
 90
        1
176
     1
 90
        1
176
     1
 40
1.0
176
     1
 90
        8
176
     1
 62
     7
176
     1
 40
1.0
176
     1
 90
        1
176
     1
 90
        6
176
     1
 90
        2
176
     1
 62
     7
176
     1
 90
        5
176
     1
 90
        0
176
     1
 90
        0
176
     1
290
     0
176
     1
 90
       13
176
     1
 40
0.0
176
     1
 90
        0
176
     1
290
     0
176
     1
290
     1
176
     1
290
     1
176
     1
290
     0
176
     1
290
     0
176
     1
290
     0
176
     1
290
     0
176
     1
290
     0
176
     1
290
     0
176
     1
 90
       50
176
     1
 40
0.0
176
     1
 40
1.0
176
     1
 90
        0
176
     1
 62
    18
420
        0
176
     1
 90
       50
176
     1
 90
        3
176
     1
 62
     5
420
      255
176
     1
290
     0
176
     1
 90
       50
176
     1
 90
       50
176
     1
 90
       50
176
     1
290
     0
176
     1
 90
       50
176
     1
 62
   256
176
     0
 40
1.0
176
     0
 90
        2
176
     1
  1
strokes_ogs.tif
176
     1
290
     0
176
     1
 40
1.0
176
     1
 40
1.0
176
     1
  0
VISUALSTYLE
  5
2C
102
{ACAD_REACTORS
330
2A
102
}
330
2A
100
AcDbVisualStyle
  2
FlatWithEdges
 70
     1
177
     3
291
     1
 70
    58
 90
        2
176
     1
 90
        1
176
     1
 90
        1
176
     1
 90
        2
176
     1
 40
0.6
176
     1
 40
30.0
176
     1
 62
     7
420
 16777215
176
     1
 90
        1
176
     1
 90
        0
176
     1
 62
     7
176
     1
 62
   257
176
     1
 90
        1
176
     1
 90
        1
176
     1
 40
1.0
176
     1
 90
        0
176
     1
 62
   257
176
     1
 40
1.0
176
     1
 90
        1
176
     1
 90
        6
176
     1
 90
        2
176
     1
 62
     7
176
     1
 90
        5
176
     1
 90
        0
176
     1
 90
        0
176
     1
290
     0
176
     1
 90
       13
176
     1
 40
0.0
176
     1
 90
        0
176
     1
290
     0
176
     1
290
     1
176
     1
290
     1
176
     1
290
     0
176
     1
290
     0
176
     1
290
     0
176
     1
290
     0
176
     1
290
     0
176
     1
290
     0
176
     1
 90
       50
176
     1
 40
0.0
176
     1
 40
1.0
176
     1
 90
        0
176
     1
 62
    18
420
        0
176
     1
 90
       50
176
     1
 90
        3
176
     1
 62
     5
420
      255
176
     1
290
     0
176
     1
 90
       50
176
     1
 90
       50
176
     1
 90
       50
176
     1
290
     0
176
     1
 90
       50
176
     1
 62
   256
176
     0
 40
1.0
176
     0
 90
        2
176
     1
  1
strokes_ogs.tif
176
     1
290
     0
176
     1
 40
1.0
176
     1
 40
1.0
176
     1
  0
VISUALSTYLE
  5
2D
102
{ACAD_REACTORS
330
2A
102
}
330
2A
100
AcDbVisualStyle
  2
Gouraud
 70
     2
177
     3
291
     1
 70
    58
 90
        2
176
     1
 90
        2
176
     1
 90
        1
176
     1
 90
        2
176
     1
 40
0.6
176
     1
 40
30.0
176
     1
 62
     7
420
 16777215
176
     1
 90
        0
176
     1
 90
        0
176
     1
 62
     7
176
     1
 62
   257
176
     1
 90
        1
176
     1
 90
        1
176
     1
 40
1.0
176
     1
 90
        0
176
     1
 62
     7
176
     1
 40
1.0
176
     1
 90
        1
176
     1
 90
        6
176
     1
 90
        2
176
     1
 62
     7
176
     1
 90
        5
176
     1
 90
        0
176
     1
 90
        0
176
     1
290
     0
176
     1
 90
       13
176
     1
 40
0.0
176
     1
 90
        0
176
     1
290
     0
176
     1
290
     1
176
     1
290
     1
176
     1
290
     0
176
     1
290
     0
176
     1
290
     0
176
     1
290
     0
176
     1
290
     0
176
     1
290
     0
176
     1
 90
       50
176
     1
 40
0.0
176
     1
 40
1.0
176
     1
 90
        0
176
     1
 62
    18
420
        0
176
     1
 90
       50
176
     1
 90
        3
176
     1
 62
     5
420
      255
176
     1
290
     0
176
     1
 90
       50
176
     1
 90
       50
176
     1
 90
       50
176
     1
290
     0
176
     1
 90
       50
176
     1
 62
   256
176
     0
 40
1.0
176
     0
 90
        2
176
     1
  1
strokes_ogs.tif
176
     1
290
     0
176
     1
 40
1.0
176
     1
 40
1.0
176
     1
  0
VISUALSTYLE
  5
2E
102
{ACAD_REACTORS
330
2A
102
}
330
2A
100
AcDbVisualStyle
  2
GouraudWithEdges
 70
     3
177
     3
291
     1
 70
    58
 90
        2
176
     1
 90
        2
176
     1
 90
        1
176
     1
 90
        2
176
     1
 40
0.6
176
     1
 40
30.0
176
     1
 62
     7
420
 16777215
176
     1
 90
        1
176
     1
 90
        0
176
     1
 62
     7
176
     1
 62
   257
176
     1
 90
        1
176
     1
 90
        1
176
     1
 40
1.0
176
     1
 90
        0
176
     1
 62
   257
176
     1
 40
1.0
176
     1
 90
        1
176
     1
 90
        6
176
     1
 90
        2
176
     1
 62
     7
176
     1
 90
        5
176
     1
 90
        0
176
     1
 90
        0
176
     1
290
     0
176
     1
 90
       13
176
     1
 40
0.0
176
     1
 90
        0
176
     1
290
     0
176
     1
290
     1
176
     1
290
     1
176
     1
290
     0
176
     1
290
     0
176
     1
290
     0
176
     1
290
     0
176
     1
290
     0
176
     1
290
     0
176
     1
 90
       50
176
     1
 40
0.0
176
     1
 40
1.0
176
     1
 90
        0
176
     1
 62
    18
420
        0
176
     1
 90
       50
176
     1
 90
        3
176
     1
 62
     5
420
      255
176
     1
290
     0
176
     1
 90
       50
176
     1
 90
       50
176
     1
 90
       50
176
     1
290
     0
176
     1
 90
       50
176
     1
 62
   256
176
     0
 40
1.0
176
     0
 90
        2
176
     1
  1
strokes_ogs.tif
176
     1
290
     0
176
     1
 40
1.0
176
     1
 40
1.0
176
     1
  0
VISUALSTYLE
  5
31
102
{ACAD_REACTORS
330
2A
102
}
330
2A
100
AcDbVisualStyle
  2
Hidden
 70
     6
177
     3
291
     0
 70
    58
 90
        1
176
     1
 90
        2
176
     1
 90
        2
176
     1
 90
        0
176
     1
 40
0.6
176
     1
 40
30.0
176
     1
 62
     7
420
 16777215
176
     1
 90
        2
176
     1
 90
        2
176
     1
 62
     7
176
     1
 62
   257
176
     1
 90
        2
176
     1
 90
        1
176
     1
 40
40.0
176
     1
 90
        0
176
     1
 62
   257
176
     1
 40
1.0
176
     1
 90
        1
176
     1
 90
        6
176
     1
 90
        2
176
     1
 62
     7
176
     1
 90
        3
176
     1
 90
        0
176
     1
 90
        0
176
     1
290
     0
176
     1
 90
        1
176
     1
 40
0.0
176
     1
 90
        0
176
     1
290
     0
176
     1
290
     1
176
     1
290
     1
176
     1
290
     0
176
     1
290
     0
176
     1
290
     0
176
     1
290
     0
176
     1
290
     0
176
     1
290
     0
176
     1
 90
       50
176
     1
 40
0.0
176
     1
 40
1.0
176
     1
 90
        0
176
     1
 62
    18
420
        0
176
     1
 90
       50
176
     1
 90
        3
176
     1
 62
     5
420
      255
176
     1
290
     0
176
     1
 90
       50
176
     1
 90
       50
176
     1
 90
       50
176
     1
290
     0
176
     1
 90
       50
176
     1
 62
   256
176
     0
 40
1.0
176
     0
 90
        2
176
     1
  1
strokes_ogs.tif
176
     1
290
     0
176
     1
 40
1.0
176
     1
 40
1.0
176
     1
  0
VISUALSTYLE
  5
3B
102
{ACAD_REACTORS
330
2A
102
}
330
2A
100
AcDbVisualStyle
  2
JitterOff
 70
    20
177
     3
291
     1
 70
    58
 90
        2
176
     0
 90
        2
176
     0
 90
        0
176
     0
 90
        0
176
     0
 40
0.6
176
     0
 40
30.0
176
     0
 62
     7
420
 16777215
176
     0
 90
        1
176
     0
 90
        4
176
     0
 62
     7
176
     0
 62
   257
176
     0
 90
        1
176
     0
 90
        1
176
     0
 40
1.0
176
     0
 90
       10
176
     2
 62
     7
176
     0
 40
1.0
176
     0
 90
        1
176
     0
 90
        6
176
     0
 90
        2
176
     0
 62
     7
176
     0
 90
        5
176
     0
 90
        0
176
     0
 90
        0
176
     0
290
     0
176
     0
 90
        1
176
     0
 40
0.0
176
     0
 90
        0
176
     0
290
     0
176
     0
290
     1
176
     0
290
     1
176
     0
290
     0
176
     0
290
     0
176
     0
290
     0
176
     0
290
     0
176
     0
290
     0
176
     0
290
     0
176
     0
 90
       50
176
     0
 40
0.0
176
     0
 40
1.0
176
     0
 90
        0
176
     0
 62
    18
420
        0
176
     0
 90
       50
176
     0
 90
        3
176
     0
 62
     5
420
      255
176
     0
290
     0
176
     0
 90
       50
176
     0
 90
       50
176
     0
 90
       50
176
     0
290
     0
176
     0
 90
       50
176
     0
 62
   256
176
     0
 40
1.0
176
     0
 90
        2
176
     0
  1
strokes_ogs.tif
176
     0
290
     0
176
     0
 40
1.0
176
     0
 40
1.0
176
     0
  0
VISUALSTYLE
  5
38
102
{ACAD_REACTORS
330
2A
102
}
330
2A
100
AcDbVisualStyle
  2
Linepattern
 70
    14
177
     3
291
     1
 70
    58
 90
        2
176
     1
 90
        2
176
     1
 90
        0
176
     1
 90
        0
176
     1
 40
0.6
176
     1
 40
30.0
176
     1
 62
     7
420
 16777215
176
     1
 90
        1
176
     1
 90
        4
176
     1
 62
     7
176
     1
 62
   257
176
     1
 90
        7
176
     1
 90
        7
176
     1
 40
1.0
176
     1
 90
        8
176
     1
 62
     7
176
     1
 40
1.0
176
     1
 90
        1
176
     1
 90
        6
176
     1
 90
        2
176
     1
 62
     7
176
     1
 90
        5
176
     1
 90
        0
176
     1
 90
        0
176
     1
290
     0
176
     1
 90
        1
176
     1
 40
0.0
176
     1
 90
        0
176
     1
290
     0
176
     1
290
     1
176
     1
290
     1
176
     1
290
     0
176
     1
290
     0
176
     1
290
     0
176
     1
290
     0
176
     1
290
     0
176
     1
290
     0
176
     1
 90
       50
176
     1
 40
0.0
176
     1
 40
1.0
176
     1
 90
        0
176
     1
 62
    18
420
        0
176
     1
 90
       50
176
     1
 90
        3
176
     1
 62
     5
420
      255
176
     1
290
     0
176
     1
 90
       50
176
     1
 90
       50
176
     1
 90
       50
176
     1
290
     0
176
     1
 90
       50
176
     1
 62
   256
176
     0
 40
1.0
176
     0
 90
        2
176
     1
  1
strokes_ogs.tif
176
     1
290
     0
176
     1
 40
1.0
176
     1
 40
1.0
176
     1
  0
VISUALSTYLE
  5
3C
102
{ACAD_REACTORS
330
2A
102
}
330
2A
100
AcDbVisualStyle
  2
OverhangOff
 70
    21
177
     3
291
     1
 70
    58
 90
        2
176
     0
 90
        2
176
     0
 90
        0
176
     0
 90
        0
176
     0
 40
0.6
176
     0
 40
30.0
176
     0
 62
     7
420
 16777215
176
     0
 90
        1
176
     0
 90
        4
176
     0
 62
     7
176
     0
 62
   257
176
     0
 90
        1
176
     0
 90
        1
176
     0
 40
1.0
176
     0
 90
        9
176
     2
 62
     7
176
     0
 40
1.0
176
     0
 90
        1
176
     0
 90
        6
176
     0
 90
        2
176
     0
 62
     7
176
     0
 90
        5
176
     0
 90
        0
176
     0
 90
        0
176
     0
290
     0
176
     0
 90
        1
176
     0
 40
0.0
176
     0
 90
        0
176
     0
290
     0
176
     0
290
     1
176
     0
290
     1
176
     0
290
     0
176
     0
290
     0
176
     0
290
     0
176
     0
290
     0
176
     0
290
     0
176
     0
290
     0
176
     0
 90
       50
176
     0
 40
0.0
176
     0
 40
1.0
176
     0
 90
        0
176
     0
 62
    18
420
        0
176
     0
 90
       50
176
     0
 90
        3
176
     0
 62
     5
420
      255
176
     0
290
     0
176
     0
 90
       50
176
     0
 90
       50
176
     0
 90
       50
176
     0
290
     0
176
     0
 90
       50
176
     0
 62
   256
176
     0
 40
1.0
176
     0
 90
        2
176
     0
  1
strokes_ogs.tif
176
     0
290
     0
176
     0
 40
1.0
176
     0
 40
1.0
176
     0
  0
VISUALSTYLE
  5
33
102
{ACAD_REACTORS
330
2A
102
}
330
2A
100
AcDbVisualStyle
  2
Realistic
 70
     8
177
     3
291
     0
 70
    58
 90
        2
176
     1
 90
        3
176
     1
 90
        0
176
     1
 90
        2
176
     1
 40
0.6
176
     1
 40
30.0
176
     1
 62
     7
420
 16777215
176
     1
 90
        0
176
     1
 90
        0
176
     1
 62
     7
176
     1
 62
   257
176
     1
 90
        1
176
     1
 90
        1
176
     1
 40
1.0
176
     1
 90
        8
176
     1
 62
   257
176
     1
 40
1.0
176
     1
 90
        1
176
     1
 90
        6
176
     1
 90
        2
176
     1
 62
     7
176
     1
 90
        3
176
     1
 90
        0
176
     1
 90
        0
176
     1
290
     0
176
     1
 90
       13
176
     1
 40
0.0
176
     1
 90
        0
176
     1
290
     0
176
     1
290
     1
176
     1
290
     1
176
     1
290
     0
176
     1
290
     0
176
     1
290
     0
176
     1
290
     0
176
     1
290
     0
176
     1
290
     0
176
     1
 90
       50
176
     1
 40
0.0
176
     1
 40
1.0
176
     1
 90
        0
176
     1
 62
    18
420
        0
176
     1
 90
       50
176
     1
 90
        3
176
     1
 62
     5
420
      255
176
     1
290
     0
176
     1
 90
       50
176
     1
 90
       50
176
     1
 90
       50
176
     1
290
     0
176
     1
 90
       50
176
     1
 62
   256
176
     0
 40
1.0
176
     0
 90
        2
176
     1
  1
strokes_ogs.tif
176
     1
290
     0
176
     1
 40
1.0
176
     1
 40
1.0
176
     1
  0
VISUALSTYLE
  5
42
102
{ACAD_REACTORS
330
2A
102
}
330
2A
100
AcDbVisualStyle
  2
Shaded
 70
    27
177
     3
291
     0
 70
    58
 90
        2
176
     1
 90
        2
176
     1
 90
        1
176
     1
 90
        2
176
     1
 40
0.6
176
     1
 40
30.0
176
     1
 62
     7
420
 16777215
176
     1
 90
        0
176
     1
 90
        4
176
     1
 62
     7
176
     1
 62
   257
176
     1
 90
        1
176
     1
 90
        1
176
     1
 40
1.0
176
     1
 90
        8
176
     1
 62
   257
176
     1
 40
1.0
176
     1
 90
        1
176
     1
 90
        6
176
     1
 90
        2
176
     1
 62
     8
420
  7895160
176
     1
 90
        3
176
     1
 90
        0
176
     1
 90
        0
176
     1
290
     0
176
     1
 90
        5
176
     1
 40
0.0
176
     1
 90
        0
176
     1
290
     0
176
     1
290
     1
176
     1
290
     1
176
     1
290
     0
176
     1
290
     0
176
     1
290
     0
176
     1
290
     0
176
     1
290
     0
176
     1
290
     0
176
     1
 90
       50
176
     1
 40
0.0
176
     1
 40
1.0
176
     1
 90
        0
176
     1
 62
    18
420
        0
176
     1
 90
       50
176
     1
 90
        3
176
     1
 62
     5
420
      255
176
     1
290
     0
176
     1
 90
       50
176
     1
 90
       50
176
     1
 90
       50
176
     1
290
     0
176
     1
 90
       50
176
     1
 62
   256
176
     0
 40
1.0
176
     0
 90
        2
176
     1
  1
strokes_ogs.tif
176
     1
290
     0
176
     1
 40
1.0
176
     1
 40
1.0
176
     1
  0
VISUALSTYLE
  5
41
102
{ACAD_REACTORS
330
2A
102
}
330
2A
100
AcDbVisualStyle
  2
Shaded with edges
 70
    26
177
     3
291
     0
 70
    58
 90
        2
176
     1
 90
        2
176
     1
 90
        1
176
     1
 90
        2
176
     1
 40
0.6
176
     1
 40
30.0
176
     1
 62
     7
420
 16777215
176
     1
 90
        1
176
     1
 90
       10
176
     1
 62
     7
176
     1
 62
   257
176
     1
 90
        2
176
     1
 90
        1
176
     1
 40
1.0
176
     1
 90
        8
176
     1
 62
   257
176
     1
 40
1.0
176
     1
 90
        1
176
     1
 90
        6
176
     1
 90
        2
176
     1
 62
     7
176
     1
 90
        3
176
     1
 90
        0
176
     1
 90
        0
176
     1
290
     0
176
     1
 90
        5
176
     1
 40
0.0
176
     1
 90
        0
176
     1
290
     0
176
     1
290
     1
176
     1
290
     1
176
     1
290
     0
176
     1
290
     0
176
     1
290
     0
176
     1
290
     0
176
     1
290
     0
176
     1
290
     0
176
     1
 90
       50
176
     1
 40
0.0
176
     1
 40
1.0
176
     1
 90
        0
176
     1
 62
    18
420
        0
176
     1
 90
       50
176
     1
 90
        3
176
     1
 62
     5
420
      255
176
     1
290
     0
176
     1
 90
       50
176
     1
 90
       50
176
     1
 90
       50
176
     1
290
     0
176
     1
 90
       50
176
     1
 62
   256
176
     0
 40
1.0
176
     0
 90
        2
176
     1
  1
strokes_ogs.tif
176
     1
290
     0
176
     1
 40
1.0
176
     1
 40
1.0
176
     1
  0
VISUALSTYLE
  5
3E
102
{ACAD_REACTORS
330
2A
102
}
330
2A
100
AcDbVisualStyle
  2
Shades of Gray
 70
    23
177
     3
291
     0
 70
    58
 90
        2
176
     1
 90
        2
176
     1
 90
        3
176
     1
 90
        0
176
     1
 40
0.6
176
     1
 40
30.0
176
     1
 62
     7
420
 16777215
176
     1
 90
        2
176
     1
 90
        2
176
     1
 62
     7
176
     1
 62
     7
176
     1
 90
        1
176
     1
 90
        1
176
     1
 40
40.0
176
     1
 90
        8
176
     1
 62
     7
176
     1
 40
1.0
176
     1
 90
        1
176
     1
 90
        6
176
     1
 90
        2
176
     1
 62
     7
176
     1
 90
        3
176
     1
 90
        0
176
     1
 90
        0
176
     1
290
     0
176
     1
 90
        1
176
     1
 40
0.0
176
     1
 90
        0
176
     1
290
     0
176
     1
290
     1
176
     1
290
     1
176
     1
290
     0
176
     1
290
     0
176
     1
290
     0
176
     1
290
     0
176
     1
290
     0
176
     1
290
     0
176
     1
 90
       50
176
     1
 40
0.0
176
     1
 40
1.0
176
     1
 90
        0
176
     1
 62
    18
420
        0
176
     1
 90
       50
176
     1
 90
        3
176
     1
 62
     5
420
      255
176
     1
290
     0
176
     1
 90
       50
176
     1
 90
       50
176
     1
 90
       50
176
     1
290
     0
176
     1
 90
       50
176
     1
 62
   256
176
     0
 40
1.0
176
     0
 90
        2
176
     1
  1
strokes_ogs.tif
176
     1
290
     0
176
     1
 40
1.0
176
     1
 40
1.0
176
     1
  0
VISUALSTYLE
  5
3F
102
{ACAD_REACTORS
330
2A
102
}
330
2A
100
AcDbVisualStyle
  2
Sketchy
 70
    24
177
     3
291
     0
 70
    58
 90
        1
176
     1
 90
        2
176
     1
 90
        2
176
     1
 90
        0
176
     1
 40
0.6
176
     1
 40
30.0
176
     1
 62
     7
420
 16777215
176
     1
 90
        2
176
     1
 90
        2
176
     1
 62
     7
176
     1
 62
     7
176
     1
 90
        1
176
     1
 90
        1
176
     1
 40
40.0
176
     1
 90
       11
176
     1
 62
     7
176
     1
 40
1.0
176
     1
 90
        1
176
     1
 90
        6
176
     1
 90
        2
176
     1
 62
     7
176
     1
 90
        6
176
     1
 90
        0
176
     1
 90
        0
176
     1
290
     0
176
     1
 90
        1
176
     1
 40
0.0
176
     1
 90
        0
176
     1
290
     0
176
     1
290
     1
176
     1
290
     1
176
     1
290
     0
176
     1
290
     0
176
     1
290
     0
176
     1
290
     0
176
     1
290
     0
176
     1
290
     0
176
     1
 90
       50
176
     1
 40
0.0
176
     1
 40
1.0
176
     1
 90
        0
176
     1
 62
    18
420
        0
176
     1
 90
       50
176
     1
 90
        3
176
     1
 62
     5
420
      255
176
     1
290
     0
176
     1
 90
       50
176
     1
 90
       50
176
     1
 90
       50
176
     1
290
     0
176
     1
 90
       50
176
     1
 62
   256
176
     0
 40
1.0
176
     0
 90
        2
176
     1
  1
strokes_ogs.tif
176
     1
290
     0
176
     1
 40
1.0
176
     1
 40
1.0
176
     1
  0
VISUALSTYLE
  5
37
102
{ACAD_REACTORS
330
2A
102
}
330
2A
100
AcDbVisualStyle
  2
Thicken
 70
    13
177
     3
291
     1
 70
    58
 90
        2
176
     1
 90
        2
176
     1
 90
        0
176
     1
 90
        0
176
     1
 40
0.6
176
     1
 40
30.0
176
     1
 62
     7
420
 16777215
176
     1
 90
        1
176
     1
 90
        4
176
     1
 62
     7
176
     1
 62
   257
176
     1
 90
        1
176
     1
 90
        1
176
     1
 40
1.0
176
     1
 90
       12
176
     1
 62
     7
176
     1
 40
1.0
176
     1
 90
        1
176
     1
 90
        6
176
     1
 90
        2
176
     1
 62
     7
176
     1
 90
        5
176
     1
 90
        0
176
     1
 90
        0
176
     1
290
     0
176
     1
 90
        1
176
     1
 40
0.0
176
     1
 90
        0
176
     1
290
     0
176
     1
290
     1
176
     1
290
     1
176
     1
290
     0
176
     1
290
     0
176
     1
290
     0
176
     1
290
     0
176
     1
290
     0
176
     1
290
     0
176
     1
 90
       50
176
     1
 40
0.0
176
     1
 40
1.0
176
     1
 90
        0
176
     1
 62
    18
420
        0
176
     1
 90
       50
176
     1
 90
        3
176
     1
 62
     5
420
      255
176
     1
290
     0
176
     1
 90
       50
176
     1
 90
       50
176
     1
 90
       50
176
     1
290
     0
176
     1
 90
       50
176
     1
 62
   256
176
     0
 40
1.0
176
     0
 90
        2
176
     1
  1
strokes_ogs.tif
176
     1
290
     0
176
     1
 40
1.0
176
     1
 40
1.0
176
     1
  0
VISUALSTYLE
  5
30
102
{ACAD_REACTORS
330
2A
102
}
330
2A
100
AcDbVisualStyle
  2
Wireframe
 70
     5
177
     3
291
     0
 70
    58
 90
        0
176
     1
 90
        2
176
     1
 90
        0
176
     1
 90
        0
176
     1
 40
0.6
176
     1
 40
30.0
176
     1
 62
     7
420
 16777215
176
     1
 90
        1
176
     1
 90
        4
176
     1
 62
     7
176
     1
 62
   257
176
     1
 90
        1
176
     1
 90
        1
176
     1
 40
1.0
176
     1
 90
        0
176
     1
 62
   257
176
     1
 40
1.0
176
     1
 90
        1
176
     1
 90
        6
176
     1
 90
        2
176
     1
 62
     7
176
     1
 90
        3
176
     1
 90
        0
176
     1
 90
        0
176
     1
290
     0
176
     1
 90
        1
176
     1
 40
0.0
176
     1
 90
        0
176
     1
290
     0
176
     1
290
     1
176
     1
290
     1
176
     1
290
     0
176
     1
290
     0
176
     1
290
     0
176
     1
290
     0
176
     1
290
     0
176
     1
290
     0
176
     1
 90
       50
176
     1
 40
0.0
176
     1
 40
1.0
176
     1
 90
        0
176
     1
 62
    18
420
        0
176
     1
 90
       50
176
     1
 90
        3
176
     1
 62
     5
420
      255
176
     1
290
     0
176
     1
 90
       50
176
     1
 90
       50
176
     1
 90
       50
176
     1
290
     0
176
     1
 90
       50
176
     1
 62
   256
176
     0
 40
1.0
176
     0
 90
        2
176
     1
  1
strokes_ogs.tif
176
     1
290
     0
176
     1
 40
1.0
176
     1
 40
1.0
176
     1
  0
VISUALSTYLE
  5
40
102
{ACAD_REACTORS
330
2A
102
}
330
2A
100
AcDbVisualStyle
  2
X-Ray
 70
    25
177
     3
291
     0
 70
    58
 90
        2
176
     1
 90
        2
176
     1
 90
        1
176
     1
 90
        1
176
     1
 40
0.5
176
     1
 40
30.0
176
     1
 62
     7
420
 16777215
176
     1
 90
        1
176
     1
 90
        0
176
     1
 62
     7
176
     1
 62
   257
176
     1
 90
        1
176
     1
 90
        1
176
     1
 40
1.0
176
     1
 90
        8
176
     1
 62
     7
176
     1
 40
1.0
176
     1
 90
        1
176
     1
 90
        6
176
     1
 90
        2
176
     1
 62
     7
176
     1
 90
        3
176
     1
 90
        0
176
     1
 90
        0
176
     1
290
     0
176
     1
 90
       13
176
     1
 40
0.0
176
     1
 90
        0
176
     1
290
     0
176
     1
290
     1
176
     1
290
     1
176
     1
290
     0
176
     1
290
     0
176
     1
290
     0
176
     1
290
     0
176
     1
290
     0
176
     1
290
     0
176
     1
 90
       50
176
     1
 40
0.0
176
     1
 40
1.0
176
     1
 90
        0
176
     1
 62
    18
420
        0
176
     1
 90
       50
176
     1
 90
        3
176
     1
 62
     5
420
      255
176
     1
290
     0
176
     1
 90
       50
176
     1
 90
       50
176
     1
 90
       50
176
     1
290
     0
176
     1
 90
       50
176
     1
 62
   256
176
     0
 40
1.0
176
     0
 90
        2
176
     1
  1
strokes_ogs.tif
176
     1
290
     0
176
     1
 40
1.0
176
     1
 40
1.0
176
     1
  0
DICTIONARYVAR
  5
25E
102
{ACAD_REACTORS
330
25D
102
}
330
25D
100
DictionaryVariables
280
     0
  1
1:1
  0
DICTIONARYVAR
  5
266
102
{ACAD_REACTORS
330
25D
102
}
330
25D
100
DictionaryVariables
280
     0
  1
3.500000
  0
DICTIONARYVAR
  5
267
102
{ACAD_REACTORS
330
25D
102
}
330
25D
100
DictionaryVariables
280
     0
  1
acadiso.lin
  0
DICTIONARYVAR
  5
263
102
{ACAD_REACTORS
330
25D
102
}
330
25D
100
DictionaryVariables
280
     0
  1
Standard
  0
DICTIONARYVAR
  5
262
102
{ACAD_REACTORS
330
25D
102
}
330
25D
100
DictionaryVariables
280
     0
  1
Standard
  0
DICTIONARY
  5
25F
330
5A
100
AcDbDictionary
280
     1
281
     1
  3
ACAD_ROUNDTRIP_2008_TABLESTYLE_CELLSTYLEMAP
360
260
  0
CELLSTYLEMAP
  5
260
102
{ACAD_REACTORS
330
25F
102
}
330
25F
100
AcDbCellStyleMap
 90
        3
300
CELLSTYLE
  1
TABLEFORMAT_BEGIN
 90
        5
170
     1
 91
        0
 92
    32768
 62
   257
 93
        1
300
CONTENTFORMAT
  1
CONTENTFORMAT_BEGIN
 90
        0
 91
        0
 92
        4
 93
        0
300

 40
0.0
140
1.0
 94
        5
 62
     0
340
11
144
6.0
309
CONTENTFORMAT_END
171
     1
301
MARGIN
  1
CELLMARGIN_BEGIN
 40
1.5
 40
1.5
 40
1.5
 40
1.5
 40
1.5
 40
1.5
309
CELLMARGIN_END
 94
        6
 95
        1
302
GRIDFORMAT
  1
GRIDFORMAT_BEGIN
 90
        0
 91
        1
 62
     0
 92
       -2
340
14
 93
        0
 40
0.045
309
GRIDFORMAT_END
 95
        2
302
GRIDFORMAT
  1
GRIDFORMAT_BEGIN
 90
        0
 91
        1
 62
     0
 92
       -2
340
14
 93
        0
 40
0.045
309
GRIDFORMAT_END
 95
        4
302
GRIDFORMAT
  1
GRIDFORMAT_BEGIN
 90
        0
 91
        1
 62
     0
 92
       -2
340
14
 93
        0
 40
0.045
309
GRIDFORMAT_END
 95
        8
302
GRIDFORMAT
  1
GRIDFORMAT_BEGIN
 90
        0
 91
        1
 62
     0
 92
       -2
340
14
 93
        0
 40
0.045
309
GRIDFORMAT_END
 95
       16
302
GRIDFORMAT
  1
GRIDFORMAT_BEGIN
 90
        0
 91
        1
 62
     0
 92
       -2
340
14
 93
        0
 40
0.045
309
GRIDFORMAT_END
 95
       32
302
GRIDFORMAT
  1
GRIDFORMAT_BEGIN
 90
        0
 91
        1
 62
     0
 92
       -2
340
14
 93
        0
 40
0.045
309
GRIDFORMAT_END
309
TABLEFORMAT_END
  1
CELLSTYLE_BEGIN
 90
        1
 91
        1
300
_TITLE
309
CELLSTYLE_END
300
CELLSTYLE
  1
TABLEFORMAT_BEGIN
 90
        5
170
     1
 91
        0
 92
        0
 62
   257
 93
        1
300
CONTENTFORMAT
  1
CONTENTFORMAT_BEGIN
 90
        0
 91
        0
 92
        4
 93
        0
300

 40
0.0
140
1.0
 94
        5
 62
     0
340
11
144
4.5
309
CONTENTFORMAT_END
171
     1
301
MARGIN
  1
CELLMARGIN_BEGIN
 40
1.5
 40
1.5
 40
1.5
 40
1.5
 40
1.5
 40
1.5
309
CELLMARGIN_END
 94
        6
 95
        1
302
GRIDFORMAT
  1
GRIDFORMAT_BEGIN
 90
        0
 91
        1
 62
     0
 92
       -2
340
14
 93
        0
 40
0.045
309
GRIDFORMAT_END
 95
        2
302
GRIDFORMAT
  1
GRIDFORMAT_BEGIN
 90
        0
 91
        1
 62
     0
 92
       -2
340
14
 93
        0
 40
0.045
309
GRIDFORMAT_END
 95
        4
302
GRIDFORMAT
  1
GRIDFORMAT_BEGIN
 90
        0
 91
        1
 62
     0
 92
       -2
340
14
 93
        0
 40
0.045
309
GRIDFORMAT_END
 95
        8
302
GRIDFORMAT
  1
GRIDFORMAT_BEGIN
 90
        0
 91
        1
 62
     0
 92
       -2
340
14
 93
        0
 40
0.045
309
GRIDFORMAT_END
 95
       16
302
GRIDFORMAT
  1
GRIDFORMAT_BEGIN
 90
        0
 91
        1
 62
     0
 92
       -2
340
14
 93
        0
 40
0.045
309
GRIDFORMAT_END
 95
       32
302
GRIDFORMAT
  1
GRIDFORMAT_BEGIN
 90
        0
 91
        1
 62
     0
 92
       -2
340
14
 93
        0
 40
0.045
309
GRIDFORMAT_END
309
TABLEFORMAT_END
  1
CELLSTYLE_BEGIN
 90
        2
 91
        1
300
_HEADER
309
CELLSTYLE_END
300
CELLSTYLE
  1
TABLEFORMAT_BEGIN
 90
        5
170
     1
 91
        0
 92
        0
 62
   257
 93
        1
300
CONTENTFORMAT
  1
CONTENTFORMAT_BEGIN
 90
        0
 91
        0
 92
        4
 93
        0
300

 40
0.0
140
1.0
 94
        2
 62
     0
340
11
144
4.5
309
CONTENTFORMAT_END
171
     1
301
MARGIN
  1
CELLMARGIN_BEGIN
 40
1.5
 40
1.5
 40
1.5
 40
1.5
 40
1.5
 40
1.5
309
CELLMARGIN_END
 94
        6
 95
        1
302
GRIDFORMAT
  1
GRIDFORMAT_BEGIN
 90
        0
 91
        1
 62
     0
 92
       -2
340
14
 93
        0
 40
0.045
309
GRIDFORMAT_END
 95
        2
302
GRIDFORMAT
  1
GRIDFORMAT_BEGIN
 90
        0
 91
        1
 62
     0
 92
       -2
340
14
 93
        0
 40
0.045
309
GRIDFORMAT_END
 95
        4
302
GRIDFORMAT
  1
GRIDFORMAT_BEGIN
 90
        0
 91
        1
 62
     0
 92
       -2
340
14
 93
        0
 40
0.045
309
GRIDFORMAT_END
 95
        8
302
GRIDFORMAT
  1
GRIDFORMAT_BEGIN
 90
        0
 91
        1
 62
     0
 92
       -2
340
14
 93
        0
 40
0.045
309
GRIDFORMAT_END
 95
       16
302
GRIDFORMAT
  1
GRIDFORMAT_BEGIN
 90
        0
 91
        1
 62
     0
 92
       -2
340
14
 93
        0
 40
0.045
309
GRIDFORMAT_END
 95
       32
302
GRIDFORMAT
  1
GRIDFORMAT_BEGIN
 90
        0
 91
        1
 62
     0
 92
       -2
340
14
 93
        0
 40
0.045
309
GRIDFORMAT_END
309
TABLEFORMAT_END
  1
CELLSTYLE_BEGIN
 90
        3
 91
        2
300
_DATA
309
CELLSTYLE_END
  0
ENDSEC
  0
EOF
