  0
SECTION
  2
HEADER
  9
$ACADVER
  1
AC1015
  9
$ACADMAINTVER
 70
     6
  9
$DWGCODEPAGE
  3
ANSI_1252
  9
$INSBASE
 10
0.0
 20
0.0
 30
0.0
  9
$EXTMIN
 10
0.0
 20
0.0
 30
0.0
  9
$EXTMAX
 10
420.0
 20
297.0
 30
0.0
  9
$LIMMIN
 10
0.0
 20
0.0
  9
$LIMMAX
 10
420.0
 20
297.0
  9
$ORTHOMODE
 70
     0
  9
$REGENMODE
 70
     1
  9
$FILLMODE
 70
     1
  9
$QTEXTMODE
 70
     0
  9
$MIRRTEXT
 70
     1
  9
$LTSCALE
 40
1.0
  9
$ATTMODE
 70
     1
  9
$TEXTSIZE
 40
3.5
  9
$TRACEWID
 40
1.0
  9
$TEXTSTYLE
  7
Standard
  9
$CLAYER
  8
0
  9
$CELTYPE
  6
ByLayer
  9
$CECOLOR
 62
   256
  9
$CELTSCALE
 40
1.0
  9
$DISPSILH
 70
     0
  9
$DIMSCALE
 40
1.0
  9
$DIMASZ
 40
3.5
  9
$DIMEXO
 40
1.0
  9
$DIMDLI
 40
3.75
  9
$DIMRND
 40
0.0
  9
$DIMDLE
 40
0.0
  9
$DIMEXE
 40
1.0
  9
$DIMTP
 40
0.0
  9
$DIMTM
 40
0.0
  9
$DIMTXT
 40
3.5
  9
$DIMCEN
 40
2.5
  9
$DIMTSZ
 40
0.0
  9
$DIMTOL
 70
     0
  9
$DIMLIM
 70
     0
  9
$DIMTIH
 70
     1
  9
$DIMTOH
 70
     1
  9
$DIMSE1
 70
     0
  9
$DIMSE2
 70
     0
  9
$DIMTAD
 70
     1
  9
$DIMZIN
 70
     0
  9
$DIMBLK
  1

  9
$DIMASO
 70
     1
  9
$DIMSHO
 70
     1
  9
$DIMPOST
  1

  9
$DIMAPOST
  1

  9
$DIMALT
 70
     0
  9
$DIMALTD
 70
     3
  9
$DIMALTF
 40
0.0393700787
  9
$DIMLFAC
 40
1.0
  9
$DIMTOFL
 70
     1
  9
$DIMTVP
 40
0.0
  9
$DIMTIX
 70
     0
  9
$DIMSOXD
 70
     0
  9
$DIMSAH
 70
     0
  9
$DIMBLK1
  1

  9
$DIMBLK2
  1

  9
$DIMSTYLE
  2
ISO-25
  9
$DIMCLRD
 70
     0
  9
$DIMCLRE
 70
     0
  9
$DIMCLRT
 70
     0
  9
$DIMTFAC
 40
1.0
  9
$DIMGAP
 40
1.5
  9
$DIMJUST
 70
     0
  9
$DIMSD1
 70
     0
  9
$DIMSD2
 70
     0
  9
$DIMTOLJ
 70
     0
  9
$DIMTZIN
 70
     0
  9
$DIMALTZ
 70
     0
  9
$DIMALTTZ
 70
     0
  9
$DIMUPT
 70
     0
  9
$DIMDEC
 70
     2
  9
$DIMTDEC
 70
     3
  9
$DIMALTU
 70
     2
  9
$DIMALTTD
 70
     3
  9
$DIMTXSTY
  7
Standard
  9
$DIMAUNIT
 70
     0
  9
$DIMADEC
 70
     2
  9
$DIMALTRND
 40
0.0
  9
$DIMAZIN
 70
     0
  9
$DIMDSEP
 70
    44
  9
$DIMATFIT
 70
     3
  9
$DIMFRAC
 70
     0
  9
$DIMLDRBLK
  1

  9
$DIMLUNIT
 70
     2
  9
$DIMLWD
 70
    -2
  9
$DIMLWE
 70
    -2
  9
$DIMTMOVE
 70
     0
  9
$LUNITS
 70
     2
  9
$LUPREC
 70
     2
  9
$SKETCHINC
 40
1.0
  9
$FILLETRAD
 40
10.0
  9
$AUNITS
 70
     0
  9
$AUPREC
 70
     2
  9
$MENU
  1
.
  9
$ELEVATION
 40
0.0
  9
$PELEVATION
 40
0.0
  9
$THICKNESS
 40
0.0
  9
$LIMCHECK
 70
     0
  9
$CHAMFERA
 40
10.0
  9
$CHAMFERB
 40
10.0
  9
$CHAMFERC
 40
20.0
  9
$CHAMFERD
 40
0.0
  9
$SKPOLY
 70
     0
  9
$TDCREATE
 40
2456113.336696389
  9
$TDUCREATE
 40
2456113.253363056
  9
$TDUPDATE
 40
2456113.3366964
  9
$TDUUPDATE
 40
2456113.253363067
  9
$TDINDWG
 40
0.0000000116
  9
$TDUSRTIMER
 40
0.0000000116
  9
$USRTIMER
 70
     1
  9
$ANGBASE
 50
0.0
  9
$ANGDIR
 70
     0
  9
$PDMODE
 70
     0
  9
$PDSIZE
 40
-1.0
  9
$PLINEWID
 40
0.0
  9
$SPLFRAME
 70
     0
  9
$SPLINETYPE
 70
     6
  9
$SPLINESEGS
 70
     8
  9
$HANDSEED
  5
12F
  9
$SURFTAB1
 70
     6
  9
$SURFTAB2
 70
     6
  9
$SURFTYPE
 70
     6
  9
$SURFU
 70
     6
  9
$SURFV
 70
     6
  9
$UCSBASE
  2

  9
$UCSNAME
  2

  9
$UCSORG
 10
0.0
 20
0.0
 30
0.0
  9
$UCSXDIR
 10
1.0
 20
0.0
 30
0.0
  9
$UCSYDIR
 10
0.0
 20
1.0
 30
0.0
  9
$UCSORTHOREF
  2

  9
$UCSORTHOVIEW
 70
     0
  9
$UCSORGTOP
 10
0.0
 20
0.0
 30
0.0
  9
$UCSORGBOTTOM
 10
0.0
 20
0.0
 30
0.0
  9
$UCSORGLEFT
 10
0.0
 20
0.0
 30
0.0
  9
$UCSORGRIGHT
 10
0.0
 20
0.0
 30
0.0
  9
$UCSORGFRONT
 10
0.0
 20
0.0
 30
0.0
  9
$UCSORGBACK
 10
0.0
 20
0.0
 30
0.0
  9
$PUCSBASE
  2

  9
$PUCSNAME
  2

  9
$PUCSORG
 10
0.0
 20
0.0
 30
0.0
  9
$PUCSXDIR
 10
1.0
 20
0.0
 30
0.0
  9
$PUCSYDIR
 10
0.0
 20
1.0
 30
0.0
  9
$PUCSORTHOREF
  2

  9
$PUCSORTHOVIEW
 70
     0
  9
$PUCSORGTOP
 10
0.0
 20
0.0
 30
0.0
  9
$PUCSORGBOTTOM
 10
0.0
 20
0.0
 30
0.0
  9
$PUCSORGLEFT
 10
0.0
 20
0.0
 30
0.0
  9
$PUCSORGRIGHT
 10
0.0
 20
0.0
 30
0.0
  9
$PUCSORGFRONT
 10
0.0
 20
0.0
 30
0.0
  9
$PUCSORGBACK
 10
0.0
 20
0.0
 30
0.0
  9
$USERI1
 70
     0
  9
$USERI2
 70
     0
  9
$USERI3
 70
     0
  9
$USERI4
 70
     0
  9
$USERI5
 70
     0
  9
$USERR1
 40
0.0
  9
$USERR2
 40
0.0
  9
$USERR3
 40
0.0
  9
$USERR4
 40
0.0
  9
$USERR5
 40
0.0
  9
$WORLDVIEW
 70
     1
  9
$SHADEDGE
 70
     3
  9
$SHADEDIF
 70
    70
  9
$TILEMODE
 70
     1
  9
$MAXACTVP
 70
    64
  9
$PINSBASE
 10
0.0
 20
0.0
 30
0.0
  9
$PLIMCHECK
 70
     0
  9
$PEXTMIN
 10
1.0000000000E+20
 20
1.0000000000E+20
 30
1.0000000000E+20
  9
$PEXTMAX
 10
-1.0000000000E+20
 20
-1.0000000000E+20
 30
-1.0000000000E+20
  9
$PLIMMIN
 10
0.0
 20
0.0
  9
$PLIMMAX
 10
420.0
 20
297.0
  9
$UNITMODE
 70
     0
  9
$VISRETAIN
 70
     1
  9
$PLINEGEN
 70
     0
  9
$PSLTSCALE
 70
     1
  9
$TREEDEPTH
 70
  3020
  9
$CMLSTYLE
  2
Standard
  9
$CMLJUST
 70
     0
  9
$CMLSCALE
 40
20.0
  9
$PROXYGRAPHICS
 70
     1
  9
$MEASUREMENT
 70
     1
  9
$CELWEIGHT
370
    -1
  9
$ENDCAPS
280
     0
  9
$JOINSTYLE
280
     0
  9
$LWDISPLAY
290
     1
  9
$INSUNITS
 70
     4
  9
$HYPERLINKBASE
  1

  9
$STYLESHEET
  1

  9
$XEDIT
290
     1
  9
$CEPSNTYPE
380
     0
  9
$PSTYLEMODE
290
     1
  9
$FINGERPRINTGUID
  2
{4AC060B7-3C6A-489B-B975-3E6E8E782D9C}
  9
$VERSIONGUID
  2
{FAEB1C32-E019-11D5-929B-00C0DF256EC4}
  9
$EXTNAMES
290
     1
  9
$PSVPSCALE
 40
0.0
  9
$OLESTARTUP
290
     0
  0
ENDSEC
  0
SECTION
  2
CLASSES
  0
CLASS
  1
ACDBDICTIONARYWDFLT
  2
AcDbDictionaryWithDefault
  3
ObjectDBX Classes
 90
        0
280
     0
281
     0
  0
CLASS
  1
VISUALSTYLE
  2
AcDbVisualStyle
  3
ObjectDBX Classes
 90
     4095
280
     0
281
     0
  0
CLASS
  1
MATERIAL
  2
AcDbMaterial
  3
ObjectDBX Classes
 90
     1153
280
     0
281
     0
  0
CLASS
  1
ACDBPLACEHOLDER
  2
AcDbPlaceHolder
  3
ObjectDBX Classes
 90
        0
280
     0
281
     0
  0
CLASS
  1
LAYOUT
  2
AcDbLayout
  3
ObjectDBX Classes
 90
        0
280
     0
281
     0
  0
ENDSEC
  0
SECTION
  2
TABLES
  0
TABLE
  2
VPORT
  5
8
330
0
100
AcDbSymbolTable
 70
     1
  0
VPORT
  5
29
330
8
100
AcDbSymbolTableRecord
100
AcDbViewportTableRecord
  2
*Active
 70
     0
 10
0.0
 20
0.0
 11
1.0
 21
1.0
 12
210.0
 22
148.5
 13
0.0
 23
0.0
 14
10.0
 24
10.0
 15
10.0
 25
10.0
 16
0.0
 26
0.0
 36
1.0
 17
0.0
 27
0.0
 37
0.0
 40
297.0
 41
1.4141414141
 42
50.0
 43
0.0
 44
0.0
 50
0.0
 51
0.0
 71
     0
 72
  2000
 73
     1
 74
     3
 75
     0
 76
     0
 77
     0
 78
     0
281
     0
 65
     1
110
0.0
120
0.0
130
0.0
111
1.0
121
0.0
131
0.0
112
0.0
122
1.0
132
0.0
 79
     0
146
0.0
  0
ENDTAB
  0
TABLE
  2
LTYPE
  5
5
330
0
100
AcDbSymbolTable
 70
     6
  0
LTYPE
  5
14
330
5
100
AcDbSymbolTableRecord
100
AcDbLinetypeTableRecord
  2
ByBlock
 70
     0
  3

 72
    65
 73
     0
 40
0.0
  0
LTYPE
  5
15
330
5
100
AcDbSymbolTableRecord
100
AcDbLinetypeTableRecord
  2
ByLayer
 70
     0
  3

 72
    65
 73
     0
 40
0.0
  0
LTYPE
  5
16
330
5
100
AcDbSymbolTableRecord
100
AcDbLinetypeTableRecord
  2
Continuous
 70
     0
  3
Solid line
 72
    65
 73
     0
 40
0.0
  0
LTYPE
  5
3F
330
5
100
AcDbSymbolTableRecord
100
AcDbLinetypeTableRecord
  2
HIDDEN
 70
     0
  3
Hidden __ __ __ __ __ __ __ __ __ __ __ __ __ __
 72
    65
 73
     2
 40
1.905
 49
1.27
 74
     0
 49
-0.635
 74
     0
  0
LTYPE
  5
40
330
5
100
AcDbSymbolTableRecord
100
AcDbLinetypeTableRecord
  2
PHANTOM
 70
     0
  3
Phantom ______  __  __  ______  __  __  ______
 72
    65
 73
     6
 40
12.7
 49
6.35
 74
     0
 49
-1.27
 74
     0
 49
1.27
 74
     0
 49
-1.27
 74
     0
 49
1.27
 74
     0
 49
-1.27
 74
     0
  0
LTYPE
  5
41
330
5
100
AcDbSymbolTableRecord
100
AcDbLinetypeTableRecord
  2
CENTER
 70
     0
  3
Center ____ _ ____ _ ____ _ ____ _ ____ _ ____
 72
    65
 73
     4
 40
10.16
 49
6.35
 74
     0
 49
-1.27
 74
     0
 49
1.27
 74
     0
 49
-1.27
 74
     0
  0
LTYPE
  5
42
330
5
100
AcDbSymbolTableRecord
100
AcDbLinetypeTableRecord
  2
CENTERX2
 70
     0
  3
Center (2x) ________  __  ________  __  _____
 72
    65
 73
     4
 40
20.32
 49
12.7
 74
     0
 49
-2.54
 74
     0
 49
2.54
 74
     0
 49
-2.54
 74
     0
  0
LTYPE
  5
43
330
5
100
AcDbSymbolTableRecord
100
AcDbLinetypeTableRecord
  2
DOT2
 70
     0
  3
Dot (.5x) ........................................
 72
    65
 73
     2
 40
0.635
 49
0.0
 74
     0
 49
-0.635
 74
     0
  0
ENDTAB
  0
TABLE
  2
LAYER
  5
2
330
0
100
AcDbSymbolTable
 70
     7
  0
LAYER
  5
10
330
2
100
AcDbSymbolTableRecord
100
AcDbLayerTableRecord
  2
0
 70
     0
 62
     7
  6
Continuous
370
    -3
390
F
  0
LAYER
  5
44
330
2
100
AcDbSymbolTableRecord
100
AcDbLayerTableRecord
  2
VORLAGE
 70
     0
 62
    -5
  6
Continuous
370
    -3
390
F
  0
LAYER
  5
45
330
2
100
AcDbSymbolTableRecord
100
AcDbLayerTableRecord
  2
KOPF
 70
     0
 62
     7
  6
Continuous
370
    -3
390
F
  0
LAYER
  5
46
330
2
100
AcDbSymbolTableRecord
100
AcDbLayerTableRecord
  2
RAHMEN
 70
     0
 62
     7
  6
Continuous
370
    -3
390
F
  0
LAYER
  5
47
330
2
100
AcDbSymbolTableRecord
100
AcDbLayerTableRecord
  2
ROT
 70
     0
 62
     1
  6
Continuous
370
    -3
390
F
  0
LAYER
  5
48
330
2
100
AcDbSymbolTableRecord
100
AcDbLayerTableRecord
  2
ZEICHNUNG
 70
     0
 62
     7
  6
Continuous
370
    -3
390
F
  0
LAYER
  5
49
330
2
100
AcDbSymbolTableRecord
100
AcDbLayerTableRecord
  2
TEMP
 70
     0
 62
    -7
  6
Continuous
370
    -3
390
F
  0
ENDTAB
  0
TABLE
  2
STYLE
  5
3
330
0
100
AcDbSymbolTable
 70
     2
  0
STYLE
  5
11
330
3
100
AcDbSymbolTableRecord
100
AcDbTextStyleTableRecord
  2
Standard
 70
     0
 40
0.0
 41
1.0
 50
0.0
 71
     0
 42
2.5
  3
txt
  4

  0
STYLE
  5
63
330
3
100
AcDbSymbolTableRecord
100
AcDbTextStyleTableRecord
  2
SLDTEXTSTYLE0
 70
     0
 40
0.0
 41
0.605
 50
0.0
 71
     0
 42
0.2
  3
TXT
  4

  0
ENDTAB
  0
TABLE
  2
VIEW
  5
6
330
0
100
AcDbSymbolTable
 70
     0
  0
ENDTAB
  0
TABLE
  2
UCS
  5
7
330
0
100
AcDbSymbolTable
 70
     0
  0
ENDTAB
  0
TABLE
  2
APPID
  5
9
330
0
100
AcDbSymbolTable
 70
     1
  0
APPID
  5
12
330
9
100
AcDbSymbolTableRecord
100
AcDbRegAppTableRecord
  2
ACAD
 70
     0
  0
ENDTAB
  0
TABLE
  2
DIMSTYLE
  5
A
330
0
100
AcDbSymbolTable
 70
     4
100
AcDbDimStyleTable
  0
DIMSTYLE
105
27
330
A
100
AcDbSymbolTableRecord
100
AcDbDimStyleTableRecord
  2
ISO-25
 70
     0
 41
2.5
 42
0.625
 43
3.75
 44
1.25
 73
     0
 74
     0
 77
     1
 78
     8
140
2.5
141
2.5
143
0.0393700787
147
0.625
171
     3
172
     1
178
     0
271
     2
272
     2
274
     3
278
    44
283
     0
284
     8
340
11
  0
DIMSTYLE
105
64
102
{ACAD_REACTORS
330
62
330
117
102
}
330
A
100
AcDbSymbolTableRecord
100
AcDbDimStyleTableRecord
  2
SLDDIMSTYLE0
 70
     0
 41
3.5
 44
0.0
 45
0.000000001
 73
     0
 74
     0
 77
     1
 78
    12
 79
     3
140
3.5
147
0.875
173
     1
178
     0
271
     2
272
     3
276
     2
284
    12
340
63
  0
DIMSTYLE
105
70
102
{ACAD_REACTORS
330
6F
102
}
330
A
100
AcDbSymbolTableRecord
100
AcDbDimStyleTableRecord
  2
SLDDIMSTYLE1
 70
     0
 41
3.5
 44
0.0
 45
0.000000001
 73
     0
 74
     0
 77
     1
 78
    12
 79
     3
140
3.5
147
0.875
173
     1
178
     0
271
     0
272
     3
276
     2
284
    12
340
63
  0
DIMSTYLE
105
122
102
{ACAD_REACTORS
330
121
102
}
330
A
100
AcDbSymbolTableRecord
100
AcDbDimStyleTableRecord
  2
SLDDIMSTYLE2
 70
     0
 41
3.5
 44
0.0
 45
0.000000001
 73
     0
 74
     0
 77
     1
 78
    12
 79
     3
140
3.5
147
0.875
172
     1
173
     1
178
     0
271
     2
272
     3
276
     2
284
    12
289
     0
340
63
  0
ENDTAB
  0
TABLE
  2
BLOCK_RECORD
  5
1
330
0
100
AcDbSymbolTable
 70
     5
  0
BLOCK_RECORD
  5
1F
330
1
100
AcDbSymbolTableRecord
100
AcDbBlockTableRecord
  2
*Model_Space
340
22
  0
BLOCK_RECORD
  5
1B
330
1
100
AcDbSymbolTableRecord
100
AcDbBlockTableRecord
  2
*Paper_Space
340
1E
  0
BLOCK_RECORD
  5
23
330
1
100
AcDbSymbolTableRecord
100
AcDbBlockTableRecord
  2
*Paper_Space0
340
26
  0
BLOCK_RECORD
  5
65
330
1
100
AcDbSymbolTableRecord
100
AcDbBlockTableRecord
  2
*D1
340
0
  0
BLOCK_RECORD
  5
71
330
1
100
AcDbSymbolTableRecord
100
AcDbBlockTableRecord
  2
*D2
340
0
  0
BLOCK_RECORD
  5
118
330
1
100
AcDbSymbolTableRecord
100
AcDbBlockTableRecord
  2
*D3
340
0
  0
BLOCK_RECORD
  5
123
330
1
100
AcDbSymbolTableRecord
100
AcDbBlockTableRecord
  2
*D4
340
0
  0
ENDTAB
  0
ENDSEC
  0
SECTION
  2
BLOCKS
  0
BLOCK
  5
20
330
1F
100
AcDbEntity
  8
0
100
AcDbBlockBegin
  2
*Model_Space
 70
     0
 10
0.0
 20
0.0
 30
0.0
  3
*Model_Space
  1

  0
ENDBLK
  5
21
330
1F
100
AcDbEntity
  8
0
100
AcDbBlockEnd
  0
BLOCK
  5
1C
330
1B
100
AcDbEntity
 67
     1
  8
0
100
AcDbBlockBegin
  2
*Paper_Space
 70
     0
 10
0.0
 20
0.0
 30
0.0
  3
*Paper_Space
  1

  0
ENDBLK
  5
1D
330
1B
100
AcDbEntity
 67
     1
  8
0
100
AcDbBlockEnd
  0
BLOCK
  5
24
330
23
100
AcDbEntity
  8
0
100
AcDbBlockBegin
  2
*Paper_Space0
 70
     0
 10
0.0
 20
0.0
 30
0.0
  3
*Paper_Space0
  1

  0
ENDBLK
  5
25
330
23
100
AcDbEntity
  8
0
100
AcDbBlockEnd
  0
BLOCK
  5
66
330
65
100
AcDbEntity
  8
0
100
AcDbBlockBegin
  2
*D1
 70
     1
 10
0.0
 20
0.0
 30
0.0
  3
*D1
  1

  0
SOLID
  5
68
330
65
100
AcDbEntity
  8
0
  6
Continuous
 62
     7
370
     0
100
AcDbTrace
 10
45.7970170271
 20
152.0044632604
 30
0.0
 11
49.2970170271
 21
151.1044632604
 31
0.0
 12
49.2970170271
 22
152.9044632604
 32
0.0
 13
49.2970170271
 23
152.9044632604
 33
0.0
  0
SOLID
  5
69
330
65
100
AcDbEntity
  8
0
  6
Continuous
 62
     7
370
     0
100
AcDbTrace
 10
111.7970170271
 20
152.0044632604
 30
0.0
 11
108.2970170271
 21
152.9044632604
 31
0.0
 12
108.2970170271
 22
151.1044632604
 32
0.0
 13
108.2970170271
 23
151.1044632604
 33
0.0
  0
LINE
  5
6A
330
65
100
AcDbEntity
  8
0
  6
Continuous
 62
     7
370
     0
100
AcDbLine
 10
45.7970170271
 20
161.0044632604
 30
0.0
 11
45.7970170271
 21
151.0044632604
 31
0.0
  0
LINE
  5
6B
330
65
100
AcDbEntity
  8
0
  6
Continuous
 62
     7
370
     0
100
AcDbLine
 10
111.7970170271
 20
161.0044632604
 30
0.0
 11
111.7970170271
 21
151.0044632604
 31
0.0
  0
LINE
  5
6C
330
65
100
AcDbEntity
  8
0
  6
Continuous
 62
     7
370
     0
100
AcDbLine
 10
45.7970170271
 20
152.0044632604
 30
0.0
 11
111.7970170271
 21
152.0044632604
 31
0.0
  0
MTEXT
  5
6D
330
65
100
AcDbEntity
  8
0
  6
Continuous
 62
     7
370
     0
100
AcDbMText
 10
72.7036141683
 20
156.5162005824
 30
-4.0097403907
 40
3.5
 41
0.0
 71
     1
 72
     1
  1
%%c
  7
SLDTEXTSTYLE0
 73
     1
 44
1.0
  0
MTEXT
  5
6E
330
65
100
AcDbEntity
  8
0
  6
Continuous
 62
     7
370
     0
100
AcDbMText
 10
77.8758365553
 20
156.5162005824
 30
-4.0097403907
 40
3.5
 41
0.0
 71
     1
 72
     1
  1
66
  7
SLDTEXTSTYLE0
 73
     1
 44
1.0
  0
ENDBLK
  5
67
330
65
100
AcDbEntity
  8
0
100
AcDbBlockEnd
  0
BLOCK
  5
72
330
71
100
AcDbEntity
  8
0
100
AcDbBlockBegin
  2
*D2
 70
     1
 10
0.0
 20
0.0
 30
0.0
  3
*D2
  1

  0
SOLID
  5
74
330
71
100
AcDbEntity
  8
0
  6
Continuous
 62
     7
370
     0
100
AcDbTrace
 10
24.2251650338
 20
247.2470727008
 30
0.0
 11
27.7251650338
 21
246.3470727008
 31
0.0
 12
27.7251650338
 22
248.1470727008
 32
0.0
 13
27.7251650338
 23
248.1470727008
 33
0.0
  0
SOLID
  5
75
330
71
100
AcDbEntity
  8
0
  6
Continuous
 62
     7
370
     0
100
AcDbTrace
 10
133.3688690203
 20
247.2470727008
 30
0.0
 11
129.8688690203
 21
248.1470727008
 31
0.0
 12
129.8688690203
 22
246.3470727008
 32
0.0
 13
129.8688690203
 23
246.3470727008
 33
0.0
  0
LINE
  5
76
330
71
100
AcDbEntity
  8
0
  6
Continuous
 62
     7
370
     0
100
AcDbLine
 10
24.2251650338
 20
215.5044632604
 30
0.0
 11
24.2251650338
 21
248.2470727008
 31
0.0
  0
LINE
  5
77
330
71
100
AcDbEntity
  8
0
  6
Continuous
 62
     7
370
     0
100
AcDbLine
 10
133.3688690203
 20
215.5044632604
 30
0.0
 11
133.3688690203
 21
248.2470727008
 31
0.0
  0
LINE
  5
78
330
71
100
AcDbEntity
  8
0
  6
Continuous
 62
     7
370
     0
100
AcDbLine
 10
24.2251650338
 20
247.2470727008
 30
0.0
 11
133.3688690203
 21
247.2470727008
 31
0.0
  0
MTEXT
  5
79
330
71
100
AcDbEntity
  8
0
  6
Continuous
 62
     7
370
     0
100
AcDbMText
 10
71.6074335281
 20
251.7588100229
 30
-4.0097403907
 40
3.5
 41
0.0
 71
     1
 72
     1
  1
%%c
  7
SLDTEXTSTYLE0
 73
     1
 44
1.0
  0
MTEXT
  5
7A
330
71
100
AcDbEntity
  8
0
  6
Continuous
 62
     7
370
     0
100
AcDbMText
 10
76.7796559151
 20
251.7588100229
 30
-4.0097403907
 40
3.5
 41
0.0
 71
     1
 72
     1
  1
109
  7
SLDTEXTSTYLE0
 73
     1
 44
1.0
  0
ENDBLK
  5
73
330
71
100
AcDbEntity
  8
0
100
AcDbBlockEnd
  0
BLOCK
  5
119
330
118
100
AcDbEntity
  8
0
100
AcDbBlockBegin
  2
*D3
 70
     1
 10
0.0
 20
0.0
 30
0.0
  3
*D3
  1

  0
SOLID
  5
11B
330
118
100
AcDbEntity
  8
0
  6
Continuous
 62
     7
370
     0
100
AcDbTrace
 10
289.4008515706
 20
215.5044632604
 30
0.0
 11
288.5008515706
 21
212.0044632604
 31
0.0
 12
290.3008515706
 22
212.0044632604
 32
0.0
 13
290.3008515706
 23
212.0044632604
 33
0.0
  0
SOLID
  5
11C
330
118
100
AcDbEntity
  8
0
  6
Continuous
 62
     7
370
     0
100
AcDbTrace
 10
289.4008515706
 20
162.0044632604
 30
0.0
 11
290.3008515706
 21
165.5044632604
 31
0.0
 12
288.5008515706
 22
165.5044632604
 32
0.0
 13
288.5008515706
 23
165.5044632604
 33
0.0
  0
LINE
  5
11D
330
118
100
AcDbEntity
  8
0
  6
Continuous
 62
     7
370
     0
100
AcDbLine
 10
279.4008515706
 20
215.5044632604
 30
0.0
 11
290.4008515706
 21
215.5044632604
 31
0.0
  0
LINE
  5
11E
330
118
100
AcDbEntity
  8
0
  6
Continuous
 62
     7
370
     0
100
AcDbLine
 10
258.8289995773
 20
162.0044632604
 30
0.0
 11
290.4008515706
 21
162.0044632604
 31
0.0
  0
LINE
  5
11F
330
118
100
AcDbEntity
  8
0
  6
Continuous
 62
     7
370
     0
100
AcDbLine
 10
289.4008515706
 20
215.5044632604
 30
0.0
 11
289.4008515706
 21
162.0044632604
 31
0.0
  0
MTEXT
  5
120
330
118
100
AcDbEntity
  8
0
  6
Continuous
 62
     7
370
     0
100
AcDbMText
 10
284.8891147142
 20
183.6016854917
 30
7.5773196338
 40
3.5
 41
0.0
 71
     1
 72
     1
  1
53.5
  7
SLDTEXTSTYLE0
 11
-7.044195017643634E-15
 21
1.0
 31
0.0
 73
     1
 44
1.0
  0
ENDBLK
  5
11A
330
118
100
AcDbEntity
  8
0
100
AcDbBlockEnd
  0
BLOCK
  5
124
330
123
100
AcDbEntity
  8
0
100
AcDbBlockBegin
  2
*D4
 70
     1
 10
0.0
 20
0.0
 30
0.0
  3
*D4
  1

  0
SOLID
  5
126
330
123
100
AcDbEntity
  8
0
  6
Continuous
 62
     7
370
     0
100
AcDbTrace
 10
159.3115238486
 20
215.5044632604
 30
0.0
 11
160.2115238486
 21
219.0044632604
 31
0.0
 12
158.4115238486
 22
219.0044632604
 32
0.0
 13
158.4115238486
 23
219.0044632604
 33
0.0
  0
SOLID
  5
127
330
123
100
AcDbEntity
  8
0
  6
Continuous
 62
     7
370
     0
100
AcDbTrace
 10
159.3115238486
 20
198.0044632604
 30
0.0
 11
158.4115238486
 21
194.5044632604
 31
0.0
 12
160.2115238486
 22
194.5044632604
 32
0.0
 13
160.2115238486
 23
194.5044632604
 33
0.0
  0
LINE
  5
128
330
123
100
AcDbEntity
  8
0
  6
Continuous
 62
     7
370
     0
100
AcDbLine
 10
170.2571475841
 20
215.5044632604
 30
0.0
 11
158.3115238486
 21
215.5044632604
 31
0.0
  0
LINE
  5
129
330
123
100
AcDbEntity
  8
0
  6
Continuous
 62
     7
370
     0
100
AcDbLine
 10
186.7519030574
 20
198.0044632604
 30
0.0
 11
158.3115238486
 21
198.0044632604
 31
0.0
  0
LINE
  5
12A
330
123
100
AcDbEntity
  8
0
  6
Continuous
 62
     7
370
     0
100
AcDbLine
 10
159.3115238486
 20
215.5044632604
 30
0.0
 11
159.3115238486
 21
222.5044632604
 31
0.0
  0
LINE
  5
12B
330
123
100
AcDbEntity
  8
0
  6
Continuous
 62
     7
370
     0
100
AcDbLine
 10
159.3115238486
 20
215.5044632604
 30
0.0
 11
159.3115238486
 21
198.0044632604
 31
0.0
  0
LINE
  5
12C
330
123
100
AcDbEntity
  8
0
  6
Continuous
 62
     7
370
     0
100
AcDbLine
 10
159.3115238486
 20
198.0044632604
 30
0.0
 11
159.3115238486
 21
191.0044632604
 31
0.0
  0
MTEXT
  5
12D
330
123
100
AcDbEntity
  8
0
  6
Continuous
 62
     7
370
     0
100
AcDbMText
 10
154.7997869923
 20
201.6016854917
 30
7.5773196338
 40
3.5
 41
0.0
 71
     1
 72
     1
  1
17.5
  7
SLDTEXTSTYLE0
 11
-7.044195017643634E-15
 21
1.0
 31
0.0
 73
     1
 44
1.0
  0
ENDBLK
  5
125
330
123
100
AcDbEntity
  8
0
100
AcDbBlockEnd
  0
ENDSEC
  0
SECTION
  2
ENTITIES
  0
ARC
  5
4A
330
1F
100
AcDbEntity
  8
0
  6
Continuous
 62
     7
370
    15
100
AcDbCircle
 10
25.2251650338
 20
214.5044632604
 30
0.0
 40
1.0
100
AcDbArc
 50
90.0
 51
200.0
  0
ARC
  5
4B
330
1F
100
AcDbEntity
  8
0
  6
Continuous
 62
     7
370
    15
100
AcDbCircle
 10
132.3688690203
 20
214.5044632604
 30
0.0
 40
1.000000000000014
100
AcDbArc
 50
340.0
 51
90.0
  0
LINE
  5
4C
330
1F
100
AcDbEntity
  8
0
  6
Continuous
 62
     7
370
    15
100
AcDbLine
 10
24.2854736638
 20
214.1624427189
 30
0.0
 11
26.2149914991
 21
208.8611311068
 31
0.0
  0
LINE
  5
4D
330
1F
100
AcDbEntity
  8
0
  6
Continuous
 62
     7
370
    15
100
AcDbLine
 10
131.379042555
 20
208.8611311068
 30
0.0
 11
133.3085603904
 21
214.1624427189
 31
0.0
  0
ARC
  5
4E
330
1F
100
AcDbEntity
  8
0
  6
Continuous
 62
     7
370
    15
100
AcDbCircle
 10
41.7199205072
 20
214.5044632604
 30
0.0
 40
16.49999999999998
100
AcDbArc
 50
200.0
 51
270.0
  0
ARC
  5
4F
330
1F
100
AcDbEntity
  8
0
  6
Continuous
 62
     7
370
    15
100
AcDbCircle
 10
115.874113547
 20
214.5044632604
 30
0.0
 40
16.49999999999997
100
AcDbArc
 50
270.0
 51
340.0
  0
LINE
  5
50
330
1F
100
AcDbEntity
  8
0
  6
Continuous
 62
     7
370
    15
100
AcDbLine
 10
111.297015835
 20
161.0044632129
 30
0.0
 11
111.297015835
 21
162.0044632604
 31
0.0
  0
LINE
  5
51
330
1F
100
AcDbEntity
  8
0
  6
Continuous
 62
     7
370
    15
100
AcDbLine
 10
46.2970182192
 20
162.0044632604
 30
0.0
 11
46.2970182192
 21
161.0044632129
 31
0.0
  0
LINE
  5
52
330
1F
100
AcDbEntity
  8
0
  6
Continuous
 62
     7
370
    15
100
AcDbLine
 10
111.297015835
 20
197.0044634094
 30
0.0
 11
111.297015835
 21
198.0044617106
 31
0.0
  0
LINE
  5
53
330
1F
100
AcDbEntity
  8
0
  6
Continuous
 62
     7
370
    15
100
AcDbLine
 10
46.2970182192
 20
198.0044617106
 30
0.0
 11
46.2970182192
 21
197.0044634094
 31
0.0
  0
LINE
  5
54
330
1F
100
AcDbEntity
  8
0
  6
Continuous
 62
     7
370
    15
100
AcDbLine
 10
111.7970168483
 20
162.0044632604
 30
0.0
 11
111.7970168483
 21
197.0044634094
 31
0.0
  0
LINE
  5
55
330
1F
100
AcDbEntity
  8
0
  6
Continuous
 62
     7
370
    15
100
AcDbLine
 10
45.7970172059
 20
197.0044634094
 30
0.0
 11
45.7970172059
 21
162.0044632604
 31
0.0
  0
LINE
  5
56
330
1F
100
AcDbEntity
  8
0
  6
Continuous
 62
     7
370
    15
100
AcDbLine
 10
78.7970170271
 20
215.5044636478
 30
0.0
 11
132.3688708138
 21
215.5044636478
 31
0.0
  0
LINE
  5
57
330
1F
100
AcDbEntity
  8
0
  6
Continuous
 62
     7
370
    15
100
AcDbLine
 10
25.2251632404
 20
215.5044636478
 30
0.0
 11
78.7970170271
 21
215.5044636478
 31
0.0
  0
LINE
  5
58
330
1F
100
AcDbEntity
  8
0
  6
Continuous
 62
     7
370
    15
100
AcDbLine
 10
78.7970170271
 20
198.0044617106
 30
0.0
 11
115.8741123866
 21
198.0044617106
 31
0.0
  0
LINE
  5
59
330
1F
100
AcDbEntity
  8
0
  6
Continuous
 62
     7
370
    15
100
AcDbLine
 10
41.7199216675
 20
198.0044617106
 30
0.0
 11
78.7970170271
 21
198.0044617106
 31
0.0
  0
LINE
  5
5A
330
1F
100
AcDbEntity
  8
0
  6
Continuous
 62
     7
370
    15
100
AcDbLine
 10
111.297015835
 20
161.0044632129
 30
0.0
 11
46.2970182192
 21
161.0044632129
 31
0.0
  0
LINE
  5
5B
330
1F
100
AcDbEntity
  8
0
  6
Continuous
 62
     7
370
    15
100
AcDbLine
 10
78.7970170271
 20
162.0044632604
 30
0.0
 11
111.7970168483
 21
162.0044632604
 31
0.0
  0
LINE
  5
5C
330
1F
100
AcDbEntity
  8
0
  6
Continuous
 62
     7
370
    15
100
AcDbLine
 10
45.7970172059
 20
162.0044632604
 30
0.0
 11
78.7970170271
 21
162.0044632604
 31
0.0
  0
LINE
  5
5D
330
1F
100
AcDbEntity
  8
0
  6
Continuous
 62
     7
370
    15
100
AcDbLine
 10
78.7970170271
 20
197.0044634094
 30
0.0
 11
111.7970168483
 21
197.0044634094
 31
0.0
  0
LINE
  5
5E
330
1F
100
AcDbEntity
  8
0
  6
Continuous
 62
     7
370
    15
100
AcDbLine
 10
45.7970172059
 20
197.0044634094
 30
0.0
 11
78.7970170271
 21
197.0044634094
 31
0.0
  0
LINE
  5
5F
330
1F
100
AcDbEntity
  8
0
  6
Continuous
 62
     8
370
    15
100
AcDbLine
 10
133.3085603904
 20
214.1624427189
 30
0.0
 11
24.2854736638
 21
214.1624427189
 31
0.0
  0
LINE
  5
60
330
1F
100
AcDbEntity
  8
0
  6
Continuous
 62
     8
370
    15
100
AcDbLine
 10
78.7970170271
 20
208.8611311068
 30
0.0
 11
131.379042555
 21
208.8611311068
 31
0.0
  0
LINE
  5
61
330
1F
100
AcDbEntity
  8
0
  6
Continuous
 62
     8
370
    15
100
AcDbLine
 10
26.2149914991
 20
208.8611311068
 30
0.0
 11
78.7970170271
 21
208.8611311068
 31
0.0
  0
DIMENSION
  5
62
330
1F
100
AcDbEntity
  8
0
  6
Continuous
 62
     7
370
     0
100
AcDbDimension
  2
*D1
 10
111.7970170271
 20
152.0044632604
 30
0.0
 11
78.7970170271
 21
152.0044632604
 31
0.0
 70
   160
  1
%%c<>
 71
     2
 42
-1.0
  3
SLDDIMSTYLE0
100
AcDbAlignedDimension
 13
45.7970170271
 23
162.0044632604
 33
0.0
 14
111.7970170271
 24
162.0044632604
 34
0.0
100
AcDbRotatedDimension
  0
DIMENSION
  5
6F
330
1F
100
AcDbEntity
  8
0
  6
Continuous
 62
     7
370
     0
100
AcDbDimension
  2
*D2
 10
133.3688690203
 20
247.2470727008
 30
0.0
 11
78.7970170271
 21
247.2470727008
 31
0.0
 70
   160
  1
%%c<>
 71
     2
 42
-1.0
  3
SLDDIMSTYLE1
100
AcDbAlignedDimension
 13
24.2251650338
 23
214.5044632604
 33
0.0
 14
133.3688690203
 24
214.5044632604
 34
0.0
100
AcDbRotatedDimension
  0
LINE
  5
7B
330
1F
100
AcDbEntity
  8
0
  6
CENTER
 62
     7
370
     0
100
AcDbLine
 10
78.7970170271
 20
233.7528665364
 30
0.0
 11
78.7970170271
 21
135.9187939343
 31
0.0
  0
LINE
  5
7C
330
1F
100
AcDbEntity
  8
0
  6
Continuous
 62
     7
370
     0
100
AcDbLine
 10
66.7970170271
 20
231.7528665364
 30
0.0
 11
78.7970170271
 21
231.7528665364
 31
0.0
  0
SOLID
  5
7D
330
1F
100
AcDbEntity
  8
0
  6
Continuous
 62
     7
370
     0
100
AcDbTrace
 10
78.7970170271
 20
231.7528665364
 30
0.0
 11
72.7970170271
 21
233.2528665364
 31
0.0
 12
72.7970170271
 22
230.2528665364
 32
0.0
 13
72.7970170271
 23
230.2528665364
 33
0.0
  0
LINE
  5
7E
330
1F
100
AcDbEntity
  8
0
  6
Continuous
 62
     7
370
     0
100
AcDbLine
 10
66.7970170271
 20
137.9187939343
 30
0.0
 11
78.7970170271
 21
137.9187939343
 31
0.0
  0
SOLID
  5
7F
330
1F
100
AcDbEntity
  8
0
  6
Continuous
 62
     7
370
     0
100
AcDbTrace
 10
78.7970170271
 20
137.9187939343
 30
0.0
 11
72.7970170271
 21
139.4187939343
 31
0.0
 12
72.7970170271
 22
136.4187939343
 32
0.0
 13
72.7970170271
 23
136.4187939343
 33
0.0
  0
MTEXT
  5
80
330
1F
100
AcDbEntity
  8
0
  6
Continuous
 62
     7
100
AcDbMText
 10
66.7970170271
 20
242.4900102189
 30
0.0
 40
7.0
 41
0.0
 71
     1
 72
     1
  1
A
  7
SLDTEXTSTYLE0
 73
     1
 44
1.0
  0
MTEXT
  5
81
330
1F
100
AcDbEntity
  8
0
  6
Continuous
 62
     7
100
AcDbMText
 10
66.7970170271
 20
148.6559376168
 30
0.0
 40
7.0
 41
0.0
 71
     1
 72
     1
  1
A
  7
SLDTEXTSTYLE0
 73
     1
 44
1.0
  0
SPLINE
  5
82
330
1F
100
AcDbEntity
  8
0
  6
Continuous
 62
     7
370
    15
100
AcDbSpline
210
0.0
220
0.0
230
1.0
 70
     8
 71
     3
 72
    20
 73
    16
 74
     0
 42
0.00000001
 43
0.00000001
 40
0.0
 40
0.0
 40
0.0
 40
0.0
 40
0.0608911875237436
 40
0.0919146343308235
 40
0.1147115972449808
 40
0.140263624856934
 40
0.1812634349008984
 40
0.2583239019887385
 40
0.3546693559930282
 40
0.4578312637764722
 40
0.5667470843443727
 40
0.6797814930096341
 40
0.7956422094459895
 40
0.9250591000996593
 40
1.0
 40
1.0
 40
1.0
 40
1.0
 10
221.4548893684916
 20
196.5486853172234
 30
0.0
 10
221.4711538349106
 20
196.5847979308911
 30
0.0
 10
221.4957048831704
 20
196.6393095575316
 30
0.0
 10
221.5137056465767
 20
196.7256712363592
 30
0.0
 10
221.5192644658046
 20
196.7924742738853
 30
0.0
 10
221.5168046703761
 20
196.8623118205981
 30
0.0
 10
221.5007931257895
 20
196.9593882891997
 30
0.0
 10
221.4562316354192
 20
197.0897358533963
 30
0.0
 10
221.3683566569925
 20
197.2471961596359
 30
0.0
 10
221.2378928779984
 20
197.4078201066375
 30
0.0
 10
221.0704831363392
 20
197.5563346604507
 30
0.0
 10
220.8706822214209
 20
197.6844493904134
 30
0.0
 10
220.6372637660443
 20
197.7859372845766
 30
0.0
 10
220.4151840712304
 20
197.849223967762
 30
0.0
 10
220.2687990937943
 20
197.8590728775619
 30
0.0
 10
220.215117646607
 20
197.8626846124581
 30
0.0
  0
SPLINE
  5
83
330
1F
100
AcDbEntity
  8
0
  6
Continuous
 62
     7
370
    15
100
AcDbSpline
210
0.0
220
0.0
230
1.0
 70
     8
 71
     3
 72
    21
 73
    17
 74
     0
 42
0.00000001
 43
0.00000001
 40
0.0
 40
0.0
 40
0.0
 40
0.0
 40
0.0445914784175434
 40
0.1682649892918552
 40
0.2876021660064674
 40
0.4018823218838646
 40
0.5102318760967897
 40
0.6115171534969169
 40
0.7042672026432788
 40
0.7864250102344538
 40
0.8537571589620453
 40
0.8846326570485331
 40
0.9074285832542811
 40
0.9330215217639833
 40
0.9742466574132086
 40
1.0
 40
1.0
 40
1.0
 40
1.0
 10
229.4435264489077
 20
197.8630347897461
 30
0.0
 10
229.4115698160861
 20
197.8619114452352
 30
0.0
 10
229.2909821461916
 20
197.8576725287692
 30
0.0
 10
229.0893934771603
 20
197.8073281873585
 30
0.0
 10
228.8515193661953
 20
197.7173651647753
 30
0.0
 10
228.6428871699648
 20
197.5960834726039
 30
0.0
 10
228.4683371154414
 20
197.4553026162623
 30
0.0
 10
228.331151016454
 20
197.303541493106
 30
0.0
 10
228.2322612358836
 20
197.1511029865389
 30
0.0
 10
228.1706490311185
 20
197.0076623255961
 30
0.0
 10
228.1434296016412
 20
196.8930458068125
 30
0.0
 10
228.1383810948098
 20
196.8003847372671
 30
0.0
 10
228.1433275876398
 20
196.7335483558592
 30
0.0
 10
228.156973717272
 20
196.6651072341838
 30
0.0
 10
228.1752625752613
 20
196.6036395443416
 30
0.0
 10
228.1961434567425
 20
196.5658333094698
 30
0.0
 10
228.2041721923671
 20
196.5512967457226
 30
0.0
  0
LINE
  5
84
330
1F
100
AcDbEntity
  8
0
  6
Continuous
 62
     7
370
    15
100
AcDbLine
 10
235.9201834483
 20
198.374148344
 30
0.0
 11
229.4429331964
 21
197.8680341293
 31
0.0
  0
LINE
  5
85
330
1F
100
AcDbEntity
  8
0
  6
Continuous
 62
     7
370
    15
100
AcDbLine
 10
220.2150659582
 20
197.8680341293
 30
0.0
 11
213.7378157063
 21
198.374148344
 31
0.0
  0
SPLINE
  5
86
330
1F
100
AcDbEntity
  8
0
  6
Continuous
 62
     7
370
    15
100
AcDbSpline
210
0.0
220
0.0
230
1.0
 70
     8
 71
     3
 72
    21
 73
    17
 74
     0
 42
0.00000001
 43
0.00000001
 40
0.0
 40
0.0
 40
0.0
 40
0.0
 40
0.0408572287801152
 40
0.0852939765447451
 40
0.110721704573517
 40
0.1336683635153152
 40
0.161548463804852
 40
0.2158279946434217
 40
0.3091199050310428
 40
0.40711503896053
 40
0.5117306413452375
 40
0.6212499278185315
 40
0.7342284463327561
 40
0.8495019328481154
 40
0.9762670144626105
 40
1.0
 40
1.0
 40
1.0
 40
1.0
 10
237.3405695839248
 20
197.2415818621567
 30
0.0
 10
237.3496523561611
 20
197.2666518640312
 30
0.0
 10
237.3686136461264
 20
197.3189882611807
 30
0.0
 10
237.3789193388266
 20
197.3963892409654
 30
0.0
 10
237.3796538731137
 20
197.4722197457451
 30
0.0
 10
237.3721730528741
 20
197.5364878592122
 30
0.0
 10
237.3539185973407
 20
197.6136929684422
 30
0.0
 10
237.3106237436888
 20
197.722780669967
 30
0.0
 10
237.2254377305289
 20
197.8582514494492
 30
0.0
 10
237.0913131926228
 20
198.0038171404724
 30
0.0
 10
236.9214783720202
 20
198.1353175163788
 30
0.0
 10
236.7192360272019
 20
198.2453592599476
 30
0.0
 10
236.4914241959312
 20
198.3275438832731
 30
0.0
 10
236.2394162787491
 20
198.3736293011335
 30
0.0
 10
236.0448328245733
 20
198.3883059170594
 30
0.0
 10
235.9365995132554
 20
198.373142149058
 30
0.0
 10
235.9195315225444
 20
198.3707508792332
 30
0.0
  0
SPLINE
  5
87
330
1F
100
AcDbEntity
  8
0
  6
Continuous
 62
     7
370
    15
100
AcDbSpline
210
0.0
220
0.0
230
1.0
 70
     8
 71
     3
 72
    21
 73
    17
 74
     0
 42
0.00000001
 43
0.00000001
 40
0.0
 40
0.0
 40
0.0
 40
0.0
 40
0.0671397118357046
 40
0.1885983327408318
 40
0.3056140507095205
 40
0.417490408711483
 40
0.5233202933006706
 40
0.6219285010474415
 40
0.7117838924293052
 40
0.790663684891947
 40
0.8449048866331313
 40
0.8747359225344665
 40
0.8972241971749297
 40
0.9226518919335183
 40
0.9643224800827476
 40
1.0
 40
1.0
 40
1.0
 40
1.0
 10
213.7377570329629
 20
198.3686945189884
 30
0.0
 10
213.6892185996007
 20
198.3734019713788
 30
0.0
 10
213.5528720566136
 20
198.3866254072262
 30
0.0
 10
213.3312177169889
 20
198.362280330036
 30
0.0
 10
213.0861323857451
 20
198.3031207129403
 30
0.0
 10
212.8664926225019
 20
198.2105455775204
 30
0.0
 10
212.678465639837
 20
198.094770269395
 30
0.0
 10
212.5262910840549
 20
197.9641717971271
 30
0.0
 10
212.4120862784021
 20
197.8287180117251
 30
0.0
 10
212.3386963345265
 20
197.7035328157986
 30
0.0
 10
212.2998995378584
 20
197.6011657874994
 30
0.0
 10
212.2829317369573
 20
197.5196505687568
 30
0.0
 10
212.2777429103846
 20
197.4533363602237
 30
0.0
 10
212.2807804194515
 20
197.3830128178604
 30
0.0
 10
212.2911196881944
 20
197.3122007369078
 30
0.0
 10
212.3088951847569
 20
197.265028187213
 30
0.0
 10
212.31709429458
 20
197.2432694186619
 30
0.0
  0
LINE
  5
88
330
1F
100
AcDbEntity
  8
0
  6
Continuous
 62
     7
370
    15
100
AcDbLine
 10
197.6558846368
 20
161.0044632129
 30
0.0
 11
197.6558846368
 21
162.0044632604
 31
0.0
  0
LINE
  5
89
330
1F
100
AcDbEntity
  8
0
  6
Continuous
 62
     7
370
    15
100
AcDbLine
 10
237.306743948
 20
162.0044632604
 30
0.0
 11
237.306743948
 21
161.0044632129
 31
0.0
  0
LINE
  5
8A
330
1F
100
AcDbEntity
  8
0
  6
Continuous
 62
     7
370
    15
100
AcDbLine
 10
198.0945636465
 20
179.0044641842
 30
0.0
 11
201.7584555729
 21
179.0044641842
 31
0.0
  0
ARC
  5
8B
330
1F
100
AcDbEntity
  8
0
  6
Continuous
 62
     7
370
    15
100
AcDbCircle
 10
198.0945640144
 20
181.0044632604
 30
0.0
 40
2.00000000000001
100
AcDbArc
 50
187.1250163489
 51
270.0
  0
LINE
  5
8C
330
1F
100
AcDbEntity
  8
0
  6
Continuous
 62
     7
370
    15
100
AcDbLine
 10
195.0789988919
 20
189.0044639607
 30
0.0
 11
196.1100083722
 21
180.7563937058
 31
0.0
  0
LINE
  5
8D
330
1F
100
AcDbEntity
  8
0
  6
Continuous
 62
     7
370
    15
100
AcDbLine
 10
195.0789988919
 20
198.0044617106
 30
0.0
 11
195.0789988919
 21
189.0044639607
 31
0.0
  0
LINE
  5
8E
330
1F
100
AcDbEntity
  8
0
  6
Continuous
 62
     7
370
    15
100
AcDbLine
 10
187.7519042178
 20
198.0044617106
 30
0.0
 11
195.0789988919
 21
198.0044617106
 31
0.0
  0
ARC
  5
8F
330
1F
100
AcDbEntity
  8
0
  6
Continuous
 62
     7
370
    15
100
AcDbCircle
 10
187.7519030574
 20
214.5044632604
 30
0.0
 40
16.49999999999997
100
AcDbArc
 50
200.0
 51
270.0
  0
LINE
  5
90
330
1F
100
AcDbEntity
  8
0
  6
Continuous
 62
     7
370
    15
100
AcDbLine
 10
170.317456214
 20
214.1624427189
 30
0.0
 11
172.2469740494
 21
208.8611311068
 31
0.0
  0
ARC
  5
91
330
1F
100
AcDbEntity
  8
0
  6
Continuous
 62
     7
370
    15
100
AcDbCircle
 10
171.2571475841
 20
214.5044632604
 30
0.0
 40
1.000000000000014
100
AcDbArc
 50
90.0
 51
200.0
  0
LINE
  5
92
330
1F
100
AcDbEntity
  8
0
  6
Continuous
 62
     7
370
    15
100
AcDbLine
 10
173.9175916596
 20
215.5044636478
 30
0.0
 11
171.2571457906
 21
215.5044636478
 31
0.0
  0
ARC
  5
93
330
1F
100
AcDbEntity
  8
0
  6
Continuous
 62
     7
370
    15
100
AcDbCircle
 10
173.9175920152
 20
214.5044632604
 30
0.0
 40
1.000000000000034
100
AcDbArc
 50
20.0
 51
90.0
  0
LINE
  5
94
330
1F
100
AcDbEntity
  8
0
  6
Continuous
 62
     7
370
    15
100
AcDbLine
 10
176.4755920453
 20
210.4002198924
 30
0.0
 11
174.8572849615
 21
214.8464842488
 31
0.0
  0
ARC
  5
95
330
1F
100
AcDbEntity
  8
0
  6
Continuous
 62
     7
370
    15
100
AcDbCircle
 10
187.7519030574
 20
214.5044632604
 30
0.0
 40
12.0
100
AcDbArc
 50
200.0
 51
270.0
  0
LINE
  5
96
330
1F
100
AcDbEntity
  8
0
  6
Continuous
 62
     7
370
    15
100
AcDbLine
 10
196.7398990823
 20
202.5044633796
 30
0.0
 11
187.7519042178
 21
202.5044633796
 31
0.0
  0
ARC
  5
97
330
1F
100
AcDbEntity
  8
0
  6
Continuous
 62
     7
370
    15
100
AcDbCircle
 10
196.7398999461
 20
201.5044632604
 30
0.0
 40
1.0
100
AcDbArc
 50
10.0
 51
90.0
  0
LINE
  5
98
330
1F
100
AcDbEntity
  8
0
  6
Continuous
 62
     7
370
    15
100
AcDbLine
 10
198.2843075825
 20
198.5044627239
 30
0.0
 11
197.7247075124
 21
201.678112035
 31
0.0
  0
ARC
  5
99
330
1F
100
AcDbEntity
  8
0
  6
Continuous
 62
     7
370
    15
100
AcDbCircle
 10
199.2691152532
 20
198.678111438
 30
0.0
 40
1.000000000000054
100
AcDbArc
 50
190.0
 51
264.4258917358
  0
ARC
  5
9A
330
1F
100
AcDbEntity
  8
0
  6
Continuous
 62
     7
370
    15
100
AcDbCircle
 10
223.4552697254
 20
446.5006889645
 30
0.0
 40
249.9999999999999
100
AcDbArc
 50
264.4258917358
 51
269.8559571432
  0
ARC
  5
9B
330
1F
100
AcDbEntity
  8
0
  6
Continuous
 62
     7
370
    15
100
AcDbCircle
 10
224.8289995773
 20
195.0044632604
 30
0.0
 40
2.499999999997693
100
AcDbArc
 50
36.7844527062
 51
143.2155472938
  0
ARC
  5
9C
330
1F
100
AcDbEntity
  8
0
  6
Continuous
 62
     7
370
    15
100
AcDbCircle
 10
226.2027294292
 20
446.5006889645
 30
0.0
 40
249.9999999999999
100
AcDbArc
 50
270.1440428568
 51
275.5741082642
  0
ARC
  5
9D
330
1F
100
AcDbEntity
  8
0
  6
Continuous
 62
     7
370
    15
100
AcDbCircle
 10
250.3888839015
 20
198.678111438
 30
0.0
 40
1.000000000000054
100
AcDbArc
 50
275.5741082642
 51
350.0
  0
LINE
  5
9E
330
1F
100
AcDbEntity
  8
0
  6
Continuous
 62
     7
370
    15
100
AcDbLine
 10
251.9332916422
 20
201.678112035
 30
0.0
 11
251.3736915721
 21
198.5044627239
 31
0.0
  0
ARC
  5
9F
330
1F
100
AcDbEntity
  8
0
  6
Continuous
 62
     7
370
    15
100
AcDbCircle
 10
252.9180992085
 20
201.5044632604
 30
0.0
 40
1.0
100
AcDbArc
 50
90.0
 51
170.0
  0
LINE
  5
A0
330
1F
100
AcDbEntity
  8
0
  6
Continuous
 62
     7
370
    15
100
AcDbLine
 10
261.9060949369
 20
202.5044633796
 30
0.0
 11
252.9181000723
 21
202.5044633796
 31
0.0
  0
ARC
  5
A1
330
1F
100
AcDbEntity
  8
0
  6
Continuous
 62
     7
370
    15
100
AcDbCircle
 10
261.9060960972
 20
214.5044632604
 30
0.0
 40
12.00000000000002
100
AcDbArc
 50
270.0
 51
340.0
  0
LINE
  5
A2
330
1F
100
AcDbEntity
  8
0
  6
Continuous
 62
     7
370
    15
100
AcDbLine
 10
274.8007141931
 20
214.8464842488
 30
0.0
 11
273.1824071093
 21
210.4002198924
 31
0.0
  0
ARC
  5
A3
330
1F
100
AcDbEntity
  8
0
  6
Continuous
 62
     7
370
    15
100
AcDbCircle
 10
275.7404071394
 20
214.5044632604
 30
0.0
 40
1.000000000000034
100
AcDbArc
 50
90.0
 51
160.0
  0
LINE
  5
A4
330
1F
100
AcDbEntity
  8
0
  6
Continuous
 62
     7
370
    15
100
AcDbLine
 10
278.400853364
 20
215.5044636478
 30
0.0
 11
275.7404074951
 21
215.5044636478
 31
0.0
  0
ARC
  5
A5
330
1F
100
AcDbEntity
  8
0
  6
Continuous
 62
     7
370
    15
100
AcDbCircle
 10
278.4008515706
 20
214.5044632604
 30
0.0
 40
1.000000000000014
100
AcDbArc
 50
340.0
 51
90.0
  0
LINE
  5
A6
330
1F
100
AcDbEntity
  8
0
  6
Continuous
 62
     7
370
    15
100
AcDbLine
 10
277.4110251053
 20
208.8611311068
 30
0.0
 11
279.3405429406
 21
214.1624427189
 31
0.0
  0
ARC
  5
A7
330
1F
100
AcDbEntity
  8
0
  6
Continuous
 62
     7
370
    15
100
AcDbCircle
 10
261.9060960972
 20
214.5044632604
 30
0.0
 40
16.49999999999997
100
AcDbArc
 50
270.0
 51
340.0
  0
LINE
  5
A8
330
1F
100
AcDbEntity
  8
0
  6
Continuous
 62
     7
370
    15
100
AcDbLine
 10
254.5790002628
 20
198.0044617106
 30
0.0
 11
261.9060949369
 21
198.0044617106
 31
0.0
  0
LINE
  5
A9
330
1F
100
AcDbEntity
  8
0
  6
Continuous
 62
     7
370
    15
100
AcDbLine
 10
254.5790002628
 20
189.0044639607
 30
0.0
 11
254.5790002628
 21
198.0044617106
 31
0.0
  0
LINE
  5
AA
330
1F
100
AcDbEntity
  8
0
  6
Continuous
 62
     7
370
    15
100
AcDbLine
 10
253.5479907824
 20
180.7563937058
 30
0.0
 11
254.5790002628
 21
189.0044639607
 31
0.0
  0
ARC
  5
AB
330
1F
100
AcDbEntity
  8
0
  6
Continuous
 62
     7
370
    15
100
AcDbCircle
 10
251.5634351402
 20
181.0044632604
 30
0.0
 40
2.000000000000039
100
AcDbArc
 50
270.0
 51
352.8749836511
  0
LINE
  5
AC
330
1F
100
AcDbEntity
  8
0
  6
Continuous
 62
     7
370
    15
100
AcDbLine
 10
247.8995435818
 20
179.0044641842
 30
0.0
 11
251.5634355082
 21
179.0044641842
 31
0.0
  0
ARC
  5
AD
330
1F
100
AcDbEntity
  8
0
  6
Continuous
 62
     7
370
    15
100
AcDbCircle
 10
247.8995435674
 20
181.0044632604
 30
0.0
 40
2.0
100
AcDbArc
 50
238.530214201
 51
270.0
  0
ARC
  5
AE
330
1F
100
AcDbEntity
  8
0
  6
Continuous
 62
     7
370
    15
100
AcDbCircle
 10
224.8289995773
 20
143.3121555681
 30
0.0
 40
42.1923076923077
100
AcDbArc
 50
58.530214201
 51
121.469785799
  0
ARC
  5
AF
330
1F
100
AcDbEntity
  8
0
  6
Continuous
 62
     7
370
    15
100
AcDbCircle
 10
201.7584555872
 20
181.0044632604
 30
0.0
 40
2.0
100
AcDbArc
 50
270.0
 51
301.469785799
  0
LINE
  5
B0
330
1F
100
AcDbEntity
  8
0
  6
Continuous
 62
     7
370
    15
100
AcDbLine
 10
274.8007141931
 20
214.8464842488
 30
0.0
 11
174.8572849615
 21
214.8464842488
 31
0.0
  0
LINE
  5
B1
330
1F
100
AcDbEntity
  8
0
  6
Continuous
 62
     7
370
    15
100
AcDbLine
 10
173.9175916596
 20
215.5044636478
 30
0.0
 11
275.7404074951
 21
215.5044636478
 31
0.0
  0
LINE
  5
B2
330
1F
100
AcDbEntity
  8
0
  6
Continuous
 62
     7
370
    15
100
AcDbLine
 10
273.1824071093
 20
210.4002198924
 30
0.0
 11
176.4755920453
 21
210.4002198924
 31
0.0
  0
LINE
  5
B3
330
1F
100
AcDbEntity
  8
0
  6
Continuous
 62
     7
370
    15
100
AcDbLine
 10
251.9332916422
 20
201.678112035
 30
0.0
 11
197.7247075124
 21
201.678112035
 31
0.0
  0
LINE
  5
B4
330
1F
100
AcDbEntity
  8
0
  6
Continuous
 62
     7
370
    15
100
AcDbLine
 10
252.9181000723
 20
202.5044633796
 30
0.0
 11
196.7398990823
 21
202.5044633796
 31
0.0
  0
LINE
  5
B5
330
1F
100
AcDbEntity
  8
0
  6
Continuous
 62
     7
370
    15
100
AcDbLine
 10
251.3736915721
 20
198.5044627239
 30
0.0
 11
198.2843075825
 21
198.5044627239
 31
0.0
  0
SPLINE
  5
B6
330
1F
100
AcDbEntity
  8
0
  6
Continuous
 62
     7
370
    15
100
AcDbSpline
210
0.0
220
0.0
230
1.0
 70
     8
 71
     3
 72
    12
 73
     8
 74
     0
 42
0.00000001
 43
0.00000001
 40
0.0
 40
0.0
 40
0.0
 40
0.0
 40
0.1173851265720373
 40
0.3349090009050774
 40
0.5846014195918072
 40
0.8343134718999837
 40
0.9999999999999999
 40
0.9999999999999999
 40
0.9999999999999999
 40
0.9999999999999999
 10
212.3199059574328
 20
197.2442081918171
 30
0.0
 10
212.3201031858377
 20
197.2400377641887
 30
0.0
 10
212.3206658939929
 20
197.2281392060737
 30
0.0
 10
212.3859698961062
 20
197.2052773306135
 30
0.0
 10
212.5110778259329
 20
197.1765477761321
 30
0.0
 10
212.6802908792609
 20
197.1492255557464
 30
0.0
 10
212.8160488297524
 20
197.1322875416131
 30
0.0
 10
212.8701974584184
 20
197.125531618779
 30
0.0
  0
SPLINE
  5
B7
330
1F
100
AcDbEntity
  8
0
  6
Continuous
 62
     7
370
    15
100
AcDbSpline
210
0.0
220
0.0
230
1.0
 70
     8
 71
     3
 72
    10
 73
     6
 74
     0
 42
0.00000001
 43
0.00000001
 40
0.0
 40
0.0
 40
0.0
 40
0.0
 40
0.1782313421290551
 40
0.5709092890833789
 40
1.0
 40
1.0
 40
1.0
 40
1.0
 10
212.8701974584184
 20
197.125531618779
 30
0.0
 10
213.2578372252058
 20
197.0809193135656
 30
0.0
 10
214.4995219986773
 20
196.9380175144237
 30
0.0
 10
216.6676999391936
 20
196.7372942664104
 30
0.0
 10
218.4320161489471
 20
196.6404727044197
 30
0.0
 10
219.3532628884934
 20
196.5899168302468
 30
0.0
  0
SPLINE
  5
B8
330
1F
100
AcDbEntity
  8
0
  6
Continuous
 62
     7
370
    15
100
AcDbSpline
210
0.0
220
0.0
230
1.0
 70
     8
 71
     3
 72
    13
 73
     9
 74
     0
 42
0.00000001
 43
0.00000001
 40
0.0
 40
0.0
 40
0.0
 40
0.0
 40
0.2059279406080816
 40
0.4118415733591491
 40
0.6279615668458073
 40
0.84346280956894
 40
0.9763189567567898
 40
1.0
 40
1.0
 40
1.0
 40
1.0
 10
219.3532628884934
 20
196.5899168302468
 30
0.0
 10
219.449430149042
 20
196.5858737478591
 30
0.0
 10
219.6417579884457
 20
196.5777878639969
 30
0.0
 10
220.0051415806205
 20
196.5665702148181
 30
0.0
 10
220.4165764097609
 20
196.5563663142332
 30
0.0
 10
220.8145515604323
 20
196.5489213870167
 30
0.0
 10
221.0977081465655
 20
196.5447862378225
 30
0.0
 10
221.213063620518
 20
196.5438499687505
 30
0.0
 10
221.2305146681539
 20
196.5437083293846
 30
0.0
  0
LINE
  5
B9
330
1F
100
AcDbEntity
  8
0
  6
Continuous
 62
     7
370
    15
100
AcDbLine
 10
221.2305146682
 20
196.5437083294
 30
0.0
 11
221.3613019271
 21
196.5437083294
 31
0.0
  0
SPLINE
  5
BA
330
1F
100
AcDbEntity
  8
0
  6
Continuous
 62
     7
370
    15
100
AcDbSpline
210
0.0
220
0.0
230
1.0
 70
     8
 71
     3
 72
    10
 73
     6
 74
     0
 42
0.00000001
 43
0.00000001
 40
0.0
 40
0.0
 40
0.0
 40
0.0
 40
0.1038111062876764
 40
0.5824881282703454
 40
1.0
 40
1.0
 40
1.0
 40
1.0
 10
221.3613019271217
 20
196.5437083293846
 30
0.0
 10
221.3699152438247
 20
196.5438452327785
 30
0.0
 10
221.418244896633
 20
196.5446134030109
 30
0.0
 10
221.4506039323686
 20
196.5468887731666
 30
0.0
 10
221.4502495434056
 20
196.5494358494036
 30
0.0
 10
221.4500844424985
 20
196.5506224681786
 30
0.0
  0
SPLINE
  5
BB
330
1F
100
AcDbEntity
  8
0
  6
Continuous
 62
     7
370
    15
100
AcDbSpline
210
0.0
220
0.0
230
1.0
 70
     8
 71
     3
 72
    11
 73
     7
 74
     0
 42
0.00000001
 43
0.00000001
 40
0.0
 40
0.0
 40
0.0
 40
0.0
 40
0.0339272258585924
 40
0.7649157721505705
 40
0.9839527336801246
 40
1.0
 40
1.0
 40
1.0
 40
1.0
 10
228.2023803277336
 20
196.5504995335987
 30
0.0
 10
228.2019583632194
 20
196.5503948552041
 30
0.0
 10
228.1924448440905
 20
196.5480347991421
 30
0.0
 10
228.2161315761705
 20
196.5457252483442
 30
0.0
 10
228.2740752925828
 20
196.5439961452684
 30
0.0
 10
228.2952516891253
 20
196.5437267207781
 30
0.0
 10
228.29669722751
 20
196.5437083293846
 30
0.0
  0
LINE
  5
BC
330
1F
100
AcDbEntity
  8
0
  6
Continuous
 62
     7
370
    15
100
AcDbLine
 10
228.2966972275
 20
196.5437083294
 30
0.0
 11
228.4274844865
 21
196.5437083294
 31
0.0
  0
SPLINE
  5
BD
330
1F
100
AcDbEntity
  8
0
  6
Continuous
 62
     7
370
    15
100
AcDbSpline
210
0.0
220
0.0
230
1.0
 70
     8
 71
     3
 72
    14
 73
    10
 74
     0
 42
0.00000001
 43
0.00000001
 40
0.0
 40
0.0
 40
0.0
 40
0.0
 40
0.0389888297545506
 40
0.1801826628173613
 40
0.3386749432783412
 40
0.4973702710768518
 40
0.6797601461496053
 40
0.8621718426798699
 40
0.9999999999999999
 40
0.9999999999999999
 40
0.9999999999999999
 40
0.9999999999999999
 10
228.4274844864778
 20
196.5437083293846
 30
0.0
 10
228.4564530700463
 20
196.5439595835813
 30
0.0
 10
228.5903282480979
 20
196.5451207276956
 30
0.0
 10
228.8457073824943
 20
196.5490474555422
 30
0.0
 10
229.1691388233055
 20
196.5550456407249
 30
0.0
 10
229.5016532255761
 20
196.5626727444903
 30
0.0
 10
229.8207386964718
 20
196.5715732042314
 30
0.0
 10
230.0951868005223
 20
196.5808823019182
 30
0.0
 10
230.2416848938335
 20
196.5871984295695
 30
0.0
 10
230.3047362661384
 20
196.5899168302468
 30
0.0
  0
SPLINE
  5
BE
330
1F
100
AcDbEntity
  8
0
  6
Continuous
 62
     7
370
    15
100
AcDbSpline
210
0.0
220
0.0
230
1.0
 70
     8
 71
     3
 72
    10
 73
     6
 74
     0
 42
0.00000001
 43
0.00000001
 40
0.0
 40
0.0
 40
0.0
 40
0.0
 40
0.1773177035945806
 40
0.4439775213636403
 40
1.0
 40
1.0
 40
1.0
 40
1.0
 10
230.3047362661384
 20
196.5899168302468
 30
0.0
 10
230.6850926219114
 20
196.6088106551095
 30
0.0
 10
231.6374491472198
 20
196.6561180212753
 30
0.0
 10
233.7910584902406
 20
196.8023706870213
 30
0.0
 10
235.5792350651366
 20
196.9952029613847
 30
0.0
 10
236.7878016962133
 20
197.125531618779
 30
0.0
  0
SPLINE
  5
BF
330
1F
100
AcDbEntity
  8
0
  6
Continuous
 62
     7
370
    15
100
AcDbSpline
210
0.0
220
0.0
230
1.0
 70
     8
 71
     3
 72
    11
 73
     7
 74
     0
 42
0.00000001
 43
0.00000001
 40
0.0
 40
0.0
 40
0.0
 40
0.0
 40
0.2699646211144841
 40
0.5471765614134196
 40
0.8269451014680016
 40
1.0
 40
1.0
 40
1.0
 40
1.0
 10
236.7878016962133
 20
197.125531618779
 30
0.0
 10
236.8740720729084
 20
197.1365635602717
 30
0.0
 10
237.0489287925668
 20
197.1589236005866
 30
0.0
 10
237.2239969932417
 20
197.1925290394572
 30
0.0
 10
237.3296841974635
 20
197.2216129130223
 30
0.0
 10
237.3319792668954
 20
197.2377611653772
 30
0.0
 10
237.3328563703619
 20
197.243932520335
 30
0.0
  0
LINE
  5
C0
330
1F
100
AcDbEntity
  8
0
  6
Continuous
 62
     7
370
    15
100
AcDbLine
 10
202.8025538607
 20
179.2986317326
 30
0.0
 11
246.8554452939
 21
179.2986317326
 31
0.0
  0
LINE
  5
C1
330
1F
100
AcDbEntity
  8
0
  6
Continuous
 62
     7
370
    15
100
AcDbLine
 10
247.8995435818
 20
179.0044641842
 30
0.0
 11
201.7584555729
 21
179.0044641842
 31
0.0
  0
LWPOLYLINE
  5
C2
330
1F
100
AcDbEntity
  8
0
  6
Continuous
 62
     7
370
    15
100
AcDbPolyline
 90
       15
 70
   128
 43
0.0
 10
221.2305146682
 20
196.5437083294
 10
221.1622401087
 20
196.5941003313
 10
221.1162690951
 20
196.6741046657
 10
221.0999222884
 20
196.7709771146
 10
221.1158034338
 20
196.8692912509
 10
221.1613832919
 20
196.9533896794
 10
221.2294029018
 20
197.0098837068
 10
221.3090298178
 20
197.0297693064
 10
221.3875831517
 20
197.0098837068
 10
221.452552913
 20
196.9533896794
 10
221.4935918751
 20
196.8692912509
 10
221.5041649474
 20
196.7709771146
 10
221.482588066
 20
196.6741046657
 10
221.4322973455
 20
196.5941003313
 10
221.3613019271
 20
196.5437083294
  0
LWPOLYLINE
  5
C3
330
1F
100
AcDbEntity
  8
0
  6
Continuous
 62
     7
370
    15
100
AcDbPolyline
 90
       15
 70
   128
 43
0.0
 10
228.2966972275
 20
196.5437083294
 10
228.2257018092
 20
196.5941003313
 10
228.1754110886
 20
196.6741046657
 10
228.1538342072
 20
196.7709771146
 10
228.1644072796
 20
196.8692912509
 10
228.2054462416
 20
196.9533896794
 10
228.2704160029
 20
197.0098837068
 10
228.3489693368
 20
197.0297693064
 10
228.4285962528
 20
197.0098837068
 10
228.4966158627
 20
196.9533896794
 10
228.5421957208
 20
196.8692912509
 10
228.5580768662
 20
196.7709771146
 10
228.5417300595
 20
196.6741046657
 10
228.4957590459
 20
196.5941003313
 10
228.4274844865
 20
196.5437083294
  0
LINE
  5
C4
330
1F
100
AcDbEntity
  8
0
  6
Continuous
 62
     7
370
    15
100
AcDbLine
 10
192.3290007694
 20
161.0044632129
 30
0.0
 11
192.3290007694
 21
162.0044632604
 31
0.0
  0
LINE
  5
C5
330
1F
100
AcDbEntity
  8
0
  6
Continuous
 62
     7
370
    15
100
AcDbLine
 10
257.3289983852
 20
162.0044632604
 30
0.0
 11
257.3289983852
 21
161.0044632129
 31
0.0
  0
LINE
  5
C6
330
1F
100
AcDbEntity
  8
0
  6
Continuous
 62
     7
370
    15
100
AcDbLine
 10
192.3290007694
 20
197.0044634094
 30
0.0
 11
192.3290007694
 21
198.0044617106
 31
0.0
  0
LINE
  5
C7
330
1F
100
AcDbEntity
  8
0
  6
Continuous
 62
     7
370
    15
100
AcDbLine
 10
257.3289983852
 20
198.0044617106
 30
0.0
 11
257.3289983852
 21
197.0044634094
 31
0.0
  0
LINE
  5
C8
330
1F
100
AcDbEntity
  8
0
  6
Continuous
 62
     7
370
    15
100
AcDbLine
 10
193.829000084
 20
162.0044632604
 30
0.0
 11
193.829000084
 21
197.0044634094
 31
0.0
  0
LINE
  5
C9
330
1F
100
AcDbEntity
  8
0
  6
Continuous
 62
     7
370
    15
100
AcDbLine
 10
255.8289990707
 20
197.0044634094
 30
0.0
 11
255.8289990707
 21
162.0044632604
 31
0.0
  0
ARC
  5
CA
330
1F
100
AcDbEntity
  8
0
  6
Continuous
 62
     7
370
    15
100
AcDbCircle
 10
194.3289995773
 20
197.5044632604
 30
0.0
 40
0.5
100
AcDbArc
 50
0.0
 51
90.0
  0
ARC
  5
CB
330
1F
100
AcDbEntity
  8
0
  6
Continuous
 62
     7
370
    15
100
AcDbCircle
 10
255.3289995773
 20
197.5044632604
 30
0.0
 40
0.5
100
AcDbArc
 50
90.0
 51
180.0
  0
LINE
  5
CC
330
1F
100
AcDbEntity
  8
0
  6
Continuous
 62
     7
370
    15
100
AcDbLine
 10
237.1054637192
 20
161.0044632129
 30
0.0
 11
237.1054637192
 21
162.0044632604
 31
0.0
  0
LINE
  5
CD
330
1F
100
AcDbEntity
  8
0
  6
Continuous
 62
     7
370
    15
100
AcDbLine
 10
236.1706412344
 20
162.0044632604
 30
0.0
 11
236.1706412344
 21
161.0044632129
 31
0.0
  0
LINE
  5
CE
330
1F
100
AcDbEntity
  8
0
  6
Continuous
 62
     7
370
    15
100
AcDbLine
 10
194.8290002479
 20
197.5044644226
 30
0.0
 11
194.8290002479
 21
162.0044632604
 31
0.0
  0
LINE
  5
CF
330
1F
100
AcDbEntity
  8
0
  6
Continuous
 62
     7
370
    15
100
AcDbLine
 10
254.8289989068
 20
162.0044632604
 30
0.0
 11
254.8289989068
 21
197.5044644226
 31
0.0
  0
LINE
  5
D0
330
1F
100
AcDbEntity
  8
0
  6
Continuous
 62
     7
370
    15
100
AcDbLine
 10
237.1054637192
 20
161.0044632129
 30
0.0
 11
236.1706412344
 21
161.0044632129
 31
0.0
  0
LINE
  5
D1
330
1F
100
AcDbEntity
  8
0
  6
Continuous
 62
     7
370
    15
100
AcDbLine
 10
194.8290002479
 20
162.0044632604
 30
0.0
 11
195.8290004118
 21
162.0044632604
 31
0.0
  0
LINE
  5
D2
330
1F
100
AcDbEntity
  8
0
  6
Continuous
 62
     7
370
    15
100
AcDbLine
 10
195.8290004118
 20
162.0044632604
 30
0.0
 11
195.8290004118
 21
161.0044632129
 31
0.0
  0
LINE
  5
D3
330
1F
100
AcDbEntity
  8
0
  6
Continuous
 62
     7
370
    15
100
AcDbLine
 10
193.829000084
 20
197.0044634094
 30
0.0
 11
192.3290007694
 21
197.0044634094
 31
0.0
  0
LINE
  5
D4
330
1F
100
AcDbEntity
  8
0
  6
Continuous
 62
     7
370
    15
100
AcDbLine
 10
192.3290007694
 20
198.0044617106
 30
0.0
 11
194.3289992346
 21
198.0044617106
 31
0.0
  0
LINE
  5
D5
330
1F
100
AcDbEntity
  8
0
  6
Continuous
 62
     7
370
    15
100
AcDbLine
 10
192.3290007694
 20
162.0044632604
 30
0.0
 11
193.829000084
 21
162.0044632604
 31
0.0
  0
LINE
  5
D6
330
1F
100
AcDbEntity
  8
0
  6
Continuous
 62
     7
370
    15
100
AcDbLine
 10
195.8290004118
 20
161.0044632129
 30
0.0
 11
192.3290007694
 21
161.0044632129
 31
0.0
  0
LINE
  5
D7
330
1F
100
AcDbEntity
  8
0
  6
Continuous
 62
     7
370
    15
100
AcDbLine
 10
253.8289987429
 20
162.0044632604
 30
0.0
 11
254.8289989068
 21
162.0044632604
 31
0.0
  0
LINE
  5
D8
330
1F
100
AcDbEntity
  8
0
  6
Continuous
 62
     7
370
    15
100
AcDbLine
 10
253.8289987429
 20
161.0044632129
 30
0.0
 11
253.8289987429
 21
162.0044632604
 31
0.0
  0
LINE
  5
D9
330
1F
100
AcDbEntity
  8
0
  6
Continuous
 62
     7
370
    15
100
AcDbLine
 10
257.3289983852
 20
197.0044634094
 30
0.0
 11
255.8289990707
 21
197.0044634094
 31
0.0
  0
LINE
  5
DA
330
1F
100
AcDbEntity
  8
0
  6
Continuous
 62
     7
370
    15
100
AcDbLine
 10
255.32899992
 20
198.0044617106
 30
0.0
 11
257.3289983852
 21
198.0044617106
 31
0.0
  0
LINE
  5
DB
330
1F
100
AcDbEntity
  8
0
  6
Continuous
 62
     7
370
    15
100
AcDbLine
 10
255.8289990707
 20
162.0044632604
 30
0.0
 11
257.3289983852
 21
162.0044632604
 31
0.0
  0
LINE
  5
DC
330
1F
100
AcDbEntity
  8
0
  6
Continuous
 62
     7
370
    15
100
AcDbLine
 10
257.3289983852
 20
161.0044632129
 30
0.0
 11
253.8289987429
 21
161.0044632129
 31
0.0
  0
LINE
  5
DD
330
1F
100
AcDbEntity
  8
0
  6
Continuous
 62
     7
370
    15
100
AcDbLine
 10
197.6249218865
 20
161.0044632129
 30
0.0
 11
197.6249218865
 21
162.0044632604
 31
0.0
  0
LINE
  5
DE
330
1F
100
AcDbEntity
  8
0
  6
Continuous
 62
     7
370
    15
100
AcDbLine
 10
195.8290004118
 20
162.0044632604
 30
0.0
 11
197.6249218865
 21
162.0044632604
 31
0.0
  0
LINE
  5
DF
330
1F
100
AcDbEntity
  8
0
  6
Continuous
 62
     7
370
    15
100
AcDbLine
 10
195.8290004118
 20
161.0044632129
 30
0.0
 11
197.6249218865
 21
161.0044632129
 31
0.0
  0
LINE
  5
E0
330
1F
100
AcDbEntity
  8
0
  6
Continuous
 62
     7
370
    15
100
AcDbLine
 10
237.5867824017
 20
162.0044632604
 30
0.0
 11
237.5867824017
 21
161.0044632129
 31
0.0
  0
LINE
  5
E1
330
1F
100
AcDbEntity
  8
0
  6
Continuous
 62
     7
370
    15
100
AcDbLine
 10
237.5867824017
 20
162.0044632604
 30
0.0
 11
253.8289987429
 21
162.0044632604
 31
0.0
  0
LINE
  5
E2
330
1F
100
AcDbEntity
  8
0
  6
Continuous
 62
     7
370
    15
100
AcDbLine
 10
237.5867824017
 20
161.0044632129
 30
0.0
 11
253.8289987429
 21
161.0044632129
 31
0.0
  0
LINE
  5
E3
330
1F
100
AcDbEntity
  8
0
  6
Continuous
 62
     7
370
    15
100
AcDbLine
 10
198.7859775259
 20
162.0044632604
 30
0.0
 11
198.7859775259
 21
161.0044632129
 31
0.0
  0
LINE
  5
E4
330
1F
100
AcDbEntity
  8
0
  6
Continuous
 62
     7
370
    15
100
AcDbLine
 10
234.8757955192
 20
161.0044632129
 30
0.0
 11
234.8757955192
 21
162.0044632604
 31
0.0
  0
LINE
  5
E5
330
1F
100
AcDbEntity
  8
0
  6
Continuous
 62
     7
370
    15
100
AcDbLine
 10
198.7859775259
 20
162.0044632604
 30
0.0
 11
234.8757955192
 21
162.0044632604
 31
0.0
  0
LINE
  5
E6
330
1F
100
AcDbEntity
  8
0
  6
Continuous
 62
     7
370
    15
100
AcDbLine
 10
198.7859775259
 20
161.0044632129
 30
0.0
 11
234.8757955192
 21
161.0044632129
 31
0.0
  0
LINE
  5
E7
330
1F
100
AcDbEntity
  8
0
  6
Continuous
 62
     7
370
    15
100
AcDbLine
 10
197.6249218865
 20
162.0044632604
 30
0.0
 11
197.6558846368
 21
162.0044632604
 31
0.0
  0
LINE
  5
E8
330
1F
100
AcDbEntity
  8
0
  6
Continuous
 62
     7
370
    15
100
AcDbLine
 10
197.6558846368
 20
161.0044632129
 30
0.0
 11
197.6249218865
 21
161.0044632129
 31
0.0
  0
LINE
  5
E9
330
1F
100
AcDbEntity
  8
0
  6
Continuous
 62
     7
370
    15
100
AcDbLine
 10
198.1089302285
 20
162.0044632604
 30
0.0
 11
198.1089302285
 21
161.0044632129
 31
0.0
  0
LINE
  5
EA
330
1F
100
AcDbEntity
  8
0
  6
Continuous
 62
     7
370
    15
100
AcDbLine
 10
197.6558846368
 20
162.0044632604
 30
0.0
 11
198.1089302285
 21
162.0044632604
 31
0.0
  0
LINE
  5
EB
330
1F
100
AcDbEntity
  8
0
  6
Continuous
 62
     7
370
    15
100
AcDbLine
 10
198.1089302285
 20
161.0044632129
 30
0.0
 11
197.6558846368
 21
161.0044632129
 31
0.0
  0
LINE
  5
EC
330
1F
100
AcDbEntity
  8
0
  6
Continuous
 62
     7
370
    15
100
AcDbLine
 10
198.1401146336
 20
161.0044632129
 30
0.0
 11
198.1401146336
 21
162.0044632604
 31
0.0
  0
LINE
  5
ED
330
1F
100
AcDbEntity
  8
0
  6
Continuous
 62
     7
370
    15
100
AcDbLine
 10
198.1401146336
 20
162.0044632604
 30
0.0
 11
198.7859775259
 21
162.0044632604
 31
0.0
  0
LINE
  5
EE
330
1F
100
AcDbEntity
  8
0
  6
Continuous
 62
     7
370
    15
100
AcDbLine
 10
198.7859775259
 20
161.0044632129
 30
0.0
 11
198.1401146336
 21
161.0044632129
 31
0.0
  0
LINE
  5
EF
330
1F
100
AcDbEntity
  8
0
  6
Continuous
 62
     7
370
    15
100
AcDbLine
 10
198.1401146336
 20
162.0044632604
 30
0.0
 11
198.1089302285
 21
162.0044632604
 31
0.0
  0
LINE
  5
F0
330
1F
100
AcDbEntity
  8
0
  6
Continuous
 62
     7
370
    15
100
AcDbLine
 10
198.1401146336
 20
161.0044632129
 30
0.0
 11
198.1089302285
 21
161.0044632129
 31
0.0
  0
LINE
  5
F1
330
1F
100
AcDbEntity
  8
0
  6
Continuous
 62
     7
370
    15
100
AcDbLine
 10
237.306743948
 20
162.0044632604
 30
0.0
 11
237.5867824017
 21
162.0044632604
 31
0.0
  0
LINE
  5
F2
330
1F
100
AcDbEntity
  8
0
  6
Continuous
 62
     7
370
    15
100
AcDbLine
 10
237.5867824017
 20
161.0044632129
 30
0.0
 11
237.306743948
 21
161.0044632129
 31
0.0
  0
LINE
  5
F3
330
1F
100
AcDbEntity
  8
0
  6
Continuous
 62
     7
370
    15
100
AcDbLine
 10
237.1054637192
 20
162.0044632604
 30
0.0
 11
237.306743948
 21
162.0044632604
 31
0.0
  0
LINE
  5
F4
330
1F
100
AcDbEntity
  8
0
  6
Continuous
 62
     7
370
    15
100
AcDbLine
 10
237.306743948
 20
161.0044632129
 30
0.0
 11
237.1054637192
 21
161.0044632129
 31
0.0
  0
LINE
  5
F5
330
1F
100
AcDbEntity
  8
0
  6
Continuous
 62
     7
370
    15
100
AcDbLine
 10
235.5086375906
 20
162.0044632604
 30
0.0
 11
235.5086375906
 21
161.0044632129
 31
0.0
  0
LINE
  5
F6
330
1F
100
AcDbEntity
  8
0
  6
Continuous
 62
     7
370
    15
100
AcDbLine
 10
234.8757955192
 20
162.0044632604
 30
0.0
 11
235.5086375906
 21
162.0044632604
 31
0.0
  0
LINE
  5
F7
330
1F
100
AcDbEntity
  8
0
  6
Continuous
 62
     7
370
    15
100
AcDbLine
 10
235.5086375906
 20
161.0044632129
 30
0.0
 11
234.8757955192
 21
161.0044632129
 31
0.0
  0
LINE
  5
F8
330
1F
100
AcDbEntity
  8
0
  6
Continuous
 62
     7
370
    15
100
AcDbLine
 10
235.5219927563
 20
161.0044632129
 30
0.0
 11
235.5219927563
 21
162.0044632604
 31
0.0
  0
LINE
  5
F9
330
1F
100
AcDbEntity
  8
0
  6
Continuous
 62
     7
370
    15
100
AcDbLine
 10
235.5219927563
 20
162.0044632604
 30
0.0
 11
236.1706412344
 21
162.0044632604
 31
0.0
  0
LINE
  5
FA
330
1F
100
AcDbEntity
  8
0
  6
Continuous
 62
     7
370
    15
100
AcDbLine
 10
236.1706412344
 20
161.0044632129
 30
0.0
 11
235.5219927563
 21
161.0044632129
 31
0.0
  0
LINE
  5
FB
330
1F
100
AcDbEntity
  8
0
  6
Continuous
 62
     7
370
    15
100
AcDbLine
 10
235.5219927563
 20
162.0044632604
 30
0.0
 11
235.5086375906
 21
162.0044632604
 31
0.0
  0
LINE
  5
FC
330
1F
100
AcDbEntity
  8
0
  6
Continuous
 62
     7
370
    15
100
AcDbLine
 10
235.5219927563
 20
161.0044632129
 30
0.0
 11
235.5086375906
 21
161.0044632129
 31
0.0
  0
LINE
  5
FD
330
1F
100
AcDbEntity
  8
0
  6
Continuous
 62
     7
370
    15
100
AcDbLine
 10
191.8289997561
 20
162.0044632604
 30
0.0
 11
191.8289997561
 21
197.0044634094
 31
0.0
  0
LINE
  5
FE
330
1F
100
AcDbEntity
  8
0
  6
Continuous
 62
     7
370
    15
100
AcDbLine
 10
193.3289990707
 20
197.0044634094
 30
0.0
 11
191.8289997561
 21
197.0044634094
 31
0.0
  0
ARC
  5
FF
330
1F
100
AcDbEntity
  8
0
  6
Continuous
 62
     7
370
    15
100
AcDbCircle
 10
193.3289995773
 20
196.5044632604
 30
0.0
 40
0.5
100
AcDbArc
 50
0.0
 51
90.0
  0
LINE
  5
100
330
1F
100
AcDbEntity
  8
0
  6
Continuous
 62
     7
370
    15
100
AcDbLine
 10
193.829000084
 20
162.5044632841
 30
0.0
 11
193.829000084
 21
196.5044623961
 31
0.0
  0
ARC
  5
101
330
1F
100
AcDbEntity
  8
0
  6
Continuous
 62
     7
370
    15
100
AcDbCircle
 10
193.3289995773
 20
162.5044632604
 30
0.0
 40
0.5
100
AcDbArc
 50
270.0
 51
0.0
  0
LINE
  5
102
330
1F
100
AcDbEntity
  8
0
  6
Continuous
 62
     7
370
    15
100
AcDbLine
 10
193.3289990707
 20
162.0044632604
 30
0.0
 11
191.8289997561
 21
162.0044632604
 31
0.0
  0
LINE
  5
103
330
1F
100
AcDbEntity
  8
0
  6
Continuous
 62
     7
370
    15
100
AcDbLine
 10
257.8289993985
 20
197.0044634094
 30
0.0
 11
257.8289993985
 21
162.0044632604
 31
0.0
  0
ARC
  5
104
330
1F
100
AcDbEntity
  8
0
  6
Continuous
 62
     7
370
    15
100
AcDbCircle
 10
256.3289995773
 20
162.5044632604
 30
0.0
 40
0.5
100
AcDbArc
 50
180.0
 51
270.0
  0
ARC
  5
105
330
1F
100
AcDbEntity
  8
0
  6
Continuous
 62
     7
370
    15
100
AcDbCircle
 10
256.3289995773
 20
196.5044632604
 30
0.0
 40
0.5
100
AcDbArc
 50
90.0
 51
180.0
  0
LINE
  5
106
330
1F
100
AcDbEntity
  8
0
  6
Continuous
 62
     7
370
    15
100
AcDbLine
 10
255.8289990707
 20
196.5044623961
 30
0.0
 11
255.8289990707
 21
162.5044632841
 31
0.0
  0
LINE
  5
107
330
1F
100
AcDbEntity
  8
0
  6
Continuous
 62
     7
370
    15
100
AcDbLine
 10
257.8289993985
 20
197.0044634094
 30
0.0
 11
256.329000084
 21
197.0044634094
 31
0.0
  0
LINE
  5
108
330
1F
100
AcDbEntity
  8
0
  6
Continuous
 62
     7
370
    15
100
AcDbLine
 10
257.8289993985
 20
162.0044632604
 30
0.0
 11
256.329000084
 21
162.0044632604
 31
0.0
  0
LINE
  5
109
330
1F
100
AcDbEntity
  8
0
  6
Continuous
 62
     8
370
    15
100
AcDbLine
 10
250.4860163613
 20
197.6828387727
 30
0.0
 11
237.3341136558
 21
197.6828387727
 31
0.0
  0
LINE
  5
10A
330
1F
100
AcDbEntity
  8
0
  6
Continuous
 62
     8
370
    15
100
AcDbLine
 10
228.8085772602
 20
197.6828387727
 30
0.0
 11
220.8567015773
 21
197.6828387727
 31
0.0
  0
LINE
  5
10B
330
1F
100
AcDbEntity
  8
0
  6
Continuous
 62
     8
370
    15
100
AcDbLine
 10
212.3257574572
 20
197.6828387727
 30
0.0
 11
199.1719827934
 21
197.6828387727
 31
0.0
  0
ARC
  5
10C
330
1F
100
AcDbEntity
  8
0
  6
Continuous
 62
     8
370
    15
100
AcDbCircle
 10
220.2846121953
 20
196.8915263352
 30
0.0
 40
0.9789687557809771
100
AcDbArc
 50
94.0696152553
 51
197.9441024296
  0
ARC
  5
10D
330
1F
100
AcDbEntity
  8
0
  6
Continuous
 62
     8
370
    15
100
AcDbCircle
 10
229.3618361327
 20
196.8837489499
 30
0.0
 40
0.9876223853960817
100
AcDbArc
 50
342.6916122951
 51
85.2885342038
  0
ARC
  5
10E
330
1F
100
AcDbEntity
  8
0
  6
Continuous
 62
     8
370
    15
100
AcDbCircle
 10
235.8513255673
 20
197.4005550028
 30
0.0
 40
0.976025307997265
100
AcDbArc
 50
343.6335934171
 51
85.9544634525
  0
LWPOLYLINE
  5
10F
330
1F
100
AcDbEntity
  8
0
  6
Continuous
 62
     8
370
    15
100
AcDbPolyline
 90
       10
 70
   128
 43
0.0
 10
212.8701974584
 20
197.1255316188
 10
212.850468321
 20
197.3507365932
 10
212.8727027161
 20
197.5773124744
 10
212.9357467352
 20
197.7935134222
 10
213.0363332985
 20
197.988130038
 10
213.1692479311
 20
198.1510779609
 10
213.3275988458
 20
198.2739007821
 10
213.5031782968
 20
198.3502394308
 10
213.686882606
 20
198.3761339237
 10
213.7378157063
 20
198.374148344
  0
LINE
  5
110
330
1F
100
AcDbEntity
  8
0
  6
Continuous
 62
     8
370
    15
100
AcDbLine
 10
254.8289989068
 20
197.5044644226
 30
0.0
 11
254.5790002628
 21
197.5044644226
 31
0.0
  0
LINE
  5
111
330
1F
100
AcDbEntity
  8
0
  6
Continuous
 62
     8
370
    15
100
AcDbLine
 10
195.0789988919
 20
197.5044644226
 30
0.0
 11
194.8290002479
 21
197.5044644226
 31
0.0
  0
HATCH
  5
112
330
1F
100
AcDbEntity
  8
0
  6
Continuous
 62
     7
370
     0
100
AcDbHatch
 10
0.0
 20
0.0
 30
0.0
210
0.0
220
0.0
230
1.0
  2
ANSI33
 70
     0
 71
     0
 91
        1
 92
        0
 93
        6
 72
     1
 10
256.3289995773159
 20
162.0044632603577
 11
257.8289995773159
 21
162.0044632603577
 72
     1
 10
257.8289995773159
 20
162.0044632603577
 11
257.8289995773159
 21
197.0044632603577
 72
     1
 10
257.8289995773159
 20
197.0044632603577
 11
256.3289995773159
 21
197.0044632603577
 72
     2
 10
256.3289995773159
 20
196.5044632603577
 40
0.5
 50
90.0
 51
180.0
 73
     1
 72
     1
 10
255.8289995773159
 20
196.5044632603577
 11
255.8289995773159
 21
162.5044632603577
 72
     2
 10
256.3289995773159
 20
162.5044632603577
 40
0.5
 50
180.0
 51
270.0000000000008
 73
     1
 97
        0
 75
     0
 76
     1
 52
0.0
 41
1.0
 77
     0
 78
     2
 53
45.0
 43
0.0
 44
0.0
 45
-4.490128060534576
 46
4.490128060534577
 79
     0
 53
45.0
 43
4.49013
 44
0.0
 45
-4.490128060534576
 46
4.490128060534577
 79
     2
 49
3.175
 49
-1.5875
 98
        1
 10
0.0
 20
0.0
  0
HATCH
  5
113
330
1F
100
AcDbEntity
  8
0
  6
Continuous
 62
     7
370
     0
100
AcDbHatch
 10
0.0
 20
0.0
 30
0.0
210
0.0
220
0.0
230
1.0
  2
ANSI33
 70
     0
 71
     0
 91
        1
 92
        0
 93
        6
 72
     1
 10
191.8289995773159
 20
162.0044632603577
 11
193.3289995773159
 21
162.0044632603577
 72
     2
 10
193.3289995773159
 20
162.5044632603577
 40
0.5
 50
270.0000000000008
 51
360.0000000000008
 73
     1
 72
     1
 10
193.8289995773159
 20
162.5044632603577
 11
193.8289995773159
 21
196.5044632603577
 72
     2
 10
193.3289995773159
 20
196.5044632603577
 40
0.5
 50
0.0
 51
90.0
 73
     1
 72
     1
 10
193.3289995773159
 20
197.0044632603577
 11
191.8289995773159
 21
197.0044632603577
 72
     1
 10
191.8289995773159
 20
197.0044632603577
 11
191.8289995773159
 21
162.0044632603577
 97
        0
 75
     0
 76
     1
 52
0.0
 41
1.0
 77
     0
 78
     2
 53
45.0
 43
0.0
 44
0.0
 45
-4.490128060534576
 46
4.490128060534577
 79
     0
 53
45.0
 43
4.49013
 44
0.0
 45
-4.490128060534576
 46
4.490128060534577
 79
     2
 49
3.175
 49
-1.5875
 98
        1
 10
0.0
 20
0.0
  0
HATCH
  5
114
330
1F
100
AcDbEntity
  8
0
  6
Continuous
 62
     7
370
     0
100
AcDbHatch
 10
0.0
 20
0.0
 30
0.0
210
0.0
220
0.0
230
1.0
  2
ANSI34
 70
     0
 71
     0
 91
        1
 92
        0
 93
       11
 72
     1
 10
253.8289995773159
 20
162.0044632603577
 11
253.8289995773159
 21
161.0044632603577
 72
     1
 10
253.8289995773159
 20
161.0044632603577
 11
257.3289995773159
 21
161.0044632603577
 72
     1
 10
257.3289995773159
 20
161.0044632603577
 11
257.3289995773159
 21
162.0044632603577
 72
     1
 10
257.3289995773159
 20
162.0044632603577
 11
255.8289995773159
 21
162.0044632603577
 72
     1
 10
255.8289995773159
 20
162.0044632603577
 11
255.8289995773159
 21
197.0044632603577
 72
     1
 10
255.8289995773159
 20
197.0044632603577
 11
257.3289995773159
 21
197.0044632603577
 72
     1
 10
257.3289995773159
 20
197.0044632603577
 11
257.3289995773159
 21
198.0044632603577
 72
     1
 10
257.3289995773159
 20
198.0044632603577
 11
255.3289995773159
 21
198.0044632603577
 72
     2
 10
255.3289995773159
 20
197.5044632603577
 40
0.5
 50
90.0
 51
180.0
 73
     1
 72
     1
 10
254.8289995773159
 20
197.5044632603577
 11
254.8289995773159
 21
162.0044632603577
 72
     1
 10
254.8289995773159
 20
162.0044632603577
 11
253.8289995773159
 21
162.0044632603577
 97
        0
 75
     0
 76
     1
 52
0.0
 41
1.0
 77
     0
 78
     4
 53
45.0
 43
0.0
 44
0.0
 45
-13.47038418160373
 46
13.47038418160373
 79
     0
 53
45.0
 43
4.49013
 44
0.0
 45
-13.47038418160373
 46
13.47038418160373
 79
     0
 53
45.0
 43
8.98026
 44
0.0
 45
-13.47038418160373
 46
13.47038418160373
 79
     0
 53
45.0
 43
13.4704
 44
0.0
 45
-13.47038418160373
 46
13.47038418160373
 79
     0
 98
        1
 10
0.0
 20
0.0
  0
HATCH
  5
115
330
1F
100
AcDbEntity
  8
0
  6
Continuous
 62
     7
370
     0
100
AcDbHatch
 10
0.0
 20
0.0
 30
0.0
210
0.0
220
0.0
230
1.0
  2
ANSI34
 70
     0
 71
     0
 91
        1
 92
        0
 93
       11
 72
     1
 10
195.8289995773159
 20
161.0044632603577
 11
195.8289995773159
 21
162.0044632603577
 72
     1
 10
195.8289995773159
 20
162.0044632603577
 11
194.8289995773159
 21
162.0044632603577
 72
     1
 10
194.8289995773159
 20
162.0044632603577
 11
194.8289995773159
 21
197.5044632603577
 72
     2
 10
194.3289995773159
 20
197.5044632603577
 40
0.5
 50
0.0
 51
90.0
 73
     1
 72
     1
 10
194.3289995773159
 20
198.0044632603577
 11
192.3289995773159
 21
198.0044632603577
 72
     1
 10
192.3289995773159
 20
198.0044632603577
 11
192.3289995773159
 21
197.0044632603577
 72
     1
 10
192.3289995773159
 20
197.0044632603577
 11
193.8289995773159
 21
197.0044632603577
 72
     1
 10
193.8289995773159
 20
197.0044632603577
 11
193.8289995773159
 21
162.0044632603577
 72
     1
 10
193.8289995773159
 20
162.0044632603577
 11
192.3289995773159
 21
162.0044632603577
 72
     1
 10
192.3289995773159
 20
162.0044632603577
 11
192.3289995773159
 21
161.0044632603577
 72
     1
 10
192.3289995773159
 20
161.0044632603577
 11
195.8289995773159
 21
161.0044632603577
 97
        0
 75
     0
 76
     1
 52
0.0
 41
1.0
 77
     0
 78
     4
 53
45.0
 43
0.0
 44
0.0
 45
-13.47038418160373
 46
13.47038418160373
 79
     0
 53
45.0
 43
4.49013
 44
0.0
 45
-13.47038418160373
 46
13.47038418160373
 79
     0
 53
45.0
 43
8.98026
 44
0.0
 45
-13.47038418160373
 46
13.47038418160373
 79
     0
 53
45.0
 43
13.4704
 44
0.0
 45
-13.47038418160373
 46
13.47038418160373
 79
     0
 98
        1
 10
0.0
 20
0.0
  0
HATCH
  5
116
330
1F
100
AcDbEntity
  8
0
  6
Continuous
 62
     7
370
     0
100
AcDbHatch
 10
0.0
 20
0.0
 30
0.0
210
0.0
220
0.0
230
1.0
  2
ANSI35
 70
     0
 71
     0
 91
        1
 92
        0
 93
       38
 72
     2
 10
201.7584555871972
 20
181.0044632603577
 40
2.0
 50
270.0000000000008
 51
301.4697857990432
 73
     1
 72
     2
 10
224.8289995773159
 20
143.31215556805
 40
42.19230769230769
 50
238.5302142009581
 51
301.4697857990435
 73
     0
 72
     2
 10
247.8995435674345
 20
181.0044632603577
 40
2.0
 50
238.5302142009584
 51
270.0000000000008
 73
     1
 72
     1
 10
247.8995435674345
 20
179.0044632603577
 11
251.5634351402412
 21
179.0044632603577
 72
     2
 10
251.5634351402412
 20
181.0044632603577
 40
2.0
 50
270.0000000000008
 51
352.8749836510987
 73
     1
 72
     1
 10
253.5479908936686
 20
180.7563937911792
 11
254.5789995773159
 21
189.0044632603577
 72
     1
 10
254.5789995773159
 20
189.0044632603577
 11
254.5789995773159
 21
198.0044632603577
 72
     1
 10
254.5789995773159
 20
198.0044632603577
 11
261.9060960971971
 21
198.0044632603577
 72
     2
 10
261.9060960971971
 20
214.5044632603577
 40
16.5
 50
270.0000000000008
 51
340.0000000000008
 73
     1
 72
     1
 10
277.4110243401645
 20
208.8611308954841
 11
279.3405441913597
 21
214.162443117032
 72
     2
 10
278.4008515705738
 20
214.5044632603577
 40
1.0
 50
340.0000000000028
 51
450.0000000000008
 73
     1
 72
     1
 10
278.4008515705738
 20
215.5044632603577
 11
275.740407139384
 21
215.5044632603577
 72
     2
 10
275.740407139384
 20
214.5044632603577
 40
1.0
 50
90.0
 51
159.9999999999989
 73
     1
 72
     1
 10
274.8007145185981
 20
214.8464834036834
 11
273.182407546628
 21
210.4002215404496
 72
     2
 10
261.9060960971971
 20
214.5044632603577
 40
12.00000000000001
 50
20.0
 51
90.0
 73
     0
 72
     1
 10
261.9060960971971
 20
202.5044632603577
 11
252.9180992084931
 21
202.5044632603577
 72
     2
 10
252.9180992084931
 20
201.5044632603577
 40
0.9999999999999983
 50
90.0
 51
169.9999999999995
 73
     1
 72
     1
 10
251.9332914554809
 20
201.6781114380246
 11
251.373691654482
 21
198.5044632603577
 72
     2
 10
250.3888839014698
 20
198.6781114380246
 40
1.000000000000006
 50
9.999999999999929
 51
84.42589173577721
 73
     0
 72
     2
 10
226.2027294292033
 20
446.500688964455
 40
250.0
 50
84.42589173579987
 51
89.85595714322706
 73
     0
 72
     2
 10
224.8289995773159
 20
195.0044632603577
 40
2.5
 50
36.78445270619163
 51
143.2155472938084
 73
     1
 72
     2
 10
223.4552697254284
 20
446.500688964455
 40
250.0
 50
90.14404285677294
 51
95.57410826420013
 73
     0
 72
     2
 10
199.2691152531619
 20
198.6781114380246
 40
1.000000000000006
 50
95.57410826422277
 51
170.0000000000001
 73
     0
 72
     1
 10
198.2843075001497
 20
198.5044632603577
 11
197.7247076991508
 21
201.6781114380246
 72
     2
 10
196.7398999461386
 20
201.5044632603577
 40
0.9999999999999983
 50
10.00000000000021
 51
90.0
 73
     1
 72
     1
 10
196.7398999461386
 20
202.5044632603577
 11
187.7519030574346
 21
202.5044632603577
 72
     2
 10
187.7519030574346
 20
214.5044632603577
 40
12.00000000000001
 50
90.0
 51
160.0
 73
     0
 72
     1
 10
176.4755916080037
 20
210.4002215404496
 11
174.8572846360337
 21
214.8464834036834
 72
     2
 10
173.9175920152477
 20
214.5044632603577
 40
1.0
 50
20.00000000000107
 51
90.0
 73
     1
 72
     1
 10
173.9175920152477
 20
215.5044632603577
 11
171.257147584058
 21
215.5044632603577
 72
     2
 10
171.257147584058
 20
214.5044632603577
 40
1.0
 50
90.0
 51
199.9999999999988
 73
     1
 72
     1
 10
170.317454963272
 20
214.162443117032
 11
172.2469748144672
 21
208.8611308954841
 72
     2
 10
187.7519030574346
 20
214.5044632603577
 40
16.5
 50
200.0000000000008
 51
270.0000000000008
 73
     1
 72
     1
 10
187.7519030574346
 20
198.0044632603577
 11
195.0789995773159
 21
198.0044632603577
 72
     1
 10
195.0789995773159
 20
198.0044632603577
 11
195.0789995773159
 21
189.0044632603577
 72
     1
 10
195.0789995773159
 20
189.0044632603577
 11
196.1100082609632
 21
180.7563937911792
 72
     2
 10
198.0945640143905
 20
181.0044632603577
 40
2.0
 50
187.1250163489031
 51
270.0000000000008
 73
     1
 72
     1
 10
198.0945640143905
 20
179.0044632603577
 11
201.7584555871972
 21
179.0044632603577
 97
        0
 75
     0
 76
     1
 52
0.0
 41
1.0
 77
     0
 78
     2
 53
45.0
 43
0.0
 44
0.0
 45
-4.490128060534576
 46
4.490128060534577
 79
     0
 53
45.0
 43
4.49013
 44
0.0
 45
-4.490128060534576
 46
4.490128060534577
 79
     4
 49
7.9375
 49
-1.5875
 49
0.0
 49
-1.5875
 98
        1
 10
0.0
 20
0.0
  0
DIMENSION
  5
117
330
1F
100
AcDbEntity
  8
0
  6
Continuous
 62
     7
370
     0
100
AcDbDimension
  2
*D3
 10
289.4008515706
 20
162.0044632604
 30
0.0
 11
289.4008515706
 21
188.7544632604
 31
0.0
 70
   160
 71
     2
 42
-1.0
  3
SLDDIMSTYLE0
100
AcDbAlignedDimension
 13
278.4008515706
 23
215.5044632604
 33
0.0
 14
257.8289995773
 24
162.0044632604
 34
0.0
 50
90.0
100
AcDbRotatedDimension
  0
DIMENSION
  5
121
330
1F
100
AcDbEntity
  8
0
  6
Continuous
 62
     7
370
     0
100
AcDbDimension
  2
*D4
 10
159.3115238486
 20
198.0044632604
 30
0.0
 11
159.3115238486
 21
206.7544632604
 31
0.0
 70
   160
 71
     2
 42
-1.0
  3
SLDDIMSTYLE2
100
AcDbAlignedDimension
 13
171.2571475841
 23
215.5044632604
 33
0.0
 14
187.7519030574
 24
198.0044632604
 34
0.0
 50
90.0
100
AcDbRotatedDimension
  0
MTEXT
  5
12E
330
1F
100
AcDbEntity
  8
0
  6
Continuous
 62
     7
370
     0
100
AcDbMText
 10
229.0113705489
 20
240.5760873655
 30
0.0
 40
3.5
 41
0.0
 71
     2
 72
     1
  1
A-A
  7
SLDTEXTSTYLE0
 73
     1
 44
1.0
  0
ENDSEC
  0
SECTION
  2
OBJECTS
  0
DICTIONARY
  5
C
330
0
100
AcDbDictionary
281
     1
  3
ACAD_GROUP
350
D
  3
ACAD_LAYOUT
350
1A
  3
ACAD_MLINESTYLE
350
17
  3
ACAD_PLOTSETTINGS
350
19
  3
ACAD_PLOTSTYLENAME
350
E
  0
DICTIONARY
  5
D
102
{ACAD_REACTORS
330
C
102
}
330
C
100
AcDbDictionary
281
     1
  0
DICTIONARY
  5
1A
102
{ACAD_REACTORS
330
C
102
}
330
C
100
AcDbDictionary
281
     1
  3
Layout1
350
1E
  3
Layout2
350
26
  3
Model
350
22
  0
DICTIONARY
  5
17
102
{ACAD_REACTORS
330
C
102
}
330
C
100
AcDbDictionary
281
     1
  3
Standard
350
18
  0
DICTIONARY
  5
19
102
{ACAD_REACTORS
330
C
102
}
330
C
100
AcDbDictionary
281
     1
  0
ACDBDICTIONARYWDFLT
  5
E
102
{ACAD_REACTORS
330
C
102
}
330
C
100
AcDbDictionary
281
     1
  3
Normal
350
F
100
AcDbDictionaryWithDefault
340
F
  0
LAYOUT
  5
1E
102
{ACAD_REACTORS
330
1A
102
}
330
1A
100
AcDbPlotSettings
  1

  2
none_device
  4

  6

 40
0.0
 41
0.0
 42
0.0
 43
0.0
 44
0.0
 45
0.0
 46
0.0
 47
0.0
 48
0.0
 49
0.0
140
0.0
141
0.0
142
1.0
143
1.0
 70
   688
 72
     0
 73
     0
 74
     5
  7

 75
    16
147
1.0
148
0.0
149
0.0
100
AcDbLayout
  1
Layout1
 70
     1
 71
     1
 10
0.0
 20
0.0
 11
420.0
 21
297.0
 12
0.0
 22
0.0
 32
0.0
 14
1.0000000000E+20
 24
1.0000000000E+20
 34
1.0000000000E+20
 15
-1.0000000000E+20
 25
-1.0000000000E+20
 35
-1.0000000000E+20
146
0.0
 13
0.0
 23
0.0
 33
0.0
 16
1.0
 26
0.0
 36
0.0
 17
0.0
 27
1.0
 37
0.0
 76
     0
330
1B
  0
LAYOUT
  5
26
102
{ACAD_REACTORS
330
1A
102
}
330
1A
100
AcDbPlotSettings
  1

  2
none_device
  4

  6

 40
0.0
 41
0.0
 42
0.0
 43
0.0
 44
0.0
 45
0.0
 46
0.0
 47
0.0
 48
0.0
 49
0.0
140
0.0
141
0.0
142
1.0
143
1.0
 70
   688
 72
     0
 73
     0
 74
     5
  7

 75
    16
147
1.0
148
0.0
149
0.0
100
AcDbLayout
  1
Layout2
 70
     1
 71
     2
 10
0.0
 20
0.0
 11
0.0
 21
0.0
 12
0.0
 22
0.0
 32
0.0
 14
0.0
 24
0.0
 34
0.0
 15
0.0
 25
0.0
 35
0.0
146
0.0
 13
0.0
 23
0.0
 33
0.0
 16
1.0
 26
0.0
 36
0.0
 17
0.0
 27
1.0
 37
0.0
 76
     0
330
23
  0
LAYOUT
  5
22
102
{ACAD_REACTORS
330
1A
102
}
330
1A
100
AcDbPlotSettings
  1

  2
none_device
  4

  6

 40
0.0
 41
0.0
 42
0.0
 43
0.0
 44
0.0
 45
0.0
 46
0.0
 47
0.0
 48
0.0
 49
0.0
140
0.0
141
0.0
142
1.0
143
1.0
 70
  1712
 72
     0
 73
     0
 74
     0
  7

 75
     0
147
1.0
148
0.0
149
0.0
100
AcDbLayout
  1
Model
 70
     1
 71
     0
 10
0.0
 20
0.0
 11
420.0
 21
297.0
 12
0.0
 22
0.0
 32
0.0
 14
0.0
 24
0.0
 34
0.0
 15
420.0
 25
297.0
 35
0.0
146
0.0
 13
0.0
 23
0.0
 33
0.0
 16
1.0
 26
0.0
 36
0.0
 17
0.0
 27
1.0
 37
0.0
 76
     0
330
1F
331
29
  0
MLINESTYLE
  5
18
102
{ACAD_REACTORS
330
17
102
}
330
17
100
AcDbMlineStyle
  2
Standard
 70
     0
  3

 62
   256
 51
90.0
 52
90.0
 71
     2
 49
0.5
 62
   256
  6
BYLAYER
 49
-0.5
 62
   256
  6
BYLAYER
  0
ACDBPLACEHOLDER
  5
F
102
{ACAD_REACTORS
330
E
102
}
330
E
  0
ENDSEC
  0
EOF
