  0
SECTION
  2
HEADER
  9
$ACADVER
  1
AC1015
  9
$ACADMAINTVER
 70
     6
  9
$DWGCODEPAGE
  3
ANSI_1252
  9
$INSBASE
 10
0.0
 20
0.0
 30
0.0
  9
$EXTMIN
 10
0.0
 20
0.0
 30
0.0
  9
$EXTMAX
 10
420.0
 20
297.0
 30
0.0
  9
$LIMMIN
 10
0.0
 20
0.0
  9
$LIMMAX
 10
420.0
 20
297.0
  9
$ORTHOMODE
 70
     0
  9
$REGENMODE
 70
     1
  9
$FILLMODE
 70
     1
  9
$QTEXTMODE
 70
     0
  9
$MIRRTEXT
 70
     1
  9
$LTSCALE
 40
1.0
  9
$ATTMODE
 70
     1
  9
$TEXTSIZE
 40
3.5
  9
$TRACEWID
 40
1.0
  9
$TEXTSTYLE
  7
Standard
  9
$CLAYER
  8
0
  9
$CELTYPE
  6
ByLayer
  9
$CECOLOR
 62
   256
  9
$CELTSCALE
 40
1.0
  9
$DISPSILH
 70
     0
  9
$DIMSCALE
 40
1.0
  9
$DIMASZ
 40
3.5
  9
$DIMEXO
 40
1.0
  9
$DIMDLI
 40
3.75
  9
$DIMRND
 40
0.0
  9
$DIMDLE
 40
0.0
  9
$DIMEXE
 40
1.0
  9
$DIMTP
 40
0.0
  9
$DIMTM
 40
0.0
  9
$DIMTXT
 40
3.5
  9
$DIMCEN
 40
2.5
  9
$DIMTSZ
 40
0.0
  9
$DIMTOL
 70
     0
  9
$DIMLIM
 70
     0
  9
$DIMTIH
 70
     1
  9
$DIMTOH
 70
     1
  9
$DIMSE1
 70
     0
  9
$DIMSE2
 70
     0
  9
$DIMTAD
 70
     1
  9
$DIMZIN
 70
     0
  9
$DIMBLK
  1

  9
$DIMASO
 70
     1
  9
$DIMSHO
 70
     1
  9
$DIMPOST
  1

  9
$DIMAPOST
  1

  9
$DIMALT
 70
     0
  9
$DIMALTD
 70
     3
  9
$DIMALTF
 40
0.0393700787
  9
$DIMLFAC
 40
1.0
  9
$DIMTOFL
 70
     1
  9
$DIMTVP
 40
0.0
  9
$DIMTIX
 70
     0
  9
$DIMSOXD
 70
     0
  9
$DIMSAH
 70
     0
  9
$DIMBLK1
  1

  9
$DIMBLK2
  1

  9
$DIMSTYLE
  2
ISO-25
  9
$DIMCLRD
 70
     0
  9
$DIMCLRE
 70
     0
  9
$DIMCLRT
 70
     0
  9
$DIMTFAC
 40
1.0
  9
$DIMGAP
 40
4.0
  9
$DIMJUST
 70
     0
  9
$DIMSD1
 70
     0
  9
$DIMSD2
 70
     0
  9
$DIMTOLJ
 70
     0
  9
$DIMTZIN
 70
     0
  9
$DIMALTZ
 70
     0
  9
$DIMALTTZ
 70
     0
  9
$DIMUPT
 70
     0
  9
$DIMDEC
 70
     1
  9
$DIMTDEC
 70
     2
  9
$DIMALTU
 70
     2
  9
$DIMALTTD
 70
     3
  9
$DIMTXSTY
  7
Standard
  9
$DIMAUNIT
 70
     0
  9
$DIMADEC
 70
     1
  9
$DIMALTRND
 40
0.0
  9
$DIMAZIN
 70
     0
  9
$DIMDSEP
 70
    44
  9
$DIMATFIT
 70
     3
  9
$DIMFRAC
 70
     0
  9
$DIMLDRBLK
  1

  9
$DIMLUNIT
 70
     2
  9
$DIMLWD
 70
    -2
  9
$DIMLWE
 70
    -2
  9
$DIMTMOVE
 70
     0
  9
$LUNITS
 70
     2
  9
$LUPREC
 70
     1
  9
$SKETCHINC
 40
1.0
  9
$FILLETRAD
 40
10.0
  9
$AUNITS
 70
     0
  9
$AUPREC
 70
     1
  9
$MENU
  1
.
  9
$ELEVATION
 40
0.0
  9
$PELEVATION
 40
0.0
  9
$THICKNESS
 40
0.0
  9
$LIMCHECK
 70
     0
  9
$CHAMFERA
 40
10.0
  9
$CHAMFERB
 40
10.0
  9
$CHAMFERC
 40
20.0
  9
$CHAMFERD
 40
0.0
  9
$SKPOLY
 70
     0
  9
$TDCREATE
 40
2456156.453419259
  9
$TDUCREATE
 40
2456156.370085926
  9
$TDUPDATE
 40
2456156.453419271
  9
$TDUUPDATE
 40
2456156.370085937
  9
$TDINDWG
 40
0.0000000116
  9
$TDUSRTIMER
 40
0.0000000116
  9
$USRTIMER
 70
     1
  9
$ANGBASE
 50
0.0
  9
$ANGDIR
 70
     0
  9
$PDMODE
 70
     0
  9
$PDSIZE
 40
-1.0
  9
$PLINEWID
 40
0.0
  9
$SPLFRAME
 70
     0
  9
$SPLINETYPE
 70
     6
  9
$SPLINESEGS
 70
     8
  9
$HANDSEED
  5
177
  9
$SURFTAB1
 70
     6
  9
$SURFTAB2
 70
     6
  9
$SURFTYPE
 70
     6
  9
$SURFU
 70
     6
  9
$SURFV
 70
     6
  9
$UCSBASE
  2

  9
$UCSNAME
  2

  9
$UCSORG
 10
0.0
 20
0.0
 30
0.0
  9
$UCSXDIR
 10
1.0
 20
0.0
 30
0.0
  9
$UCSYDIR
 10
0.0
 20
1.0
 30
0.0
  9
$UCSORTHOREF
  2

  9
$UCSORTHOVIEW
 70
     0
  9
$UCSORGTOP
 10
0.0
 20
0.0
 30
0.0
  9
$UCSORGBOTTOM
 10
0.0
 20
0.0
 30
0.0
  9
$UCSORGLEFT
 10
0.0
 20
0.0
 30
0.0
  9
$UCSORGRIGHT
 10
0.0
 20
0.0
 30
0.0
  9
$UCSORGFRONT
 10
0.0
 20
0.0
 30
0.0
  9
$UCSORGBACK
 10
0.0
 20
0.0
 30
0.0
  9
$PUCSBASE
  2

  9
$PUCSNAME
  2

  9
$PUCSORG
 10
0.0
 20
0.0
 30
0.0
  9
$PUCSXDIR
 10
1.0
 20
0.0
 30
0.0
  9
$PUCSYDIR
 10
0.0
 20
1.0
 30
0.0
  9
$PUCSORTHOREF
  2

  9
$PUCSORTHOVIEW
 70
     0
  9
$PUCSORGTOP
 10
0.0
 20
0.0
 30
0.0
  9
$PUCSORGBOTTOM
 10
0.0
 20
0.0
 30
0.0
  9
$PUCSORGLEFT
 10
0.0
 20
0.0
 30
0.0
  9
$PUCSORGRIGHT
 10
0.0
 20
0.0
 30
0.0
  9
$PUCSORGFRONT
 10
0.0
 20
0.0
 30
0.0
  9
$PUCSORGBACK
 10
0.0
 20
0.0
 30
0.0
  9
$USERI1
 70
     0
  9
$USERI2
 70
     0
  9
$USERI3
 70
     0
  9
$USERI4
 70
     0
  9
$USERI5
 70
     0
  9
$USERR1
 40
0.0
  9
$USERR2
 40
0.0
  9
$USERR3
 40
0.0
  9
$USERR4
 40
0.0
  9
$USERR5
 40
0.0
  9
$WORLDVIEW
 70
     1
  9
$SHADEDGE
 70
     3
  9
$SHADEDIF
 70
    70
  9
$TILEMODE
 70
     1
  9
$MAXACTVP
 70
    64
  9
$PINSBASE
 10
0.0
 20
0.0
 30
0.0
  9
$PLIMCHECK
 70
     0
  9
$PEXTMIN
 10
1.0000000000E+20
 20
1.0000000000E+20
 30
1.0000000000E+20
  9
$PEXTMAX
 10
-1.0000000000E+20
 20
-1.0000000000E+20
 30
-1.0000000000E+20
  9
$PLIMMIN
 10
0.0
 20
0.0
  9
$PLIMMAX
 10
420.0
 20
297.0
  9
$UNITMODE
 70
     0
  9
$VISRETAIN
 70
     1
  9
$PLINEGEN
 70
     0
  9
$PSLTSCALE
 70
     1
  9
$TREEDEPTH
 70
  3020
  9
$CMLSTYLE
  2
Standard
  9
$CMLJUST
 70
     0
  9
$CMLSCALE
 40
20.0
  9
$PROXYGRAPHICS
 70
     1
  9
$MEASUREMENT
 70
     1
  9
$CELWEIGHT
370
    -1
  9
$ENDCAPS
280
     0
  9
$JOINSTYLE
280
     0
  9
$LWDISPLAY
290
     1
  9
$INSUNITS
 70
     4
  9
$HYPERLINKBASE
  1

  9
$STYLESHEET
  1

  9
$XEDIT
290
     1
  9
$CEPSNTYPE
380
     0
  9
$PSTYLEMODE
290
     1
  9
$FINGERPRINTGUID
  2
{C9B26155-BC50-4610-92CF-5BE36446CE13}
  9
$VERSIONGUID
  2
{FAEB1C32-E019-11D5-929B-00C0DF256EC4}
  9
$EXTNAMES
290
     1
  9
$PSVPSCALE
 40
0.0
  9
$OLESTARTUP
290
     0
  0
ENDSEC
  0
SECTION
  2
CLASSES
  0
CLASS
  1
ACDBDICTIONARYWDFLT
  2
AcDbDictionaryWithDefault
  3
ObjectDBX Classes
 90
        0
280
     0
281
     0
  0
CLASS
  1
VISUALSTYLE
  2
AcDbVisualStyle
  3
ObjectDBX Classes
 90
     4095
280
     0
281
     0
  0
CLASS
  1
MATERIAL
  2
AcDbMaterial
  3
ObjectDBX Classes
 90
     1153
280
     0
281
     0
  0
CLASS
  1
ACDBPLACEHOLDER
  2
AcDbPlaceHolder
  3
ObjectDBX Classes
 90
        0
280
     0
281
     0
  0
CLASS
  1
LAYOUT
  2
AcDbLayout
  3
ObjectDBX Classes
 90
        0
280
     0
281
     0
  0
ENDSEC
  0
SECTION
  2
TABLES
  0
TABLE
  2
VPORT
  5
8
330
0
100
AcDbSymbolTable
 70
     1
  0
VPORT
  5
29
330
8
100
AcDbSymbolTableRecord
100
AcDbViewportTableRecord
  2
*Active
 70
     0
 10
0.0
 20
0.0
 11
1.0
 21
1.0
 12
210.0
 22
148.5
 13
0.0
 23
0.0
 14
10.0
 24
10.0
 15
10.0
 25
10.0
 16
0.0
 26
0.0
 36
1.0
 17
0.0
 27
0.0
 37
0.0
 40
297.0
 41
1.4141414141
 42
50.0
 43
0.0
 44
0.0
 50
0.0
 51
0.0
 71
     0
 72
  2000
 73
     1
 74
     3
 75
     0
 76
     0
 77
     0
 78
     0
281
     0
 65
     1
110
0.0
120
0.0
130
0.0
111
1.0
121
0.0
131
0.0
112
0.0
122
1.0
132
0.0
 79
     0
146
0.0
  0
ENDTAB
  0
TABLE
  2
LTYPE
  5
5
330
0
100
AcDbSymbolTable
 70
     6
  0
LTYPE
  5
14
330
5
100
AcDbSymbolTableRecord
100
AcDbLinetypeTableRecord
  2
ByBlock
 70
     0
  3

 72
    65
 73
     0
 40
0.0
  0
LTYPE
  5
15
330
5
100
AcDbSymbolTableRecord
100
AcDbLinetypeTableRecord
  2
ByLayer
 70
     0
  3

 72
    65
 73
     0
 40
0.0
  0
LTYPE
  5
16
330
5
100
AcDbSymbolTableRecord
100
AcDbLinetypeTableRecord
  2
Continuous
 70
     0
  3
Solid line
 72
    65
 73
     0
 40
0.0
  0
LTYPE
  5
3F
330
5
100
AcDbSymbolTableRecord
100
AcDbLinetypeTableRecord
  2
HIDDEN
 70
     0
  3
Hidden __ __ __ __ __ __ __ __ __ __ __ __ __ __
 72
    65
 73
     2
 40
1.905
 49
1.27
 74
     0
 49
-0.635
 74
     0
  0
LTYPE
  5
40
330
5
100
AcDbSymbolTableRecord
100
AcDbLinetypeTableRecord
  2
PHANTOM
 70
     0
  3
Phantom ______  __  __  ______  __  __  ______
 72
    65
 73
     6
 40
12.7
 49
6.35
 74
     0
 49
-1.27
 74
     0
 49
1.27
 74
     0
 49
-1.27
 74
     0
 49
1.27
 74
     0
 49
-1.27
 74
     0
  0
LTYPE
  5
41
330
5
100
AcDbSymbolTableRecord
100
AcDbLinetypeTableRecord
  2
CENTER
 70
     0
  3
Center ____ _ ____ _ ____ _ ____ _ ____ _ ____
 72
    65
 73
     4
 40
10.16
 49
6.35
 74
     0
 49
-1.27
 74
     0
 49
1.27
 74
     0
 49
-1.27
 74
     0
  0
LTYPE
  5
42
330
5
100
AcDbSymbolTableRecord
100
AcDbLinetypeTableRecord
  2
CENTERX2
 70
     0
  3
Center (2x) ________  __  ________  __  _____
 72
    65
 73
     4
 40
20.32
 49
12.7
 74
     0
 49
-2.54
 74
     0
 49
2.54
 74
     0
 49
-2.54
 74
     0
  0
LTYPE
  5
43
330
5
100
AcDbSymbolTableRecord
100
AcDbLinetypeTableRecord
  2
DOT2
 70
     0
  3
Dot (.5x) ........................................
 72
    65
 73
     2
 40
0.635
 49
0.0
 74
     0
 49
-0.635
 74
     0
  0
ENDTAB
  0
TABLE
  2
LAYER
  5
2
330
0
100
AcDbSymbolTable
 70
     5
  0
LAYER
  5
10
330
2
100
AcDbSymbolTableRecord
100
AcDbLayerTableRecord
  2
0
 70
     0
 62
     7
  6
Continuous
370
    -3
390
F
  0
LAYER
  5
44
330
2
100
AcDbSymbolTableRecord
100
AcDbLayerTableRecord
  2
VORLAGE
 70
     0
 62
    -1
  6
Continuous
370
    -3
390
F
  0
LAYER
  5
45
330
2
100
AcDbSymbolTableRecord
100
AcDbLayerTableRecord
  2
RAHMEN
 70
     0
 62
   179
  6
Continuous
370
    -3
390
F
  0
LAYER
  5
46
330
2
100
AcDbSymbolTableRecord
100
AcDbLayerTableRecord
  2
KOPF
 70
     0
 62
     7
  6
Continuous
370
    -3
390
F
  0
LAYER
  5
47
330
2
100
AcDbSymbolTableRecord
100
AcDbLayerTableRecord
  2
TEMP
 70
     0
 62
     7
  6
Continuous
370
    -3
390
F
  0
ENDTAB
  0
TABLE
  2
STYLE
  5
3
330
0
100
AcDbSymbolTable
 70
     2
  0
STYLE
  5
11
330
3
100
AcDbSymbolTableRecord
100
AcDbTextStyleTableRecord
  2
Standard
 70
     0
 40
0.0
 41
1.0
 50
0.0
 71
     0
 42
2.5
  3
txt
  4

  0
STYLE
  5
7B
330
3
100
AcDbSymbolTableRecord
100
AcDbTextStyleTableRecord
  2
SLDTEXTSTYLE0
 70
     0
 40
0.0
 41
0.605
 50
0.0
 71
     0
 42
0.2
  3
TXT
  4

  0
ENDTAB
  0
TABLE
  2
VIEW
  5
6
330
0
100
AcDbSymbolTable
 70
     0
  0
ENDTAB
  0
TABLE
  2
UCS
  5
7
330
0
100
AcDbSymbolTable
 70
     0
  0
ENDTAB
  0
TABLE
  2
APPID
  5
9
330
0
100
AcDbSymbolTable
 70
     1
  0
APPID
  5
12
330
9
100
AcDbSymbolTableRecord
100
AcDbRegAppTableRecord
  2
ACAD
 70
     0
  0
ENDTAB
  0
TABLE
  2
DIMSTYLE
  5
A
330
0
100
AcDbSymbolTable
 70
     2
100
AcDbDimStyleTable
  0
DIMSTYLE
105
27
330
A
100
AcDbSymbolTableRecord
100
AcDbDimStyleTableRecord
  2
ISO-25
 70
     0
 41
2.5
 42
0.625
 43
3.75
 44
1.25
 73
     0
 74
     0
 77
     1
 78
     8
140
2.5
141
2.5
143
0.0393700787
147
0.625
171
     3
172
     1
178
     0
271
     2
272
     2
274
     3
278
    44
283
     0
284
     8
340
11
  0
DIMSTYLE
105
7C
102
{ACAD_REACTORS
330
7A
330
E3
330
EF
102
}
330
A
100
AcDbSymbolTableRecord
100
AcDbDimStyleTableRecord
  2
SLDDIMSTYLE0
 70
     0
 41
3.5
 44
0.0
 45
0.000000001
 73
     0
 74
     0
 77
     1
 78
    12
 79
     3
140
3.5
147
0.875
173
     1
178
     0
271
     1
272
     2
276
     2
284
    12
340
7B
  0
ENDTAB
  0
TABLE
  2
BLOCK_RECORD
  5
1
330
0
100
AcDbSymbolTable
 70
     4
  0
BLOCK_RECORD
  5
1F
330
1
100
AcDbSymbolTableRecord
100
AcDbBlockTableRecord
  2
*Model_Space
340
22
  0
BLOCK_RECORD
  5
1B
330
1
100
AcDbSymbolTableRecord
100
AcDbBlockTableRecord
  2
*Paper_Space
340
1E
  0
BLOCK_RECORD
  5
23
330
1
100
AcDbSymbolTableRecord
100
AcDbBlockTableRecord
  2
*Paper_Space0
340
26
  0
BLOCK_RECORD
  5
7D
330
1
100
AcDbSymbolTableRecord
100
AcDbBlockTableRecord
  2
*D1
340
0
  0
BLOCK_RECORD
  5
E4
330
1
100
AcDbSymbolTableRecord
100
AcDbBlockTableRecord
  2
*D2
340
0
  0
BLOCK_RECORD
  5
F0
330
1
100
AcDbSymbolTableRecord
100
AcDbBlockTableRecord
  2
*D3
340
0
  0
ENDTAB
  0
ENDSEC
  0
SECTION
  2
BLOCKS
  0
BLOCK
  5
20
330
1F
100
AcDbEntity
  8
0
100
AcDbBlockBegin
  2
*Model_Space
 70
     0
 10
0.0
 20
0.0
 30
0.0
  3
*Model_Space
  1

  0
ENDBLK
  5
21
330
1F
100
AcDbEntity
  8
0
100
AcDbBlockEnd
  0
BLOCK
  5
1C
330
1B
100
AcDbEntity
 67
     1
  8
0
100
AcDbBlockBegin
  2
*Paper_Space
 70
     0
 10
0.0
 20
0.0
 30
0.0
  3
*Paper_Space
  1

  0
ENDBLK
  5
1D
330
1B
100
AcDbEntity
 67
     1
  8
0
100
AcDbBlockEnd
  0
BLOCK
  5
24
330
23
100
AcDbEntity
  8
0
100
AcDbBlockBegin
  2
*Paper_Space0
 70
     0
 10
0.0
 20
0.0
 30
0.0
  3
*Paper_Space0
  1

  0
ENDBLK
  5
25
330
23
100
AcDbEntity
  8
0
100
AcDbBlockEnd
  0
BLOCK
  5
7E
330
7D
100
AcDbEntity
  8
0
100
AcDbBlockBegin
  2
*D1
 70
     1
 10
0.0
 20
0.0
 30
0.0
  3
*D1
  1

  0
ARC
  5
80
330
7D
100
AcDbEntity
  8
0
  6
Continuous
 62
     7
370
     0
100
AcDbCircle
 10
42.1902461714
 20
216.9673555698
 30
0.0
 40
6.003747491907766
100
AcDbArc
 50
243.4349488229
 51
296.5650511771
  0
ARC
  5
81
330
7D
100
AcDbEntity
  8
0
  6
Continuous
 62
     7
370
     0
100
AcDbCircle
 10
42.1902461714
 20
218.7589389808
 30
0.0
 40
6.00374749190774
100
AcDbArc
 50
63.4349488229
 51
116.5650511771
  0
SOLID
  5
82
330
7D
100
AcDbEntity
  8
0
  6
Continuous
 62
     7
370
     0
100
AcDbTrace
 10
44.8752036737
 20
266.1492809839
 30
0.0
 11
43.9752036737
 21
262.6492809839
 31
0.0
 12
45.7752036737
 22
262.6492809839
 32
0.0
 13
45.7752036737
 23
262.6492809839
 33
0.0
  0
SOLID
  5
83
330
7D
100
AcDbEntity
  8
0
  6
Continuous
 62
     7
370
     0
100
AcDbTrace
 10
44.8752036737
 20
178.6492611672
 30
0.0
 11
45.7752036737
 21
182.1492611672
 31
0.0
 12
43.9752036737
 22
182.1492611672
 32
0.0
 13
43.9752036737
 23
182.1492611672
 33
0.0
  0
LINE
  5
84
330
7D
100
AcDbEntity
  8
0
  6
Continuous
 62
     7
370
     0
100
AcDbLine
 10
63.0343354972
 20
266.1492809839
 30
0.0
 11
43.8752036737
 21
266.1492809839
 31
0.0
  0
LINE
  5
85
330
7D
100
AcDbEntity
  8
0
  6
Continuous
 62
     7
370
     0
100
AcDbLine
 10
61.6940115184
 20
178.6492611672
 30
0.0
 11
43.8752036737
 21
178.6492611672
 31
0.0
  0
LINE
  5
86
330
7D
100
AcDbEntity
  8
0
  6
Continuous
 62
     7
370
     0
100
AcDbLine
 10
44.8752036737
 20
266.1492809839
 30
0.0
 11
44.8752036737
 21
178.6492611672
 31
0.0
  0
MTEXT
  5
87
330
7D
100
AcDbEntity
  8
0
  6
Continuous
 62
     7
370
     0
100
AcDbMText
 10
40.3634663517
 20
213.1849405651
 30
0.0
 40
3.5
 41
0.0
 71
     1
 72
     1
  1
87.5
  7
SLDTEXTSTYLE0
 11
-7.044195017643634E-15
 21
1.0
 31
0.0
 73
     1
 44
1.0
  0
ENDBLK
  5
7F
330
7D
100
AcDbEntity
  8
0
100
AcDbBlockEnd
  0
BLOCK
  5
E5
330
E4
100
AcDbEntity
  8
0
100
AcDbBlockBegin
  2
*D2
 70
     1
 10
0.0
 20
0.0
 30
0.0
  3
*D2
  1

  0
ARC
  5
E7
330
E4
100
AcDbEntity
  8
0
  6
Continuous
 62
     7
370
     0
100
AcDbCircle
 10
41.8923811059
 20
87.8473221464
 30
0.0
 40
6.003747491907734
100
AcDbArc
 50
243.4349488229
 51
296.5650511771
  0
ARC
  5
E8
330
E4
100
AcDbEntity
  8
0
  6
Continuous
 62
     7
370
     0
100
AcDbCircle
 10
41.8923811059
 20
89.6389055574
 30
0.0
 40
6.003747491907737
100
AcDbArc
 50
63.4349488229
 51
116.5650511771
  0
SOLID
  5
E9
330
E4
100
AcDbEntity
  8
0
  6
Continuous
 62
     7
370
     0
100
AcDbTrace
 10
44.5773386083
 20
124.7165168337
 30
0.0
 11
43.6773386083
 21
121.2165168337
 31
0.0
 12
45.4773386083
 22
121.2165168337
 32
0.0
 13
45.4773386083
 23
121.2165168337
 33
0.0
  0
SOLID
  5
EA
330
E4
100
AcDbEntity
  8
0
  6
Continuous
 62
     7
370
     0
100
AcDbTrace
 10
44.5773386083
 20
57.2165168337
 30
0.0
 11
45.4773386083
 21
60.7165168337
 31
0.0
 12
43.6773386083
 22
60.7165168337
 32
0.0
 13
43.6773386083
 23
60.7165168337
 33
0.0
  0
LINE
  5
EB
330
E4
100
AcDbEntity
  8
0
  6
Continuous
 62
     7
370
     0
100
AcDbLine
 10
66.1940115184
 20
124.7165168337
 30
0.0
 11
43.5773386083
 21
124.7165168337
 31
0.0
  0
LINE
  5
EC
330
E4
100
AcDbEntity
  8
0
  6
Continuous
 62
     7
370
     0
100
AcDbLine
 10
66.1940115184
 20
57.2165168337
 30
0.0
 11
43.5773386083
 21
57.2165168337
 31
0.0
  0
LINE
  5
ED
330
E4
100
AcDbEntity
  8
0
  6
Continuous
 62
     7
370
     0
100
AcDbLine
 10
44.5773386083
 20
124.7165168337
 30
0.0
 11
44.5773386083
 21
57.2165168337
 31
0.0
  0
MTEXT
  5
EE
330
E4
100
AcDbEntity
  8
0
  6
Continuous
 62
     7
370
     0
100
AcDbMText
 10
40.0656012862
 20
84.0649071417
 30
0.0
 40
3.5
 41
0.0
 71
     1
 72
     1
  1
67.5
  7
SLDTEXTSTYLE0
 11
-7.044195017643634E-15
 21
1.0
 31
0.0
 73
     1
 44
1.0
  0
ENDBLK
  5
E6
330
E4
100
AcDbEntity
  8
0
100
AcDbBlockEnd
  0
BLOCK
  5
F1
330
F0
100
AcDbEntity
  8
0
100
AcDbBlockBegin
  2
*D3
 70
     1
 10
0.0
 20
0.0
 30
0.0
  3
*D3
  1

  0
ARC
  5
F3
330
F0
100
AcDbEntity
  8
0
  6
Continuous
 62
     7
370
     0
100
AcDbCircle
 10
93.3709080165
 20
47.6811169371
 30
0.0
 40
6.00374749190774
100
AcDbArc
 50
153.4349488229
 51
206.5650511771
  0
ARC
  5
F4
330
F0
100
AcDbEntity
  8
0
  6
Continuous
 62
     7
370
     0
100
AcDbCircle
 10
91.1505833194
 20
47.6811169371
 30
0.0
 40
6.003747491907753
100
AcDbArc
 50
333.4349488229
 51
26.5650511771
  0
SOLID
  5
F5
330
F0
100
AcDbEntity
  8
0
  6
Continuous
 62
     7
370
     0
100
AcDbTrace
 10
61.1940115184
 20
44.9961594348
 30
0.0
 11
64.6940115184
 21
44.0961594348
 31
0.0
 12
64.6940115184
 22
45.8961594348
 32
0.0
 13
64.6940115184
 23
45.8961594348
 33
0.0
  0
SOLID
  5
F6
330
F0
100
AcDbEntity
  8
0
  6
Continuous
 62
     7
370
     0
100
AcDbTrace
 10
126.1940115184
 20
44.9961594348
 30
0.0
 11
122.6940115184
 21
45.8961594348
 31
0.0
 12
122.6940115184
 22
44.0961594348
 32
0.0
 13
122.6940115184
 23
44.0961594348
 33
0.0
  0
LINE
  5
F7
330
F0
100
AcDbEntity
  8
0
  6
Continuous
 62
     7
370
     0
100
AcDbLine
 10
61.1940115184
 20
62.2165168337
 30
0.0
 11
61.1940115184
 21
43.9961594348
 31
0.0
  0
LINE
  5
F8
330
F0
100
AcDbEntity
  8
0
  6
Continuous
 62
     7
370
     0
100
AcDbLine
 10
126.1940115184
 20
62.2165168337
 30
0.0
 11
126.1940115184
 21
43.9961594348
 31
0.0
  0
LINE
  5
F9
330
F0
100
AcDbEntity
  8
0
  6
Continuous
 62
     7
370
     0
100
AcDbLine
 10
61.1940115184
 20
44.9961594348
 30
0.0
 11
126.1940115184
 21
44.9961594348
 31
0.0
  0
MTEXT
  5
FA
330
F0
100
AcDbEntity
  8
0
  6
Continuous
 62
     7
370
     0
100
AcDbMText
 10
89.5884930119
 20
49.5078967568
 30
0.0
 40
3.5
 41
0.0
 71
     1
 72
     1
  1
65
  7
SLDTEXTSTYLE0
 73
     1
 44
1.0
  0
ENDBLK
  5
F2
330
F0
100
AcDbEntity
  8
0
100
AcDbBlockEnd
  0
ENDSEC
  0
SECTION
  2
ENTITIES
  0
LINE
  5
48
330
1F
100
AcDbEntity
  8
0
  6
Continuous
 62
     7
370
    30
100
AcDbLine
 10
126.1940103263
 20
179.6492612697
 30
0.0
 11
126.1940103263
 21
201.6492611505
 31
0.0
  0
LINE
  5
49
330
1F
100
AcDbEntity
  8
0
  6
Continuous
 62
     7
370
    30
100
AcDbLine
 10
126.1940103263
 20
179.6492612697
 30
0.0
 11
120.1940112055
 21
179.6492612697
 31
0.0
  0
LINE
  5
4A
330
1F
100
AcDbEntity
  8
0
  6
Continuous
 62
     7
370
    30
100
AcDbLine
 10
126.1940103263
 20
201.6492611505
 30
0.0
 11
120.1940112055
 21
201.6492611505
 31
0.0
  0
LINE
  5
4B
330
1F
100
AcDbEntity
  8
0
  6
Continuous
 62
     7
370
    30
100
AcDbLine
 10
67.1940118314
 20
179.6492612697
 30
0.0
 11
61.1940127105
 21
179.6492612697
 31
0.0
  0
LINE
  5
4C
330
1F
100
AcDbEntity
  8
0
  6
Continuous
 62
     7
370
    30
100
AcDbLine
 10
61.1940127105
 20
179.6492612697
 30
0.0
 11
61.1940127105
 21
201.6492611505
 31
0.0
  0
LINE
  5
4D
330
1F
100
AcDbEntity
  8
0
  6
Continuous
 62
     7
370
    30
100
AcDbLine
 10
63.7943677843
 20
201.6492611505
 30
0.0
 11
61.1940127105
 21
201.6492611505
 31
0.0
  0
LINE
  5
4E
330
1F
100
AcDbEntity
  8
0
  6
Continuous
 62
     7
370
    30
100
AcDbLine
 10
120.1940112055
 20
179.6492612697
 30
0.0
 11
67.1940118314
 21
179.6492612697
 31
0.0
  0
LINE
  5
4F
330
1F
100
AcDbEntity
  8
0
  6
Continuous
 62
     7
370
    30
100
AcDbLine
 10
120.1940112055
 20
201.6492611505
 30
0.0
 11
67.1940118314
 21
201.6492611505
 31
0.0
  0
LINE
  5
50
330
1F
100
AcDbEntity
  8
0
  6
Continuous
 62
     7
370
    30
100
AcDbLine
 10
67.1940118314
 20
178.6492611058
 30
0.0
 11
120.1940112055
 21
178.6492611058
 31
0.0
  0
LINE
  5
51
330
1F
100
AcDbEntity
  8
0
  6
Continuous
 62
     7
370
    30
100
AcDbLine
 10
62.6940120251
 20
179.6492612697
 30
0.0
 11
62.6940120251
 21
178.6492611058
 31
0.0
  0
LINE
  5
52
330
1F
100
AcDbEntity
  8
0
  6
Continuous
 62
     7
370
    30
100
AcDbLine
 10
62.6940120251
 20
178.6492611058
 30
0.0
 11
67.1940118314
 21
178.6492611058
 31
0.0
  0
LINE
  5
53
330
1F
100
AcDbEntity
  8
0
  6
Continuous
 62
     7
370
    30
100
AcDbLine
 10
124.6940110118
 20
179.6492612697
 30
0.0
 11
124.6940110118
 21
178.6492611058
 31
0.0
  0
LINE
  5
54
330
1F
100
AcDbEntity
  8
0
  6
Continuous
 62
     7
370
    30
100
AcDbLine
 10
120.1940112055
 20
178.6492611058
 30
0.0
 11
124.6940110118
 21
178.6492611058
 31
0.0
  0
LINE
  5
55
330
1F
100
AcDbEntity
  8
0
  6
Continuous
 62
     7
370
    30
100
AcDbLine
 10
63.7943677843
 20
201.6492611505
 30
0.0
 11
67.1940118314
 21
201.6492611505
 31
0.0
  0
ARC
  5
56
330
1F
100
AcDbEntity
  8
0
  6
Continuous
 62
     7
370
    30
100
AcDbCircle
 10
81.7564353651
 20
199.8692516039
 30
0.0
 40
1.798542905810948
100
AcDbArc
 50
84.0135293079
 51
91.9890253425
  0
LINE
  5
57
330
1F
100
AcDbEntity
  8
0
  6
Continuous
 62
     7
370
    30
100
AcDbLine
 10
78.944011429
 20
201.657986246
 30
0.0
 11
78.944011429
 21
201.6492611505
 31
0.0
  0
ARC
  5
58
330
1F
100
AcDbEntity
  8
0
  6
Continuous
 62
     7
370
    30
100
AcDbCircle
 10
79.1315879847
 20
199.8692516039
 30
0.0
 40
1.798542905810946
100
AcDbArc
 50
88.0109746575
 51
95.9864706921
  0
LINE
  5
59
330
1F
100
AcDbEntity
  8
0
  6
Continuous
 62
     7
370
    30
100
AcDbLine
 10
81.6940114141
 20
201.6667108759
 30
0.0
 11
79.1940119357
 21
201.6667108759
 31
0.0
  0
LINE
  5
5A
330
1F
100
AcDbEntity
  8
0
  6
Continuous
 62
     7
370
    30
100
AcDbLine
 10
81.9440119208
 20
201.657986246
 30
0.0
 11
81.9440119208
 21
201.6492611505
 31
0.0
  0
ARC
  5
5B
330
1F
100
AcDbEntity
  8
0
  6
Continuous
 62
     7
370
    30
100
AcDbCircle
 10
108.2564350522
 20
199.8692516039
 30
0.0
 40
1.798542905810948
100
AcDbArc
 50
84.0135293079
 51
91.9890253425
  0
ARC
  5
5C
330
1F
100
AcDbEntity
  8
0
  6
Continuous
 62
     7
370
    30
100
AcDbCircle
 10
105.6315876718
 20
199.8692516039
 30
0.0
 40
1.798542905810946
100
AcDbArc
 50
88.0109746575
 51
95.9864706921
  0
LINE
  5
5D
330
1F
100
AcDbEntity
  8
0
  6
Continuous
 62
     7
370
    30
100
AcDbLine
 10
108.1940111012
 20
201.6667108759
 30
0.0
 11
105.6940116227
 21
201.6667108759
 31
0.0
  0
LINE
  5
5E
330
1F
100
AcDbEntity
  8
0
  6
Continuous
 62
     7
370
    30
100
AcDbLine
 10
105.4440111161
 20
201.657986246
 30
0.0
 11
105.4440111161
 21
201.6492611505
 31
0.0
  0
LINE
  5
5F
330
1F
100
AcDbEntity
  8
0
  6
Continuous
 62
     7
370
    30
100
AcDbLine
 10
108.4440116078
 20
201.657986246
 30
0.0
 11
108.4440116078
 21
201.6492611505
 31
0.0
  0
LINE
  5
60
330
1F
100
AcDbEntity
  8
0
  6
Continuous
 62
     7
370
    30
100
AcDbLine
 10
65.9437075496
 20
201.6667108759
 30
0.0
 11
65.9443166346
 21
201.6492611505
 31
0.0
  0
LWPOLYLINE
  5
61
330
1F
100
AcDbEntity
  8
0
  6
Continuous
 62
     7
370
    30
100
AcDbPolyline
 90
        9
 70
   128
 43
0.0
 10
65.6938597799
 20
201.657986246
 10
65.7426014782
 20
201.659688238
 10
65.7894712181
 20
201.6613250374
 10
65.8326678217
 20
201.6628333144
 10
65.870527947
 20
201.6641553267
 10
65.9016005934
 20
201.6652403175
 10
65.92468808
 20
201.6660468429
 10
65.9389056505
 20
201.6665432378
 10
65.9437075496
 20
201.6667108759
  0
LINE
  5
62
330
1F
100
AcDbEntity
  8
0
  6
Continuous
 62
     7
370
    30
100
AcDbLine
 10
121.4437064023
 20
201.6492611505
 30
0.0
 11
121.4443154872
 21
201.6667108759
 31
0.0
  0
LWPOLYLINE
  5
63
330
1F
100
AcDbEntity
  8
0
  6
Continuous
 62
     7
370
    30
100
AcDbPolyline
 90
        9
 70
   128
 43
0.0
 10
121.4443154872
 20
201.6667108759
 10
121.4491173864
 20
201.6665432378
 10
121.4633349568
 20
201.6660468429
 10
121.4864224435
 20
201.6652403175
 10
121.5174950898
 20
201.6641553267
 10
121.5553552151
 20
201.6628333144
 10
121.5985518188
 20
201.6613250374
 10
121.6454215587
 20
201.659688238
 10
121.694163257
 20
201.657986246
  0
LINE
  5
64
330
1F
100
AcDbEntity
  8
0
  6
Continuous
 62
     7
370
    30
100
AcDbLine
 10
65.6938597799
 20
201.657986246
 30
0.0
 11
65.4440120102
 21
201.6492611505
 31
0.0
  0
LINE
  5
65
330
1F
100
AcDbEntity
  8
0
  6
Continuous
 62
     7
370
    30
100
AcDbLine
 10
121.694163257
 20
201.657986246
 30
0.0
 11
121.9440110267
 21
201.6492611505
 31
0.0
  0
LINE
  5
66
330
1F
100
AcDbEntity
  8
0
  6
Continuous
 62
     7
370
    30
100
AcDbLine
 10
118.3614831657
 20
266.1492782421
 30
0.0
 11
123.3536869527
 21
266.1492782421
 31
0.0
  0
ARC
  5
67
330
1F
100
AcDbEntity
  8
0
  6
Continuous
 62
     7
370
    30
100
AcDbCircle
 10
123.3536875397
 20
264.6492809839
 30
0.0
 40
1.500000000000002
100
AcDbArc
 50
356.8
 51
90.0
  0
LINE
  5
68
330
1F
100
AcDbEntity
  8
0
  6
Continuous
 62
     7
370
    30
100
AcDbLine
 10
64.0343360842
 20
266.1492782421
 30
0.0
 11
69.0265398712
 21
266.1492782421
 31
0.0
  0
ARC
  5
69
330
1F
100
AcDbEntity
  8
0
  6
Continuous
 62
     7
370
    30
100
AcDbCircle
 10
64.0343354972
 20
264.6492809839
 30
0.0
 40
1.500000000000002
100
AcDbArc
 50
90.0
 51
183.2
  0
LINE
  5
6A
330
1F
100
AcDbEntity
  8
0
  6
Continuous
 62
     7
370
    30
100
AcDbLine
 10
69.0265398712
 20
266.1492782421
 30
0.0
 11
118.3614831657
 21
266.1492782421
 31
0.0
  0
LINE
  5
6B
330
1F
100
AcDbEntity
  8
0
  6
Continuous
 62
     7
370
    30
100
AcDbLine
 10
66.0542406381
 20
201.6492611505
 30
0.0
 11
62.5366743893
 21
264.5655455775
 31
0.0
  0
LINE
  5
6C
330
1F
100
AcDbEntity
  8
0
  6
Continuous
 62
     7
370
    30
100
AcDbLine
 10
124.8513486475
 20
264.5655455775
 30
0.0
 11
121.3337823988
 21
201.6492611505
 31
0.0
  0
LINE
  5
6D
330
1F
100
AcDbEntity
  8
0
  6
Continuous
 62
     8
370
     0
100
AcDbLine
 10
120.1940112055
 20
179.6492612697
 30
0.0
 11
120.1940112055
 21
201.6492611505
 31
0.0
  0
LINE
  5
6E
330
1F
100
AcDbEntity
  8
0
  6
Continuous
 62
     8
370
     0
100
AcDbLine
 10
67.1940118314
 20
179.6492612697
 30
0.0
 11
67.1940118314
 21
201.6492611505
 31
0.0
  0
LINE
  5
6F
330
1F
100
AcDbEntity
  8
0
  6
Continuous
 62
     8
370
     0
100
AcDbLine
 10
67.1940118314
 20
179.6492612697
 30
0.0
 11
67.1940118314
 21
178.6492611058
 31
0.0
  0
LINE
  5
70
330
1F
100
AcDbEntity
  8
0
  6
Continuous
 62
     8
370
     0
100
AcDbLine
 10
120.1940112055
 20
179.6492612697
 30
0.0
 11
120.1940112055
 21
178.6492611058
 31
0.0
  0
LINE
  5
71
330
1F
100
AcDbEntity
  8
0
  6
Continuous
 62
     8
370
     0
100
AcDbLine
 10
65.6941633911
 20
201.6492611505
 30
0.0
 11
65.6938597799
 21
201.657986246
 31
0.0
  0
LINE
  5
72
330
1F
100
AcDbEntity
  8
0
  6
Continuous
 62
     8
370
     0
100
AcDbLine
 10
121.694163257
 20
201.657986246
 30
0.0
 11
121.6938596458
 21
201.6492611505
 31
0.0
  0
ELLIPSE
  5
73
330
1F
100
AcDbEntity
  8
0
  6
Continuous
 62
     8
370
     0
100
AcDbEllipse
 10
118.3458791855
 20
264.6492809839
 30
0.0
 11
6.505471085610083
 21
-0.08368615031315585
 31
0.0
210
0.0
220
0.0
230
1.0
 40
0.0128381133
 41
4.714952810129042
 42
6.282633091462761
  0
LINE
  5
74
330
1F
100
AcDbEntity
  8
0
  6
Continuous
 62
     8
370
     0
100
AcDbLine
 10
118.3614831657
 20
264.5655455775
 30
0.0
 11
118.3614831657
 21
266.1492782421
 31
0.0
  0
LINE
  5
75
330
1F
100
AcDbEntity
  8
0
  6
Continuous
 62
     8
370
     0
100
AcDbLine
 10
69.0265398712
 20
264.5655455775
 30
0.0
 11
69.0265398712
 21
266.1492782421
 31
0.0
  0
ELLIPSE
  5
76
330
1F
100
AcDbEntity
  8
0
  6
Continuous
 62
     8
370
     0
100
AcDbEllipse
 10
69.0421438513
 20
264.6492809839
 30
0.0
 11
6.505471085610083
 21
0.08368615031321269
 31
0.0
210
0.0
220
0.0
230
0.9999999999999999
 40
0.0128381133
 41
3.142144869308146
 42
4.709825150640335
  0
LINE
  5
77
330
1F
100
AcDbEntity
  8
0
  6
Continuous
 62
     8
370
     0
100
AcDbLine
 10
118.3614831657
 20
264.5655455775
 30
0.0
 11
69.0265398712
 21
264.5655455775
 31
0.0
  0
LINE
  5
78
330
1F
100
AcDbEntity
  8
0
  6
Continuous
 62
     8
370
     0
100
AcDbLine
 10
69.0265398712
 20
264.5655455775
 30
0.0
 11
72.5441061199
 21
201.6492611505
 31
0.0
  0
LINE
  5
79
330
1F
100
AcDbEntity
  8
0
  6
Continuous
 62
     8
370
     0
100
AcDbLine
 10
114.8439169169
 20
201.6492611505
 30
0.0
 11
118.3614831657
 21
264.5655455775
 31
0.0
  0
DIMENSION
  5
7A
330
1F
100
AcDbEntity
  8
0
  6
Continuous
 62
     7
370
     0
100
AcDbDimension
  2
*D1
 10
44.8752036737
 20
178.6492611672
 30
0.0
 11
44.8752036737
 21
217.8631472753
 31
0.0
 70
   160
  1
(<>)
 71
     2
 42
-1.0
  3
SLDDIMSTYLE0
100
AcDbAlignedDimension
 13
64.0343354972
 23
266.1492809839
 33
0.0
 14
62.6940115184
 24
178.6492611672
 34
0.0
 50
90.0
100
AcDbRotatedDimension
  0
LINE
  5
88
330
1F
100
AcDbEntity
  8
0
  6
CENTER
 62
     7
370
     0
100
AcDbLine
 10
93.2090350047
 20
280.1943519395
 30
0.0
 11
93.2090350047
 21
164.1198959319
 31
0.0
  0
LINE
  5
89
330
1F
100
AcDbEntity
  8
0
  6
Continuous
 62
     7
370
     0
100
AcDbLine
 10
81.2090350047
 20
278.1943519395
 30
0.0
 11
93.2090350047
 21
278.1943519395
 31
0.0
  0
SOLID
  5
8A
330
1F
100
AcDbEntity
  8
0
  6
Continuous
 62
     7
370
     0
100
AcDbTrace
 10
93.2090350047
 20
278.1943519395
 30
0.0
 11
87.2090350047
 21
279.6943519395
 31
0.0
 12
87.2090350047
 22
276.6943519395
 32
0.0
 13
87.2090350047
 23
276.6943519395
 33
0.0
  0
LINE
  5
8B
330
1F
100
AcDbEntity
  8
0
  6
Continuous
 62
     7
370
     0
100
AcDbLine
 10
81.2090350047
 20
166.1198959319
 30
0.0
 11
93.2090350047
 21
166.1198959319
 31
0.0
  0
SOLID
  5
8C
330
1F
100
AcDbEntity
  8
0
  6
Continuous
 62
     7
370
     0
100
AcDbTrace
 10
93.2090350047
 20
166.1198959319
 30
0.0
 11
87.2090350047
 21
167.6198959319
 31
0.0
 12
87.2090350047
 22
164.6198959319
 32
0.0
 13
87.2090350047
 23
164.6198959319
 33
0.0
  0
MTEXT
  5
8D
330
1F
100
AcDbEntity
  8
0
  6
Continuous
 62
     7
100
AcDbMText
 10
75.3957123025
 20
280.8264448957
 30
0.0
 40
5.0
 41
0.0
 71
     1
 72
     1
  1
A
  7
SLDTEXTSTYLE0
 73
     1
 44
1.0
  0
MTEXT
  5
8E
330
1F
100
AcDbEntity
  8
0
  6
Continuous
 62
     7
100
AcDbMText
 10
76.1235636154
 20
168.5285051916
 30
0.0
 40
5.0
 41
0.0
 71
     1
 72
     1
  1
A
  7
SLDTEXTSTYLE0
 73
     1
 44
1.0
  0
SPLINE
  5
8F
330
1F
100
AcDbEntity
  8
0
  6
Continuous
 62
     7
370
    30
100
AcDbSpline
210
0.0
220
0.0
230
1.0
 70
     8
 71
     3
 72
    29
 73
    25
 74
     0
 42
0.00000001
 43
0.00000001
 40
0.0
 40
0.0
 40
0.0
 40
0.0
 40
0.0287495464369774
 40
0.0767048575045659
 40
0.1246561988397128
 40
0.1725947281774574
 40
0.2205219644048571
 40
0.2684386546770474
 40
0.3163456787393099
 40
0.3642448684224454
 40
0.4121378636731449
 40
0.4600261776372607
 40
0.5079117817843681
 40
0.5557967780696327
 40
0.6036823419613752
 40
0.6515704125616589
 40
0.6994626162659602
 40
0.7473610886044412
 40
0.7952672470770078
 40
0.8431825615085767
 40
0.8911081906904753
 40
0.9390453751909641
 40
0.9869947625116235
 40
1.0
 40
1.0
 40
1.0
 40
1.0
 10
124.8536881298565
 20
114.3839881437479
 30
0.0
 10
124.852370992356
 20
114.481710215233
 30
0.0
 10
124.8488568205928
 20
114.7424363308519
 30
0.0
 10
124.8124701774261
 20
115.1651098005272
 30
0.0
 10
124.735959135862
 20
115.6483923698103
 30
0.0
 10
124.6228197027447
 20
116.1244424713431
 30
0.0
 10
124.4743852212324
 20
116.5905312132394
 30
0.0
 10
124.2913218419488
 20
117.0440368187116
 30
0.0
 10
124.0747171872055
 20
117.4824029560195
 30
0.0
 10
123.8257813211009
 20
117.9031591118862
 30
0.0
 10
123.5459378588372
 20
118.3039457782706
 30
0.0
 10
123.2367542992715
 20
118.6824995282387
 30
0.0
 10
122.8999840525198
 20
119.0366977747881
 30
0.0
 10
122.5375233465564
 20
119.364545009674
 30
0.0
 10
122.1514157012046
 20
119.6641956709566
 30
0.0
 10
121.7438385428487
 20
119.9339629616322
 30
0.0
 10
121.3170831977752
 20
120.1723247983896
 30
0.0
 10
120.8735551455796
 20
120.3779422826606
 30
0.0
 10
120.4157464191571
 20
120.5496575029049
 30
0.0
 10
119.9462377720891
 20
120.6864740923295
 30
0.0
 10
119.4676646950506
 20
120.7877232290903
 30
0.0
 10
118.9827472096836
 20
120.852429754052
 30
0.0
 10
118.6128630584819
 20
120.8745855745061
 30
0.0
 10
118.4056862659169
 20
120.8759104362945
 30
0.0
 10
118.3614831656956
 20
120.8761931079088
 30
0.0
  0
SPLINE
  5
90
330
1F
100
AcDbEntity
  8
0
  6
Continuous
 62
     7
370
    30
100
AcDbSpline
210
0.0
220
0.0
230
1.0
 70
     8
 71
     3
 72
    29
 73
    25
 74
     0
 42
0.00000001
 43
0.00000001
 40
0.0
 40
0.0
 40
0.0
 40
0.0
 40
0.0287493664232865
 40
0.076705039078023
 40
0.1246559596678203
 40
0.1725946642284466
 40
0.2205218979488904
 40
0.2684384846985888
 40
0.3163456700239773
 40
0.3642450144183181
 40
0.4121378573904811
 40
0.460026168849677
 40
0.5079117770061133
 40
0.5557967837244194
 40
0.6036822008010534
 40
0.6515703204017494
 40
0.6994626106791644
 40
0.747361080512194
 40
0.7952670654427559
 40
0.843182428480848
 40
0.8911081960890664
 40
0.939045378082079
 40
0.9869945805299797
 40
1.0
 40
1.0
 40
1.0
 40
1.0
 10
69.02653987117043
 20
120.8761931079088
 30
0.0
 10
68.92881841890818
 20
120.8748752304724
 30
0.0
 10
68.6680917056939
 20
120.8713590541931
 30
0.0
 10
68.24541915191968
 20
120.8349729118534
 30
0.0
 10
67.76213535895172
 20
120.7584665030291
 30
0.0
 10
67.28608623094912
 20
120.6453263480812
 30
0.0
 10
66.81999676872478
 20
120.4968930837849
 30
0.0
 10
66.36649264254964
 20
120.3138254530347
 30
0.0
 10
65.9281250703807
 20
120.0972223109707
 30
0.0
 10
65.50736763949911
 20
119.8482872895709
 30
0.0
 10
65.1065818480327
 20
119.5684424032368
 30
0.0
 10
64.72802930010134
 20
119.2592584565964
 30
0.0
 10
64.3738268484998
 20
118.9224923070152
 30
0.0
 10
64.04598481861777
 20
118.5600274874005
 30
0.0
 10
63.74633046293338
 20
118.1739230770641
 30
0.0
 10
63.47656830522023
 20
117.7663424723227
 30
0.0
 10
63.23820258076961
 20
117.3395889176177
 30
0.0
 10
63.03258616865725
 20
116.896060509973
 30
0.0
 10
62.86087083619325
 20
116.4382524318579
 30
0.0
 10
62.72405063815611
 20
115.968744636599
 30
0.0
 10
62.62280579104096
 20
115.4901699387773
 30
0.0
 10
62.55809811368668
 20
115.0052528593684
 30
0.0
 10
62.53594239655592
 20
114.6353686563035
 30
0.0
 10
62.53461757418292
 20
114.4281918644466
 30
0.0
 10
62.53433490700951
 20
114.3839881437479
 30
0.0
  0
LINE
  5
91
330
1F
100
AcDbEntity
  8
0
  6
Continuous
 62
     7
370
    30
100
AcDbLine
 10
118.3614831657
 20
120.8761931079
 30
0.0
 11
69.0265398712
 21
120.8761931079
 31
0.0
  0
LINE
  5
92
330
1F
100
AcDbEntity
  8
0
  6
Continuous
 62
     7
370
    30
100
AcDbLine
 10
62.534334907
 20
114.3839881437
 30
0.0
 11
62.534334907
 21
65.0490448492
 31
0.0
  0
LINE
  5
93
330
1F
100
AcDbEntity
  8
0
  6
Continuous
 62
     7
370
    30
100
AcDbLine
 10
124.8536881299
 20
65.0490448492
 30
0.0
 11
124.8536881299
 21
114.3839881437
 31
0.0
  0
SPLINE
  5
94
330
1F
100
AcDbEntity
  8
0
  6
Continuous
 62
     7
370
    30
100
AcDbSpline
210
0.0
220
0.0
230
1.0
 70
     8
 71
     3
 72
    29
 73
    25
 74
     0
 42
0.00000001
 43
0.00000001
 40
0.0
 40
0.0
 40
0.0
 40
0.0
 40
0.0287493647501272
 40
0.0767050414783267
 40
0.1246560235790034
 40
0.1725947322116514
 40
0.2205219700031426
 40
0.2684384924470917
 40
0.3163456818418245
 40
0.3642448730881361
 40
0.4121378699018096
 40
0.4600261854287467
 40
0.507911791138587
 40
0.5557967889865645
 40
0.6036823544410385
 40
0.6515703257816557
 40
0.6994626201271499
 40
0.7473610940287838
 40
0.7952672540647541
 40
0.8431825700600254
 40
0.8911082008059631
 40
0.9390453626192489
 40
0.9869947620872013
 40
1.0
 40
1.0
 40
1.0
 40
1.0
 10
62.53433490700951
 20
65.04904484922278
 30
0.0
 10
62.53565208753584
 20
64.95132340227589
 30
0.0
 10
62.53916640473156
 20
64.69059667991066
 30
0.0
 10
62.57555218744174
 20
64.26792372349999
 30
0.0
 10
62.65206463180458
 20
63.78464075433765
 30
0.0
 10
62.76520304282791
 20
63.30859109381079
 30
0.0
 10
62.91363736760442
 20
62.84250220198227
 30
0.0
 10
63.09670215163931
 20
62.38899723024813
 30
0.0
 10
63.31330525063039
 20
61.95063036527303
 30
0.0
 10
63.56224180074814
 20
61.5298739223874
 30
0.0
 10
63.84208515336051
 20
61.12908720065831
 30
0.0
 10
64.15126875129663
 20
60.7505334796011
 30
0.0
 10
64.4880389542051
 20
60.3963351727495
 30
0.0
 10
64.85049979717188
 20
60.06848815015969
 30
0.0
 10
65.23660666736139
 20
59.76883691027399
 30
0.0
 10
65.64418564970109
 20
59.49907255372983
 30
0.0
 10
66.07093919376527
 20
59.26070767892355
 30
0.0
 10
66.51446799238872
 20
59.05509089847762
 30
0.0
 10
66.9722765837547
 20
58.88337538063314
 30
0.0
 10
67.44178529947403
 20
58.74655915022796
 30
0.0
 10
67.92035815623342
 20
58.64530889177969
 30
0.0
 10
68.40527608366183
 20
58.5806065611583
 30
0.0
 10
68.77515992892224
 20
58.55844723649811
 30
0.0
 10
68.98233676857637
 20
58.55712252463844
 30
0.0
 10
69.02653987117043
 20
58.55683988506186
 30
0.0
  0
SPLINE
  5
95
330
1F
100
AcDbEntity
  8
0
  6
Continuous
 62
     7
370
    30
100
AcDbSpline
210
0.0
220
0.0
230
1.0
 70
     8
 71
     3
 72
    29
 73
    25
 74
     0
 42
0.00000001
 43
0.00000001
 40
0.0
 40
0.0
 40
0.0
 40
0.0
 40
0.0287493688267503
 40
0.0767050454906089
 40
0.1246559988077017
 40
0.1725947073760316
 40
0.2205219451032201
 40
0.2684384674828807
 40
0.3163457377366097
 40
0.3642449931209485
 40
0.412137840096981
 40
0.4600261555596676
 40
0.5079118935892761
 40
0.5557967688356094
 40
0.6036823342258365
 40
0.6515703055022037
 40
0.6994627592635235
 40
0.7473610673730035
 40
0.7952672273446993
 40
0.8431825943885437
 40
0.89110818728292
 40
0.9390453732835088
 40
0.9869947621046501
 40
1.0
 40
1.0
 40
1.0
 40
1.0
 10
118.3614831656956
 20
58.55683988506186
 30
0.0
 10
118.4592046137134
 20
58.55815778820239
 30
0.0
 10
118.7199313156032
 20
58.56167403306172
 30
0.0
 10
119.1426040956568
 20
58.5980594031561
 30
0.0
 10
119.6258874526264
 20
58.67456905421231
 30
0.0
 10
120.101936922508
 20
58.7877081237265
 30
0.0
 10
120.5680257104242
 20
58.93614251223883
 30
0.0
 10
121.0215314484831
 20
59.11920646385436
 30
0.0
 10
121.4598968037157
 20
59.3358134870403
 30
0.0
 10
121.8806560826957
 20
59.58474514898285
 30
0.0
 10
122.2814409620349
 20
59.86459089959118
 30
0.0
 10
122.6599945497552
 20
60.17377430335102
 30
0.0
 10
123.0141947659233
 20
60.51054267628854
 30
0.0
 10
123.3420397011559
 20
60.8730055018827
 30
0.0
 10
123.641691126882
 20
61.25911158636449
 30
0.0
 10
123.9114560909512
 20
61.66669091903802
 30
0.0
 10
124.1498192291022
 20
62.09344534137364
 30
0.0
 10
124.3554378989977
 20
62.53697326805163
 30
0.0
 10
124.5271517297614
 20
62.99478199882506
 30
0.0
 10
124.6639721984564
 20
63.4642896233599
 30
0.0
 10
124.7652174451977
 20
63.94286363540105
 30
0.0
 10
124.8299250042304
 20
64.42778075305631
 30
0.0
 10
124.8520805839339
 20
64.79766495929871
 30
0.0
 10
124.8534054560406
 20
65.00484174950475
 30
0.0
 10
124.8536881298565
 20
65.04904484922278
 30
0.0
  0
LINE
  5
96
330
1F
100
AcDbEntity
  8
0
  6
Continuous
 62
     7
370
    30
100
AcDbLine
 10
69.0265398712
 20
58.5568398851
 30
0.0
 11
118.3614831657
 21
58.5568398851
 31
0.0
  0
LINE
  5
97
330
1F
100
AcDbEntity
  8
0
  6
Continuous
 62
     7
370
    30
100
AcDbLine
 10
120.1940112055
 20
57.2165176886
 30
0.0
 11
67.1940118314
 21
57.2165176886
 31
0.0
  0
ARC
  5
98
330
1F
100
AcDbEntity
  8
0
  6
Continuous
 62
     7
370
    30
100
AcDbCircle
 10
67.1940115184
 20
63.2165168337
 30
0.0
 40
6.000000000000007
100
AcDbArc
 50
180.0
 51
270.0
  0
LINE
  5
99
330
1F
100
AcDbEntity
  8
0
  6
Continuous
 62
     7
370
    30
100
AcDbLine
 10
61.1940127105
 20
63.2165168094
 30
0.0
 11
61.1940127105
 21
118.716515662
 31
0.0
  0
LINE
  5
9A
330
1F
100
AcDbEntity
  8
0
  6
Continuous
 62
     7
370
    30
100
AcDbLine
 10
126.1940103263
 20
118.716515662
 30
0.0
 11
126.1940103263
 21
63.2165168094
 31
0.0
  0
ARC
  5
9B
330
1F
100
AcDbEntity
  8
0
  6
Continuous
 62
     7
370
    30
100
AcDbCircle
 10
120.1940115184
 20
63.2165168337
 30
0.0
 40
6.0
100
AcDbArc
 50
270.0
 51
0.0
  0
ARC
  5
9C
330
1F
100
AcDbEntity
  8
0
  6
Continuous
 62
     7
370
    30
100
AcDbCircle
 10
67.1940115184
 20
118.7165168337
 30
0.0
 40
6.000000000000007
100
AcDbArc
 50
90.0
 51
180.0
  0
LINE
  5
9D
330
1F
100
AcDbEntity
  8
0
  6
Continuous
 62
     7
370
    30
100
AcDbLine
 10
67.1940118314
 20
124.7165166455
 30
0.0
 11
120.1940112055
 21
124.7165166455
 31
0.0
  0
ARC
  5
9E
330
1F
100
AcDbEntity
  8
0
  6
Continuous
 62
     7
370
    30
100
AcDbCircle
 10
120.1940115184
 20
118.7165168337
 30
0.0
 40
6.0
100
AcDbArc
 50
0.0
 51
90.0
  0
ELLIPSE
  5
9F
330
1F
100
AcDbEntity
  8
0
  6
Continuous
 62
     8
370
     0
100
AcDbEllipse
 10
118.3458791855
 20
114.3683845008
 30
0.0
 11
-3.546567990600266
 21
-3.54656799060028
 31
0.0
210
0.0
220
0.0
230
1.0
 40
0.9968887993
 41
2.357752512923521
 42
3.925432794256072
  0
LINE
  5
A0
330
1F
100
AcDbEntity
  8
0
  6
Continuous
 62
     8
370
     0
100
AcDbLine
 10
118.3614831657
 20
119.3761937934
 30
0.0
 11
118.3614831657
 21
120.8761931079
 31
0.0
  0
LINE
  5
A1
330
1F
100
AcDbEntity
  8
0
  6
Continuous
 62
     8
370
     0
100
AcDbLine
 10
124.8536881299
 20
114.3839881437
 30
0.0
 11
123.3536869527
 21
114.3839881437
 31
0.0
  0
ELLIPSE
  5
A2
330
1F
100
AcDbEntity
  8
0
  6
Continuous
 62
     8
370
     0
100
AcDbEllipse
 10
69.0421438513
 20
114.3683845008
 30
0.0
 11
3.546567990600253
 21
-3.54656799060028
 31
0.0
210
0.0
220
0.0
230
1.0
 40
0.9968887993
 41
2.35775251292353
 42
3.925432794256081
  0
LINE
  5
A3
330
1F
100
AcDbEntity
  8
0
  6
Continuous
 62
     8
370
     0
100
AcDbLine
 10
64.0343360842
 20
114.3839881437
 30
0.0
 11
62.534334907
 21
114.3839881437
 31
0.0
  0
LINE
  5
A4
330
1F
100
AcDbEntity
  8
0
  6
Continuous
 62
     8
370
     0
100
AcDbLine
 10
69.0265398712
 20
119.3761937934
 30
0.0
 11
69.0265398712
 21
120.8761931079
 31
0.0
  0
LINE
  5
A5
330
1F
100
AcDbEntity
  8
0
  6
Continuous
 62
     8
370
     0
100
AcDbLine
 10
118.3614831657
 20
119.3761937934
 30
0.0
 11
69.0265398712
 21
119.3761937934
 31
0.0
  0
LINE
  5
A6
330
1F
100
AcDbEntity
  8
0
  6
Continuous
 62
     8
370
     0
100
AcDbLine
 10
115.5990928651
 20
116.1077283936
 30
0.0
 11
71.7889301718
 21
116.1077283936
 31
0.0
  0
LINE
  5
A7
330
1F
100
AcDbEntity
  8
0
  6
Continuous
 62
     8
370
     0
100
AcDbLine
 10
71.7889301718
 20
116.1077283936
 30
0.0
 11
71.7889301718
 21
117.6031008976
 31
0.0
  0
LINE
  5
A8
330
1F
100
AcDbEntity
  8
0
  6
Continuous
 62
     8
370
     0
100
AcDbLine
 10
71.7889301718
 20
117.6031008976
 30
0.0
 11
115.5990928651
 21
117.6031008976
 31
0.0
  0
LINE
  5
A9
330
1F
100
AcDbEntity
  8
0
  6
Continuous
 62
     8
370
     0
100
AcDbLine
 10
115.5990928651
 20
116.1077283936
 30
0.0
 11
115.5990928651
 21
117.6031008976
 31
0.0
  0
ELLIPSE
  5
AA
330
1F
100
AcDbEntity
  8
0
  6
Continuous
 62
     8
370
     0
100
AcDbEllipse
 10
71.8259789718
 20
111.5845493803
 30
0.0
 11
3.214687641936081
 21
-3.214687641936052
 31
0.0
210
0.0
220
0.0
230
1.0
 40
0.9898257217
 41
2.359272424483098
 42
3.923912882696496
  0
LINE
  5
AB
330
1F
100
AcDbEntity
  8
0
  6
Continuous
 62
     8
370
     0
100
AcDbLine
 10
67.3028014839
 20
111.6215978431
 30
0.0
 11
65.8074252547
 21
111.6215978431
 31
0.0
  0
ELLIPSE
  5
AC
330
1F
100
AcDbEntity
  8
0
  6
Continuous
 62
     8
370
     0
100
AcDbEllipse
 10
71.8259789718
 20
111.5845493803
 30
0.0
 11
4.268838543638766
 21
-4.268838543638766
 31
0.0
210
0.0
220
0.0
230
1.0
 40
0.9938630013
 41
2.359272424483102
 42
3.9239128826965
  0
LINE
  5
AD
330
1F
100
AcDbEntity
  8
0
  6
Continuous
 62
     8
370
     0
100
AcDbLine
 10
123.3536869527
 20
65.0490448492
 30
0.0
 11
123.3536869527
 21
114.3839881437
 31
0.0
  0
ELLIPSE
  5
AE
330
1F
100
AcDbEntity
  8
0
  6
Continuous
 62
     8
370
     0
100
AcDbEllipse
 10
118.3458791855
 20
65.0646491666
 30
0.0
 11
-3.546567990600266
 21
3.546567990600252
 31
0.0
210
0.0
220
0.0
230
1.0
 40
0.9968887993
 41
2.357752512923523
 42
3.925432794256068
  0
LINE
  5
AF
330
1F
100
AcDbEntity
  8
0
  6
Continuous
 62
     8
370
     0
100
AcDbLine
 10
69.0265398712
 20
60.0568410623
 30
0.0
 11
118.3614831657
 21
60.0568410623
 31
0.0
  0
ELLIPSE
  5
B0
330
1F
100
AcDbEntity
  8
0
  6
Continuous
 62
     8
370
     0
100
AcDbEllipse
 10
69.0421438513
 20
65.0646491666
 30
0.0
 11
3.546567990600252
 21
3.546567990600252
 31
0.0
210
0.0
220
0.0
230
0.9999999999999998
 40
0.9968887993
 41
2.35775251292353
 42
3.92543279425607
  0
LINE
  5
B1
330
1F
100
AcDbEntity
  8
0
  6
Continuous
 62
     8
370
     0
100
AcDbLine
 10
64.0343360842
 20
114.3839881437
 30
0.0
 11
64.0343360842
 21
65.0490448492
 31
0.0
  0
ELLIPSE
  5
B2
330
1F
100
AcDbEntity
  8
0
  6
Continuous
 62
     8
370
     0
100
AcDbEllipse
 10
115.562044065
 20
67.8484842871
 30
0.0
 11
-4.268838543638751
 21
4.268838543638751
 31
0.0
210
0.0
220
0.0
230
0.9999999999999998
 40
0.9938630013
 41
2.359272424483102
 42
3.923912882696498
  0
LINE
  5
B3
330
1F
100
AcDbEntity
  8
0
  6
Continuous
 62
     8
370
     0
100
AcDbLine
 10
121.5805977822
 20
111.6215978431
 30
0.0
 11
121.5805977822
 21
67.8114351499
 31
0.0
  0
ELLIPSE
  5
B4
330
1F
100
AcDbEntity
  8
0
  6
Continuous
 62
     8
370
     0
100
AcDbEllipse
 10
115.562044065
 20
111.5845493803
 30
0.0
 11
-4.268838543638751
 21
-4.268838543638765
 31
0.0
210
0.0
220
0.0
230
1.0
 40
0.9938630013
 41
2.359272424483095
 42
3.9239128826965
  0
LINE
  5
B5
330
1F
100
AcDbEntity
  8
0
  6
Continuous
 62
     8
370
     0
100
AcDbLine
 10
65.8074252547
 20
67.8114351499
 30
0.0
 11
65.8074252547
 21
111.6215978431
 31
0.0
  0
ELLIPSE
  5
B6
330
1F
100
AcDbEntity
  8
0
  6
Continuous
 62
     8
370
     0
100
AcDbEllipse
 10
71.8259789718
 20
67.8484842871
 30
0.0
 11
4.268838543638766
 21
4.268838543638766
 31
0.0
210
0.0
220
0.0
230
1.0
 40
0.9938630013
 41
2.359272424483097
 42
3.923912882696501
  0
LINE
  5
B7
330
1F
100
AcDbEntity
  8
0
  6
Continuous
 62
     8
370
     0
100
AcDbLine
 10
115.5990928651
 20
61.8299302327
 30
0.0
 11
71.7889301718
 21
61.8299302327
 31
0.0
  0
LINE
  5
B8
330
1F
100
AcDbEntity
  8
0
  6
Continuous
 62
     8
370
     0
100
AcDbLine
 10
121.5805977822
 20
111.6215978431
 30
0.0
 11
120.0852215529
 21
111.6215978431
 31
0.0
  0
ELLIPSE
  5
B9
330
1F
100
AcDbEntity
  8
0
  6
Continuous
 62
     8
370
     0
100
AcDbEllipse
 10
115.562044065
 20
111.5845493803
 30
0.0
 11
3.214687641936095
 21
3.214687641936052
 31
0.0
210
0.0
220
0.0
230
1.0
 40
0.9898257217
 41
5.500865078072909
 42
7.065505536286287
  0
LINE
  5
BA
330
1F
100
AcDbEntity
  8
0
  6
Continuous
 62
     8
370
     0
100
AcDbLine
 10
64.0343360842
 20
65.0490448492
 30
0.0
 11
62.534334907
 21
65.0490448492
 31
0.0
  0
LINE
  5
BB
330
1F
100
AcDbEntity
  8
0
  6
Continuous
 62
     8
370
     0
100
AcDbLine
 10
124.8536881299
 20
65.0490448492
 30
0.0
 11
123.3536869527
 21
65.0490448492
 31
0.0
  0
LINE
  5
BC
330
1F
100
AcDbEntity
  8
0
  6
Continuous
 62
     8
370
     0
100
AcDbLine
 10
121.5805977822
 20
67.8114351499
 30
0.0
 11
120.0852215529
 21
67.8114351499
 31
0.0
  0
LINE
  5
BD
330
1F
100
AcDbEntity
  8
0
  6
Continuous
 62
     8
370
     0
100
AcDbLine
 10
120.0852215529
 20
67.8114351499
 30
0.0
 11
120.0852215529
 21
111.6215978431
 31
0.0
  0
LINE
  5
BE
330
1F
100
AcDbEntity
  8
0
  6
Continuous
 62
     8
370
     0
100
AcDbLine
 10
67.3028014839
 20
111.6215978431
 30
0.0
 11
67.3028014839
 21
67.8114351499
 31
0.0
  0
LINE
  5
BF
330
1F
100
AcDbEntity
  8
0
  6
Continuous
 62
     8
370
     0
100
AcDbLine
 10
67.3028014839
 20
67.8114351499
 30
0.0
 11
65.8074252547
 21
67.8114351499
 31
0.0
  0
ELLIPSE
  5
C0
330
1F
100
AcDbEntity
  8
0
  6
Continuous
 62
     8
370
     0
100
AcDbEllipse
 10
71.8259789718
 20
67.8484842871
 30
0.0
 11
3.214687641936081
 21
3.214687641936067
 31
0.0
210
0.0
220
0.0
230
1.0
 40
0.9898257217
 41
2.359272424483098
 42
3.923912882696504
  0
LINE
  5
C1
330
1F
100
AcDbEntity
  8
0
  6
Continuous
 62
     8
370
     0
100
AcDbLine
 10
71.7889301718
 20
61.8299302327
 30
0.0
 11
71.7889301718
 21
63.325306462
 31
0.0
  0
LINE
  5
C2
330
1F
100
AcDbEntity
  8
0
  6
Continuous
 62
     8
370
     0
100
AcDbLine
 10
69.0265398712
 20
58.5568417477
 30
0.0
 11
69.0265398712
 21
60.0568410623
 31
0.0
  0
LINE
  5
C3
330
1F
100
AcDbEntity
  8
0
  6
Continuous
 62
     8
370
     0
100
AcDbLine
 10
115.5990928651
 20
61.8299302327
 30
0.0
 11
115.5990928651
 21
63.325306462
 31
0.0
  0
ELLIPSE
  5
C4
330
1F
100
AcDbEntity
  8
0
  6
Continuous
 62
     8
370
     0
100
AcDbEllipse
 10
115.562044065
 20
67.8484842871
 30
0.0
 11
3.214687641936095
 21
-3.214687641936067
 31
0.0
210
0.0
220
0.0
230
0.9999999999999998
 40
0.9898257217
 41
5.500865078072901
 42
7.065505536286276
  0
LINE
  5
C5
330
1F
100
AcDbEntity
  8
0
  6
Continuous
 62
     8
370
     0
100
AcDbLine
 10
118.3614831657
 20
58.5568417477
 30
0.0
 11
118.3614831657
 21
60.0568410623
 31
0.0
  0
LINE
  5
C6
330
1F
100
AcDbEntity
  8
0
  6
Continuous
 62
     8
370
     0
100
AcDbLine
 10
71.7889301718
 20
63.325306462
 30
0.0
 11
115.5990928651
 21
63.325306462
 31
0.0
  0
ARC
  5
C7
330
1F
100
AcDbEntity
  8
0
  6
Continuous
 62
     8
370
     0
100
AcDbCircle
 10
77.3375055752
 20
106.0730224398
 30
0.0
 40
4.518740746929212
100
AcDbArc
 50
90.4120295838
 51
179.5879704162
  0
LINE
  5
C8
330
1F
100
AcDbEntity
  8
0
  6
Continuous
 62
     8
370
     0
100
AcDbLine
 10
72.8188816697
 20
106.1055176573
 30
0.0
 11
67.3028014839
 21
111.6215978431
 31
0.0
  0
LINE
  5
C9
330
1F
100
AcDbEntity
  8
0
  6
Continuous
 62
     8
370
     0
100
AcDbLine
 10
71.7889301718
 20
116.1077283936
 30
0.0
 11
77.3050103576
 21
110.5916463452
 31
0.0
  0
ARC
  5
CA
330
1F
100
AcDbEntity
  8
0
  6
Continuous
 62
     8
370
     0
100
AcDbCircle
 10
110.0505174617
 20
106.0730224398
 30
0.0
 40
4.518740746929212
100
AcDbArc
 50
0.4120295838
 51
89.5879704162
  0
LINE
  5
CB
330
1F
100
AcDbEntity
  8
0
  6
Continuous
 62
     8
370
     0
100
AcDbLine
 10
110.0830126793
 20
110.5916463452
 30
0.0
 11
115.5990928651
 21
116.1077283936
 31
0.0
  0
LINE
  5
CC
330
1F
100
AcDbEntity
  8
0
  6
Continuous
 62
     8
370
     0
100
AcDbLine
 10
120.0852215529
 20
111.6215978431
 30
0.0
 11
114.5691413672
 21
106.1055176573
 31
0.0
  0
ARC
  5
CD
330
1F
100
AcDbEntity
  8
0
  6
Continuous
 62
     8
370
     0
100
AcDbCircle
 10
77.3375044889
 20
73.360010405
 30
0.0
 40
4.518739659650619
100
AcDbArc
 50
180.4120278041
 51
269.5879840906
  0
LINE
  5
CE
330
1F
100
AcDbEntity
  8
0
  6
Continuous
 62
     8
370
     0
100
AcDbLine
 10
77.3050103576
 20
68.8413875791
 30
0.0
 11
71.7889301718
 21
63.325306462
 31
0.0
  0
LINE
  5
CF
330
1F
100
AcDbEntity
  8
0
  6
Continuous
 62
     8
370
     0
100
AcDbLine
 10
67.3028014839
 20
67.8114351499
 30
0.0
 11
72.8188816697
 21
73.3275153356
 31
0.0
  0
ARC
  5
D0
330
1F
100
AcDbEntity
  8
0
  6
Continuous
 62
     8
370
     0
100
AcDbCircle
 10
110.050518548
 20
73.360010405
 30
0.0
 40
4.518739659650619
100
AcDbArc
 50
270.4120159094
 51
359.5879721959
  0
LINE
  5
D1
330
1F
100
AcDbEntity
  8
0
  6
Continuous
 62
     8
370
     0
100
AcDbLine
 10
114.5691413672
 20
73.3275153356
 30
0.0
 11
120.0852215529
 21
67.8114351499
 31
0.0
  0
LINE
  5
D2
330
1F
100
AcDbEntity
  8
0
  6
Continuous
 62
     8
370
     0
100
AcDbLine
 10
115.5990928651
 20
63.325306462
 30
0.0
 11
110.0830126793
 21
68.8413875791
 31
0.0
  0
LINE
  5
D3
330
1F
100
AcDbEntity
  8
0
  6
Continuous
 62
     8
370
     0
100
AcDbLine
 10
77.3050103576
 20
110.5916463452
 30
0.0
 11
110.0830126793
 21
110.5916463452
 31
0.0
  0
LINE
  5
D4
330
1F
100
AcDbEntity
  8
0
  6
Continuous
 62
     8
370
     0
100
AcDbLine
 10
72.8188816697
 20
73.3275153356
 30
0.0
 11
72.8188816697
 21
106.1055176573
 31
0.0
  0
LINE
  5
D5
330
1F
100
AcDbEntity
  8
0
  6
Continuous
 62
     8
370
     0
100
AcDbLine
 10
114.5691413672
 20
106.1055176573
 30
0.0
 11
114.5691413672
 21
73.3275153356
 31
0.0
  0
LINE
  5
D6
330
1F
100
AcDbEntity
  8
0
  6
Continuous
 62
     8
370
     0
100
AcDbLine
 10
110.0830126793
 20
68.8413875791
 30
0.0
 11
77.3050103576
 21
68.8413875791
 31
0.0
  0
LWPOLYLINE
  5
D7
330
1F
100
AcDbEntity
  8
0
  6
Continuous
 62
     8
370
     0
100
AcDbPolyline
 90
       19
 70
   128
 43
0.0
 10
77.3050103576
 20
110.5916463452
 10
77.3198910297
 20
110.5321199315
 10
77.3449417443
 20
110.4319170731
 10
77.3799911381
 20
110.2917232233
 10
77.4247952045
 20
110.1125032323
 10
77.4790503324
 20
109.895486446
 10
77.5423802675
 20
109.6421667057
 10
77.6143510134
 20
109.3542799967
 10
77.6944689692
 20
109.0338063108
 10
77.7821846545
 20
108.6829472947
 10
77.8768945725
 20
108.3041113483
 10
77.9779467971
 20
107.8999024498
 10
78.0846474931
 20
107.4730959403
 10
78.1962655724
 20
107.0266217607
 10
78.312033625
 20
106.5635514128
 10
78.4311563016
 20
106.0870625692
 10
78.5528140382
 20
105.6004278975
 10
78.6761733011
 20
105.1069908457
 10
78.8003856555
 20
104.6101432907
  0
LWPOLYLINE
  5
D8
330
1F
100
AcDbEntity
  8
0
  6
Continuous
 62
     8
370
     0
100
AcDbPolyline
 90
       19
 70
   128
 43
0.0
 10
72.8188816697
 20
106.1055176573
 10
72.8784080834
 20
106.0906369852
 10
72.9786109418
 20
106.0655862706
 10
73.1188047916
 20
106.0305368769
 10
73.2980247826
 20
105.9857328104
 10
73.5150415689
 20
105.9314776825
 10
73.7683631719
 20
105.8681477475
 10
74.0562480182
 20
105.7961770015
 10
74.3767217041
 20
105.7160590457
 10
74.7275807203
 20
105.6283433604
 10
75.1064166666
 20
105.5336353051
 10
75.5106274278
 20
105.4325830805
 10
75.9374339373
 20
105.3258814531
 10
76.3839062542
 20
105.2142624425
 10
76.8469766022
 20
105.0984953212
 10
77.3234654457
 20
104.9793717133
 10
77.8101001174
 20
104.8577130454
 10
78.3035362379
 20
104.7343556451
 10
78.8003856555
 20
104.6101432907
  0
LWPOLYLINE
  5
D9
330
1F
100
AcDbEntity
  8
0
  6
Continuous
 62
     8
370
     0
100
AcDbPolyline
 90
       19
 70
   128
 43
0.0
 10
110.0830126793
 20
110.5916463452
 10
110.0681320072
 20
110.5321199315
 10
110.0430812926
 20
110.4319170731
 10
110.0080318988
 20
110.2917232233
 10
109.9632278324
 20
110.1125032323
 10
109.9089727045
 20
109.895486446
 10
109.8456427694
 20
109.6421667057
 10
109.7736720235
 20
109.3542799967
 10
109.6935540677
 20
109.0338063108
 10
109.6058383823
 20
108.6829472947
 10
109.5111284644
 20
108.3041113483
 10
109.4100762398
 20
107.8999024498
 10
109.3033755437
 20
107.4730959403
 10
109.1917574645
 20
107.0266217607
 10
109.0759894118
 20
106.5635514128
 10
108.9568667353
 20
106.0870625692
 10
108.8352089987
 20
105.6004278975
 10
108.7118497358
 20
105.1069908457
 10
108.5876373813
 20
104.6101432907
  0
LINE
  5
DA
330
1F
100
AcDbEntity
  8
0
  6
Continuous
 62
     8
370
     0
100
AcDbLine
 10
108.5876373813
 20
104.6101432907
 30
0.0
 11
78.8003856555
 21
104.6101432907
 31
0.0
  0
LWPOLYLINE
  5
DB
330
1F
100
AcDbEntity
  8
0
  6
Continuous
 62
     8
370
     0
100
AcDbPolyline
 90
       19
 70
   128
 43
0.0
 10
108.5876373813
 20
104.6101432907
 10
109.084486799
 20
104.7343556451
 10
109.5779229195
 20
104.8577130454
 10
110.0645575912
 20
104.9793717133
 10
110.5410464347
 20
105.0984953212
 10
111.0041167826
 20
105.2142624425
 10
111.4505890996
 20
105.3258814531
 10
111.8773956091
 20
105.4325830805
 10
112.2816063703
 20
105.5336353051
 10
112.6604423166
 20
105.6283433604
 10
113.0113013328
 20
105.7160590457
 10
113.3317750186
 20
105.7961770015
 10
113.619659865
 20
105.8681477475
 10
113.8729814679
 20
105.9314776825
 10
114.0899982543
 20
105.9857328104
 10
114.2692182452
 20
106.0305368769
 10
114.409412095
 20
106.0655862706
 10
114.5096149535
 20
106.0906369852
 10
114.5691413672
 20
106.1055176573
  0
LINE
  5
DC
330
1F
100
AcDbEntity
  8
0
  6
Continuous
 62
     8
370
     0
100
AcDbLine
 10
78.8003856555
 20
104.6101432907
 30
0.0
 11
78.8003856555
 21
74.8228910993
 31
0.0
  0
LWPOLYLINE
  5
DD
330
1F
100
AcDbEntity
  8
0
  6
Continuous
 62
     8
370
     0
100
AcDbPolyline
 90
       19
 70
   128
 43
0.0
 10
72.8188816697
 20
73.3275153356
 10
72.8784080834
 20
73.342396939
 10
72.9786109418
 20
73.3674476537
 10
73.1188047916
 20
73.4024961161
 10
73.2980247826
 20
73.4473011138
 10
73.5150415689
 20
73.5015553104
 10
73.7683631719
 20
73.5648852455
 10
74.0562480182
 20
73.6368569228
 10
74.3767217041
 20
73.7169748786
 10
74.7275807203
 20
73.8046896326
 10
75.1064166666
 20
73.8993986192
 10
75.5106274278
 20
74.0004517751
 10
75.9374339373
 20
74.1071534025
 10
76.3839062542
 20
74.2187714818
 10
76.8469766022
 20
74.3345386031
 10
77.3234654457
 20
74.4536612796
 10
77.8101001174
 20
74.5753199475
 10
78.3035362379
 20
74.6986787448
 10
78.8003856555
 20
74.8228910993
  0
LINE
  5
DE
330
1F
100
AcDbEntity
  8
0
  6
Continuous
 62
     8
370
     0
100
AcDbLine
 10
108.5876373813
 20
74.8228910993
 30
0.0
 11
108.5876373813
 21
104.6101432907
 31
0.0
  0
LWPOLYLINE
  5
DF
330
1F
100
AcDbEntity
  8
0
  6
Continuous
 62
     8
370
     0
100
AcDbPolyline
 90
       19
 70
   128
 43
0.0
 10
108.5876373813
 20
74.8228910993
 10
109.084486799
 20
74.6986787448
 10
109.5779229195
 20
74.5753199475
 10
110.0645575912
 20
74.4536612796
 10
110.5410464347
 20
74.3345386031
 10
111.0041167826
 20
74.2187714818
 10
111.4505890996
 20
74.1071534025
 10
111.8773956091
 20
74.0004517751
 10
112.2816063703
 20
73.8993986192
 10
112.6604423166
 20
73.8046896326
 10
113.0113013328
 20
73.7169748786
 10
113.3317750186
 20
73.6368569228
 10
113.619659865
 20
73.5648852455
 10
113.8729814679
 20
73.5015553104
 10
114.0899982543
 20
73.4473011138
 10
114.2692182452
 20
73.4024961161
 10
114.409412095
 20
73.3674476537
 10
114.5096149535
 20
73.342396939
 10
114.5691413672
 20
73.3275153356
  0
LWPOLYLINE
  5
E0
330
1F
100
AcDbEntity
  8
0
  6
Continuous
 62
     8
370
     0
100
AcDbPolyline
 90
       19
 70
   128
 43
0.0
 10
78.8003856555
 20
74.8228910993
 10
78.6761733011
 20
74.3260421472
 10
78.5528140382
 20
73.8326060268
 10
78.4311563016
 20
73.3459713551
 10
78.312033625
 20
72.8694825115
 10
78.1962655724
 20
72.4064112323
 10
78.0846474931
 20
71.9599389153
 10
77.9779467971
 20
71.5331314745
 10
77.8768945725
 20
71.128922576
 10
77.7821846545
 20
70.7500866296
 10
77.6944689692
 20
70.3992276135
 10
77.6143510134
 20
70.0787539276
 10
77.5423802675
 20
69.7908681499
 10
77.4790503324
 20
69.537546547
 10
77.4247952045
 20
69.320530692
 10
77.3799911381
 20
69.141310701
 10
77.3449417443
 20
69.0011168512
 10
77.3198910297
 20
68.9009130614
 10
77.3050103576
 20
68.8413875791
  0
LWPOLYLINE
  5
E1
330
1F
100
AcDbEntity
  8
0
  6
Continuous
 62
     8
370
     0
100
AcDbPolyline
 90
       19
 70
   128
 43
0.0
 10
108.5876373813
 20
74.8228910993
 10
108.7118497358
 20
74.3260421472
 10
108.8352089987
 20
73.8326060268
 10
108.9568667353
 20
73.3459713551
 10
109.0759894118
 20
72.8694825115
 10
109.1917574645
 20
72.4064112323
 10
109.3033755437
 20
71.9599389153
 10
109.4100762398
 20
71.5331314745
 10
109.5111284644
 20
71.128922576
 10
109.6058383823
 20
70.7500866296
 10
109.6935540677
 20
70.3992276135
 10
109.7736720235
 20
70.0787539276
 10
109.8456427694
 20
69.7908681499
 10
109.9089727045
 20
69.537546547
 10
109.9632278324
 20
69.320530692
 10
110.0080318988
 20
69.141310701
 10
110.0430812926
 20
69.0011168512
 10
110.0681320072
 20
68.9009130614
 10
110.0830126793
 20
68.8413875791
  0
LINE
  5
E2
330
1F
100
AcDbEntity
  8
0
  6
Continuous
 62
     8
370
     0
100
AcDbLine
 10
78.8003856555
 20
74.8228910993
 30
0.0
 11
108.5876373813
 21
74.8228910993
 31
0.0
  0
DIMENSION
  5
E3
330
1F
100
AcDbEntity
  8
0
  6
Continuous
 62
     7
370
     0
100
AcDbDimension
  2
*D2
 10
44.5773386083
 20
57.2165168337
 30
0.0
 11
44.5773386083
 21
88.7431138519
 31
0.0
 70
   160
  1
(<>)
 71
     2
 42
-1.0
  3
SLDDIMSTYLE0
100
AcDbAlignedDimension
 13
67.1940115184
 23
124.7165168337
 33
0.0
 14
67.1940115184
 24
57.2165168337
 34
0.0
 50
90.0
100
AcDbRotatedDimension
  0
DIMENSION
  5
EF
330
1F
100
AcDbEntity
  8
0
  6
Continuous
 62
     7
370
     0
100
AcDbDimension
  2
*D3
 10
126.1940115184
 20
44.9961594348
 30
0.0
 11
92.260745668
 21
44.9961594348
 31
0.0
 70
   160
  1
(<>)
 71
     2
 42
-1.0
  3
SLDDIMSTYLE0
100
AcDbAlignedDimension
 13
61.1940115184
 23
63.2165168337
 33
0.0
 14
126.1940115184
 24
63.2165168337
 34
0.0
 50
0.0
100
AcDbRotatedDimension
  0
SPLINE
  5
FB
330
1F
100
AcDbEntity
  8
0
  6
Continuous
 62
     7
370
    30
100
AcDbSpline
210
0.0
220
0.0
230
1.0
 70
     8
 71
     3
 72
    22
 73
    18
 74
     0
 42
0.00000001
 43
0.00000001
 40
0.0
 40
0.0
 40
0.0
 40
0.0
 40
0.058254655111092
 40
0.1387129919524338
 40
0.2393550574243161
 40
0.3269840638043031
 40
0.4062484234439528
 40
0.4817415888803083
 40
0.5594371235109015
 40
0.6089118078911165
 40
0.6591228676967817
 40
0.6933294994649953
 40
0.728336973619892
 40
0.7690776737955749
 40
0.8482456029050721
 40
0.949237868772357
 40
1.0
 40
1.0
 40
1.0
 40
1.0
 10
204.5488529555475
 20
179.6492773529893
 30
0.0
 10
204.6884033007063
 20
179.6492767058383
 30
0.0
 10
205.0206934132827
 20
179.6492751648755
 30
0.0
 10
205.5939705315598
 20
179.6492724665612
 30
0.0
 10
206.237350947593
 20
179.6492691793816
 30
0.0
 10
206.877136391385
 20
179.649265658556
 30
0.0
 10
207.4551278987556
 20
179.6492630408083
 30
0.0
 10
208.0031614953006
 20
179.649261479136
 30
0.0
 10
208.4678371121735
 20
179.6492617258539
 30
0.0
 10
208.8562720022979
 20
179.6492640172166
 30
0.0
 10
209.1314097833648
 20
179.6492678103789
 30
0.0
 10
209.3621572834296
 20
179.6492723256293
 30
0.0
 10
209.5629363383474
 20
179.6492770600073
 30
0.0
 10
209.8287017287265
 20
179.6492829510055
 30
0.0
 10
210.188651837934
 20
179.6492884366903
 30
0.0
 10
210.5530850884599
 20
179.6492619601976
 30
0.0
 10
210.7851225762562
 20
179.6492909437452
 30
0.0
 10
210.8627395523091
 20
179.6493006387963
 30
0.0
  0
SPLINE
  5
FC
330
1F
100
AcDbEntity
  8
0
  6
Continuous
 62
     7
370
    30
100
AcDbSpline
210
0.0
220
0.0
230
1.0
 70
     8
 71
     3
 72
    19
 73
    15
 74
     0
 42
0.00000001
 43
0.00000001
 40
0.0
 40
0.0
 40
0.0
 40
0.0
 40
0.1248275517049872
 40
0.1930890379615585
 40
0.2624317028451783
 40
0.3352681918405781
 40
0.413539895949438
 40
0.4981779048439116
 40
0.5899196771361613
 40
0.6891529304305275
 40
0.7845829632922716
 40
0.8957428420260569
 40
0.9896990167462671
 40
1.0
 40
1.0
 40
1.0
 40
1.0
 10
165.9462156270386
 20
179.6492638128582
 30
0.0
 10
165.9951555960519
 20
179.649262699494
 30
0.0
 10
166.0708582066179
 20
179.6492609772906
 30
0.0
 10
166.2697669059395
 20
179.64926654532
 30
0.0
 10
166.4576904152866
 20
179.6492756785891
 30
0.0
 10
166.7000259654571
 20
179.6492919092787
 30
0.0
 10
166.998820417455
 20
179.6493143918472
 30
0.0
 10
167.3543881800296
 20
179.6493368112205
 30
0.0
 10
167.7663862227011
 20
179.6493496614351
 30
0.0
 10
168.2165592038828
 20
179.6493442793276
 30
0.0
 10
168.7119499946924
 20
179.649318396366
 30
0.0
 10
169.2196116169471
 20
179.649289690786
 30
0.0
 10
169.5979544121366
 20
179.6492778462119
 30
0.0
 10
169.7894273694783
 20
179.6492774201582
 30
0.0
 10
169.8083455882888
 20
179.6492773780626
 30
0.0
  0
LINE
  5
FD
330
1F
100
AcDbEntity
  8
0
  6
Continuous
 62
     7
370
    30
100
AcDbLine
 10
166.0048041183
 20
179.6496164495
 30
0.0
 11
166.009667564
 21
179.6496284411
 31
0.0
  0
LINE
  5
FE
330
1F
100
AcDbEntity
  8
0
  6
Continuous
 62
     7
370
    30
100
AcDbLine
 10
158.5422395854
 20
201.6492611672
 30
0.0
 11
153.4462458673
 21
201.6492611672
 31
0.0
  0
LINE
  5
FF
330
1F
100
AcDbEntity
  8
0
  6
Continuous
 62
     7
370
    30
100
AcDbLine
 10
158.5422395854
 20
201.6492611672
 30
0.0
 11
158.4593359198
 21
182.6492611672
 31
0.0
  0
LINE
  5
100
330
1F
100
AcDbEntity
  8
0
  6
Continuous
 62
     7
370
    30
100
AcDbLine
 10
158.4593359198
 20
182.6492611672
 30
0.0
 11
154.9462458673
 21
182.6492611672
 31
0.0
  0
LINE
  5
101
330
1F
100
AcDbEntity
  8
0
  6
Continuous
 62
     7
370
    30
100
AcDbLine
 10
154.9462458673
 20
182.6492611672
 30
0.0
 11
154.9462458673
 21
179.6492611672
 31
0.0
  0
LINE
  5
102
330
1F
100
AcDbEntity
  8
0
  6
Continuous
 62
     7
370
    30
100
AcDbLine
 10
154.9462458673
 20
179.6492611672
 30
0.0
 11
153.4462458673
 21
179.6492611672
 31
0.0
  0
LINE
  5
103
330
1F
100
AcDbEntity
  8
0
  6
Continuous
 62
     7
370
    30
100
AcDbLine
 10
153.4462458673
 20
179.6492611672
 30
0.0
 11
153.4462458673
 21
201.6492611672
 31
0.0
  0
LINE
  5
104
330
1F
100
AcDbEntity
  8
0
  6
Continuous
 62
     7
370
    30
100
AcDbLine
 10
219.4462458673
 20
179.6492611672
 30
0.0
 11
219.4462458673
 21
182.6492611672
 31
0.0
  0
LINE
  5
105
330
1F
100
AcDbEntity
  8
0
  6
Continuous
 62
     7
370
    30
100
AcDbLine
 10
218.4331558149
 20
182.6492611672
 30
0.0
 11
218.3502521493
 21
201.6492611672
 31
0.0
  0
LINE
  5
106
330
1F
100
AcDbEntity
  8
0
  6
Continuous
 62
     7
370
    30
100
AcDbLine
 10
220.9462458673
 20
201.6492611672
 30
0.0
 11
220.9462458673
 21
179.6492611672
 31
0.0
  0
LINE
  5
107
330
1F
100
AcDbEntity
  8
0
  6
Continuous
 62
     7
370
    30
100
AcDbLine
 10
219.4462458673
 20
182.6492611672
 30
0.0
 11
218.4331558149
 21
182.6492611672
 31
0.0
  0
LINE
  5
108
330
1F
100
AcDbEntity
  8
0
  6
Continuous
 62
     7
370
    30
100
AcDbLine
 10
220.9462458673
 20
201.6492611672
 30
0.0
 11
218.3502521493
 21
201.6492611672
 31
0.0
  0
LINE
  5
109
330
1F
100
AcDbEntity
  8
0
  6
Continuous
 62
     7
370
    30
100
AcDbLine
 10
220.9462458673
 20
179.6492611672
 30
0.0
 11
219.4462458673
 21
179.6492611672
 31
0.0
  0
LINE
  5
10A
330
1F
100
AcDbEntity
  8
0
  6
Continuous
 62
     7
370
    30
100
AcDbLine
 10
161.3404331647
 20
188.2822661221
 30
0.0
 11
161.1599859012
 21
188.378211634
 31
0.0
  0
ARC
  5
10B
330
1F
100
AcDbEntity
  8
0
  6
Continuous
 62
     7
370
    30
100
AcDbCircle
 10
160.7047791005
 20
187.0867747006
 30
0.0
 40
1.353977779790654
100
AcDbArc
 50
4.0
 51
62.0
  0
LINE
  5
10C
330
1F
100
AcDbEntity
  8
0
  6
Continuous
 62
     7
370
    30
100
AcDbLine
 10
162.5018595154
 20
180.797393744
 30
0.0
 11
162.0554586584
 21
187.1812234161
 31
0.0
  0
ARC
  5
10D
330
1F
100
AcDbEntity
  8
0
  6
Continuous
 62
     7
370
    30
100
AcDbCircle
 10
163.4994235657
 20
180.8671502178
 30
0.0
 40
0.9999999999999988
100
AcDbArc
 50
184.0
 51
265.0
  0
LINE
  5
10E
330
1F
100
AcDbEntity
  8
0
  6
Continuous
 62
     7
370
    30
100
AcDbLine
 10
165.9462458673
 20
179.6492611672
 30
0.0
 11
163.4122678229
 21
179.8709555197
 31
0.0
  0
LINE
  5
10F
330
1F
100
AcDbEntity
  8
0
  6
Continuous
 62
     7
370
    30
100
AcDbLine
 10
165.9462458673
 20
179.6492611672
 30
0.0
 11
166.9462458673
 21
179.6492611672
 31
0.0
  0
LINE
  5
110
330
1F
100
AcDbEntity
  8
0
  6
Continuous
 62
     7
370
    30
100
AcDbLine
 10
166.9462458673
 20
179.6492611672
 30
0.0
 11
166.9462458673
 21
178.6492611672
 31
0.0
  0
LINE
  5
111
330
1F
100
AcDbEntity
  8
0
  6
Continuous
 62
     7
370
    30
100
AcDbLine
 10
154.9462458673
 20
178.6492611672
 30
0.0
 11
166.9462458673
 21
178.6492611672
 31
0.0
  0
LINE
  5
112
330
1F
100
AcDbEntity
  8
0
  6
Continuous
 62
     7
370
    30
100
AcDbLine
 10
154.9462458673
 20
178.6492611672
 30
0.0
 11
154.9462458673
 21
182.3605860326
 31
0.0
  0
LINE
  5
113
330
1F
100
AcDbEntity
  8
0
  6
Continuous
 62
     7
370
    30
100
AcDbLine
 10
155.4462458673
 20
182.6492611672
 30
0.0
 11
154.9462458673
 21
182.3605860326
 31
0.0
  0
LINE
  5
114
330
1F
100
AcDbEntity
  8
0
  6
Continuous
 62
     7
370
    30
100
AcDbLine
 10
158.4636992706
 20
182.6492611672
 30
0.0
 11
155.4462458673
 21
182.6492611672
 31
0.0
  0
LINE
  5
115
330
1F
100
AcDbEntity
  8
0
  6
Continuous
 62
     7
370
    30
100
AcDbLine
 10
158.4636992706
 20
182.6492611672
 30
0.0
 11
158.5466029362
 21
201.6492611672
 31
0.0
  0
LINE
  5
116
330
1F
100
AcDbEntity
  8
0
  6
Continuous
 62
     7
370
    30
100
AcDbLine
 10
158.5466029362
 20
201.6492611672
 30
0.0
 11
160.1962458673
 21
201.6492611672
 31
0.0
  0
LINE
  5
117
330
1F
100
AcDbEntity
  8
0
  6
Continuous
 62
     7
370
    30
100
AcDbLine
 10
160.1962458673
 20
201.6492611672
 30
0.0
 11
160.6300666369
 21
189.2262597302
 31
0.0
  0
ARC
  5
118
330
1F
100
AcDbEntity
  8
0
  6
Continuous
 62
     7
370
    30
100
AcDbCircle
 10
161.6294574639
 20
189.2611592269
 30
0.0
 40
0.9999999999999878
100
AcDbArc
 50
182.0
 51
242.0
  0
LINE
  5
119
330
1F
100
AcDbEntity
  8
0
  6
Continuous
 62
     7
370
    30
100
AcDbLine
 10
216.2624250978
 20
189.2262597302
 30
0.0
 11
216.6962458673
 21
201.6492611672
 31
0.0
  0
LINE
  5
11A
330
1F
100
AcDbEntity
  8
0
  6
Continuous
 62
     7
370
    30
100
AcDbLine
 10
218.3458887985
 20
201.6492611672
 30
0.0
 11
218.4287924641
 21
182.6492611672
 31
0.0
  0
LINE
  5
11B
330
1F
100
AcDbEntity
  8
0
  6
Continuous
 62
     7
370
    30
100
AcDbLine
 10
219.4462458673
 20
182.3605860326
 30
0.0
 11
218.9462458673
 21
182.6492611672
 31
0.0
  0
LINE
  5
11C
330
1F
100
AcDbEntity
  8
0
  6
Continuous
 62
     7
370
    30
100
AcDbLine
 10
219.4462458673
 20
182.3605860326
 30
0.0
 11
219.4462458673
 21
178.6492611672
 31
0.0
  0
LINE
  5
11D
330
1F
100
AcDbEntity
  8
0
  6
Continuous
 62
     7
370
    30
100
AcDbLine
 10
209.9462458673
 20
178.6492611672
 30
0.0
 11
209.9462458673
 21
179.6492611672
 31
0.0
  0
LINE
  5
11E
330
1F
100
AcDbEntity
  8
0
  6
Continuous
 62
     7
370
    30
100
AcDbLine
 10
213.4802239118
 20
179.8709555197
 30
0.0
 11
210.9462458673
 21
179.6492611672
 31
0.0
  0
ARC
  5
11F
330
1F
100
AcDbEntity
  8
0
  6
Continuous
 62
     7
370
    30
100
AcDbCircle
 10
213.393068169
 20
180.8671502178
 30
0.0
 40
0.9999999999999988
100
AcDbArc
 50
275.0
 51
356.0
  0
LINE
  5
120
330
1F
100
AcDbEntity
  8
0
  6
Continuous
 62
     7
370
    30
100
AcDbLine
 10
214.8370330763
 20
187.1812234161
 30
0.0
 11
214.3906322193
 21
180.797393744
 31
0.0
  0
ARC
  5
121
330
1F
100
AcDbEntity
  8
0
  6
Continuous
 62
     7
370
    30
100
AcDbCircle
 10
216.1877126342
 20
187.0867747006
 30
0.0
 40
1.353977779790667
100
AcDbArc
 50
118.0
 51
176.0
  0
LINE
  5
122
330
1F
100
AcDbEntity
  8
0
  6
Continuous
 62
     7
370
    30
100
AcDbLine
 10
215.7325058335
 20
188.378211634
 30
0.0
 11
215.55205857
 21
188.2822661221
 31
0.0
  0
ARC
  5
123
330
1F
100
AcDbEntity
  8
0
  6
Continuous
 62
     7
370
    30
100
AcDbCircle
 10
215.2630342708
 20
189.2611592269
 30
0.0
 40
1.000000000000016
100
AcDbArc
 50
298.0
 51
358.0
  0
LINE
  5
124
330
1F
100
AcDbEntity
  8
0
  6
Continuous
 62
     7
370
    30
100
AcDbLine
 10
209.9462458673
 20
179.6492611672
 30
0.0
 11
210.9462458673
 21
179.6492611672
 31
0.0
  0
LINE
  5
125
330
1F
100
AcDbEntity
  8
0
  6
Continuous
 62
     7
370
    30
100
AcDbLine
 10
216.6962458673
 20
201.6492611672
 30
0.0
 11
218.3458887985
 21
201.6492611672
 31
0.0
  0
LINE
  5
126
330
1F
100
AcDbEntity
  8
0
  6
Continuous
 62
     7
370
    30
100
AcDbLine
 10
218.9462458673
 20
182.6492611672
 30
0.0
 11
218.4287924641
 21
182.6492611672
 31
0.0
  0
LINE
  5
127
330
1F
100
AcDbEntity
  8
0
  6
Continuous
 62
     7
370
    30
100
AcDbLine
 10
209.9462458673
 20
178.6492611672
 30
0.0
 11
219.4462458673
 21
178.6492611672
 31
0.0
  0
LINE
  5
128
330
1F
100
AcDbEntity
  8
0
  6
Continuous
 62
     7
370
    30
100
AcDbLine
 10
160.6959412809
 20
201.6667109155
 30
0.0
 11
161.1599859012
 21
188.378211634
 31
0.0
  0
LINE
  5
129
330
1F
100
AcDbEntity
  8
0
  6
Continuous
 62
     7
370
    30
100
AcDbLine
 10
160.4460935741
 20
201.6579860413
 30
0.0
 11
160.6959412809
 21
201.6667109155
 31
0.0
  0
LINE
  5
12A
330
1F
100
AcDbEntity
  8
0
  6
Continuous
 62
     7
370
    30
100
AcDbLine
 10
215.7325058335
 20
188.378211634
 30
0.0
 11
216.1965504538
 21
201.6667109155
 31
0.0
  0
LINE
  5
12B
330
1F
100
AcDbEntity
  8
0
  6
Continuous
 62
     7
370
    30
100
AcDbLine
 10
216.1965504538
 20
201.6667109155
 30
0.0
 11
216.4463981606
 21
201.6579860413
 31
0.0
  0
LINE
  5
12C
330
1F
100
AcDbEntity
  8
0
  6
Continuous
 62
     7
370
    30
100
AcDbLine
 10
160.4460935741
 20
201.6579860413
 30
0.0
 11
160.1962458673
 21
201.6492611672
 31
0.0
  0
LINE
  5
12D
330
1F
100
AcDbEntity
  8
0
  6
Continuous
 62
     7
370
    30
100
AcDbLine
 10
216.4463981606
 20
201.6579860413
 30
0.0
 11
216.6962458673
 21
201.6492611672
 31
0.0
  0
LINE
  5
12E
330
1F
100
AcDbEntity
  8
0
  6
Continuous
 62
     7
370
    30
100
AcDbLine
 10
166.9462458673
 20
179.6492611672
 30
0.0
 11
167.9462458673
 21
179.6492611672
 31
0.0
  0
LINE
  5
12F
330
1F
100
AcDbEntity
  8
0
  6
Continuous
 62
     7
370
    30
100
AcDbLine
 10
166.9462458673
 20
178.6492611672
 30
0.0
 11
167.9462458673
 21
178.6492611672
 31
0.0
  0
LINE
  5
130
330
1F
100
AcDbEntity
  8
0
  6
Continuous
 62
     7
370
    30
100
AcDbLine
 10
208.9462458673
 20
179.6492611672
 30
0.0
 11
209.9462458673
 21
179.6492611672
 31
0.0
  0
LINE
  5
131
330
1F
100
AcDbEntity
  8
0
  6
Continuous
 62
     7
370
    30
100
AcDbLine
 10
208.9462458673
 20
178.6492611672
 30
0.0
 11
209.9462458673
 21
178.6492611672
 31
0.0
  0
LINE
  5
132
330
1F
100
AcDbEntity
  8
0
  6
Continuous
 62
     7
370
    30
100
AcDbLine
 10
167.9462458673
 20
179.6492611672
 30
0.0
 11
208.9462458673
 21
179.6492611672
 31
0.0
  0
LINE
  5
133
330
1F
100
AcDbEntity
  8
0
  6
Continuous
 62
     7
370
    30
100
AcDbLine
 10
167.9462458673
 20
178.6492611672
 30
0.0
 11
208.9462458673
 21
178.6492611672
 31
0.0
  0
SPLINE
  5
134
330
1F
100
AcDbEntity
  8
0
  6
Continuous
 62
     7
370
    30
100
AcDbSpline
210
0.0
220
0.0
230
1.0
 70
    24
 71
     3
 72
    11
 73
     7
 74
     0
 42
0.00000001
 43
0.00000001
 40
0.0
 40
0.0
 40
0.0
 40
0.0
 40
0.2408336173935593
 40
0.5113807726750117
 40
0.7819279279564646
 40
1.0
 40
1.0
 40
1.0
 40
1.0
 10
161.1303714090753
 20
189.226259730179
 30
0.0
 10
161.2289999225055
 20
189.226259730179
 30
0.0
 10
161.4384255249258
 20
189.226259730179
 30
0.0
 10
161.8725633932862
 20
189.226259730179
 30
0.0
 10
162.3561272743029
 20
189.226259730179
 30
0.0
 10
162.7236509179456
 20
189.226259730179
 30
0.0
 10
162.8876777061113
 20
189.226259730179
 30
0.0
  0
LINE
  5
135
330
1F
100
AcDbEntity
  8
0
  6
Continuous
 62
     7
370
    30
100
AcDbLine
 10
160.6965506395
 20
201.6492611672
 30
0.0
 11
160.8064752758
 21
201.6492611672
 31
0.0
  0
SPLINE
  5
136
330
1F
100
AcDbEntity
  8
0
  6
Continuous
 62
     7
370
    30
100
AcDbSpline
210
0.0
220
0.0
230
1.0
 70
    24
 71
     3
 72
    11
 73
     7
 74
     0
 42
0.00000001
 43
0.00000001
 40
0.0
 40
0.0
 40
0.0
 40
0.0
 40
0.2180720720434297
 40
0.4886192273248942
 40
0.7591663826063584
 40
1.0
 40
1.0
 40
1.0
 40
1.0
 10
214.0048140285868
 20
189.226259730179
 30
0.0
 10
214.1688408167524
 20
189.226259730179
 30
0.0
 10
214.536364460395
 20
189.226259730179
 30
0.0
 10
215.0199283414117
 20
189.226259730179
 30
0.0
 10
215.4540662097721
 20
189.226259730179
 30
0.0
 10
215.6634918121924
 20
189.226259730179
 30
0.0
 10
215.7621203256226
 20
189.226259730179
 30
0.0
  0
LINE
  5
137
330
1F
100
AcDbEntity
  8
0
  6
Continuous
 62
     7
370
    30
100
AcDbLine
 10
216.1959410952
 20
201.6492611672
 30
0.0
 11
216.0860164589
 21
201.6492611672
 31
0.0
  0
SPLINE
  5
138
330
1F
100
AcDbEntity
  8
0
  6
Continuous
 62
     7
370
    30
100
AcDbSpline
210
0.0
220
0.0
230
1.0
 70
     8
 71
     3
 72
    21
 73
    17
 74
     0
 42
0.00000001
 43
0.00000001
 40
0.0
 40
0.0
 40
0.0
 40
0.0
 40
0.0825971938661318
 40
0.1652167762181601
 40
0.2478341654979456
 40
0.3098144422393088
 40
0.3718035226230886
 40
0.4337757723437349
 40
0.4957330937861215
 40
0.5587531352658718
 40
0.6217897576943345
 40
0.6848446849293993
 40
0.7478896927561783
 40
0.8319331069759086
 40
0.9159783618507558
 40
1.0
 40
1.0
 40
1.0
 40
1.0
 10
211.130494423467
 20
179.6492813673344
 30
0.0
 10
209.8799258043572
 20
179.6631131021094
 30
0.0
 10
207.3784495916934
 20
179.6907803208377
 30
0.0
 10
203.6298158946213
 20
179.8708299732789
 30
0.0
 10
200.1968222444071
 20
180.0919103513913
 30
0.0
 10
197.0766874619367
 20
180.3108147935161
 30
0.0
 10
194.2666884008601
 20
180.4832238628344
 30
0.0
 10
191.4544754589726
 20
180.6095614118845
 30
0.0
 10
188.6240474881019
 20
180.6642968171353
 30
0.0
 10
185.7772876542891
 20
180.6197010392573
 30
0.0
 10
182.9164529634966
 20
180.4980931844401
 30
0.0
 10
180.0579129221358
 20
180.3267672869975
 30
0.0
 10
176.8839834095816
 20
180.1051676882449
 30
0.0
 10
173.3919463657641
 20
179.8784863224469
 30
0.0
 10
169.5787603427978
 20
179.6924391660528
 30
0.0
 10
167.0341324648894
 20
179.6636659947093
 30
0.0
 10
165.7619973112309
 20
179.6492814306377
 30
0.0
  0
ARC
  5
139
330
1F
100
AcDbEntity
  8
0
  6
Continuous
 62
     7
370
    30
100
AcDbCircle
 10
158.7865698461
 20
264.6492809839
 30
0.0
 40
1.500000000000002
100
AcDbArc
 50
90.0
 51
183.2
  0
LINE
  5
13A
330
1F
100
AcDbEntity
  8
0
  6
Continuous
 62
     7
370
    30
100
AcDbLine
 10
158.7865698461
 20
266.1492809839
 30
0.0
 11
160.5596601299
 21
266.1492809839
 31
0.0
  0
ARC
  5
13B
330
1F
100
AcDbEntity
  8
0
  6
Continuous
 62
     7
370
    30
100
AcDbCircle
 10
160.5596601299
 20
264.6492809839
 30
0.0
 40
1.500000000000002
100
AcDbArc
 50
4.5
 51
90.0
  0
LINE
  5
13C
330
1F
100
AcDbEntity
  8
0
  6
Continuous
 62
     7
370
    30
100
AcDbLine
 10
162.0550361305
 20
264.7669696275
 30
0.0
 11
167.5711162404
 21
194.6785264095
 31
0.0
  0
ARC
  5
13D
330
1F
100
AcDbEntity
  8
0
  6
Continuous
 62
     7
370
    30
100
AcDbCircle
 10
173.5526202428
 20
195.1492809839
 30
0.0
 40
6.0
100
AcDbArc
 50
184.5
 51
270.0
  0
LINE
  5
13E
330
1F
100
AcDbEntity
  8
0
  6
Continuous
 62
     7
370
    30
100
AcDbLine
 10
173.5526202428
 20
189.1492809839
 30
0.0
 11
203.3398714919
 21
189.1492809839
 31
0.0
  0
ARC
  5
13F
330
1F
100
AcDbEntity
  8
0
  6
Continuous
 62
     7
370
    30
100
AcDbCircle
 10
203.3398714919
 20
195.1492809839
 30
0.0
 40
6.0
100
AcDbArc
 50
270.0
 51
355.5
  0
LINE
  5
140
330
1F
100
AcDbEntity
  8
0
  6
Continuous
 62
     7
370
    30
100
AcDbLine
 10
209.3213754943
 20
194.6785264095
 30
0.0
 11
214.8374556042
 21
264.7669696275
 31
0.0
  0
ARC
  5
141
330
1F
100
AcDbEntity
  8
0
  6
Continuous
 62
     7
370
    30
100
AcDbCircle
 10
216.3328316048
 20
264.6492809839
 30
0.0
 40
1.500000000000002
100
AcDbArc
 50
90.0
 51
175.5
  0
LINE
  5
142
330
1F
100
AcDbEntity
  8
0
  6
Continuous
 62
     7
370
    30
100
AcDbLine
 10
216.3328316048
 20
266.1492809839
 30
0.0
 11
218.1059218886
 21
266.1492809839
 31
0.0
  0
ARC
  5
143
330
1F
100
AcDbEntity
  8
0
  6
Continuous
 62
     7
370
    30
100
AcDbCircle
 10
218.1059218886
 20
264.6492809839
 30
0.0
 40
1.500000000000002
100
AcDbArc
 50
356.8
 51
90.0
  0
LINE
  5
144
330
1F
100
AcDbEntity
  8
0
  6
Continuous
 62
     7
370
    30
100
AcDbLine
 10
219.6035830349
 20
264.5655487264
 30
0.0
 11
215.9888781873
 21
199.9118158902
 31
0.0
  0
ARC
  5
145
330
1F
100
AcDbEntity
  8
0
  6
Continuous
 62
     7
370
    30
100
AcDbCircle
 10
213.9919966589
 20
200.0234589002
 30
0.0
 40
2.000000000000022
100
AcDbArc
 50
315.0
 51
356.8
  0
LINE
  5
146
330
1F
100
AcDbEntity
  8
0
  6
Continuous
 62
     7
370
    30
100
AcDbLine
 10
214.9891115918
 20
198.1921467084
 30
0.0
 11
215.4062102213
 21
198.6092453378
 31
0.0
  0
ARC
  5
147
330
1F
100
AcDbEntity
  8
0
  6
Continuous
 62
     7
370
    30
100
AcDbCircle
 10
216.4033251542
 20
196.777933146
 30
0.0
 40
1.999999999999996
100
AcDbArc
 50
135.0
 51
177.0
  0
LINE
  5
148
330
1F
100
AcDbEntity
  8
0
  6
Continuous
 62
     7
370
    30
100
AcDbLine
 10
213.6270682604
 20
182.0184410933
 30
0.0
 11
214.4060660847
 21
196.8826050585
 31
0.0
  0
ARC
  5
149
330
1F
100
AcDbEntity
  8
0
  6
Continuous
 62
     7
370
    30
100
AcDbCircle
 10
211.1304944235
 20
182.1492809839
 30
0.0
 40
2.5
100
AcDbArc
 50
270.0
 51
357.0
  0
ARC
  5
14A
330
1F
100
AcDbEntity
  8
0
  6
Continuous
 62
     7
370
    30
100
AcDbCircle
 10
165.7619973112
 20
182.1492809839
 30
0.0
 40
2.5
100
AcDbArc
 50
183.0
 51
270.0
  0
LINE
  5
14B
330
1F
100
AcDbEntity
  8
0
  6
Continuous
 62
     7
370
    30
100
AcDbLine
 10
162.48642565
 20
196.8826050585
 30
0.0
 11
163.2654234743
 21
182.0184410933
 31
0.0
  0
ARC
  5
14C
330
1F
100
AcDbEntity
  8
0
  6
Continuous
 62
     7
370
    30
100
AcDbCircle
 10
160.4891665805
 20
196.777933146
 30
0.0
 40
2.000000000000077
100
AcDbArc
 50
3.0
 51
45.0
  0
LINE
  5
14D
330
1F
100
AcDbEntity
  8
0
  6
Continuous
 62
     7
370
    30
100
AcDbLine
 10
161.4862815134
 20
198.6092453378
 30
0.0
 11
161.9033801429
 21
198.1921467084
 31
0.0
  0
ARC
  5
14E
330
1F
100
AcDbEntity
  8
0
  6
Continuous
 62
     7
370
    30
100
AcDbCircle
 10
162.9004950758
 20
200.0234589002
 30
0.0
 40
1.999999999999976
100
AcDbArc
 50
183.2
 51
225.0
  0
LINE
  5
14F
330
1F
100
AcDbEntity
  8
0
  6
Continuous
 62
     7
370
    30
100
AcDbLine
 10
160.9036135474
 20
199.9118158902
 30
0.0
 11
157.2889086998
 21
264.5655487264
 31
0.0
  0
LWPOLYLINE
  5
150
330
1F
100
AcDbEntity
  8
0
  6
Continuous
 62
     7
370
    30
100
AcDbPolyline
 90
        2
 70
   128
 43
0.0
 10
161.4862815134
 20
198.6092453378
 10
161.4862815134
 20
198.6092453378
  0
LWPOLYLINE
  5
151
330
1F
100
AcDbEntity
  8
0
  6
Continuous
 62
     7
370
    30
100
AcDbPolyline
 90
        2
 70
   128
 43
0.0
 10
215.4062102213
 20
198.6092453378
 10
215.4062102213
 20
198.6092453378
  0
LINE
  5
152
330
1F
100
AcDbEntity
  8
0
  6
Continuous
 62
     7
370
    30
100
AcDbLine
 10
160.5596601299
 20
266.1492809839
 30
0.0
 11
166.5411641323
 21
266.1492809839
 31
0.0
  0
LINE
  5
153
330
1F
100
AcDbEntity
  8
0
  6
Continuous
 62
     7
370
    30
100
AcDbLine
 10
210.3513276024
 20
266.1492809839
 30
0.0
 11
216.3328316048
 21
266.1492809839
 31
0.0
  0
LINE
  5
154
330
1F
100
AcDbEntity
  8
0
  6
Continuous
 62
     7
370
    30
100
AcDbLine
 10
166.5411641323
 20
266.1492809839
 30
0.0
 11
210.3513276024
 21
266.1492809839
 31
0.0
  0
LINE
  5
155
330
1F
100
AcDbEntity
  8
0
  6
Continuous
 62
     8
370
     0
100
AcDbLine
 10
160.902998191
 20
188.5739497066
 30
0.0
 11
160.4460935741
 21
201.6579860413
 31
0.0
  0
LINE
  5
156
330
1F
100
AcDbEntity
  8
0
  6
Continuous
 62
     8
370
     0
100
AcDbLine
 10
216.4463981606
 20
201.6579860413
 30
0.0
 11
215.9894935437
 21
188.5739497066
 31
0.0
  0
LINE
  5
157
330
1F
100
AcDbEntity
  8
0
  6
Continuous
 62
     8
370
     0
100
AcDbLine
 10
167.9462458673
 20
179.6492611672
 30
0.0
 11
167.9462458673
 21
178.6492611672
 31
0.0
  0
LINE
  5
158
330
1F
100
AcDbEntity
  8
0
  6
Continuous
 62
     8
370
     0
100
AcDbLine
 10
208.9462458673
 20
179.6492611672
 30
0.0
 11
208.9462458673
 21
178.6492611672
 31
0.0
  0
LINE
  5
159
330
1F
100
AcDbEntity
  8
0
  6
Continuous
 62
     8
370
     0
100
AcDbLine
 10
162.9321220236
 20
188.378211634
 30
0.0
 11
161.1599859012
 21
188.378211634
 31
0.0
  0
LINE
  5
15A
330
1F
100
AcDbEntity
  8
0
  6
Continuous
 62
     8
370
     0
100
AcDbLine
 10
215.7325058335
 20
188.378211634
 30
0.0
 11
213.9603697111
 21
188.378211634
 31
0.0
  0
LINE
  5
15B
330
1F
100
AcDbEntity
  8
0
  6
Continuous
 62
     8
370
     0
100
AcDbLine
 10
162.9371503148
 20
188.2822661221
 30
0.0
 11
161.3404331647
 21
188.2822661221
 31
0.0
  0
LINE
  5
15C
330
1F
100
AcDbEntity
  8
0
  6
Continuous
 62
     8
370
     0
100
AcDbLine
 10
162.9948535179
 20
187.1812234161
 30
0.0
 11
162.0554586584
 21
187.1812234161
 31
0.0
  0
LINE
  5
15D
330
1F
100
AcDbEntity
  8
0
  6
Continuous
 62
     8
370
     0
100
AcDbLine
 10
163.659046791
 20
180.797393744
 30
0.0
 11
162.5018595154
 21
180.797393744
 31
0.0
  0
LINE
  5
15E
330
1F
100
AcDbEntity
  8
0
  6
Continuous
 62
     8
370
     0
100
AcDbLine
 10
164.7328068143
 20
179.8709555197
 30
0.0
 11
163.4122678229
 21
179.8709555197
 31
0.0
  0
LINE
  5
15F
330
1F
100
AcDbEntity
  8
0
  6
Continuous
 62
     8
370
     0
100
AcDbLine
 10
213.4802239118
 20
179.8709555197
 30
0.0
 11
212.1596849204
 21
179.8709555197
 31
0.0
  0
LINE
  5
160
330
1F
100
AcDbEntity
  8
0
  6
Continuous
 62
     8
370
     0
100
AcDbLine
 10
214.3906322193
 20
180.797393744
 30
0.0
 11
213.2334449437
 21
180.797393744
 31
0.0
  0
LINE
  5
161
330
1F
100
AcDbEntity
  8
0
  6
Continuous
 62
     8
370
     0
100
AcDbLine
 10
214.8370330763
 20
187.1812234161
 30
0.0
 11
213.8976382168
 21
187.1812234161
 31
0.0
  0
LINE
  5
162
330
1F
100
AcDbEntity
  8
0
  6
Continuous
 62
     8
370
     0
100
AcDbLine
 10
215.55205857
 20
188.2822661221
 30
0.0
 11
213.9553414199
 21
188.2822661221
 31
0.0
  0
LWPOLYLINE
  5
163
330
1F
100
AcDbEntity
  8
0
  6
Continuous
 62
     8
370
     0
100
AcDbPolyline
 90
        2
 70
   128
 43
0.0
 10
214.9891115918
 20
198.1921467084
 10
214.9891115918
 20
198.1921467084
  0
ELLIPSE
  5
164
330
1F
100
AcDbEntity
  8
0
  6
Continuous
 62
     8
370
     0
100
AcDbEllipse
 10
173.5526202428
 20
195.1492809839
 30
0.0
 11
0.0
 21
6.0
 31
0.0
210
0.0
220
0.0
230
1.0
 40
0.25
 41
1.649336143134637
 42
3.141592653589793
  0
ARC
  5
165
330
1F
100
AcDbEntity
  8
0
  6
Continuous
 62
     8
370
     0
100
AcDbCircle
 10
169.8141802413
 20
209.0755623097
 30
0.0
 40
14.57072334590581
100
AcDbArc
 50
261.1444886428
 51
278.8555113572
  0
LINE
  5
166
330
1F
100
AcDbEntity
  8
0
  6
Continuous
 62
     8
370
     0
100
AcDbLine
 10
172.0572442422
 20
194.6785264095
 30
0.0
 11
204.8352474925
 21
194.6785264095
 31
0.0
  0
ELLIPSE
  5
167
330
1F
100
AcDbEntity
  8
0
  6
Continuous
 62
     8
370
     0
100
AcDbEllipse
 10
203.3398714919
 20
195.1492809839
 30
0.0
 11
0.0
 21
6.0
 31
0.0
210
0.0
220
0.0
230
1.0
 40
0.25
 41
3.141592653589793
 42
4.633849164044951
  0
ARC
  5
168
330
1F
100
AcDbEntity
  8
0
  6
Continuous
 62
     8
370
     0
100
AcDbCircle
 10
207.0783114934
 20
209.0755623097
 30
0.0
 40
14.57072334590581
100
AcDbArc
 50
261.1444886428
 51
278.8555113572
  0
ELLIPSE
  5
169
330
1F
100
AcDbEntity
  8
0
  6
Continuous
 62
     8
370
     0
100
AcDbEllipse
 10
166.5782133208
 20
264.6492809839
 30
0.0
 11
4.523185533908048
 21
-0.1180049533385272
 31
0.0
210
0.0
220
0.0
230
0.9999999999999999
 40
0.0257887415
 41
1.579660166866655
 42
3.144300625080146
  0
LINE
  5
16A
330
1F
100
AcDbEntity
  8
0
  6
Continuous
 62
     8
370
     0
100
AcDbLine
 10
166.5411641323
 20
264.7669696275
 30
0.0
 11
172.0572442422
 21
194.6785264095
 31
0.0
  0
LINE
  5
16B
330
1F
100
AcDbEntity
  8
0
  6
Continuous
 62
     8
370
     0
100
AcDbLine
 10
204.8352474925
 20
194.6785264095
 30
0.0
 11
210.3513276024
 21
264.7669696275
 31
0.0
  0
ELLIPSE
  5
16C
330
1F
100
AcDbEntity
  8
0
  6
Continuous
 62
     8
370
     0
100
AcDbEllipse
 10
210.3142784139
 20
264.6492809839
 30
0.0
 11
4.523185533908048
 21
0.1180049533385272
 31
0.0
210
0.0
220
0.0
230
0.9999999999999999
 40
0.0257887415
 41
6.280477335690304
 42
7.845117793902725
  0
LINE
  5
16D
330
1F
100
AcDbEntity
  8
0
  6
Continuous
 62
     8
370
     0
100
AcDbLine
 10
210.3513276024
 20
264.7669696275
 30
0.0
 11
166.5411641323
 21
264.7669696275
 31
0.0
  0
LINE
  5
16E
330
1F
100
AcDbEntity
  8
0
  6
Continuous
 62
     8
370
     0
100
AcDbLine
 10
166.5411641323
 20
266.1492809839
 30
0.0
 11
166.5411641323
 21
264.7669696275
 31
0.0
  0
LINE
  5
16F
330
1F
100
AcDbEntity
  8
0
  6
Continuous
 62
     8
370
     0
100
AcDbLine
 10
210.3513276024
 20
266.1492809839
 30
0.0
 11
210.3513276024
 21
264.7669696275
 31
0.0
  0
HATCH
  5
170
330
1F
100
AcDbEntity
  8
0
  6
Continuous
 62
     7
370
     0
100
AcDbHatch
 10
0.0
 20
0.0
 30
0.0
210
0.0
220
0.0
230
1.0
  2
ANSI35
 70
     0
 71
     0
 91
        1
 92
        0
 93
       24
 72
     1
 10
157.2889086998161
 20
264.565548726427
 11
160.9036135474283
 21
199.9118158902333
 72
     2
 10
162.9004950757923
 20
200.0234589002196
 40
2.0
 50
183.2000000000007
 51
225.0000000000002
 73
     1
 72
     4
 94
        3
 73
     1
 74
     0
 95
        8
 96
        4
 40
0.0000037085014089
 40
0.0000037085014089
 40
0.0000037085014089
 40
0.0000037085014089
 40
0.0005935750400603
 40
0.0005935750400603
 40
0.0005935750400603
 40
0.0005935750400603
 10
161.4862815134192
 20
198.6092453378465
 42
1.0
 10
161.625314389911
 20
198.4702124613547
 42
1.0
 10
161.7643472664028
 20
198.3311795848629
 42
1.0
 10
161.9033801428946
 20
198.1921467083711
 42
1.0
 72
     2
 10
160.4891665805215
 20
196.777933145998
 40
2.0
 50
315.0000000000031
 51
357.0000000000019
 73
     0
 72
     1
 10
162.4864256500307
 20
196.8826050584839
 11
163.2654234743445
 21
182.0184410933094
 72
     2
 10
165.7619973112309
 20
182.1492809839168
 40
2.5
 50
183.0000000000012
 51
270.0000000000008
 73
     1
 72
     4
 94
        3
 73
     1
 74
     0
 95
       11
 96
        7
 40
0.0095916509909476
 40
0.0095916509909476
 40
0.0095916509909476
 40
0.0095916509909476
 40
0.0324863685585513
 40
0.0324863685585513
 40
0.0324863685585513
 40
0.0549906990586604
 40
0.0549906990586604
 40
0.0549906990586604
 40
0.0549906990586604
 10
165.7619973112309
 20
179.6492814306377
 42
1.0
 10
173.3952898787768
 20
179.6528335884277
 42
1.0
 10
181.0068245337335
 20
180.6634723598588
 42
1.0
 10
188.6401016480492
 20
180.6477073466881
 42
1.0
 10
196.1442668606112
 20
180.6322089884286
 42
1.0
 10
203.6263140114776
 20
179.6527571189157
 42
1.0
 10
211.130494423467
 20
179.6492813673344
 42
1.0
 72
     2
 10
211.130494423467
 20
182.1492809839168
 40
2.5
 50
270.0000000000008
 51
356.9999999999998
 73
     1
 72
     1
 10
213.6270682603535
 20
182.0184410933094
 11
214.4060660846673
 21
196.8826050584839
 72
     2
 10
216.4033251541764
 20
196.777933145998
 40
2.0
 50
183.0000000000007
 51
225.0000000000002
 73
     0
 72
     4
 94
        3
 73
     1
 74
     0
 95
        8
 96
        4
 40
0.0000317024028786
 40
0.0000317024028786
 40
0.0000317024028786
 40
0.0000317024028786
 40
0.0006215689415299
 40
0.0006215689415299
 40
0.0006215689415299
 40
0.0006215689415299
 10
214.9891115918033
 20
198.1921467083711
 42
1.0
 10
215.1281444682951
 20
198.3311795848629
 42
1.0
 10
215.2671773447869
 20
198.4702124613547
 42
1.0
 10
215.4062102212787
 20
198.6092453378465
 42
1.0
 72
     2
 10
213.9919966589056
 20
200.0234589002196
 40
2.0
 50
315.0000000000014
 51
356.8000000000018
 73
     1
 72
     1
 10
215.9888781872696
 20
199.9118158902333
 11
219.6035830348818
 21
264.565548726427
 72
     2
 10
218.1059218886088
 20
264.6492809839168
 40
1.5
 50
356.800000000002
 51
450.0000000000008
 73
     1
 72
     1
 10
218.1059218886088
 20
266.1492809839168
 11
216.3328316048363
 21
266.1492809839168
 72
     2
 10
216.3328316048363
 20
264.6492809839168
 40
1.5
 50
90.0
 51
175.4999999999986
 73
     1
 72
     1
 10
214.8374556042366
 20
264.7669696275086
 11
209.3213754943029
 21
194.6785264095497
 72
     2
 10
203.3398714919041
 20
195.1492809839168
 40
6.0
 50
4.499999999999809
 51
90.0
 73
     0
 72
     1
 10
203.3398714919041
 20
189.1492809839168
 11
173.5526202427938
 21
189.1492809839168
 72
     2
 10
173.5526202427938
 20
195.1492809839168
 40
6.0
 50
90.0
 51
175.5000000000002
 73
     0
 72
     1
 10
167.5711162403951
 20
194.6785264095497
 11
162.0550361304613
 21
264.7669696275086
 72
     2
 10
160.5596601298616
 20
264.6492809839168
 40
1.5
 50
4.500000000001433
 51
90.0
 73
     1
 72
     1
 10
160.5596601298616
 20
266.1492809839168
 11
158.786569846089
 21
266.1492809839168
 72
     2
 10
158.786569846089
 20
264.6492809839168
 40
1.5
 50
90.0
 51
183.1999999999996
 73
     1
 97
        0
 75
     0
 76
     1
 52
0.0
 41
1.0
 77
     0
 78
     2
 53
45.0
 43
0.0
 44
0.0
 45
-4.490128060534576
 46
4.490128060534577
 79
     0
 53
45.0
 43
4.49013
 44
0.0
 45
-4.490128060534576
 46
4.490128060534577
 79
     4
 49
7.9375
 49
-1.5875
 49
0.0
 49
-1.5875
 98
        1
 10
0.0
 20
0.0
  0
HATCH
  5
171
330
1F
100
AcDbEntity
  8
0
  6
Continuous
 62
     7
370
     0
100
AcDbHatch
 10
0.0
 20
0.0
 30
0.0
210
0.0
220
0.0
230
1.0
  2
NET
 70
     0
 71
     0
 91
        1
 92
        0
 93
       15
 72
     2
 10
161.629457463945
 20
189.2611592268815
 40
1.0
 50
117.9999999999997
 51
178.0000000000012
 73
     0
 72
     1
 10
160.6300666369259
 20
189.226259730179
 11
160.1962458673489
 21
201.6492611671738
 72
     1
 10
160.1962458673489
 20
201.6492611671738
 11
158.5466029362251
 21
201.6492611671738
 72
     1
 10
158.5466029362251
 20
201.6492611671738
 11
158.4636992706318
 21
182.6492611671739
 72
     1
 10
158.4636992706318
 20
182.6492611671739
 11
155.4462458673489
 21
182.6492611671739
 72
     1
 10
155.4462458673489
 20
182.6492611671739
 11
154.9462458673489
 21
182.3605860325791
 72
     1
 10
154.9462458673489
 20
182.3605860325791
 11
154.9462458673489
 21
178.6492611671739
 72
     1
 10
154.9462458673489
 20
178.6492611671739
 11
166.9462458673489
 21
178.6492611671739
 72
     1
 10
166.9462458673489
 20
178.6492611671739
 11
166.9462458673489
 21
179.6492611671739
 72
     1
 10
166.9462458673489
 20
179.6492611671739
 11
165.9462458673489
 21
179.6492611671739
 72
     1
 10
165.9462458673489
 20
179.6492611671739
 11
163.4122678229115
 21
179.8709555196857
 72
     2
 10
163.4994235656592
 20
180.8671502177774
 40
0.9999999999999987
 50
94.9999999999999
 51
176.0000000000019
 73
     0
 72
     1
 10
162.5018595153993
 20
180.7973937440333
 11
162.0554586584442
 21
187.1812234160598
 72
     2
 10
160.7047791004744
 20
187.0867747006137
 40
1.353977779790654
 50
3.999999999999262
 51
62.00000000000174
 73
     1
 72
     1
 10
161.3404331647301
 20
188.2822661220644
 11
161.1599859011591
 21
188.3782116340225
 97
        0
 75
     0
 76
     1
 52
134.999991007
 41
1.0
 77
     0
 78
     2
 53
134.9999910069555
 43
0.0
 44
0.0
 45
-2.24506438264855
 46
-2.245063677885971
 79
     0
 53
224.9999910069555
 43
0.0
 44
0.0
 45
2.245063677885971
 46
-2.24506438264855
 79
     0
 98
        1
 10
0.0
 20
0.0
  0
HATCH
  5
172
330
1F
100
AcDbEntity
  8
0
  6
Continuous
 62
     7
370
     0
100
AcDbHatch
 10
0.0
 20
0.0
 30
0.0
210
0.0
220
0.0
230
1.0
  2
NET
 70
     0
 71
     0
 91
        1
 92
        0
 93
       15
 72
     2
 10
215.2630342707529
 20
189.2611592268815
 40
1.0
 50
2.000000000000357
 51
61.99999999999888
 73
     0
 72
     1
 10
215.7325058335388
 20
188.3782116340226
 11
215.5520585699678
 21
188.2822661220644
 72
     2
 10
216.1877126342235
 20
187.0867747006137
 40
1.353977779790654
 50
118.0000000000004
 51
176.0000000000008
 73
     1
 72
     1
 10
214.8370330762537
 20
187.1812234160598
 11
214.3906322192985
 21
180.7973937440333
 72
     2
 10
213.3930681690387
 20
180.8671502177775
 40
0.9999999999999987
 50
3.999999999999875
 51
85.00000000000026
 73
     0
 72
     1
 10
213.4802239117864
 20
179.8709555196857
 11
210.9462458673489
 21
179.6492611671739
 72
     1
 10
210.9462458673489
 20
179.6492611671739
 11
209.9462458673489
 21
179.6492611671739
 72
     1
 10
209.9462458673489
 20
179.6492611671739
 11
209.9462458673489
 21
178.6492611671739
 72
     1
 10
209.9462458673489
 20
178.6492611671739
 11
219.4462458673489
 21
178.6492611671739
 72
     1
 10
219.4462458673489
 20
178.6492611671739
 11
219.4462458673489
 21
182.3605860325791
 72
     1
 10
219.4462458673489
 20
182.3605860325791
 11
218.9462458673489
 21
182.6492611671739
 72
     1
 10
218.9462458673489
 20
182.6492611671739
 11
218.4287924640661
 21
182.6492611671739
 72
     1
 10
218.4287924640661
 20
182.6492611671739
 11
218.3458887984728
 21
201.6492611671738
 72
     1
 10
218.3458887984728
 20
201.6492611671738
 11
216.6962458673489
 21
201.6492611671738
 72
     1
 10
216.6962458673489
 20
201.6492611671738
 11
216.262425097772
 21
189.226259730179
 97
        0
 75
     0
 76
     1
 52
134.999991007
 41
1.0
 77
     0
 78
     2
 53
134.9999910069555
 43
0.0
 44
0.0
 45
-2.24506438264855
 46
-2.245063677885971
 79
     0
 53
224.9999910069555
 43
0.0
 44
0.0
 45
2.245063677885971
 46
-2.24506438264855
 79
     0
 98
        1
 10
0.0
 20
0.0
  0
HATCH
  5
173
330
1F
100
AcDbEntity
  8
0
  6
Continuous
 62
     7
370
     0
100
AcDbHatch
 10
0.0
 20
0.0
 30
0.0
210
0.0
220
0.0
230
1.0
  2
ANSI31
 70
     0
 71
     0
 91
        1
 92
        0
 93
        6
 72
     1
 10
153.4462458673489
 20
201.6492611671738
 11
153.4462458673489
 21
179.6492611671738
 72
     1
 10
153.4462458673489
 20
179.6492611671738
 11
154.9462458673489
 21
179.6492611671738
 72
     1
 10
154.9462458673489
 20
179.6492611671738
 11
154.9462458673489
 21
182.6492611671738
 72
     1
 10
154.9462458673489
 20
182.6492611671738
 11
158.4593359198111
 21
182.6492611671738
 72
     1
 10
158.4593359198111
 20
182.6492611671738
 11
158.5422395854044
 21
201.6492611671738
 72
     1
 10
158.5422395854044
 20
201.6492611671738
 11
153.4462458673489
 21
201.6492611671738
 97
        0
 75
     0
 76
     1
 52
0.0
 41
1.0
 77
     0
 78
     1
 53
45.0
 43
0.0
 44
0.0
 45
-2.245064030267288
 46
2.245064030267288
 79
     0
 98
        1
 10
0.0
 20
0.0
  0
HATCH
  5
174
330
1F
100
AcDbEntity
  8
0
  6
Continuous
 62
     7
370
     0
100
AcDbHatch
 10
0.0
 20
0.0
 30
0.0
210
0.0
220
0.0
230
1.0
  2
ANSI31
 70
     0
 71
     0
 91
        1
 92
        0
 93
        6
 72
     1
 10
220.9462458673489
 20
179.6492611671738
 11
220.9462458673489
 21
201.6492611671738
 72
     1
 10
220.9462458673489
 20
201.6492611671738
 11
218.3502521492935
 21
201.6492611671738
 72
     1
 10
218.3502521492935
 20
201.6492611671738
 11
218.4331558148869
 21
182.6492611671738
 72
     1
 10
218.4331558148869
 20
182.6492611671738
 11
219.4462458673489
 21
182.6492611671738
 72
     1
 10
219.4462458673489
 20
182.6492611671738
 11
219.4462458673489
 21
179.6492611671738
 72
     1
 10
219.4462458673489
 20
179.6492611671738
 11
220.9462458673489
 21
179.6492611671738
 97
        0
 75
     0
 76
     1
 52
0.0
 41
1.0
 77
     0
 78
     1
 53
45.0
 43
0.0
 44
0.0
 45
-2.245064030267288
 46
2.245064030267288
 79
     0
 98
        1
 10
0.0
 20
0.0
  0
MTEXT
  5
175
330
1F
100
AcDbEntity
  8
0
  6
Continuous
 62
     7
370
     0
100
AcDbMText
 10
189.5081690583
 20
282.8500645217
 30
0.0
 40
5.0
 41
0.0
 71
     2
 72
     1
  1
A-A
  7
SLDTEXTSTYLE0
 73
     1
 44
1.0
  0
LINE
  5
176
330
1F
100
AcDbEntity
  8
0
  6
CENTERX2
 62
     7
370
     0
100
AcDbLine
 10
188.4462458673
 20
267.0969450277
 30
0.0
 11
188.4462458673
 21
173.9110552625
 31
0.0
  0
ENDSEC
  0
SECTION
  2
OBJECTS
  0
DICTIONARY
  5
C
330
0
100
AcDbDictionary
281
     1
  3
ACAD_GROUP
350
D
  3
ACAD_LAYOUT
350
1A
  3
ACAD_MLINESTYLE
350
17
  3
ACAD_PLOTSETTINGS
350
19
  3
ACAD_PLOTSTYLENAME
350
E
  0
DICTIONARY
  5
D
102
{ACAD_REACTORS
330
C
102
}
330
C
100
AcDbDictionary
281
     1
  0
DICTIONARY
  5
1A
102
{ACAD_REACTORS
330
C
102
}
330
C
100
AcDbDictionary
281
     1
  3
Layout1
350
1E
  3
Layout2
350
26
  3
Model
350
22
  0
DICTIONARY
  5
17
102
{ACAD_REACTORS
330
C
102
}
330
C
100
AcDbDictionary
281
     1
  3
Standard
350
18
  0
DICTIONARY
  5
19
102
{ACAD_REACTORS
330
C
102
}
330
C
100
AcDbDictionary
281
     1
  0
ACDBDICTIONARYWDFLT
  5
E
102
{ACAD_REACTORS
330
C
102
}
330
C
100
AcDbDictionary
281
     1
  3
Normal
350
F
100
AcDbDictionaryWithDefault
340
F
  0
LAYOUT
  5
1E
102
{ACAD_REACTORS
330
1A
102
}
330
1A
100
AcDbPlotSettings
  1

  2
none_device
  4

  6

 40
0.0
 41
0.0
 42
0.0
 43
0.0
 44
0.0
 45
0.0
 46
0.0
 47
0.0
 48
0.0
 49
0.0
140
0.0
141
0.0
142
1.0
143
1.0
 70
   688
 72
     0
 73
     0
 74
     5
  7

 75
    16
147
1.0
148
0.0
149
0.0
100
AcDbLayout
  1
Layout1
 70
     1
 71
     1
 10
0.0
 20
0.0
 11
420.0
 21
297.0
 12
0.0
 22
0.0
 32
0.0
 14
1.0000000000E+20
 24
1.0000000000E+20
 34
1.0000000000E+20
 15
-1.0000000000E+20
 25
-1.0000000000E+20
 35
-1.0000000000E+20
146
0.0
 13
0.0
 23
0.0
 33
0.0
 16
1.0
 26
0.0
 36
0.0
 17
0.0
 27
1.0
 37
0.0
 76
     0
330
1B
  0
LAYOUT
  5
26
102
{ACAD_REACTORS
330
1A
102
}
330
1A
100
AcDbPlotSettings
  1

  2
none_device
  4

  6

 40
0.0
 41
0.0
 42
0.0
 43
0.0
 44
0.0
 45
0.0
 46
0.0
 47
0.0
 48
0.0
 49
0.0
140
0.0
141
0.0
142
1.0
143
1.0
 70
   688
 72
     0
 73
     0
 74
     5
  7

 75
    16
147
1.0
148
0.0
149
0.0
100
AcDbLayout
  1
Layout2
 70
     1
 71
     2
 10
0.0
 20
0.0
 11
0.0
 21
0.0
 12
0.0
 22
0.0
 32
0.0
 14
0.0
 24
0.0
 34
0.0
 15
0.0
 25
0.0
 35
0.0
146
0.0
 13
0.0
 23
0.0
 33
0.0
 16
1.0
 26
0.0
 36
0.0
 17
0.0
 27
1.0
 37
0.0
 76
     0
330
23
  0
LAYOUT
  5
22
102
{ACAD_REACTORS
330
1A
102
}
330
1A
100
AcDbPlotSettings
  1

  2
none_device
  4

  6

 40
0.0
 41
0.0
 42
0.0
 43
0.0
 44
0.0
 45
0.0
 46
0.0
 47
0.0
 48
0.0
 49
0.0
140
0.0
141
0.0
142
1.0
143
1.0
 70
  1712
 72
     0
 73
     0
 74
     0
  7

 75
     0
147
1.0
148
0.0
149
0.0
100
AcDbLayout
  1
Model
 70
     1
 71
     0
 10
0.0
 20
0.0
 11
420.0
 21
297.0
 12
0.0
 22
0.0
 32
0.0
 14
0.0
 24
0.0
 34
0.0
 15
420.0
 25
297.0
 35
0.0
146
0.0
 13
0.0
 23
0.0
 33
0.0
 16
1.0
 26
0.0
 36
0.0
 17
0.0
 27
1.0
 37
0.0
 76
     0
330
1F
331
29
  0
MLINESTYLE
  5
18
102
{ACAD_REACTORS
330
17
102
}
330
17
100
AcDbMlineStyle
  2
Standard
 70
     0
  3

 62
   256
 51
90.0
 52
90.0
 71
     2
 49
0.5
 62
   256
  6
BYLAYER
 49
-0.5
 62
   256
  6
BYLAYER
  0
ACDBPLACEHOLDER
  5
F
102
{ACAD_REACTORS
330
E
102
}
330
E
  0
ENDSEC
  0
EOF
